osu file format v14

[General]
AudioFilename: Base After Base.mp3
AudioLeadIn: 0
PreviewTime: 33339
Countdown: 0
SampleSet: Soft
StackLeniency: 0.7
Mode: 3
LetterboxInBreaks: 0
SpecialStyle: 0
WidescreenStoryboard: 1

[Editor]
DistanceSpacing: 1
BeatDivisor: 4
GridSize: 4
TimelineZoom: 2.2

[Metadata]
Title:Simple PACK
TitleUnicode:Simple PACK
Artist:Various Artists
ArtistUnicode:Various Artists
Creator:frolica
Version:DJVI - Base After Base [8]
Source:
Tags:
BeatmapID:1054993
BeatmapSetID:472712

[Difficulty]
HPDrainRate:8
CircleSize:4
OverallDifficulty:8
ApproachRate:5
SliderMultiplier:1.4
SliderTickRate:1

[Events]
//Background and Video events
0,0,"BG7.jpg",0,0
//Break Periods
//Storyboard Layer 0 (Background)
//Storyboard Layer 1 (Fail)
//Storyboard Layer 2 (Pass)
//Storyboard Layer 3 (Foreground)
//Storyboard Sound Samples

[TimingPoints]
2701.14263954499,425.531914893617,4,2,0,0,1,0

[HitObjects]
64,192,2701,5,0,0:0:0:0:
320,192,2701,1,0,0:0:0:0:
192,192,2701,1,0,0:0:0:0:
448,192,2701,1,0,0:0:0:0:
448,192,3126,1,0,0:0:0:0:
64,192,3126,1,0,0:0:0:0:
192,192,3339,1,0,0:0:0:0:
320,192,3552,1,0,0:0:0:0:
64,192,3552,1,0,0:0:0:0:
320,192,3658,1,0,0:0:0:0:
448,192,3764,1,0,0:0:0:0:
64,192,3977,1,0,0:0:0:0:
320,192,3977,1,0,0:0:0:0:
192,192,4190,1,0,0:0:0:0:
64,192,4403,1,0,0:0:0:0:
448,192,4403,1,0,0:0:0:0:
192,192,4616,1,0,0:0:0:0:
192,192,4722,1,0,0:0:0:0:
192,192,4828,1,0,0:0:0:0:
448,192,4828,1,0,0:0:0:0:
320,192,5041,1,0,0:0:0:0:
64,192,5254,1,0,0:0:0:0:
320,192,5254,1,0,0:0:0:0:
192,192,5467,1,0,0:0:0:0:
448,192,5679,1,0,0:0:0:0:
192,192,5679,1,0,0:0:0:0:
320,192,5892,1,0,0:0:0:0:
64,192,6105,1,0,0:0:0:0:
448,192,6105,1,0,0:0:0:0:
192,192,6530,1,0,0:0:0:0:
448,192,6530,1,0,0:0:0:0:
320,192,6743,1,0,0:0:0:0:
64,192,6956,1,0,0:0:0:0:
448,192,6956,1,0,0:0:0:0:
64,192,7062,1,0,0:0:0:0:
192,192,7169,1,0,0:0:0:0:
448,192,7381,1,0,0:0:0:0:
320,192,7381,1,0,0:0:0:0:
192,192,7594,1,0,0:0:0:0:
448,192,7807,1,0,0:0:0:0:
64,192,7807,1,0,0:0:0:0:
320,192,8020,1,0,0:0:0:0:
320,192,8126,1,0,0:0:0:0:
320,192,8233,1,0,0:0:0:0:
64,192,8233,1,0,0:0:0:0:
192,192,8445,1,0,0:0:0:0:
64,192,8658,1,0,0:0:0:0:
448,192,8658,1,0,0:0:0:0:
448,192,8764,1,0,0:0:0:0:
320,192,8871,1,0,0:0:0:0:
64,192,9084,1,0,0:0:0:0:
320,192,9084,1,0,0:0:0:0:
448,192,9084,1,0,0:0:0:0:
192,192,9296,1,0,0:0:0:0:
64,192,9509,5,0,0:0:0:0:
192,192,9509,1,0,0:0:0:0:
448,192,9509,1,0,0:0:0:0:
64,192,9935,1,0,0:0:0:0:
320,192,9935,1,0,0:0:0:0:
320,192,10041,1,0,0:0:0:0:
448,192,10147,1,0,0:0:0:0:
320,192,10360,1,0,0:0:0:0:
64,192,10360,1,0,0:0:0:0:
192,192,10573,1,0,0:0:0:0:
448,192,10786,1,0,0:0:0:0:
64,192,10786,1,0,0:0:0:0:
320,192,10999,1,0,0:0:0:0:
448,192,11211,1,0,0:0:0:0:
64,192,11211,1,0,0:0:0:0:
320,192,11424,1,0,0:0:0:0:
320,192,11530,1,0,0:0:0:0:
320,192,11637,1,0,0:0:0:0:
64,192,11637,1,0,0:0:0:0:
192,192,11850,1,0,0:0:0:0:
448,192,12062,1,0,0:0:0:0:
192,192,12062,1,0,0:0:0:0:
320,192,12275,1,0,0:0:0:0:
64,192,12488,1,0,0:0:0:0:
320,192,12488,1,0,0:0:0:0:
192,192,12701,1,0,0:0:0:0:
448,192,12913,1,0,0:0:0:0:
64,192,12913,1,0,0:0:0:0:
320,192,13339,1,0,0:0:0:0:
64,192,13339,1,0,0:0:0:0:
192,192,13552,1,0,0:0:0:0:
448,192,13764,1,0,0:0:0:0:
64,192,13764,1,0,0:0:0:0:
448,192,13871,1,0,0:0:0:0:
320,192,13977,1,0,0:0:0:0:
64,192,14190,1,0,0:0:0:0:
192,192,14190,1,0,0:0:0:0:
320,192,14403,1,0,0:0:0:0:
64,192,14616,1,0,0:0:0:0:
448,192,14616,1,0,0:0:0:0:
192,192,14828,1,0,0:0:0:0:
192,192,14935,1,0,0:0:0:0:
192,192,15041,1,0,0:0:0:0:
448,192,15041,1,0,0:0:0:0:
320,192,15254,1,0,0:0:0:0:
448,192,15467,1,0,0:0:0:0:
64,192,15467,1,0,0:0:0:0:
64,192,15573,1,0,0:0:0:0:
192,192,15679,1,0,0:0:0:0:
448,192,15892,1,0,0:0:0:0:
320,192,15892,1,0,0:0:0:0:
192,192,16105,1,0,0:0:0:0:
448,192,16318,1,0,0:0:0:0:
64,192,16318,1,0,0:0:0:0:
192,192,16318,1,0,0:0:0:0:
448,192,16743,1,0,0:0:0:0:
64,192,16743,1,0,0:0:0:0:
320,192,16743,1,0,0:0:0:0:
320,192,16850,1,0,0:0:0:0:
192,192,16956,1,0,0:0:0:0:
192,192,17169,1,0,0:0:0:0:
448,192,17169,1,0,0:0:0:0:
64,192,17169,1,0,0:0:0:0:
192,192,17381,1,0,0:0:0:0:
320,192,17594,1,0,0:0:0:0:
448,192,17594,1,0,0:0:0:0:
64,192,17594,1,0,0:0:0:0:
448,192,17807,1,0,0:0:0:0:
64,192,18020,1,0,0:0:0:0:
192,192,18020,1,0,0:0:0:0:
320,192,18020,1,0,0:0:0:0:
192,192,18233,1,0,0:0:0:0:
192,192,18339,1,0,0:0:0:0:
320,192,18445,5,0,0:0:0:0:
448,192,18445,1,0,0:0:0:0:
64,192,18445,1,0,0:0:0:0:
192,192,18658,1,0,0:0:0:0:
320,192,18658,1,0,0:0:0:0:
64,192,18871,5,0,0:0:0:0:
192,192,18871,1,0,0:0:0:0:
320,192,18924,1,0,0:0:0:0:
448,192,18924,1,0,0:0:0:0:
192,192,18977,1,0,0:0:0:0:
64,192,18977,1,0,0:0:0:0:
320,192,19030,1,0,0:0:0:0:
448,192,19030,1,0,0:0:0:0:
64,192,19084,1,0,0:0:0:0:
192,192,19084,1,0,0:0:0:0:
448,192,19137,1,0,0:0:0:0:
320,192,19137,1,0,0:0:0:0:
192,192,19190,1,0,0:0:0:0:
64,192,19190,1,0,0:0:0:0:
448,192,19243,1,0,0:0:0:0:
320,192,19243,1,0,0:0:0:0:
64,192,19296,1,0,0:0:0:0:
192,192,19296,1,0,0:0:0:0:
192,192,19509,1,0,0:0:0:0:
320,192,19509,1,0,0:0:0:0:
320,192,19722,1,0,0:0:0:0:
448,192,19722,1,0,0:0:0:0:
64,192,19722,1,0,0:0:0:0:
64,192,20147,1,0,0:0:0:0:
192,192,20147,1,0,0:0:0:0:
448,192,20147,1,0,0:0:0:0:
192,192,20360,1,0,0:0:0:0:
320,192,20573,1,0,0:0:0:0:
448,192,20573,1,0,0:0:0:0:
64,192,20573,1,0,0:0:0:0:
64,192,20679,1,0,0:0:0:0:
192,192,20786,1,0,0:0:0:0:
64,192,20999,1,0,0:0:0:0:
320,192,20999,1,0,0:0:0:0:
448,192,20999,1,0,0:0:0:0:
192,192,21211,1,0,0:0:0:0:
320,192,21211,1,0,0:0:0:0:
64,192,21424,1,0,0:0:0:0:
192,192,21424,1,0,0:0:0:0:
448,192,21424,1,0,0:0:0:0:
320,192,21637,1,0,0:0:0:0:
320,192,21743,1,0,0:0:0:0:
320,192,21850,1,0,0:0:0:0:
64,192,21850,1,0,0:0:0:0:
448,192,21850,1,0,0:0:0:0:
192,192,22062,1,0,0:0:0:0:
64,192,22275,1,0,0:0:0:0:
320,192,22275,1,0,0:0:0:0:
448,192,22275,1,0,0:0:0:0:
448,192,22381,1,0,0:0:0:0:
320,192,22488,1,0,0:0:0:0:
64,192,22701,1,0,0:0:0:0:
192,192,22701,1,0,0:0:0:0:
448,192,22701,1,0,0:0:0:0:
64,192,22913,1,0,0:0:0:0:
192,192,22913,1,0,0:0:0:0:
320,192,22913,1,0,0:0:0:0:
192,192,23020,1,0,0:0:0:0:
320,192,23020,1,0,0:0:0:0:
64,192,23126,1,0,0:0:0:0:
192,192,23126,1,0,0:0:0:0:
448,192,23126,1,0,0:0:0:0:
448,192,23552,1,0,0:0:0:0:
64,192,23552,1,0,0:0:0:0:
320,192,23552,1,0,0:0:0:0:
320,192,23764,1,0,0:0:0:0:
448,192,23977,1,0,0:0:0:0:
64,192,23977,1,0,0:0:0:0:
192,192,23977,1,0,0:0:0:0:
192,192,24084,1,0,0:0:0:0:
320,192,24190,1,0,0:0:0:0:
448,192,24403,1,0,0:0:0:0:
64,192,24403,1,0,0:0:0:0:
192,192,24403,1,0,0:0:0:0:
64,192,24616,1,0,0:0:0:0:
192,192,24828,1,0,0:0:0:0:
320,192,24828,1,0,0:0:0:0:
448,192,24828,1,0,0:0:0:0:
320,192,25041,1,0,0:0:0:0:
320,192,25147,1,0,0:0:0:0:
192,192,25254,5,0,0:0:0:0:
448,192,25254,1,0,0:0:0:0:
64,192,25254,1,0,0:0:0:0:
192,192,25467,1,0,0:0:0:0:
320,192,25467,1,0,0:0:0:0:
448,192,25679,5,0,0:0:0:0:
320,192,25679,1,0,0:0:0:0:
64,192,25733,1,0,0:0:0:0:
192,192,25733,1,0,0:0:0:0:
448,192,25786,1,0,0:0:0:0:
320,192,25786,1,0,0:0:0:0:
64,192,25839,1,0,0:0:0:0:
192,192,25839,1,0,0:0:0:0:
320,192,25892,1,0,0:0:0:0:
448,192,25892,1,0,0:0:0:0:
192,192,25945,1,0,0:0:0:0:
64,192,25945,1,0,0:0:0:0:
448,192,25999,1,0,0:0:0:0:
320,192,25999,1,0,0:0:0:0:
192,192,26052,1,0,0:0:0:0:
64,192,26052,1,0,0:0:0:0:
320,192,26105,1,0,0:0:0:0:
448,192,26105,1,0,0:0:0:0:
192,192,26318,1,0,0:0:0:0:
320,192,26318,1,0,0:0:0:0:
448,192,26530,1,0,0:0:0:0:
64,192,26530,1,0,0:0:0:0:
192,192,26530,1,0,0:0:0:0:
64,192,26956,1,0,0:0:0:0:
320,192,26956,1,0,0:0:0:0:
448,192,26956,1,0,0:0:0:0:
320,192,27169,1,0,0:0:0:0:
448,192,27381,1,0,0:0:0:0:
64,192,27381,1,0,0:0:0:0:
192,192,27381,1,0,0:0:0:0:
448,192,27488,1,0,0:0:0:0:
320,192,27594,1,0,0:0:0:0:
64,192,27807,1,0,0:0:0:0:
192,192,27807,1,0,0:0:0:0:
448,192,27807,1,0,0:0:0:0:
192,192,28020,1,0,0:0:0:0:
320,192,28020,1,0,0:0:0:0:
64,192,28233,1,0,0:0:0:0:
320,192,28233,1,0,0:0:0:0:
448,192,28233,1,0,0:0:0:0:
192,192,28445,1,0,0:0:0:0:
192,192,28552,1,0,0:0:0:0:
64,192,28658,1,0,0:0:0:0:
448,192,28658,1,0,0:0:0:0:
192,192,28658,1,0,0:0:0:0:
320,192,28871,1,0,0:0:0:0:
64,192,29084,1,0,0:0:0:0:
192,192,29084,1,0,0:0:0:0:
448,192,29084,1,0,0:0:0:0:
448,192,29190,1,0,0:0:0:0:
192,192,29296,1,0,0:0:0:0:
64,192,29296,1,0,0:0:0:0:
320,192,29296,1,0,0:0:0:0:
192,192,29403,1,0,0:0:0:0:
64,192,29509,1,0,0:0:0:0:
320,192,29509,1,0,0:0:0:0:
448,192,29509,1,0,0:0:0:0:
320,192,29616,1,0,0:0:0:0:
448,192,29616,1,0,0:0:0:0:
448,192,29722,1,0,0:0:0:0:
192,192,29722,1,0,0:0:0:0:
64,192,29722,1,0,0:0:0:0:
64,192,29828,1,0,0:0:0:0:
192,192,29828,1,0,0:0:0:0:
64,192,29935,1,0,0:0:0:0:
320,192,29935,1,0,0:0:0:0:
448,192,29935,1,0,0:0:0:0:
192,192,30041,1,0,0:0:0:0:
448,192,30041,1,0,0:0:0:0:
448,192,30147,1,0,0:0:0:0:
320,192,30147,1,0,0:0:0:0:
64,192,30254,1,0,0:0:0:0:
192,192,30254,1,0,0:0:0:0:
64,192,30360,1,0,0:0:0:0:
320,192,30360,1,0,0:0:0:0:
448,192,30360,1,0,0:0:0:0:
448,192,30467,1,0,0:0:0:0:
192,192,30467,1,0,0:0:0:0:
64,192,30573,1,0,0:0:0:0:
192,192,30573,1,0,0:0:0:0:
320,192,30679,1,0,0:0:0:0:
448,192,30679,1,0,0:0:0:0:
64,192,30786,1,0,0:0:0:0:
192,192,30786,1,0,0:0:0:0:
448,192,30786,1,0,0:0:0:0:
192,192,30892,1,0,0:0:0:0:
320,192,30892,1,0,0:0:0:0:
448,192,30999,1,0,0:0:0:0:
320,192,30999,1,0,0:0:0:0:
192,192,30999,1,0,0:0:0:0:
64,192,31105,1,0,0:0:0:0:
192,192,31105,1,0,0:0:0:0:
320,192,31211,1,0,0:0:0:0:
448,192,31211,1,0,0:0:0:0:
64,192,31211,1,0,0:0:0:0:
320,192,31318,1,0,0:0:0:0:
192,192,31318,1,0,0:0:0:0:
64,192,31424,1,0,0:0:0:0:
192,192,31424,1,0,0:0:0:0:
320,192,31424,1,0,0:0:0:0:
320,192,31530,1,0,0:0:0:0:
448,192,31530,1,0,0:0:0:0:
64,192,31637,1,0,0:0:0:0:
320,192,31637,128,0,33233:0:0:0:0:
448,192,31637,1,0,0:0:0:0:
192,192,31637,128,0,33233:0:0:0:0:
64,192,33339,1,0,0:0:0:0:
192,192,33339,1,0,0:0:0:0:
320,192,33339,1,0,0:0:0:0:
448,192,33339,1,0,0:0:0:0:
192,192,33552,1,0,0:0:0:0:
448,192,33552,1,0,0:0:0:0:
64,192,33764,1,0,0:0:0:0:
320,192,33764,1,0,0:0:0:0:
448,192,33764,1,0,0:0:0:0:
320,192,33871,1,0,0:0:0:0:
448,192,33871,1,0,0:0:0:0:
64,192,33977,1,0,0:0:0:0:
192,192,33977,1,0,0:0:0:0:
192,192,34190,1,0,0:0:0:0:
320,192,34190,1,0,0:0:0:0:
448,192,34190,1,0,0:0:0:0:
64,192,34403,1,0,0:0:0:0:
320,192,34403,1,0,0:0:0:0:
64,192,34616,1,0,0:0:0:0:
192,192,34616,1,0,0:0:0:0:
448,192,34616,1,0,0:0:0:0:
320,192,34828,1,0,0:0:0:0:
192,192,34828,1,0,0:0:0:0:
192,192,35041,1,0,0:0:0:0:
320,192,35041,1,0,0:0:0:0:
448,192,35041,1,0,0:0:0:0:
64,192,35254,1,0,0:0:0:0:
192,192,35254,1,0,0:0:0:0:
64,192,35360,1,0,0:0:0:0:
192,192,35360,1,0,0:0:0:0:
320,192,35467,1,0,0:0:0:0:
448,192,35467,1,0,0:0:0:0:
64,192,35467,1,0,0:0:0:0:
192,192,35679,1,0,0:0:0:0:
320,192,35679,1,0,0:0:0:0:
64,192,35892,1,0,0:0:0:0:
192,192,35892,1,0,0:0:0:0:
448,192,35892,1,0,0:0:0:0:
64,192,36105,1,0,0:0:0:0:
320,192,36105,1,0,0:0:0:0:
64,192,36318,1,0,0:0:0:0:
320,192,36318,1,0,0:0:0:0:
448,192,36318,1,0,0:0:0:0:
192,192,36530,1,0,0:0:0:0:
448,192,36530,1,0,0:0:0:0:
64,192,36743,1,0,0:0:0:0:
192,192,36743,1,0,0:0:0:0:
320,192,36743,1,0,0:0:0:0:
320,192,36956,1,0,0:0:0:0:
64,192,37169,1,0,0:0:0:0:
192,192,37169,1,0,0:0:0:0:
448,192,37169,1,0,0:0:0:0:
64,192,37381,1,0,0:0:0:0:
320,192,37381,1,0,0:0:0:0:
192,192,37594,1,0,0:0:0:0:
64,192,37594,1,0,0:0:0:0:
320,192,37594,1,0,0:0:0:0:
192,192,37701,1,0,0:0:0:0:
320,192,37701,1,0,0:0:0:0:
448,192,37807,1,0,0:0:0:0:
64,192,37807,1,0,0:0:0:0:
448,192,38020,1,0,0:0:0:0:
320,192,38020,1,0,0:0:0:0:
192,192,38020,1,0,0:0:0:0:
320,192,38233,1,0,0:0:0:0:
192,192,38233,1,0,0:0:0:0:
448,192,38445,1,0,0:0:0:0:
320,192,38445,1,0,0:0:0:0:
64,192,38445,1,0,0:0:0:0:
448,192,38658,1,0,0:0:0:0:
320,192,38658,1,0,0:0:0:0:
448,192,38764,1,0,0:0:0:0:
320,192,38764,1,0,0:0:0:0:
64,192,38871,1,0,0:0:0:0:
192,192,38871,1,0,0:0:0:0:
448,192,38871,1,0,0:0:0:0:
64,192,39084,1,0,0:0:0:0:
192,192,39084,1,0,0:0:0:0:
320,192,39296,1,0,0:0:0:0:
448,192,39296,1,0,0:0:0:0:
192,192,39296,1,0,0:0:0:0:
192,192,39403,1,0,0:0:0:0:
448,192,39403,1,0,0:0:0:0:
64,192,39509,1,0,0:0:0:0:
320,192,39509,1,0,0:0:0:0:
64,192,39722,1,0,0:0:0:0:
320,192,39722,1,0,0:0:0:0:
448,192,39722,1,0,0:0:0:0:
192,192,39935,1,0,0:0:0:0:
320,192,39935,1,0,0:0:0:0:
448,192,40147,1,0,0:0:0:0:
320,192,40147,1,0,0:0:0:0:
192,192,40147,1,0,0:0:0:0:
320,192,40360,1,0,0:0:0:0:
448,192,40360,1,0,0:0:0:0:
448,192,40467,1,0,0:0:0:0:
320,192,40467,1,0,0:0:0:0:
448,192,40573,1,0,0:0:0:0:
192,192,40573,1,0,0:0:0:0:
64,192,40573,1,0,0:0:0:0:
320,192,40786,1,0,0:0:0:0:
192,192,40786,1,0,0:0:0:0:
320,192,40999,1,0,0:0:0:0:
64,192,40999,1,0,0:0:0:0:
448,192,40999,1,0,0:0:0:0:
448,192,41211,1,0,0:0:0:0:
192,192,41211,1,0,0:0:0:0:
448,192,41424,1,0,0:0:0:0:
320,192,41424,1,0,0:0:0:0:
64,192,41424,1,0,0:0:0:0:
192,192,41637,1,0,0:0:0:0:
320,192,41637,1,0,0:0:0:0:
320,192,41850,1,0,0:0:0:0:
192,192,41850,1,0,0:0:0:0:
64,192,41850,1,0,0:0:0:0:
192,192,41956,1,0,0:0:0:0:
64,192,41956,1,0,0:0:0:0:
448,192,42062,1,0,0:0:0:0:
320,192,42062,1,0,0:0:0:0:
448,192,42169,1,0,0:0:0:0:
320,192,42169,1,0,0:0:0:0:
192,192,42275,1,0,0:0:0:0:
64,192,42275,1,0,0:0:0:0:
448,192,42275,1,0,0:0:0:0:
320,192,42488,1,0,0:0:0:0:
192,192,42488,1,0,0:0:0:0:
448,192,42701,1,0,0:0:0:0:
320,192,42701,1,0,0:0:0:0:
64,192,42701,1,0,0:0:0:0:
192,192,42913,1,0,0:0:0:0:
320,192,42913,1,0,0:0:0:0:
320,192,43020,1,0,0:0:0:0:
192,192,43020,1,0,0:0:0:0:
448,192,43126,1,0,0:0:0:0:
192,192,43126,1,0,0:0:0:0:
64,192,43126,1,0,0:0:0:0:
320,192,43339,1,0,0:0:0:0:
64,192,43339,1,0,0:0:0:0:
448,192,43552,1,0,0:0:0:0:
320,192,43552,1,0,0:0:0:0:
192,192,43552,1,0,0:0:0:0:
192,192,43764,1,0,0:0:0:0:
448,192,43977,1,0,0:0:0:0:
320,192,43977,1,0,0:0:0:0:
64,192,43977,1,0,0:0:0:0:
448,192,44190,1,0,0:0:0:0:
192,192,44190,1,0,0:0:0:0:
320,192,44403,1,0,0:0:0:0:
448,192,44403,1,0,0:0:0:0:
64,192,44403,1,0,0:0:0:0:
64,192,44616,1,0,0:0:0:0:
192,192,44616,1,0,0:0:0:0:
64,192,44722,1,0,0:0:0:0:
192,192,44722,1,0,0:0:0:0:
448,192,44828,1,0,0:0:0:0:
64,192,44828,1,0,0:0:0:0:
320,192,44828,1,0,0:0:0:0:
192,192,45041,1,0,0:0:0:0:
320,192,45041,1,0,0:0:0:0:
64,192,45254,1,0,0:0:0:0:
448,192,45254,1,0,0:0:0:0:
320,192,45254,1,0,0:0:0:0:
320,192,45467,1,0,0:0:0:0:
448,192,45467,1,0,0:0:0:0:
448,192,45573,1,0,0:0:0:0:
320,192,45573,1,0,0:0:0:0:
448,192,45679,1,0,0:0:0:0:
64,192,45679,1,0,0:0:0:0:
192,192,45679,1,0,0:0:0:0:
320,192,45892,1,0,0:0:0:0:
192,192,45892,1,0,0:0:0:0:
192,192,46105,1,0,0:0:0:0:
64,192,46105,1,0,0:0:0:0:
448,192,46105,1,0,0:0:0:0:
320,192,46211,1,0,0:0:0:0:
64,192,46211,1,0,0:0:0:0:
448,192,46318,1,0,0:0:0:0:
192,192,46318,1,0,0:0:0:0:
320,192,46424,1,0,0:0:0:0:
64,192,46424,1,0,0:0:0:0:
448,192,46530,1,0,0:0:0:0:
192,192,46530,1,0,0:0:0:0:
320,192,46530,1,0,0:0:0:0:
192,192,46637,1,0,0:0:0:0:
448,192,46637,1,0,0:0:0:0:
64,192,46743,1,0,0:0:0:0:
320,192,46743,1,0,0:0:0:0:
320,192,46956,1,0,0:0:0:0:
448,192,46956,1,0,0:0:0:0:
64,192,46956,1,0,0:0:0:0:
192,192,46956,1,0,0:0:0:0:
448,192,47169,1,0,0:0:0:0:
192,192,47169,1,0,0:0:0:0:
448,192,47381,1,0,0:0:0:0:
320,192,47381,1,0,0:0:0:0:
64,192,47381,1,0,0:0:0:0:
192,192,47381,1,0,0:0:0:0:
448,192,47488,1,0,0:0:0:0:
320,192,47488,1,0,0:0:0:0:
192,192,47594,1,0,0:0:0:0:
64,192,47594,1,0,0:0:0:0:
448,192,47807,1,0,0:0:0:0:
320,192,47807,1,0,0:0:0:0:
192,192,47807,1,0,0:0:0:0:
320,192,48020,1,0,0:0:0:0:
64,192,48020,1,0,0:0:0:0:
448,192,48233,1,0,0:0:0:0:
192,192,48233,1,0,0:0:0:0:
64,192,48233,1,0,0:0:0:0:
320,192,48233,1,0,0:0:0:0:
192,192,48445,1,0,0:0:0:0:
320,192,48445,1,0,0:0:0:0:
448,192,48658,1,0,0:0:0:0:
320,192,48658,1,0,0:0:0:0:
192,192,48658,1,0,0:0:0:0:
192,192,48871,1,0,0:0:0:0:
64,192,48871,1,0,0:0:0:0:
192,192,48977,1,0,0:0:0:0:
64,192,48977,1,0,0:0:0:0:
64,192,49084,1,0,0:0:0:0:
448,192,49084,1,0,0:0:0:0:
320,192,49084,1,0,0:0:0:0:
192,192,49084,1,0,0:0:0:0:
320,192,49296,1,0,0:0:0:0:
192,192,49296,1,0,0:0:0:0:
448,192,49509,1,0,0:0:0:0:
192,192,49509,1,0,0:0:0:0:
64,192,49509,1,0,0:0:0:0:
320,192,49722,1,0,0:0:0:0:
64,192,49722,1,0,0:0:0:0:
448,192,49935,1,0,0:0:0:0:
320,192,49935,1,0,0:0:0:0:
64,192,49935,1,0,0:0:0:0:
192,192,49935,1,0,0:0:0:0:
448,192,50147,1,0,0:0:0:0:
192,192,50147,1,0,0:0:0:0:
320,192,50360,1,0,0:0:0:0:
192,192,50360,1,0,0:0:0:0:
64,192,50360,1,0,0:0:0:0:
320,192,50573,1,0,0:0:0:0:
448,192,50786,1,0,0:0:0:0:
192,192,50786,1,0,0:0:0:0:
64,192,50786,1,0,0:0:0:0:
320,192,50786,1,0,0:0:0:0:
320,192,50999,1,0,0:0:0:0:
64,192,50999,1,0,0:0:0:0:
320,192,51211,1,0,0:0:0:0:
64,192,51211,1,0,0:0:0:0:
192,192,51211,1,0,0:0:0:0:
320,192,51318,1,0,0:0:0:0:
192,192,51318,1,0,0:0:0:0:
64,192,51424,1,0,0:0:0:0:
448,192,51424,1,0,0:0:0:0:
192,192,51637,1,0,0:0:0:0:
320,192,51637,1,0,0:0:0:0:
448,192,51637,1,0,0:0:0:0:
64,192,51637,1,0,0:0:0:0:
192,192,51850,1,0,0:0:0:0:
320,192,51850,1,0,0:0:0:0:
64,192,52062,1,0,0:0:0:0:
320,192,52062,1,0,0:0:0:0:
448,192,52062,1,0,0:0:0:0:
320,192,52275,1,0,0:0:0:0:
448,192,52275,1,0,0:0:0:0:
320,192,52381,1,0,0:0:0:0:
448,192,52381,1,0,0:0:0:0:
448,192,52488,1,0,0:0:0:0:
192,192,52488,1,0,0:0:0:0:
64,192,52488,1,0,0:0:0:0:
320,192,52488,1,0,0:0:0:0:
192,192,52701,1,0,0:0:0:0:
64,192,52701,1,0,0:0:0:0:
192,192,52913,1,0,0:0:0:0:
448,192,52913,1,0,0:0:0:0:
320,192,52913,1,0,0:0:0:0:
448,192,53020,1,0,0:0:0:0:
192,192,53020,1,0,0:0:0:0:
320,192,53126,1,0,0:0:0:0:
64,192,53126,1,0,0:0:0:0:
448,192,53339,1,0,0:0:0:0:
320,192,53339,1,0,0:0:0:0:
64,192,53339,1,0,0:0:0:0:
192,192,53339,1,0,0:0:0:0:
320,192,53552,1,0,0:0:0:0:
192,192,53552,1,0,0:0:0:0:
192,192,53764,1,0,0:0:0:0:
320,192,53764,1,0,0:0:0:0:
448,192,53764,1,0,0:0:0:0:
64,192,53977,1,0,0:0:0:0:
64,192,54190,1,0,0:0:0:0:
192,192,54190,1,0,0:0:0:0:
448,192,54190,1,0,0:0:0:0:
320,192,54190,1,0,0:0:0:0:
192,192,54403,1,0,0:0:0:0:
320,192,54403,1,0,0:0:0:0:
448,192,54616,1,0,0:0:0:0:
64,192,54616,1,0,0:0:0:0:
320,192,54616,1,0,0:0:0:0:
64,192,54722,1,0,0:0:0:0:
320,192,54722,1,0,0:0:0:0:
192,192,54828,1,0,0:0:0:0:
448,192,54828,1,0,0:0:0:0:
64,192,55041,1,0,0:0:0:0:
320,192,55041,1,0,0:0:0:0:
448,192,55041,1,0,0:0:0:0:
192,192,55041,1,0,0:0:0:0:
320,192,55254,1,0,0:0:0:0:
192,192,55254,1,0,0:0:0:0:
64,192,55467,1,0,0:0:0:0:
192,192,55467,1,0,0:0:0:0:
320,192,55467,1,0,0:0:0:0:
320,192,55679,1,0,0:0:0:0:
448,192,55679,1,0,0:0:0:0:
320,192,55786,1,0,0:0:0:0:
448,192,55786,1,0,0:0:0:0:
448,192,55892,1,0,0:0:0:0:
64,192,55892,1,0,0:0:0:0:
192,192,55892,1,0,0:0:0:0:
320,192,55892,1,0,0:0:0:0:
192,192,56105,1,0,0:0:0:0:
320,192,56105,1,0,0:0:0:0:
64,192,56318,1,0,0:0:0:0:
320,192,56318,1,0,0:0:0:0:
448,192,56318,1,0,0:0:0:0:
320,192,56530,1,0,0:0:0:0:
192,192,56530,1,0,0:0:0:0:
64,192,56743,1,0,0:0:0:0:
192,192,56743,1,0,0:0:0:0:
448,192,56743,1,0,0:0:0:0:
320,192,56743,1,0,0:0:0:0:
64,192,56956,1,0,0:0:0:0:
320,192,56956,1,0,0:0:0:0:
192,192,57169,1,0,0:0:0:0:
320,192,57169,1,0,0:0:0:0:
448,192,57169,1,0,0:0:0:0:
192,192,57381,1,0,0:0:0:0:
64,192,57594,1,0,0:0:0:0:
320,192,57594,1,0,0:0:0:0:
448,192,57594,1,0,0:0:0:0:
192,192,57594,1,0,0:0:0:0:
192,192,57807,1,0,0:0:0:0:
448,192,57807,1,0,0:0:0:0:
64,192,58020,1,0,0:0:0:0:
448,192,58020,1,0,0:0:0:0:
320,192,58020,1,0,0:0:0:0:
320,192,58126,1,0,0:0:0:0:
448,192,58126,1,0,0:0:0:0:
64,192,58233,1,0,0:0:0:0:
192,192,58233,1,0,0:0:0:0:
320,192,58445,1,0,0:0:0:0:
64,192,58445,1,0,0:0:0:0:
448,192,58445,1,0,0:0:0:0:
192,192,58445,1,0,0:0:0:0:
320,192,58658,1,0,0:0:0:0:
192,192,58658,1,0,0:0:0:0:
320,192,58871,1,0,0:0:0:0:
448,192,58871,1,0,0:0:0:0:
64,192,58871,1,0,0:0:0:0:
64,192,59084,1,0,0:0:0:0:
192,192,59084,1,0,0:0:0:0:
192,192,59190,1,0,0:0:0:0:
64,192,59190,1,0,0:0:0:0:
192,192,59296,1,0,0:0:0:0:
64,192,59296,1,0,0:0:0:0:
448,192,59296,1,0,0:0:0:0:
320,192,59296,1,0,0:0:0:0:
192,192,59509,1,0,0:0:0:0:
320,192,59509,1,0,0:0:0:0:
448,192,59722,1,0,0:0:0:0:
192,192,59722,1,0,0:0:0:0:
320,192,59722,1,0,0:0:0:0:
320,192,59828,1,0,0:0:0:0:
192,192,59828,1,0,0:0:0:0:
448,192,59828,1,0,0:0:0:0:
192,192,59935,1,0,0:0:0:0:
448,192,59935,1,0,0:0:0:0:
64,192,59935,1,0,0:0:0:0:
64,192,60041,1,0,0:0:0:0:
192,192,60041,1,0,0:0:0:0:
448,192,60041,1,0,0:0:0:0:
320,192,60147,1,0,0:0:0:0:
192,192,60147,1,0,0:0:0:0:
64,192,60147,1,0,0:0:0:0:
192,192,60254,1,0,0:0:0:0:
64,192,60254,1,0,0:0:0:0:
320,192,60254,1,0,0:0:0:0:
320,192,60360,1,0,0:0:0:0:
64,192,60360,1,0,0:0:0:0:
448,192,60360,1,0,0:0:0:0:
448,192,60467,1,0,0:0:0:0:
320,192,60467,1,0,0:0:0:0:
64,192,60467,1,0,0:0:0:0:
64,192,60573,1,0,0:0:0:0:
192,192,60573,1,0,0:0:0:0:
320,192,60573,1,0,0:0:0:0:
448,192,60573,1,0,0:0:0:0:
192,192,60786,1,0,0:0:0:0:
448,192,60786,1,0,0:0:0:0:
64,192,60999,1,0,0:0:0:0:
192,192,60999,1,0,0:0:0:0:
448,192,60999,1,0,0:0:0:0:
320,192,60999,1,0,0:0:0:0:
320,192,61105,1,0,0:0:0:0:
448,192,61105,1,0,0:0:0:0:
192,192,61105,1,0,0:0:0:0:
64,192,61211,1,0,0:0:0:0:
192,192,61211,1,0,0:0:0:0:
320,192,61211,1,0,0:0:0:0:
192,192,61424,1,0,0:0:0:0:
320,192,61424,1,0,0:0:0:0:
448,192,61424,1,0,0:0:0:0:
64,192,61637,1,0,0:0:0:0:
320,192,61637,1,0,0:0:0:0:
448,192,61637,1,0,0:0:0:0:
64,192,61850,1,0,0:0:0:0:
320,192,61850,1,0,0:0:0:0:
448,192,61850,1,0,0:0:0:0:
192,192,61850,1,0,0:0:0:0:
320,192,62062,1,0,0:0:0:0:
192,192,62062,1,0,0:0:0:0:
64,192,62062,1,0,0:0:0:0:
192,192,62275,1,0,0:0:0:0:
320,192,62275,1,0,0:0:0:0:
448,192,62275,1,0,0:0:0:0:
64,192,62488,1,0,0:0:0:0:
192,192,62488,1,0,0:0:0:0:
448,192,62488,1,0,0:0:0:0:
64,192,62594,1,0,0:0:0:0:
192,192,62594,1,0,0:0:0:0:
448,192,62594,1,0,0:0:0:0:
320,192,62701,1,0,0:0:0:0:
192,192,62701,1,0,0:0:0:0:
64,192,62701,1,0,0:0:0:0:
448,192,62701,1,0,0:0:0:0:
192,192,62913,1,0,0:0:0:0:
320,192,62913,1,0,0:0:0:0:
64,192,62913,1,0,0:0:0:0:
64,192,63126,1,0,0:0:0:0:
192,192,63126,1,0,0:0:0:0:
448,192,63126,1,0,0:0:0:0:
64,192,63339,1,0,0:0:0:0:
320,192,63339,1,0,0:0:0:0:
448,192,63339,1,0,0:0:0:0:
64,192,63552,1,0,0:0:0:0:
192,192,63552,1,0,0:0:0:0:
448,192,63552,1,0,0:0:0:0:
320,192,63552,1,0,0:0:0:0:
192,192,63764,1,0,0:0:0:0:
448,192,63764,1,0,0:0:0:0:
64,192,63764,1,0,0:0:0:0:
64,192,63977,1,0,0:0:0:0:
192,192,63977,1,0,0:0:0:0:
320,192,63977,1,0,0:0:0:0:
320,192,64190,1,0,0:0:0:0:
64,192,64403,1,0,0:0:0:0:
320,192,64403,1,0,0:0:0:0:
448,192,64403,1,0,0:0:0:0:
192,192,64403,1,0,0:0:0:0:
320,192,64616,1,0,0:0:0:0:
448,192,64616,1,0,0:0:0:0:
192,192,64616,1,0,0:0:0:0:
192,192,64828,1,0,0:0:0:0:
64,192,64828,1,0,0:0:0:0:
320,192,64828,1,0,0:0:0:0:
192,192,64935,1,0,0:0:0:0:
320,192,64935,1,0,0:0:0:0:
64,192,64935,1,0,0:0:0:0:
448,192,65041,1,0,0:0:0:0:
192,192,65041,1,0,0:0:0:0:
320,192,65041,1,0,0:0:0:0:
448,192,65254,1,0,0:0:0:0:
64,192,65254,1,0,0:0:0:0:
192,192,65254,1,0,0:0:0:0:
320,192,65254,1,0,0:0:0:0:
320,192,65467,1,0,0:0:0:0:
192,192,65467,1,0,0:0:0:0:
64,192,65467,1,0,0:0:0:0:
448,192,65679,1,0,0:0:0:0:
320,192,65679,1,0,0:0:0:0:
64,192,65679,1,0,0:0:0:0:
448,192,65892,1,0,0:0:0:0:
320,192,65892,1,0,0:0:0:0:
64,192,65892,1,0,0:0:0:0:
448,192,65999,1,0,0:0:0:0:
320,192,65999,1,0,0:0:0:0:
64,192,65999,1,0,0:0:0:0:
64,192,66105,1,0,0:0:0:0:
320,192,66105,1,0,0:0:0:0:
448,192,66105,1,0,0:0:0:0:
192,192,66105,1,0,0:0:0:0:
64,192,66318,1,0,0:0:0:0:
192,192,66318,1,0,0:0:0:0:
448,192,66318,1,0,0:0:0:0:
320,192,66530,1,0,0:0:0:0:
448,192,66530,1,0,0:0:0:0:
192,192,66530,1,0,0:0:0:0:
192,192,66637,1,0,0:0:0:0:
448,192,66637,1,0,0:0:0:0:
320,192,66637,1,0,0:0:0:0:
64,192,66743,1,0,0:0:0:0:
320,192,66743,1,0,0:0:0:0:
192,192,66743,1,0,0:0:0:0:
64,192,66956,1,0,0:0:0:0:
192,192,66956,1,0,0:0:0:0:
448,192,66956,1,0,0:0:0:0:
320,192,66956,1,0,0:0:0:0:
192,192,67169,1,0,0:0:0:0:
320,192,67169,1,0,0:0:0:0:
448,192,67169,1,0,0:0:0:0:
448,192,67381,1,0,0:0:0:0:
192,192,67381,1,0,0:0:0:0:
64,192,67381,1,0,0:0:0:0:
192,192,67594,1,0,0:0:0:0:
320,192,67594,1,0,0:0:0:0:
448,192,67594,1,0,0:0:0:0:
64,192,67701,1,0,0:0:0:0:
192,192,67701,1,0,0:0:0:0:
448,192,67701,1,0,0:0:0:0:
448,192,67807,1,0,0:0:0:0:
320,192,67807,1,0,0:0:0:0:
64,192,67807,1,0,0:0:0:0:
192,192,67807,1,0,0:0:0:0:
320,192,68020,1,0,0:0:0:0:
192,192,68020,1,0,0:0:0:0:
320,192,68233,1,0,0:0:0:0:
64,192,68233,1,0,0:0:0:0:
448,192,68233,1,0,0:0:0:0:
448,192,68445,1,0,0:0:0:0:
192,192,68445,1,0,0:0:0:0:
320,192,68445,1,0,0:0:0:0:
448,192,68658,1,0,0:0:0:0:
192,192,68658,1,0,0:0:0:0:
64,192,68658,1,0,0:0:0:0:
320,192,68658,1,0,0:0:0:0:
192,192,68871,1,0,0:0:0:0:
320,192,68871,1,0,0:0:0:0:
64,192,68871,1,0,0:0:0:0:
192,192,69084,1,0,0:0:0:0:
64,192,69084,1,0,0:0:0:0:
448,192,69084,1,0,0:0:0:0:
192,192,69190,1,0,0:0:0:0:
320,192,69190,1,0,0:0:0:0:
448,192,69190,1,0,0:0:0:0:
448,192,69296,1,0,0:0:0:0:
64,192,69296,1,0,0:0:0:0:
320,192,69296,1,0,0:0:0:0:
320,192,69403,1,0,0:0:0:0:
64,192,69403,1,0,0:0:0:0:
192,192,69403,1,0,0:0:0:0:
192,192,69509,1,0,0:0:0:0:
320,192,69509,1,0,0:0:0:0:
448,192,69509,1,0,0:0:0:0:
64,192,69509,1,0,0:0:0:0:
192,192,69722,1,0,0:0:0:0:
64,192,69722,1,0,0:0:0:0:
448,192,69722,1,0,0:0:0:0:
448,192,69935,1,0,0:0:0:0:
320,192,69935,1,0,0:0:0:0:
64,192,69935,1,0,0:0:0:0:
192,192,70147,1,0,0:0:0:0:
320,192,70147,1,0,0:0:0:0:
64,192,70147,1,0,0:0:0:0:
320,192,70254,1,0,0:0:0:0:
64,192,70254,1,0,0:0:0:0:
448,192,70254,1,0,0:0:0:0:
448,192,70360,1,0,0:0:0:0:
320,192,70360,1,0,0:0:0:0:
64,192,70360,1,0,0:0:0:0:
192,192,70360,1,0,0:0:0:0:
320,192,70573,1,0,0:0:0:0:
64,192,70573,1,0,0:0:0:0:
448,192,70786,1,0,0:0:0:0:
320,192,70786,1,0,0:0:0:0:
192,192,70786,1,0,0:0:0:0:
192,192,70999,1,0,0:0:0:0:
448,192,71211,1,0,0:0:0:0:
192,192,71211,1,0,0:0:0:0:
64,192,71211,1,0,0:0:0:0:
320,192,71211,1,0,0:0:0:0:
192,192,71424,1,0,0:0:0:0:
64,192,71424,1,0,0:0:0:0:
320,192,71424,1,0,0:0:0:0:
320,192,71637,1,0,0:0:0:0:
448,192,71637,1,0,0:0:0:0:
64,192,71637,1,0,0:0:0:0:
192,192,71850,1,0,0:0:0:0:
64,192,71850,1,0,0:0:0:0:
320,192,71850,1,0,0:0:0:0:
320,192,71956,1,0,0:0:0:0:
192,192,71956,1,0,0:0:0:0:
64,192,71956,1,0,0:0:0:0:
448,192,72062,1,0,0:0:0:0:
192,192,72062,1,0,0:0:0:0:
320,192,72062,1,0,0:0:0:0:
64,192,72062,1,0,0:0:0:0:
192,192,72275,1,0,0:0:0:0:
320,192,72275,1,0,0:0:0:0:
64,192,72488,1,0,0:0:0:0:
448,192,72488,1,0,0:0:0:0:
320,192,72488,1,0,0:0:0:0:
192,192,72701,1,0,0:0:0:0:
320,192,72701,1,0,0:0:0:0:
448,192,72701,1,0,0:0:0:0:
192,192,72807,1,0,0:0:0:0:
448,192,72807,1,0,0:0:0:0:
320,192,72807,1,0,0:0:0:0:
448,192,72913,1,0,0:0:0:0:
320,192,72913,1,0,0:0:0:0:
192,192,72913,1,0,0:0:0:0:
64,192,72913,1,0,0:0:0:0:
320,192,73126,1,0,0:0:0:0:
192,192,73126,1,0,0:0:0:0:
64,192,73126,1,0,0:0:0:0:
320,192,73339,1,0,0:0:0:0:
192,192,73339,1,0,0:0:0:0:
448,192,73339,1,0,0:0:0:0:
448,192,73445,1,0,0:0:0:0:
192,192,73445,1,0,0:0:0:0:
320,192,73445,1,0,0:0:0:0:
64,192,73552,1,0,0:0:0:0:
448,192,73552,1,0,0:0:0:0:
192,192,73552,1,0,0:0:0:0:
448,192,73658,1,0,0:0:0:0:
192,192,73658,1,0,0:0:0:0:
64,192,73658,1,0,0:0:0:0:
64,192,73764,1,0,0:0:0:0:
192,192,73764,1,0,0:0:0:0:
320,192,73764,1,0,0:0:0:0:
320,192,73871,1,0,0:0:0:0:
64,192,73871,1,0,0:0:0:0:
192,192,73871,1,0,0:0:0:0:
448,192,73977,1,0,0:0:0:0:
64,192,73977,1,0,0:0:0:0:
320,192,73977,1,0,0:0:0:0:
64,192,74084,1,0,0:0:0:0:
320,192,74084,1,0,0:0:0:0:
448,192,74084,1,0,0:0:0:0:
448,192,74190,1,0,0:0:0:0:
64,192,74190,1,0,0:0:0:0:
192,192,74190,1,0,0:0:0:0:
320,192,74190,1,0,0:0:0:0:
192,192,74403,1,0,0:0:0:0:
448,192,74616,1,0,0:0:0:0:
64,192,74616,1,0,0:0:0:0:
320,192,74616,1,0,0:0:0:0:
192,192,74616,1,0,0:0:0:0:
64,192,74828,1,0,0:0:0:0:
320,192,74828,1,0,0:0:0:0:
192,192,75041,1,0,0:0:0:0:
448,192,75041,1,0,0:0:0:0:
64,192,75041,1,0,0:0:0:0:
320,192,75041,1,0,0:0:0:0:
320,192,75254,1,0,0:0:0:0:
192,192,75254,1,0,0:0:0:0:
320,192,75467,1,0,0:0:0:0:
64,192,75467,1,0,0:0:0:0:
192,192,75467,1,0,0:0:0:0:
448,192,75467,1,0,0:0:0:0:
192,192,75679,1,0,0:0:0:0:
448,192,75679,1,0,0:0:0:0:
192,192,75892,1,0,0:0:0:0:
320,192,75892,1,0,0:0:0:0:
448,192,75892,1,0,0:0:0:0:
64,192,75892,1,0,0:0:0:0:
320,192,76105,1,0,0:0:0:0:
320,192,76318,5,0,0:0:0:0:
448,192,76318,1,0,0:0:0:0:
64,192,76318,1,0,0:0:0:0:
192,192,76318,1,0,0:0:0:0:
192,192,76530,1,0,0:0:0:0:
320,192,76530,1,0,0:0:0:0:
64,192,76530,1,0,0:0:0:0:
448,192,76530,1,0,0:0:0:0:
64,192,76743,5,0,0:0:0:0:
192,192,76743,1,0,0:0:0:0:
320,192,76796,1,0,0:0:0:0:
448,192,76796,1,0,0:0:0:0:
192,192,76850,1,0,0:0:0:0:
64,192,76850,1,0,0:0:0:0:
320,192,76903,1,0,0:0:0:0:
448,192,76903,1,0,0:0:0:0:
64,192,76956,1,0,0:0:0:0:
192,192,76956,1,0,0:0:0:0:
448,192,77009,1,0,0:0:0:0:
320,192,77009,1,0,0:0:0:0:
192,192,77062,1,0,0:0:0:0:
64,192,77062,1,0,0:0:0:0:
448,192,77116,1,0,0:0:0:0:
320,192,77116,1,0,0:0:0:0:
64,192,77169,1,0,0:0:0:0:
192,192,77169,1,0,0:0:0:0:
192,192,77381,1,0,0:0:0:0:
320,192,77381,1,0,0:0:0:0:
64,192,77381,1,0,0:0:0:0:
448,192,77381,1,0,0:0:0:0:
320,192,77594,1,0,0:0:0:0:
448,192,77594,1,0,0:0:0:0:
64,192,77594,1,0,0:0:0:0:
192,192,77594,1,0,0:0:0:0:
320,192,77807,1,0,0:0:0:0:
64,192,78020,1,0,0:0:0:0:
192,192,78020,1,0,0:0:0:0:
448,192,78020,1,0,0:0:0:0:
320,192,78020,1,0,0:0:0:0:
64,192,78233,1,0,0:0:0:0:
320,192,78445,1,0,0:0:0:0:
448,192,78445,1,0,0:0:0:0:
64,192,78445,1,0,0:0:0:0:
192,192,78445,1,0,0:0:0:0:
192,192,78658,1,0,0:0:0:0:
448,192,78658,1,0,0:0:0:0:
64,192,78871,1,0,0:0:0:0:
320,192,78871,1,0,0:0:0:0:
448,192,78871,1,0,0:0:0:0:
192,192,78871,1,0,0:0:0:0:
320,192,79084,1,0,0:0:0:0:
64,192,79084,1,0,0:0:0:0:
192,192,79084,1,0,0:0:0:0:
448,192,79084,1,0,0:0:0:0:
64,192,79296,1,0,0:0:0:0:
192,192,79296,1,0,0:0:0:0:
448,192,79296,1,0,0:0:0:0:
320,192,79296,1,0,0:0:0:0:
192,192,79509,1,0,0:0:0:0:
320,192,79722,1,0,0:0:0:0:
64,192,79722,1,0,0:0:0:0:
448,192,79722,1,0,0:0:0:0:
192,192,79722,1,0,0:0:0:0:
448,192,79935,1,0,0:0:0:0:
64,192,80147,1,0,0:0:0:0:
320,192,80147,1,0,0:0:0:0:
448,192,80147,1,0,0:0:0:0:
192,192,80147,1,0,0:0:0:0:
64,192,80360,1,0,0:0:0:0:
320,192,80360,1,0,0:0:0:0:
64,192,80573,1,0,0:0:0:0:
192,192,80573,1,0,0:0:0:0:
448,192,80573,1,0,0:0:0:0:
320,192,80573,1,0,0:0:0:0:
64,192,80786,1,0,0:0:0:0:
192,192,80786,1,0,0:0:0:0:
320,192,80786,1,0,0:0:0:0:
448,192,80786,1,0,0:0:0:0:
192,192,80892,1,0,0:0:0:0:
320,192,80892,1,0,0:0:0:0:
448,192,80892,1,0,0:0:0:0:
64,192,80892,1,0,0:0:0:0:
64,192,80999,1,0,0:0:0:0:
192,192,80999,1,0,0:0:0:0:
448,192,80999,1,0,0:0:0:0:
320,192,80999,1,0,0:0:0:0:
320,192,81211,1,0,0:0:0:0:
448,192,81424,1,0,0:0:0:0:
64,192,81424,1,0,0:0:0:0:
320,192,81424,1,0,0:0:0:0:
192,192,81424,1,0,0:0:0:0:
192,192,81637,1,0,0:0:0:0:
448,192,81637,1,0,0:0:0:0:
448,192,81850,1,0,0:0:0:0:
64,192,81850,1,0,0:0:0:0:
192,192,81850,1,0,0:0:0:0:
320,192,81850,1,0,0:0:0:0:
320,192,82062,1,0,0:0:0:0:
192,192,82062,1,0,0:0:0:0:
448,192,82275,1,0,0:0:0:0:
64,192,82275,1,0,0:0:0:0:
192,192,82275,1,0,0:0:0:0:
320,192,82275,1,0,0:0:0:0:
64,192,82488,1,0,0:0:0:0:
320,192,82488,1,0,0:0:0:0:
192,192,82701,1,0,0:0:0:0:
320,192,82701,1,0,0:0:0:0:
448,192,82701,1,0,0:0:0:0:
64,192,82701,1,0,0:0:0:0:
192,192,82913,1,0,0:0:0:0:
192,192,83126,5,0,0:0:0:0:
448,192,83126,1,0,0:0:0:0:
64,192,83126,1,0,0:0:0:0:
320,192,83126,1,0,0:0:0:0:
192,192,83339,1,0,0:0:0:0:
320,192,83339,1,0,0:0:0:0:
64,192,83339,1,0,0:0:0:0:
448,192,83339,1,0,0:0:0:0:
448,192,83552,5,0,0:0:0:0:
320,192,83552,1,0,0:0:0:0:
64,192,83605,1,0,0:0:0:0:
192,192,83605,1,0,0:0:0:0:
448,192,83658,1,0,0:0:0:0:
320,192,83658,1,0,0:0:0:0:
64,192,83711,1,0,0:0:0:0:
192,192,83711,1,0,0:0:0:0:
320,192,83764,1,0,0:0:0:0:
448,192,83764,1,0,0:0:0:0:
192,192,83818,1,0,0:0:0:0:
64,192,83818,1,0,0:0:0:0:
448,192,83871,1,0,0:0:0:0:
320,192,83871,1,0,0:0:0:0:
192,192,83924,1,0,0:0:0:0:
64,192,83924,1,0,0:0:0:0:
320,192,83977,1,0,0:0:0:0:
448,192,83977,1,0,0:0:0:0:
192,192,84190,1,0,0:0:0:0:
320,192,84190,1,0,0:0:0:0:
64,192,84190,1,0,0:0:0:0:
448,192,84190,1,0,0:0:0:0:
448,192,84403,1,0,0:0:0:0:
64,192,84403,1,0,0:0:0:0:
192,192,84403,1,0,0:0:0:0:
320,192,84403,1,0,0:0:0:0:
192,192,84616,1,0,0:0:0:0:
64,192,84828,1,0,0:0:0:0:
320,192,84828,1,0,0:0:0:0:
448,192,84828,1,0,0:0:0:0:
192,192,84828,1,0,0:0:0:0:
448,192,85041,1,0,0:0:0:0:
448,192,85254,1,0,0:0:0:0:
64,192,85254,1,0,0:0:0:0:
192,192,85254,1,0,0:0:0:0:
320,192,85254,1,0,0:0:0:0:
64,192,85467,1,0,0:0:0:0:
320,192,85467,1,0,0:0:0:0:
64,192,85679,1,0,0:0:0:0:
192,192,85679,1,0,0:0:0:0:
448,192,85679,1,0,0:0:0:0:
320,192,85679,1,0,0:0:0:0:
192,192,85892,1,0,0:0:0:0:
320,192,85892,1,0,0:0:0:0:
64,192,85892,1,0,0:0:0:0:
448,192,85892,1,0,0:0:0:0:
64,192,86105,1,0,0:0:0:0:
320,192,86105,1,0,0:0:0:0:
448,192,86105,1,0,0:0:0:0:
192,192,86105,1,0,0:0:0:0:
192,192,86318,1,0,0:0:0:0:
64,192,86530,1,0,0:0:0:0:
192,192,86530,1,0,0:0:0:0:
320,192,86530,1,0,0:0:0:0:
448,192,86530,1,0,0:0:0:0:
448,192,86743,1,0,0:0:0:0:
64,192,86956,1,0,0:0:0:0:
192,192,86956,1,0,0:0:0:0:
320,192,86956,1,0,0:0:0:0:
448,192,86956,1,0,0:0:0:0:
64,192,87169,1,0,0:0:0:0:
320,192,87169,1,0,0:0:0:0:
64,192,87381,1,0,0:0:0:0:
192,192,87381,1,0,0:0:0:0:
320,192,87381,1,0,0:0:0:0:
448,192,87381,1,0,0:0:0:0:
448,192,87594,1,0,0:0:0:0:
320,192,87594,1,0,0:0:0:0:
192,192,87594,1,0,0:0:0:0:
64,192,87594,1,0,0:0:0:0:
64,192,87701,1,0,0:0:0:0:
192,192,87701,1,0,0:0:0:0:
320,192,87701,1,0,0:0:0:0:
448,192,87701,1,0,0:0:0:0:
448,192,87807,1,0,0:0:0:0:
320,192,87807,1,0,0:0:0:0:
192,192,87807,1,0,0:0:0:0:
64,192,87807,1,0,0:0:0:0:
192,192,88020,1,0,0:0:0:0:
448,192,88020,1,0,0:0:0:0:
64,192,88233,1,0,0:0:0:0:
320,192,88233,1,0,0:0:0:0:
448,192,88233,1,0,0:0:0:0:
192,192,88445,1,0,0:0:0:0:
320,192,88445,1,0,0:0:0:0:
64,192,88658,1,0,0:0:0:0:
192,192,88658,1,0,0:0:0:0:
320,192,88658,1,0,0:0:0:0:
192,192,88871,1,0,0:0:0:0:
448,192,88871,1,0,0:0:0:0:
448,192,89084,1,0,0:0:0:0:
320,192,89084,1,0,0:0:0:0:
64,192,89084,1,0,0:0:0:0:
64,192,89296,1,0,0:0:0:0:
192,192,89296,1,0,0:0:0:0:
192,192,89509,1,0,0:0:0:0:
320,192,89509,1,0,0:0:0:0:
448,192,89509,1,0,0:0:0:0:
320,192,89722,1,0,0:0:0:0:
64,192,89722,1,0,0:0:0:0:
448,192,89935,1,0,0:0:0:0:
192,192,89935,1,0,0:0:0:0:
64,192,89935,1,0,0:0:0:0:
320,192,90147,1,0,0:0:0:0:
192,192,90147,1,0,0:0:0:0:
448,192,90360,1,0,0:0:0:0:
320,192,90360,1,0,0:0:0:0:
192,192,90360,1,0,0:0:0:0:
320,192,90573,1,0,0:0:0:0:
64,192,90573,1,0,0:0:0:0:
64,192,90786,1,0,0:0:0:0:
192,192,90786,1,0,0:0:0:0:
448,192,90786,1,0,0:0:0:0:
448,192,90999,1,0,0:0:0:0:
320,192,90999,1,0,0:0:0:0:
320,192,91211,1,0,0:0:0:0:
192,192,91211,1,0,0:0:0:0:
64,192,91211,1,0,0:0:0:0:
64,192,91318,1,0,0:0:0:0:
192,192,91318,1,0,0:0:0:0:
64,192,91424,1,0,0:0:0:0:
192,192,91424,1,0,0:0:0:0:
64,192,91530,1,0,0:0:0:0:
192,192,91530,1,0,0:0:0:0:
64,192,91637,1,0,0:0:0:0:
192,192,91637,1,0,0:0:0:0:
448,192,91637,1,0,0:0:0:0:
320,192,91850,1,0,0:0:0:0:
448,192,91850,1,0,0:0:0:0:
64,192,92062,1,0,0:0:0:0:
192,192,92062,1,0,0:0:0:0:
320,192,92062,1,0,0:0:0:0:
192,192,92275,1,0,0:0:0:0:
320,192,92275,1,0,0:0:0:0:
320,192,92381,1,0,0:0:0:0:
64,192,92381,1,0,0:0:0:0:
64,192,92488,1,0,0:0:0:0:
448,192,92488,1,0,0:0:0:0:
192,192,92488,1,0,0:0:0:0:
320,192,92701,1,0,0:0:0:0:
448,192,92701,1,0,0:0:0:0:
64,192,92913,1,0,0:0:0:0:
320,192,92913,1,0,0:0:0:0:
192,192,92913,128,0,93764:0:0:0:0:
448,192,93126,1,0,0:0:0:0:
64,192,93339,1,0,0:0:0:0:
320,192,93339,1,0,0:0:0:0:
448,192,93339,1,0,0:0:0:0:
64,192,93552,1,0,0:0:0:0:
320,192,93764,1,0,0:0:0:0:
448,192,93764,1,0,0:0:0:0:
192,192,93977,1,0,0:0:0:0:
320,192,93977,1,0,0:0:0:0:
192,192,94084,1,0,0:0:0:0:
448,192,94084,1,0,0:0:0:0:
448,192,94190,1,0,0:0:0:0:
320,192,94190,1,0,0:0:0:0:
64,192,94190,1,0,0:0:0:0:
64,192,94403,1,0,0:0:0:0:
192,192,94403,1,0,0:0:0:0:
320,192,94616,1,0,0:0:0:0:
448,192,94616,1,0,0:0:0:0:
192,192,94616,1,0,0:0:0:0:
64,192,94828,1,0,0:0:0:0:
320,192,94828,1,0,0:0:0:0:
64,192,95041,1,0,0:0:0:0:
192,192,95041,1,0,0:0:0:0:
448,192,95041,1,0,0:0:0:0:
192,192,95254,1,0,0:0:0:0:
320,192,95254,1,0,0:0:0:0:
192,192,95467,1,0,0:0:0:0:
320,192,95467,1,0,0:0:0:0:
448,192,95467,1,0,0:0:0:0:
64,192,95679,1,0,0:0:0:0:
320,192,95679,1,0,0:0:0:0:
448,192,95892,1,0,0:0:0:0:
192,192,95892,1,0,0:0:0:0:
64,192,95892,1,0,0:0:0:0:
320,192,96105,1,0,0:0:0:0:
448,192,96105,1,0,0:0:0:0:
64,192,96318,1,0,0:0:0:0:
192,192,96318,1,0,0:0:0:0:
320,192,96318,1,0,0:0:0:0:
448,192,96530,1,0,0:0:0:0:
192,192,96530,1,0,0:0:0:0:
448,192,96743,1,0,0:0:0:0:
320,192,96743,1,0,0:0:0:0:
64,192,96743,1,0,0:0:0:0:
320,192,96956,1,0,0:0:0:0:
192,192,96956,1,0,0:0:0:0:
320,192,97169,1,0,0:0:0:0:
192,192,97169,1,0,0:0:0:0:
64,192,97169,1,0,0:0:0:0:
448,192,97381,1,0,0:0:0:0:
192,192,97381,1,0,0:0:0:0:
64,192,97594,1,0,0:0:0:0:
320,192,97594,1,0,0:0:0:0:
448,192,97594,1,0,0:0:0:0:
192,192,97807,1,0,0:0:0:0:
64,192,97807,1,0,0:0:0:0:
448,192,98020,1,0,0:0:0:0:
320,192,98020,1,0,0:0:0:0:
192,192,98020,1,0,0:0:0:0:
320,192,98126,1,0,0:0:0:0:
448,192,98126,1,0,0:0:0:0:
320,192,98233,1,0,0:0:0:0:
448,192,98233,1,0,0:0:0:0:
320,192,98339,1,0,0:0:0:0:
448,192,98339,1,0,0:0:0:0:
64,192,98445,1,0,0:0:0:0:
320,192,98445,1,0,0:0:0:0:
448,192,98445,1,0,0:0:0:0:
64,192,98658,1,0,0:0:0:0:
192,192,98658,1,0,0:0:0:0:
192,192,98871,1,0,0:0:0:0:
320,192,98871,1,0,0:0:0:0:
448,192,98871,1,0,0:0:0:0:
192,192,99084,1,0,0:0:0:0:
320,192,99084,1,0,0:0:0:0:
448,192,99190,1,0,0:0:0:0:
192,192,99190,1,0,0:0:0:0:
320,192,99296,1,0,0:0:0:0:
64,192,99296,1,0,0:0:0:0:
448,192,99296,1,0,0:0:0:0:
64,192,99509,1,0,0:0:0:0:
192,192,99509,1,0,0:0:0:0:
320,192,99722,128,0,100573:0:0:0:0:
192,192,99722,1,0,0:0:0:0:
448,192,99722,1,0,0:0:0:0:
64,192,99935,1,0,0:0:0:0:
64,192,100147,1,0,0:0:0:0:
192,192,100147,1,0,0:0:0:0:
448,192,100147,1,0,0:0:0:0:
448,192,100360,1,0,0:0:0:0:
64,192,100573,1,0,0:0:0:0:
192,192,100573,1,0,0:0:0:0:
192,192,100786,1,0,0:0:0:0:
320,192,100786,1,0,0:0:0:0:
64,192,100892,1,0,0:0:0:0:
320,192,100892,1,0,0:0:0:0:
448,192,100999,1,0,0:0:0:0:
192,192,100999,1,0,0:0:0:0:
64,192,100999,1,0,0:0:0:0:
320,192,101211,1,0,0:0:0:0:
448,192,101211,1,0,0:0:0:0:
448,192,101424,1,0,0:0:0:0:
320,192,101424,1,0,0:0:0:0:
192,192,101424,1,0,0:0:0:0:
64,192,101424,1,0,0:0:0:0:
192,192,101637,1,0,0:0:0:0:
448,192,101637,1,0,0:0:0:0:
64,192,101850,1,0,0:0:0:0:
320,192,101850,1,0,0:0:0:0:
448,192,101850,1,0,0:0:0:0:
192,192,101850,1,0,0:0:0:0:
192,192,102062,1,0,0:0:0:0:
320,192,102062,1,0,0:0:0:0:
64,192,102275,1,0,0:0:0:0:
192,192,102275,1,0,0:0:0:0:
320,192,102275,1,0,0:0:0:0:
192,192,102488,1,0,0:0:0:0:
448,192,102488,1,0,0:0:0:0:
448,192,102701,1,0,0:0:0:0:
320,192,102701,1,0,0:0:0:0:
64,192,102701,1,0,0:0:0:0:
192,192,102701,1,0,0:0:0:0:
64,192,102913,1,0,0:0:0:0:
192,192,102913,1,0,0:0:0:0:
192,192,103126,1,0,0:0:0:0:
320,192,103126,1,0,0:0:0:0:
448,192,103126,1,0,0:0:0:0:
320,192,103339,1,0,0:0:0:0:
64,192,103339,1,0,0:0:0:0:
448,192,103552,1,0,0:0:0:0:
192,192,103552,1,0,0:0:0:0:
64,192,103552,1,0,0:0:0:0:
320,192,103552,1,0,0:0:0:0:
320,192,103764,1,0,0:0:0:0:
192,192,103764,1,0,0:0:0:0:
448,192,103977,1,0,0:0:0:0:
320,192,103977,1,0,0:0:0:0:
192,192,103977,1,0,0:0:0:0:
320,192,104190,1,0,0:0:0:0:
64,192,104190,1,0,0:0:0:0:
64,192,104403,1,0,0:0:0:0:
192,192,104403,1,0,0:0:0:0:
448,192,104403,1,0,0:0:0:0:
320,192,104403,1,0,0:0:0:0:
448,192,104616,1,0,0:0:0:0:
320,192,104616,1,0,0:0:0:0:
320,192,104828,1,0,0:0:0:0:
192,192,104828,1,0,0:0:0:0:
64,192,104828,1,0,0:0:0:0:
64,192,104935,1,0,0:0:0:0:
192,192,104935,1,0,0:0:0:0:
64,192,105041,1,0,0:0:0:0:
192,192,105041,1,0,0:0:0:0:
64,192,105147,1,0,0:0:0:0:
192,192,105147,1,0,0:0:0:0:
64,192,105254,1,0,0:0:0:0:
192,192,105254,1,0,0:0:0:0:
448,192,105254,1,0,0:0:0:0:
320,192,105254,1,0,0:0:0:0:
320,192,105467,1,0,0:0:0:0:
448,192,105467,1,0,0:0:0:0:
64,192,105679,1,0,0:0:0:0:
192,192,105679,1,0,0:0:0:0:
320,192,105679,1,0,0:0:0:0:
192,192,105892,1,0,0:0:0:0:
320,192,105892,1,0,0:0:0:0:
320,192,105999,1,0,0:0:0:0:
64,192,105999,1,0,0:0:0:0:
64,192,106105,1,0,0:0:0:0:
448,192,106105,1,0,0:0:0:0:
192,192,106105,1,0,0:0:0:0:
320,192,106105,1,0,0:0:0:0:
320,192,106318,1,0,0:0:0:0:
448,192,106318,1,0,0:0:0:0:
64,192,106530,1,0,0:0:0:0:
320,192,106530,1,0,0:0:0:0:
192,192,106530,128,0,107381:0:0:0:0:
448,192,106743,1,0,0:0:0:0:
64,192,106956,1,0,0:0:0:0:
320,192,106956,1,0,0:0:0:0:
448,192,106956,1,0,0:0:0:0:
64,192,107169,1,0,0:0:0:0:
320,192,107381,1,0,0:0:0:0:
448,192,107381,1,0,0:0:0:0:
192,192,107594,1,0,0:0:0:0:
320,192,107594,1,0,0:0:0:0:
192,192,107701,1,0,0:0:0:0:
448,192,107701,1,0,0:0:0:0:
448,192,107807,1,0,0:0:0:0:
320,192,107807,1,0,0:0:0:0:
64,192,107807,1,0,0:0:0:0:
192,192,107807,1,0,0:0:0:0:
64,192,108020,1,0,0:0:0:0:
192,192,108020,1,0,0:0:0:0:
320,192,108233,1,0,0:0:0:0:
448,192,108233,1,0,0:0:0:0:
64,192,108233,1,0,0:0:0:0:
192,192,108233,1,0,0:0:0:0:
64,192,108445,1,0,0:0:0:0:
320,192,108445,1,0,0:0:0:0:
64,192,108658,1,0,0:0:0:0:
192,192,108658,1,0,0:0:0:0:
448,192,108658,1,0,0:0:0:0:
320,192,108658,1,0,0:0:0:0:
192,192,108871,1,0,0:0:0:0:
320,192,108871,1,0,0:0:0:0:
192,192,109084,1,0,0:0:0:0:
320,192,109084,1,0,0:0:0:0:
448,192,109084,1,0,0:0:0:0:
64,192,109296,1,0,0:0:0:0:
320,192,109296,1,0,0:0:0:0:
448,192,109509,1,0,0:0:0:0:
192,192,109509,1,0,0:0:0:0:
64,192,109509,1,0,0:0:0:0:
320,192,109509,1,0,0:0:0:0:
320,192,109722,1,0,0:0:0:0:
448,192,109722,1,0,0:0:0:0:
64,192,109935,1,0,0:0:0:0:
192,192,109935,1,0,0:0:0:0:
320,192,109935,1,0,0:0:0:0:
448,192,110147,1,0,0:0:0:0:
192,192,110147,1,0,0:0:0:0:
448,192,110360,1,0,0:0:0:0:
320,192,110360,1,0,0:0:0:0:
64,192,110360,1,0,0:0:0:0:
192,192,110360,1,0,0:0:0:0:
320,192,110573,1,0,0:0:0:0:
192,192,110573,1,0,0:0:0:0:
320,192,110786,1,0,0:0:0:0:
192,192,110786,1,0,0:0:0:0:
64,192,110786,1,0,0:0:0:0:
448,192,110999,1,0,0:0:0:0:
192,192,110999,1,0,0:0:0:0:
64,192,111211,1,0,0:0:0:0:
320,192,111211,1,0,0:0:0:0:
448,192,111211,1,0,0:0:0:0:
192,192,111211,1,0,0:0:0:0:
192,192,111424,1,0,0:0:0:0:
64,192,111424,1,0,0:0:0:0:
448,192,111637,1,0,0:0:0:0:
320,192,111637,1,0,0:0:0:0:
192,192,111637,1,0,0:0:0:0:
320,192,111743,1,0,0:0:0:0:
448,192,111743,1,0,0:0:0:0:
320,192,111850,1,0,0:0:0:0:
448,192,111850,1,0,0:0:0:0:
320,192,111956,1,0,0:0:0:0:
448,192,111956,1,0,0:0:0:0:
64,192,112062,1,0,0:0:0:0:
320,192,112062,1,0,0:0:0:0:
448,192,112062,1,0,0:0:0:0:
192,192,112062,1,0,0:0:0:0:
64,192,112275,1,0,0:0:0:0:
192,192,112275,1,0,0:0:0:0:
192,192,112488,1,0,0:0:0:0:
320,192,112488,1,0,0:0:0:0:
448,192,112488,1,0,0:0:0:0:
192,192,112701,1,0,0:0:0:0:
320,192,112701,1,0,0:0:0:0:
448,192,112807,1,0,0:0:0:0:
192,192,112807,1,0,0:0:0:0:
320,192,112913,1,0,0:0:0:0:
64,192,112913,1,0,0:0:0:0:
448,192,112913,1,0,0:0:0:0:
192,192,112913,1,0,0:0:0:0:
64,192,113126,1,0,0:0:0:0:
192,192,113126,1,0,0:0:0:0:
320,192,113339,128,0,114190:0:0:0:0:
192,192,113339,1,0,0:0:0:0:
448,192,113339,1,0,0:0:0:0:
64,192,113552,1,0,0:0:0:0:
64,192,113764,1,0,0:0:0:0:
192,192,113764,1,0,0:0:0:0:
448,192,113764,1,0,0:0:0:0:
448,192,113977,1,0,0:0:0:0:
64,192,114190,1,0,0:0:0:0:
192,192,114190,1,0,0:0:0:0:
192,192,114403,1,0,0:0:0:0:
320,192,114403,1,0,0:0:0:0:
64,192,114509,1,0,0:0:0:0:
320,192,114509,1,0,0:0:0:0:
448,192,114616,1,0,0:0:0:0:
192,192,114616,1,0,0:0:0:0:
64,192,114616,1,0,0:0:0:0:
320,192,114616,1,0,0:0:0:0:
320,192,114828,1,0,0:0:0:0:
448,192,114828,1,0,0:0:0:0:
64,192,115041,1,0,0:0:0:0:
192,192,115041,1,0,0:0:0:0:
320,192,115041,1,0,0:0:0:0:
448,192,115041,1,0,0:0:0:0:
192,192,115254,1,0,0:0:0:0:
64,192,115467,1,0,0:0:0:0:
320,192,115467,1,0,0:0:0:0:
448,192,115467,1,0,0:0:0:0:
320,192,115573,1,0,0:0:0:0:
64,192,115679,1,0,0:0:0:0:
192,192,115679,1,0,0:0:0:0:
192,192,115892,1,0,0:0:0:0:
320,192,115892,1,0,0:0:0:0:
448,192,115892,1,0,0:0:0:0:
320,192,116105,1,0,0:0:0:0:
64,192,116105,1,0,0:0:0:0:
64,192,116318,1,0,0:0:0:0:
192,192,116318,1,0,0:0:0:0:
320,192,116318,1,0,0:0:0:0:
192,192,116530,1,0,0:0:0:0:
448,192,116530,1,0,0:0:0:0:
64,192,116743,1,0,0:0:0:0:
320,192,116743,1,0,0:0:0:0:
448,192,116743,1,0,0:0:0:0:
192,192,116956,1,0,0:0:0:0:
320,192,116956,1,0,0:0:0:0:
64,192,117169,1,0,0:0:0:0:
320,192,117169,1,0,0:0:0:0:
448,192,117169,1,0,0:0:0:0:
448,192,117381,1,0,0:0:0:0:
320,192,117381,1,0,0:0:0:0:
64,192,117381,1,0,0:0:0:0:
64,192,117594,1,0,0:0:0:0:
192,192,117594,1,0,0:0:0:0:
320,192,117647,1,0,0:0:0:0:
448,192,117647,1,0,0:0:0:0:
64,192,117701,1,0,0:0:0:0:
192,192,117701,1,0,0:0:0:0:
320,192,117754,1,0,0:0:0:0:
448,192,117754,1,0,0:0:0:0:
64,192,117807,1,0,0:0:0:0:
192,192,117807,1,0,0:0:0:0:
320,192,117860,1,0,0:0:0:0:
448,192,117860,1,0,0:0:0:0:
64,192,117913,1,0,0:0:0:0:
192,192,117913,1,0,0:0:0:0:
320,192,117967,1,0,0:0:0:0:
448,192,117967,1,0,0:0:0:0:
64,192,118020,1,0,0:0:0:0:
192,192,118020,1,0,0:0:0:0:
64,192,118233,1,0,0:0:0:0:
320,192,118233,1,0,0:0:0:0:
448,192,118233,1,0,0:0:0:0:
64,192,118445,1,0,0:0:0:0:
192,192,118445,1,0,0:0:0:0:
448,192,118445,1,0,0:0:0:0:
192,192,118658,1,0,0:0:0:0:
320,192,118658,1,0,0:0:0:0:
64,192,118871,1,0,0:0:0:0:
320,192,118871,1,0,0:0:0:0:
448,192,118871,1,0,0:0:0:0:
192,192,119084,1,0,0:0:0:0:
448,192,119084,1,0,0:0:0:0:
64,192,119296,1,0,0:0:0:0:
192,192,119296,1,0,0:0:0:0:
320,192,119296,1,0,0:0:0:0:
64,192,119403,1,0,0:0:0:0:
448,192,119509,1,0,0:0:0:0:
192,192,119509,1,0,0:0:0:0:
192,192,119722,1,0,0:0:0:0:
448,192,119722,1,0,0:0:0:0:
64,192,119722,1,0,0:0:0:0:
64,192,119935,1,0,0:0:0:0:
192,192,119935,1,0,0:0:0:0:
448,192,119935,1,0,0:0:0:0:
64,192,120147,1,0,0:0:0:0:
320,192,120147,1,0,0:0:0:0:
448,192,120147,1,0,0:0:0:0:
192,192,120360,1,0,0:0:0:0:
320,192,120360,1,0,0:0:0:0:
64,192,120573,1,0,0:0:0:0:
192,192,120573,1,0,0:0:0:0:
448,192,120573,1,0,0:0:0:0:
64,192,120786,1,0,0:0:0:0:
320,192,120786,1,0,0:0:0:0:
192,192,120999,1,0,0:0:0:0:
320,192,120999,1,0,0:0:0:0:
448,192,120999,1,0,0:0:0:0:
64,192,121211,1,0,0:0:0:0:
320,192,121211,1,0,0:0:0:0:
64,192,121424,1,0,0:0:0:0:
192,192,121424,1,0,0:0:0:0:
448,192,121424,1,0,0:0:0:0:
64,192,121637,1,0,0:0:0:0:
192,192,121637,1,0,0:0:0:0:
448,192,121637,1,0,0:0:0:0:
64,192,121743,1,0,0:0:0:0:
192,192,121743,1,0,0:0:0:0:
448,192,121743,1,0,0:0:0:0:
448,192,121850,1,0,0:0:0:0:
192,192,121850,1,0,0:0:0:0:
64,192,121850,1,0,0:0:0:0:
320,192,122062,1,0,0:0:0:0:
448,192,122275,1,0,0:0:0:0:
192,192,122275,1,0,0:0:0:0:
64,192,122275,1,0,0:0:0:0:
192,192,122381,1,0,0:0:0:0:
448,192,122488,1,0,0:0:0:0:
320,192,122488,1,0,0:0:0:0:
320,192,122701,1,0,0:0:0:0:
192,192,122701,1,0,0:0:0:0:
64,192,122701,1,0,0:0:0:0:
192,192,122913,1,0,0:0:0:0:
448,192,122913,1,0,0:0:0:0:
448,192,123126,1,0,0:0:0:0:
320,192,123126,1,0,0:0:0:0:
192,192,123126,1,0,0:0:0:0:
320,192,123339,1,0,0:0:0:0:
64,192,123339,1,0,0:0:0:0:
448,192,123552,1,0,0:0:0:0:
192,192,123552,1,0,0:0:0:0:
64,192,123552,1,0,0:0:0:0:
320,192,123764,1,0,0:0:0:0:
192,192,123764,1,0,0:0:0:0:
448,192,123977,1,0,0:0:0:0:
192,192,123977,1,0,0:0:0:0:
64,192,123977,1,0,0:0:0:0:
64,192,124190,1,0,0:0:0:0:
192,192,124190,1,0,0:0:0:0:
448,192,124190,1,0,0:0:0:0:
448,192,124403,1,0,0:0:0:0:
320,192,124403,1,0,0:0:0:0:
192,192,124456,1,0,0:0:0:0:
64,192,124456,1,0,0:0:0:0:
448,192,124509,1,0,0:0:0:0:
320,192,124509,1,0,0:0:0:0:
192,192,124562,1,0,0:0:0:0:
64,192,124562,1,0,0:0:0:0:
448,192,124616,1,0,0:0:0:0:
320,192,124616,1,0,0:0:0:0:
192,192,124669,1,0,0:0:0:0:
64,192,124669,1,0,0:0:0:0:
448,192,124722,1,0,0:0:0:0:
320,192,124722,1,0,0:0:0:0:
192,192,124775,1,0,0:0:0:0:
64,192,124775,1,0,0:0:0:0:
448,192,124828,1,0,0:0:0:0:
320,192,124828,1,0,0:0:0:0:
448,192,125041,1,0,0:0:0:0:
192,192,125041,1,0,0:0:0:0:
64,192,125041,1,0,0:0:0:0:
448,192,125254,1,0,0:0:0:0:
320,192,125254,1,0,0:0:0:0:
64,192,125254,1,0,0:0:0:0:
320,192,125467,1,0,0:0:0:0:
192,192,125467,1,0,0:0:0:0:
448,192,125679,1,0,0:0:0:0:
192,192,125679,1,0,0:0:0:0:
64,192,125679,1,0,0:0:0:0:
320,192,125892,1,0,0:0:0:0:
64,192,125892,1,0,0:0:0:0:
448,192,126105,1,0,0:0:0:0:
320,192,126105,1,0,0:0:0:0:
192,192,126105,1,0,0:0:0:0:
448,192,126211,1,0,0:0:0:0:
64,192,126318,1,0,0:0:0:0:
320,192,126318,1,0,0:0:0:0:
320,192,126530,1,0,0:0:0:0:
64,192,126530,1,0,0:0:0:0:
448,192,126530,1,0,0:0:0:0:
448,192,126743,1,0,0:0:0:0:
320,192,126743,1,0,0:0:0:0:
64,192,126743,1,0,0:0:0:0:
448,192,126956,1,0,0:0:0:0:
192,192,126956,1,0,0:0:0:0:
64,192,126956,1,0,0:0:0:0:
320,192,127169,1,0,0:0:0:0:
192,192,127169,1,0,0:0:0:0:
448,192,127381,1,0,0:0:0:0:
320,192,127381,1,0,0:0:0:0:
64,192,127381,1,0,0:0:0:0:
448,192,127594,1,0,0:0:0:0:
192,192,127594,1,0,0:0:0:0:
320,192,127807,1,0,0:0:0:0:
192,192,127807,1,0,0:0:0:0:
64,192,127807,1,0,0:0:0:0:
448,192,128020,1,0,0:0:0:0:
192,192,128020,1,0,0:0:0:0:
448,192,128233,1,0,0:0:0:0:
320,192,128233,1,0,0:0:0:0:
64,192,128233,1,0,0:0:0:0:
448,192,128445,1,0,0:0:0:0:
320,192,128445,1,0,0:0:0:0:
64,192,128445,1,0,0:0:0:0:
192,192,128445,1,0,0:0:0:0:
448,192,128552,1,0,0:0:0:0:
320,192,128552,1,0,0:0:0:0:
64,192,128552,1,0,0:0:0:0:
64,192,128658,1,0,0:0:0:0:
192,192,128658,1,0,0:0:0:0:
320,192,128658,1,0,0:0:0:0:
448,192,128658,1,0,0:0:0:0:
192,192,128871,1,0,0:0:0:0:
64,192,129084,1,0,0:0:0:0:
320,192,129084,1,0,0:0:0:0:
448,192,129084,1,0,0:0:0:0:
320,192,129190,1,0,0:0:0:0:
64,192,129296,1,0,0:0:0:0:
192,192,129296,1,0,0:0:0:0:
192,192,129509,1,0,0:0:0:0:
320,192,129509,1,0,0:0:0:0:
448,192,129509,1,0,0:0:0:0:
320,192,129722,1,0,0:0:0:0:
64,192,129722,1,0,0:0:0:0:
64,192,129935,1,0,0:0:0:0:
192,192,129935,1,0,0:0:0:0:
320,192,129935,1,0,0:0:0:0:
192,192,130147,1,0,0:0:0:0:
448,192,130147,1,0,0:0:0:0:
64,192,130360,1,0,0:0:0:0:
320,192,130360,1,0,0:0:0:0:
448,192,130360,1,0,0:0:0:0:
192,192,130360,1,0,0:0:0:0:
192,192,130573,1,0,0:0:0:0:
320,192,130573,1,0,0:0:0:0:
64,192,130786,1,0,0:0:0:0:
320,192,130786,1,0,0:0:0:0:
448,192,130786,1,0,0:0:0:0:
448,192,130999,1,0,0:0:0:0:
320,192,130999,1,0,0:0:0:0:
64,192,130999,1,0,0:0:0:0:
64,192,131211,1,0,0:0:0:0:
192,192,131211,1,0,0:0:0:0:
320,192,131264,1,0,0:0:0:0:
448,192,131264,1,0,0:0:0:0:
64,192,131318,1,0,0:0:0:0:
192,192,131318,1,0,0:0:0:0:
320,192,131371,1,0,0:0:0:0:
448,192,131371,1,0,0:0:0:0:
64,192,131424,1,0,0:0:0:0:
192,192,131424,1,0,0:0:0:0:
320,192,131477,1,0,0:0:0:0:
448,192,131477,1,0,0:0:0:0:
64,192,131530,1,0,0:0:0:0:
192,192,131530,1,0,0:0:0:0:
320,192,131584,1,0,0:0:0:0:
448,192,131584,1,0,0:0:0:0:
64,192,131637,1,0,0:0:0:0:
192,192,131637,1,0,0:0:0:0:
64,192,131850,1,0,0:0:0:0:
320,192,131850,1,0,0:0:0:0:
448,192,131850,1,0,0:0:0:0:
192,192,131850,1,0,0:0:0:0:
64,192,132062,1,0,0:0:0:0:
192,192,132062,1,0,0:0:0:0:
448,192,132062,1,0,0:0:0:0:
320,192,132062,1,0,0:0:0:0:
192,192,132275,1,0,0:0:0:0:
320,192,132275,1,0,0:0:0:0:
64,192,132488,1,0,0:0:0:0:
320,192,132488,1,0,0:0:0:0:
448,192,132488,1,0,0:0:0:0:
192,192,132701,1,0,0:0:0:0:
448,192,132701,1,0,0:0:0:0:
64,192,132913,1,0,0:0:0:0:
192,192,132913,1,0,0:0:0:0:
320,192,132913,1,0,0:0:0:0:
64,192,133020,1,0,0:0:0:0:
448,192,133126,1,0,0:0:0:0:
192,192,133126,1,0,0:0:0:0:
192,192,133339,1,0,0:0:0:0:
448,192,133339,1,0,0:0:0:0:
64,192,133339,1,0,0:0:0:0:
64,192,133552,1,0,0:0:0:0:
192,192,133552,1,0,0:0:0:0:
448,192,133552,1,0,0:0:0:0:
64,192,133764,1,0,0:0:0:0:
320,192,133764,1,0,0:0:0:0:
448,192,133764,1,0,0:0:0:0:
192,192,133764,1,0,0:0:0:0:
192,192,133977,1,0,0:0:0:0:
320,192,133977,1,0,0:0:0:0:
64,192,134190,1,0,0:0:0:0:
192,192,134190,1,0,0:0:0:0:
448,192,134190,1,0,0:0:0:0:
64,192,134403,1,0,0:0:0:0:
320,192,134403,1,0,0:0:0:0:
192,192,134616,1,0,0:0:0:0:
320,192,134616,1,0,0:0:0:0:
448,192,134616,1,0,0:0:0:0:
64,192,134616,1,0,0:0:0:0:
64,192,134828,1,0,0:0:0:0:
320,192,134828,1,0,0:0:0:0:
64,192,135041,1,0,0:0:0:0:
192,192,135041,1,0,0:0:0:0:
448,192,135041,1,0,0:0:0:0:
64,192,135254,1,0,0:0:0:0:
192,192,135254,1,0,0:0:0:0:
448,192,135254,1,0,0:0:0:0:
320,192,135254,1,0,0:0:0:0:
64,192,135360,1,0,0:0:0:0:
192,192,135360,1,0,0:0:0:0:
448,192,135360,1,0,0:0:0:0:
448,192,135467,1,0,0:0:0:0:
192,192,135467,1,0,0:0:0:0:
64,192,135467,1,0,0:0:0:0:
320,192,135467,1,0,0:0:0:0:
320,192,135679,1,0,0:0:0:0:
448,192,135892,1,0,0:0:0:0:
192,192,135892,1,0,0:0:0:0:
64,192,135892,1,0,0:0:0:0:
192,192,135999,1,0,0:0:0:0:
448,192,136105,1,0,0:0:0:0:
320,192,136105,1,0,0:0:0:0:
320,192,136318,1,0,0:0:0:0:
192,192,136318,1,0,0:0:0:0:
64,192,136318,1,0,0:0:0:0:
192,192,136530,1,0,0:0:0:0:
448,192,136530,1,0,0:0:0:0:
448,192,136743,1,0,0:0:0:0:
320,192,136743,1,0,0:0:0:0:
192,192,136743,1,0,0:0:0:0:
320,192,136956,1,0,0:0:0:0:
64,192,136956,1,0,0:0:0:0:
448,192,137169,1,0,0:0:0:0:
192,192,137169,1,0,0:0:0:0:
64,192,137169,1,0,0:0:0:0:
320,192,137169,1,0,0:0:0:0:
320,192,137381,1,0,0:0:0:0:
192,192,137381,1,0,0:0:0:0:
448,192,137594,1,0,0:0:0:0:
192,192,137594,1,0,0:0:0:0:
64,192,137594,1,0,0:0:0:0:
64,192,137807,1,0,0:0:0:0:
192,192,137807,1,0,0:0:0:0:
448,192,137807,1,0,0:0:0:0:
448,192,138020,1,0,0:0:0:0:
320,192,138020,1,0,0:0:0:0:
192,192,138073,1,0,0:0:0:0:
64,192,138073,1,0,0:0:0:0:
448,192,138126,1,0,0:0:0:0:
320,192,138126,1,0,0:0:0:0:
192,192,138179,1,0,0:0:0:0:
64,192,138179,1,0,0:0:0:0:
448,192,138233,1,0,0:0:0:0:
320,192,138233,1,0,0:0:0:0:
192,192,138286,1,0,0:0:0:0:
64,192,138286,1,0,0:0:0:0:
448,192,138339,1,0,0:0:0:0:
320,192,138339,1,0,0:0:0:0:
192,192,138392,1,0,0:0:0:0:
64,192,138392,1,0,0:0:0:0:
448,192,138445,1,0,0:0:0:0:
320,192,138445,1,0,0:0:0:0:
448,192,138658,1,0,0:0:0:0:
192,192,138658,1,0,0:0:0:0:
64,192,138658,1,0,0:0:0:0:
320,192,138658,1,0,0:0:0:0:
448,192,138871,1,0,0:0:0:0:
320,192,138871,1,0,0:0:0:0:
64,192,138871,1,0,0:0:0:0:
192,192,138871,1,0,0:0:0:0:
320,192,139084,1,0,0:0:0:0:
192,192,139084,1,0,0:0:0:0:
448,192,139296,1,0,0:0:0:0:
192,192,139296,1,0,0:0:0:0:
64,192,139296,1,0,0:0:0:0:
320,192,139509,1,0,0:0:0:0:
64,192,139509,1,0,0:0:0:0:
448,192,139722,1,0,0:0:0:0:
320,192,139722,1,0,0:0:0:0:
192,192,139722,1,0,0:0:0:0:
448,192,139935,1,0,0:0:0:0:
192,192,139935,1,0,0:0:0:0:
320,192,140147,1,0,0:0:0:0:
64,192,140147,1,0,0:0:0:0:
448,192,140147,1,0,0:0:0:0:
320,192,140254,1,0,0:0:0:0:
64,192,140360,1,0,0:0:0:0:
192,192,140360,1,0,0:0:0:0:
448,192,140360,1,0,0:0:0:0:
448,192,140573,1,0,0:0:0:0:
192,192,140573,1,0,0:0:0:0:
64,192,140573,1,0,0:0:0:0:
320,192,140573,1,0,0:0:0:0:
320,192,140786,1,0,0:0:0:0:
192,192,140786,1,0,0:0:0:0:
448,192,140999,1,0,0:0:0:0:
320,192,140999,1,0,0:0:0:0:
64,192,140999,1,0,0:0:0:0:
448,192,141211,1,0,0:0:0:0:
192,192,141211,1,0,0:0:0:0:
320,192,141424,1,0,0:0:0:0:
192,192,141424,1,0,0:0:0:0:
64,192,141424,1,0,0:0:0:0:
448,192,141424,1,0,0:0:0:0:
448,192,141637,1,0,0:0:0:0:
192,192,141637,1,0,0:0:0:0:
448,192,141850,1,0,0:0:0:0:
320,192,141850,1,0,0:0:0:0:
64,192,141850,1,0,0:0:0:0:
448,192,142062,1,0,0:0:0:0:
320,192,142062,1,0,0:0:0:0:
64,192,142062,1,0,0:0:0:0:
448,192,142169,1,0,0:0:0:0:
320,192,142169,1,0,0:0:0:0:
64,192,142169,1,0,0:0:0:0:
64,192,142275,1,0,0:0:0:0:
192,192,142275,1,0,0:0:0:0:
320,192,142275,1,0,0:0:0:0:
448,192,142275,1,0,0:0:0:0:
64,192,142488,1,0,0:0:0:0:
192,192,142488,1,0,0:0:0:0:
64,192,142701,1,0,0:0:0:0:
192,192,142701,1,0,0:0:0:0:
320,192,142701,1,0,0:0:0:0:
448,192,142701,1,0,0:0:0:0:
320,192,142913,1,0,0:0:0:0:
448,192,142913,1,0,0:0:0:0:
448,192,143126,1,0,0:0:0:0:
320,192,143126,1,0,0:0:0:0:
192,192,143126,1,0,0:0:0:0:
64,192,143126,1,0,0:0:0:0:
192,192,143339,1,0,0:0:0:0:
320,192,143339,1,0,0:0:0:0:
64,192,143552,1,0,0:0:0:0:
192,192,143552,1,0,0:0:0:0:
448,192,143552,1,0,0:0:0:0:
448,192,143764,1,0,0:0:0:0:
320,192,143764,1,0,0:0:0:0:
192,192,143764,1,0,0:0:0:0:
64,192,143764,1,0,0:0:0:0:
64,192,143977,1,0,0:0:0:0:
192,192,143977,1,0,0:0:0:0:
320,192,143977,1,0,0:0:0:0:
448,192,143977,1,0,0:0:0:0:
192,192,144190,1,0,0:0:0:0:
320,192,144190,1,0,0:0:0:0:
64,192,144403,1,0,0:0:0:0:
320,192,144403,1,0,0:0:0:0:
448,192,144403,1,0,0:0:0:0:
64,192,144616,1,0,0:0:0:0:
192,192,144616,1,0,0:0:0:0:
320,192,144616,1,0,0:0:0:0:
448,192,144616,1,0,0:0:0:0:
64,192,144828,1,0,0:0:0:0:
192,192,144828,1,0,0:0:0:0:
320,192,144881,1,0,0:0:0:0:
448,192,144881,1,0,0:0:0:0:
64,192,144935,1,0,0:0:0:0:
192,192,144935,1,0,0:0:0:0:
448,192,144988,1,0,0:0:0:0:
320,192,144988,1,0,0:0:0:0:
192,192,145041,1,0,0:0:0:0:
64,192,145041,1,0,0:0:0:0:
320,192,145094,1,0,0:0:0:0:
448,192,145094,1,0,0:0:0:0:
64,192,145147,1,0,0:0:0:0:
192,192,145147,1,0,0:0:0:0:
448,192,145201,1,0,0:0:0:0:
320,192,145201,1,0,0:0:0:0:
192,192,145254,1,0,0:0:0:0:
64,192,145254,1,0,0:0:0:0:
64,192,145467,1,0,0:0:0:0:
192,192,145467,1,0,0:0:0:0:
320,192,145467,1,0,0:0:0:0:
448,192,145467,1,0,0:0:0:0:
64,192,145679,1,0,0:0:0:0:
320,192,145679,1,0,0:0:0:0:
448,192,145679,1,0,0:0:0:0:
192,192,145679,1,0,0:0:0:0:
64,192,145892,1,0,0:0:0:0:
192,192,145892,1,0,0:0:0:0:
320,192,145892,1,0,0:0:0:0:
64,192,146105,1,0,0:0:0:0:
192,192,146105,1,0,0:0:0:0:
320,192,146105,1,0,0:0:0:0:
448,192,146105,1,0,0:0:0:0:
64,192,146318,1,0,0:0:0:0:
320,192,146318,1,0,0:0:0:0:
448,192,146318,1,0,0:0:0:0:
64,192,146530,1,0,0:0:0:0:
192,192,146530,1,0,0:0:0:0:
320,192,146530,1,0,0:0:0:0:
448,192,146530,1,0,0:0:0:0:
192,192,146743,1,0,0:0:0:0:
320,192,146743,1,0,0:0:0:0:
448,192,146743,1,0,0:0:0:0:
64,192,146956,1,0,0:0:0:0:
192,192,146956,1,0,0:0:0:0:
320,192,146956,1,0,0:0:0:0:
448,192,146956,1,0,0:0:0:0:
64,192,147169,1,0,0:0:0:0:
192,192,147169,1,0,0:0:0:0:
448,192,147169,1,0,0:0:0:0:
448,192,147381,1,0,0:0:0:0:
192,192,147381,1,0,0:0:0:0:
64,192,147381,1,0,0:0:0:0:
448,192,147488,1,0,0:0:0:0:
320,192,147488,1,0,0:0:0:0:
192,192,147594,1,0,0:0:0:0:
448,192,147594,1,0,0:0:0:0:
320,192,147701,1,0,0:0:0:0:
64,192,147701,1,0,0:0:0:0:
448,192,147807,1,0,0:0:0:0:
192,192,147807,1,0,0:0:0:0:
64,192,147807,1,0,0:0:0:0:
320,192,147913,5,0,0:0:0:0:
448,192,147913,1,0,0:0:0:0:
320,192,148020,1,0,0:0:0:0:
64,192,148020,1,0,0:0:0:0:
448,192,148126,1,0,0:0:0:0:
192,192,148126,1,0,0:0:0:0:
448,192,148233,1,0,0:0:0:0:
320,192,148233,1,0,0:0:0:0:
64,192,148233,1,0,0:0:0:0:
192,192,148339,1,0,0:0:0:0:
320,192,148339,1,0,0:0:0:0:
320,192,148445,1,0,0:0:0:0:
192,192,148445,1,0,0:0:0:0:
448,192,148445,1,0,0:0:0:0:
320,192,148552,1,0,0:0:0:0:
64,192,148552,1,0,0:0:0:0:
64,192,148658,1,0,0:0:0:0:
448,192,148658,1,0,0:0:0:0:
192,192,148658,1,0,0:0:0:0:
320,192,148764,1,0,0:0:0:0:
192,192,148764,1,0,0:0:0:0:
192,192,148871,1,0,0:0:0:0:
320,192,148871,1,0,0:0:0:0:
64,192,148871,1,0,0:0:0:0:
448,192,148977,1,0,0:0:0:0:
192,192,148977,1,0,0:0:0:0:
192,192,149084,5,0,0:0:0:0:
448,192,149084,1,0,0:0:0:0:
64,192,149084,1,0,0:0:0:0:
320,192,149084,1,0,0:0:0:0:
320,192,149509,1,0,0:0:0:0:
320,192,149616,1,0,0:0:0:0:
64,192,149722,1,0,0:0:0:0:
192,192,149935,1,0,0:0:0:0:
448,192,150147,1,0,0:0:0:0:
320,192,150360,1,0,0:0:0:0:
64,192,150573,1,0,0:0:0:0:
448,192,150786,1,0,0:0:0:0:
320,192,150786,1,0,0:0:0:0:
192,192,150786,1,0,0:0:0:0:
64,192,150786,1,0,0:0:0:0:
192,192,150999,1,0,0:0:0:0:
64,192,150999,1,0,0:0:0:0:
192,192,151105,1,0,0:0:0:0:
64,192,151105,1,0,0:0:0:0:
64,192,151211,1,0,0:0:0:0:
448,192,151211,1,0,0:0:0:0:
320,192,151211,1,0,0:0:0:0:
192,192,151211,1,0,0:0:0:0:
320,192,151424,1,0,0:0:0:0:
192,192,151424,1,0,0:0:0:0:
448,192,151637,1,0,0:0:0:0:
192,192,151637,1,0,0:0:0:0:
64,192,151637,1,0,0:0:0:0:
320,192,151850,1,0,0:0:0:0:
64,192,151850,1,0,0:0:0:0:
448,192,152062,1,0,0:0:0:0:
320,192,152062,1,0,0:0:0:0:
64,192,152062,1,0,0:0:0:0:
192,192,152062,1,0,0:0:0:0:
448,192,152275,1,0,0:0:0:0:
192,192,152275,1,0,0:0:0:0:
320,192,152488,1,0,0:0:0:0:
192,192,152488,1,0,0:0:0:0:
64,192,152488,1,0,0:0:0:0:
320,192,152701,1,0,0:0:0:0:
448,192,152913,1,0,0:0:0:0:
192,192,152913,1,0,0:0:0:0:
64,192,152913,1,0,0:0:0:0:
320,192,152913,1,0,0:0:0:0:
320,192,153126,1,0,0:0:0:0:
64,192,153126,1,0,0:0:0:0:
320,192,153339,1,0,0:0:0:0:
64,192,153339,1,0,0:0:0:0:
192,192,153339,1,0,0:0:0:0:
320,192,153445,1,0,0:0:0:0:
192,192,153445,1,0,0:0:0:0:
64,192,153552,1,0,0:0:0:0:
448,192,153552,1,0,0:0:0:0:
192,192,153764,1,0,0:0:0:0:
320,192,153764,1,0,0:0:0:0:
448,192,153764,1,0,0:0:0:0:
64,192,153764,1,0,0:0:0:0:
192,192,153977,1,0,0:0:0:0:
320,192,153977,1,0,0:0:0:0:
64,192,154190,1,0,0:0:0:0:
320,192,154190,1,0,0:0:0:0:
448,192,154190,1,0,0:0:0:0:
320,192,154403,1,0,0:0:0:0:
448,192,154403,1,0,0:0:0:0:
320,192,154509,1,0,0:0:0:0:
448,192,154509,1,0,0:0:0:0:
448,192,154616,1,0,0:0:0:0:
192,192,154616,1,0,0:0:0:0:
64,192,154616,1,0,0:0:0:0:
320,192,154616,1,0,0:0:0:0:
192,192,154828,1,0,0:0:0:0:
64,192,154828,1,0,0:0:0:0:
192,192,155041,1,0,0:0:0:0:
448,192,155041,1,0,0:0:0:0:
320,192,155041,1,0,0:0:0:0:
448,192,155147,1,0,0:0:0:0:
192,192,155147,1,0,0:0:0:0:
320,192,155254,1,0,0:0:0:0:
64,192,155254,1,0,0:0:0:0:
448,192,155467,1,0,0:0:0:0:
320,192,155467,1,0,0:0:0:0:
64,192,155467,1,0,0:0:0:0:
192,192,155467,1,0,0:0:0:0:
320,192,155679,1,0,0:0:0:0:
192,192,155679,1,0,0:0:0:0:
192,192,155892,1,0,0:0:0:0:
320,192,155892,1,0,0:0:0:0:
448,192,155892,1,0,0:0:0:0:
64,192,156105,1,0,0:0:0:0:
192,192,156105,1,0,0:0:0:0:
192,192,156211,1,0,0:0:0:0:
64,192,156211,1,0,0:0:0:0:
64,192,156318,1,0,0:0:0:0:
192,192,156318,1,0,0:0:0:0:
448,192,156318,1,0,0:0:0:0:
320,192,156318,1,0,0:0:0:0:
192,192,156530,1,0,0:0:0:0:
320,192,156530,1,0,0:0:0:0:
448,192,156743,1,0,0:0:0:0:
64,192,156743,1,0,0:0:0:0:
320,192,156743,1,0,0:0:0:0:
192,192,156956,1,0,0:0:0:0:
448,192,156956,1,0,0:0:0:0:
64,192,157169,1,0,0:0:0:0:
320,192,157169,1,0,0:0:0:0:
448,192,157169,1,0,0:0:0:0:
192,192,157169,1,0,0:0:0:0:
320,192,157381,1,0,0:0:0:0:
192,192,157381,1,0,0:0:0:0:
64,192,157594,1,0,0:0:0:0:
448,192,157594,1,0,0:0:0:0:
320,192,157594,1,0,0:0:0:0:
448,192,157701,1,0,0:0:0:0:
320,192,157701,1,0,0:0:0:0:
320,192,157807,1,0,0:0:0:0:
448,192,157807,1,0,0:0:0:0:
320,192,157913,1,0,0:0:0:0:
448,192,157913,1,0,0:0:0:0:
448,192,158020,1,0,0:0:0:0:
64,192,158020,1,0,0:0:0:0:
192,192,158020,1,0,0:0:0:0:
320,192,158020,1,0,0:0:0:0:
192,192,158233,1,0,0:0:0:0:
320,192,158233,1,0,0:0:0:0:
64,192,158445,1,0,0:0:0:0:
320,192,158445,1,0,0:0:0:0:
448,192,158445,1,0,0:0:0:0:
320,192,158658,1,0,0:0:0:0:
192,192,158658,1,0,0:0:0:0:
64,192,158764,1,0,0:0:0:0:
320,192,158764,1,0,0:0:0:0:
64,192,158871,1,0,0:0:0:0:
192,192,158871,1,0,0:0:0:0:
448,192,158871,1,0,0:0:0:0:
320,192,158871,1,0,0:0:0:0:
64,192,159084,1,0,0:0:0:0:
320,192,159084,1,0,0:0:0:0:
192,192,159296,1,0,0:0:0:0:
320,192,159296,1,0,0:0:0:0:
448,192,159296,1,0,0:0:0:0:
64,192,159509,1,0,0:0:0:0:
320,192,159509,1,0,0:0:0:0:
64,192,159722,1,0,0:0:0:0:
320,192,159722,1,0,0:0:0:0:
448,192,159722,1,0,0:0:0:0:
192,192,159722,1,0,0:0:0:0:
192,192,159935,1,0,0:0:0:0:
448,192,159935,1,0,0:0:0:0:
64,192,160147,1,0,0:0:0:0:
448,192,160147,1,0,0:0:0:0:
320,192,160147,1,0,0:0:0:0:
192,192,160360,1,0,0:0:0:0:
320,192,160360,1,0,0:0:0:0:
448,192,160467,1,0,0:0:0:0:
192,192,160467,1,0,0:0:0:0:
320,192,160573,1,0,0:0:0:0:
64,192,160573,1,0,0:0:0:0:
448,192,160573,1,0,0:0:0:0:
192,192,160573,1,0,0:0:0:0:
320,192,160786,1,0,0:0:0:0:
192,192,160786,1,0,0:0:0:0:
320,192,160999,1,0,0:0:0:0:
448,192,160999,1,0,0:0:0:0:
64,192,160999,1,0,0:0:0:0:
64,192,161211,1,0,0:0:0:0:
192,192,161211,1,0,0:0:0:0:
192,192,161318,1,0,0:0:0:0:
64,192,161318,1,0,0:0:0:0:
192,192,161424,1,0,0:0:0:0:
64,192,161424,1,0,0:0:0:0:
448,192,161424,1,0,0:0:0:0:
320,192,161424,1,0,0:0:0:0:
192,192,161637,1,0,0:0:0:0:
320,192,161637,1,0,0:0:0:0:
448,192,161850,1,0,0:0:0:0:
192,192,161850,1,0,0:0:0:0:
320,192,161850,1,0,0:0:0:0:
320,192,161956,1,0,0:0:0:0:
192,192,161956,1,0,0:0:0:0:
448,192,161956,1,0,0:0:0:0:
192,192,162062,1,0,0:0:0:0:
448,192,162062,1,0,0:0:0:0:
64,192,162062,1,0,0:0:0:0:
64,192,162169,1,0,0:0:0:0:
192,192,162169,1,0,0:0:0:0:
448,192,162169,1,0,0:0:0:0:
320,192,162275,1,0,0:0:0:0:
192,192,162275,1,0,0:0:0:0:
64,192,162275,1,0,0:0:0:0:
192,192,162381,1,0,0:0:0:0:
64,192,162381,1,0,0:0:0:0:
320,192,162381,1,0,0:0:0:0:
320,192,162488,1,0,0:0:0:0:
64,192,162488,1,0,0:0:0:0:
448,192,162488,1,0,0:0:0:0:
448,192,162594,1,0,0:0:0:0:
320,192,162594,1,0,0:0:0:0:
64,192,162594,1,0,0:0:0:0:
448,192,162701,1,0,0:0:0:0:
320,192,162701,1,0,0:0:0:0:
192,192,162701,1,0,0:0:0:0:
64,192,162701,1,0,0:0:0:0:
320,192,162913,1,0,0:0:0:0:
64,192,162913,1,0,0:0:0:0:
448,192,163126,1,0,0:0:0:0:
320,192,163126,1,0,0:0:0:0:
64,192,163126,1,0,0:0:0:0:
192,192,163126,1,0,0:0:0:0:
192,192,163233,1,0,0:0:0:0:
64,192,163233,1,0,0:0:0:0:
320,192,163233,1,0,0:0:0:0:
448,192,163339,1,0,0:0:0:0:
320,192,163339,1,0,0:0:0:0:
192,192,163339,1,0,0:0:0:0:
320,192,163552,1,0,0:0:0:0:
192,192,163552,1,0,0:0:0:0:
64,192,163552,1,0,0:0:0:0:
448,192,163764,1,0,0:0:0:0:
192,192,163764,1,0,0:0:0:0:
64,192,163764,1,0,0:0:0:0:
448,192,163977,1,0,0:0:0:0:
192,192,163977,1,0,0:0:0:0:
64,192,163977,1,0,0:0:0:0:
320,192,163977,1,0,0:0:0:0:
192,192,164190,1,0,0:0:0:0:
320,192,164190,1,0,0:0:0:0:
448,192,164190,1,0,0:0:0:0:
320,192,164403,1,0,0:0:0:0:
192,192,164403,1,0,0:0:0:0:
64,192,164403,1,0,0:0:0:0:
448,192,164616,1,0,0:0:0:0:
320,192,164616,1,0,0:0:0:0:
64,192,164616,1,0,0:0:0:0:
448,192,164722,1,0,0:0:0:0:
320,192,164722,1,0,0:0:0:0:
64,192,164722,1,0,0:0:0:0:
192,192,164828,1,0,0:0:0:0:
320,192,164828,1,0,0:0:0:0:
448,192,164828,1,0,0:0:0:0:
64,192,164828,1,0,0:0:0:0:
320,192,165041,1,0,0:0:0:0:
192,192,165041,1,0,0:0:0:0:
448,192,165041,1,0,0:0:0:0:
448,192,165254,1,0,0:0:0:0:
320,192,165254,1,0,0:0:0:0:
64,192,165254,1,0,0:0:0:0:
448,192,165467,1,0,0:0:0:0:
192,192,165467,1,0,0:0:0:0:
64,192,165467,1,0,0:0:0:0:
448,192,165679,1,0,0:0:0:0:
320,192,165679,1,0,0:0:0:0:
64,192,165679,1,0,0:0:0:0:
192,192,165679,1,0,0:0:0:0:
320,192,165892,1,0,0:0:0:0:
64,192,165892,1,0,0:0:0:0:
448,192,165892,1,0,0:0:0:0:
448,192,166105,1,0,0:0:0:0:
320,192,166105,1,0,0:0:0:0:
192,192,166105,1,0,0:0:0:0:
192,192,166318,1,0,0:0:0:0:
448,192,166530,1,0,0:0:0:0:
192,192,166530,1,0,0:0:0:0:
64,192,166530,1,0,0:0:0:0:
320,192,166530,1,0,0:0:0:0:
192,192,166743,1,0,0:0:0:0:
64,192,166743,1,0,0:0:0:0:
320,192,166743,1,0,0:0:0:0:
320,192,166956,1,0,0:0:0:0:
448,192,166956,1,0,0:0:0:0:
192,192,166956,1,0,0:0:0:0:
320,192,167062,1,0,0:0:0:0:
192,192,167062,1,0,0:0:0:0:
448,192,167062,1,0,0:0:0:0:
64,192,167169,1,0,0:0:0:0:
320,192,167169,1,0,0:0:0:0:
192,192,167169,1,0,0:0:0:0:
64,192,167381,1,0,0:0:0:0:
448,192,167381,1,0,0:0:0:0:
320,192,167381,1,0,0:0:0:0:
192,192,167381,1,0,0:0:0:0:
192,192,167594,1,0,0:0:0:0:
320,192,167594,1,0,0:0:0:0:
448,192,167594,1,0,0:0:0:0:
64,192,167807,1,0,0:0:0:0:
192,192,167807,1,0,0:0:0:0:
448,192,167807,1,0,0:0:0:0:
64,192,168020,1,0,0:0:0:0:
192,192,168020,1,0,0:0:0:0:
448,192,168020,1,0,0:0:0:0:
64,192,168126,1,0,0:0:0:0:
192,192,168126,1,0,0:0:0:0:
448,192,168126,1,0,0:0:0:0:
448,192,168233,1,0,0:0:0:0:
192,192,168233,1,0,0:0:0:0:
64,192,168233,1,0,0:0:0:0:
320,192,168233,1,0,0:0:0:0:
448,192,168445,1,0,0:0:0:0:
320,192,168445,1,0,0:0:0:0:
64,192,168445,1,0,0:0:0:0:
192,192,168658,1,0,0:0:0:0:
64,192,168658,1,0,0:0:0:0:
320,192,168658,1,0,0:0:0:0:
320,192,168764,1,0,0:0:0:0:
64,192,168764,1,0,0:0:0:0:
192,192,168764,1,0,0:0:0:0:
448,192,168871,1,0,0:0:0:0:
192,192,168871,1,0,0:0:0:0:
320,192,168871,1,0,0:0:0:0:
448,192,169084,1,0,0:0:0:0:
320,192,169084,1,0,0:0:0:0:
64,192,169084,1,0,0:0:0:0:
192,192,169084,1,0,0:0:0:0:
320,192,169296,1,0,0:0:0:0:
192,192,169296,1,0,0:0:0:0:
64,192,169296,1,0,0:0:0:0:
64,192,169509,1,0,0:0:0:0:
320,192,169509,1,0,0:0:0:0:
448,192,169509,1,0,0:0:0:0:
320,192,169722,1,0,0:0:0:0:
192,192,169722,1,0,0:0:0:0:
64,192,169722,1,0,0:0:0:0:
448,192,169828,1,0,0:0:0:0:
320,192,169828,1,0,0:0:0:0:
64,192,169828,1,0,0:0:0:0:
64,192,169935,1,0,0:0:0:0:
192,192,169935,1,0,0:0:0:0:
448,192,169935,1,0,0:0:0:0:
320,192,169935,1,0,0:0:0:0:
192,192,170147,1,0,0:0:0:0:
320,192,170147,1,0,0:0:0:0:
192,192,170360,1,0,0:0:0:0:
448,192,170360,1,0,0:0:0:0:
64,192,170360,1,0,0:0:0:0:
64,192,170573,1,0,0:0:0:0:
320,192,170573,1,0,0:0:0:0:
192,192,170573,1,0,0:0:0:0:
64,192,170786,1,0,0:0:0:0:
320,192,170786,1,0,0:0:0:0:
448,192,170786,1,0,0:0:0:0:
192,192,170786,1,0,0:0:0:0:
320,192,170999,1,0,0:0:0:0:
192,192,170999,1,0,0:0:0:0:
448,192,170999,1,0,0:0:0:0:
320,192,171211,1,0,0:0:0:0:
448,192,171211,1,0,0:0:0:0:
64,192,171211,1,0,0:0:0:0:
320,192,171318,1,0,0:0:0:0:
192,192,171318,1,0,0:0:0:0:
64,192,171318,1,0,0:0:0:0:
64,192,171424,1,0,0:0:0:0:
448,192,171424,1,0,0:0:0:0:
192,192,171424,1,0,0:0:0:0:
192,192,171530,1,0,0:0:0:0:
448,192,171530,1,0,0:0:0:0:
320,192,171530,1,0,0:0:0:0:
320,192,171637,1,0,0:0:0:0:
192,192,171637,1,0,0:0:0:0:
64,192,171637,1,0,0:0:0:0:
448,192,171637,1,0,0:0:0:0:
320,192,171850,1,0,0:0:0:0:
448,192,171850,1,0,0:0:0:0:
64,192,171850,1,0,0:0:0:0:
64,192,172062,1,0,0:0:0:0:
192,192,172062,1,0,0:0:0:0:
448,192,172062,1,0,0:0:0:0:
320,192,172275,1,0,0:0:0:0:
192,192,172275,1,0,0:0:0:0:
448,192,172275,1,0,0:0:0:0:
192,192,172381,1,0,0:0:0:0:
448,192,172381,1,0,0:0:0:0:
64,192,172381,1,0,0:0:0:0:
64,192,172488,1,0,0:0:0:0:
192,192,172488,1,0,0:0:0:0:
448,192,172488,1,0,0:0:0:0:
320,192,172488,1,0,0:0:0:0:
192,192,172701,1,0,0:0:0:0:
448,192,172701,1,0,0:0:0:0:
64,192,172913,1,0,0:0:0:0:
192,192,172913,1,0,0:0:0:0:
320,192,172913,1,0,0:0:0:0:
320,192,173126,1,0,0:0:0:0:
64,192,173339,1,0,0:0:0:0:
320,192,173339,1,0,0:0:0:0:
448,192,173339,1,0,0:0:0:0:
192,192,173339,1,0,0:0:0:0:
320,192,173552,1,0,0:0:0:0:
448,192,173552,1,0,0:0:0:0:
192,192,173552,1,0,0:0:0:0:
192,192,173764,1,0,0:0:0:0:
64,192,173764,1,0,0:0:0:0:
448,192,173764,1,0,0:0:0:0:
320,192,173977,1,0,0:0:0:0:
448,192,173977,1,0,0:0:0:0:
192,192,173977,1,0,0:0:0:0:
192,192,174084,1,0,0:0:0:0:
320,192,174084,1,0,0:0:0:0:
448,192,174084,1,0,0:0:0:0:
64,192,174190,1,0,0:0:0:0:
320,192,174190,1,0,0:0:0:0:
192,192,174190,1,0,0:0:0:0:
448,192,174190,1,0,0:0:0:0:
320,192,174403,1,0,0:0:0:0:
192,192,174403,1,0,0:0:0:0:
448,192,174616,1,0,0:0:0:0:
64,192,174616,1,0,0:0:0:0:
192,192,174616,1,0,0:0:0:0:
320,192,174828,1,0,0:0:0:0:
192,192,174828,1,0,0:0:0:0:
64,192,174828,1,0,0:0:0:0:
320,192,174935,1,0,0:0:0:0:
64,192,174935,1,0,0:0:0:0:
192,192,174935,1,0,0:0:0:0:
64,192,175041,1,0,0:0:0:0:
192,192,175041,1,0,0:0:0:0:
320,192,175041,1,0,0:0:0:0:
448,192,175041,1,0,0:0:0:0:
192,192,175254,1,0,0:0:0:0:
320,192,175254,1,0,0:0:0:0:
448,192,175254,1,0,0:0:0:0:
192,192,175467,1,0,0:0:0:0:
320,192,175467,1,0,0:0:0:0:
64,192,175467,1,0,0:0:0:0:
64,192,175573,1,0,0:0:0:0:
320,192,175573,1,0,0:0:0:0:
192,192,175573,1,0,0:0:0:0:
448,192,175679,1,0,0:0:0:0:
64,192,175679,1,0,0:0:0:0:
320,192,175679,1,0,0:0:0:0:
64,192,175786,1,0,0:0:0:0:
320,192,175786,1,0,0:0:0:0:
448,192,175786,1,0,0:0:0:0:
448,192,175892,1,0,0:0:0:0:
320,192,175892,1,0,0:0:0:0:
192,192,175892,1,0,0:0:0:0:
192,192,175999,1,0,0:0:0:0:
448,192,175999,1,0,0:0:0:0:
320,192,175999,1,0,0:0:0:0:
64,192,176105,1,0,0:0:0:0:
448,192,176105,1,0,0:0:0:0:
192,192,176105,1,0,0:0:0:0:
448,192,176211,1,0,0:0:0:0:
192,192,176211,1,0,0:0:0:0:
64,192,176211,1,0,0:0:0:0:
64,192,176318,1,0,0:0:0:0:
448,192,176318,1,0,0:0:0:0:
320,192,176318,1,0,0:0:0:0:
192,192,176318,1,0,0:0:0:0:
320,192,176530,1,0,0:0:0:0:
64,192,176743,1,0,0:0:0:0:
192,192,176743,1,0,0:0:0:0:
448,192,176743,1,0,0:0:0:0:
320,192,176743,1,0,0:0:0:0:
192,192,176956,1,0,0:0:0:0:
64,192,177169,1,0,0:0:0:0:
320,192,177169,1,0,0:0:0:0:
448,192,177169,1,0,0:0:0:0:
64,192,177381,1,0,0:0:0:0:
192,192,177381,1,0,0:0:0:0:
64,192,177594,1,0,0:0:0:0:
192,192,177594,1,0,0:0:0:0:
320,192,177594,1,0,0:0:0:0:
448,192,177594,1,0,0:0:0:0:
448,192,177807,1,0,0:0:0:0:
320,192,177807,1,0,0:0:0:0:
192,192,178020,1,0,0:0:0:0:
64,192,178020,1,0,0:0:0:0:
320,192,178020,1,0,0:0:0:0:
192,192,178233,1,0,0:0:0:0:
64,192,178445,1,0,0:0:0:0:
192,192,178445,1,0,0:0:0:0:
320,192,178445,1,0,0:0:0:0:
448,192,178445,1,0,0:0:0:0:
320,192,178658,1,0,0:0:0:0:
64,192,178871,1,0,0:0:0:0:
192,192,178871,1,0,0:0:0:0:
448,192,178871,1,0,0:0:0:0:
448,192,179084,1,0,0:0:0:0:
320,192,179084,1,0,0:0:0:0:
64,192,179296,1,0,0:0:0:0:
192,192,179296,1,0,0:0:0:0:
320,192,179296,1,0,0:0:0:0:
448,192,179296,1,0,0:0:0:0:
64,192,179509,1,0,0:0:0:0:
192,192,179509,1,0,0:0:0:0:
64,192,179722,1,0,0:0:0:0:
320,192,179722,1,0,0:0:0:0:
448,192,179722,1,0,0:0:0:0:
192,192,179935,1,0,0:0:0:0:
64,192,180147,1,0,0:0:0:0:
192,192,180147,1,0,0:0:0:0:
320,192,180147,1,0,0:0:0:0:
448,192,180147,1,0,0:0:0:0:
448,192,180360,1,0,0:0:0:0:
64,192,180573,1,0,0:0:0:0:
192,192,180573,1,0,0:0:0:0:
320,192,180573,1,0,0:0:0:0:
64,192,180786,1,0,0:0:0:0:
192,192,180786,1,0,0:0:0:0:
64,192,180999,1,0,0:0:0:0:
192,192,180999,1,0,0:0:0:0:
320,192,180999,1,0,0:0:0:0:
448,192,180999,1,0,0:0:0:0:
320,192,181211,1,0,0:0:0:0:
448,192,181211,1,0,0:0:0:0:
64,192,181424,1,0,0:0:0:0:
192,192,181424,1,0,0:0:0:0:
448,192,181424,1,0,0:0:0:0:
192,192,181637,1,0,0:0:0:0:
64,192,181850,1,0,0:0:0:0:
320,192,181850,1,0,0:0:0:0:
192,192,181850,1,0,0:0:0:0:
448,192,181850,1,0,0:0:0:0:
320,192,182062,1,0,0:0:0:0:
64,192,182275,1,0,0:0:0:0:
192,192,182275,1,0,0:0:0:0:
448,192,182275,1,0,0:0:0:0:
320,192,182488,1,0,0:0:0:0:
448,192,182488,1,0,0:0:0:0:
64,192,182701,1,0,0:0:0:0:
192,192,182701,1,0,0:0:0:0:
320,192,182701,1,0,0:0:0:0:
448,192,182701,1,0,0:0:0:0:
64,192,182913,1,0,0:0:0:0:
192,192,182913,1,0,0:0:0:0:
192,192,183126,1,0,0:0:0:0:
320,192,183126,1,0,0:0:0:0:
64,192,183126,1,0,0:0:0:0:
448,192,183126,1,0,0:0:0:0:
192,192,183339,1,0,0:0:0:0:
448,192,183552,1,0,0:0:0:0:
192,192,183552,1,0,0:0:0:0:
64,192,183552,1,0,0:0:0:0:
320,192,183552,1,0,0:0:0:0:
320,192,183764,1,0,0:0:0:0:
448,192,183977,1,0,0:0:0:0:
192,192,183977,1,0,0:0:0:0:
64,192,183977,1,0,0:0:0:0:
320,192,184190,1,0,0:0:0:0:
64,192,184190,1,0,0:0:0:0:
192,192,184403,1,0,0:0:0:0:
448,192,184403,1,0,0:0:0:0:
64,192,184403,1,0,0:0:0:0:
320,192,184403,1,0,0:0:0:0:
192,192,184616,1,0,0:0:0:0:
448,192,184616,1,0,0:0:0:0:
192,192,184828,1,0,0:0:0:0:
64,192,184828,1,0,0:0:0:0:
320,192,184828,1,0,0:0:0:0:
320,192,185041,1,0,0:0:0:0:
192,192,185254,1,0,0:0:0:0:
448,192,185254,1,0,0:0:0:0:
64,192,185254,1,0,0:0:0:0:
320,192,185254,1,0,0:0:0:0:
192,192,185467,1,0,0:0:0:0:
448,192,185679,1,0,0:0:0:0:
320,192,185679,1,0,0:0:0:0:
64,192,185679,1,0,0:0:0:0:
192,192,185892,1,0,0:0:0:0:
448,192,185892,1,0,0:0:0:0:
192,192,186105,1,0,0:0:0:0:
448,192,186105,1,0,0:0:0:0:
64,192,186105,1,0,0:0:0:0:
320,192,186105,1,0,0:0:0:0:
320,192,186318,1,0,0:0:0:0:
64,192,186318,1,0,0:0:0:0:
448,192,186530,1,0,0:0:0:0:
192,192,186530,1,0,0:0:0:0:
64,192,186530,1,0,0:0:0:0:
320,192,186743,1,0,0:0:0:0:
192,192,186956,1,0,0:0:0:0:
448,192,186956,1,0,0:0:0:0:
64,192,186956,1,0,0:0:0:0:
320,192,186956,1,0,0:0:0:0:
448,192,187169,1,0,0:0:0:0:
192,192,187381,1,0,0:0:0:0:
320,192,187381,1,0,0:0:0:0:
64,192,187381,1,0,0:0:0:0:
320,192,187594,1,0,0:0:0:0:
64,192,187594,1,0,0:0:0:0:
192,192,187807,1,0,0:0:0:0:
448,192,187807,1,0,0:0:0:0:
64,192,187807,1,0,0:0:0:0:
320,192,187807,1,0,0:0:0:0:
448,192,188020,1,0,0:0:0:0:
192,192,188020,1,0,0:0:0:0:
448,192,188233,1,0,0:0:0:0:
320,192,188233,1,0,0:0:0:0:
64,192,188233,1,0,0:0:0:0:
320,192,188445,1,0,0:0:0:0:
320,192,188658,1,0,0:0:0:0:
448,192,188658,1,0,0:0:0:0:
64,192,188658,1,0,0:0:0:0:
192,192,188658,1,0,0:0:0:0:
192,192,188871,1,0,0:0:0:0:
448,192,189084,1,0,0:0:0:0:
320,192,189084,1,0,0:0:0:0:
64,192,189084,1,0,0:0:0:0:
448,192,189296,1,0,0:0:0:0:
192,192,189296,1,0,0:0:0:0:
192,192,189509,1,0,0:0:0:0:
448,192,189509,1,0,0:0:0:0:
64,192,189509,1,0,0:0:0:0:
320,192,189509,1,0,0:0:0:0:
320,192,189722,1,0,0:0:0:0:
64,192,189722,1,0,0:0:0:0:
64,192,189935,1,0,0:0:0:0:
192,192,189935,1,0,0:0:0:0:
448,192,189935,1,0,0:0:0:0:
320,192,189935,1,0,0:0:0:0:
