osu file format v14

[General]
AudioFilename: 7 Colors.mp3
AudioLeadIn: 0
PreviewTime: 52240
Countdown: 0
SampleSet: None
StackLeniency: 0.7
Mode: 3
LetterboxInBreaks: 0
SpecialStyle: 0
WidescreenStoryboard: 0

[Editor]
DistanceSpacing: 1
BeatDivisor: 4
GridSize: 4
TimelineZoom: 2.4

[Metadata]
Title:Simple PACK
TitleUnicode:Simple PACK
Artist:Various Artists
ArtistUnicode:Various Artists
Creator:frolica
Version:kors k feat. Yoshikawa Sunao - 7 Colors [10]
Source:
Tags:
BeatmapID:1054994
BeatmapSetID:472712

[Difficulty]
HPDrainRate:8
CircleSize:4
OverallDifficulty:8
ApproachRate:5
SliderMultiplier:1.4
SliderTickRate:1

[Events]
//Background and Video events
0,0,"BG8.jpg",0,0
//Break Periods
//Storyboard Layer 0 (Background)
//Storyboard Layer 1 (Fail)
//Storyboard Layer 2 (Pass)
//Storyboard Layer 3 (Foreground)
//Storyboard Sound Samples

[TimingPoints]
317.321902680043,384.615384615385,4,2,0,0,1,0

[HitObjects]
192,192,317,5,0,0:0:0:0:
320,192,317,1,0,0:0:0:0:
448,192,605,1,0,0:0:0:0:
192,192,605,1,0,0:0:0:0:
64,192,701,1,0,0:0:0:0:
448,192,701,1,0,0:0:0:0:
320,192,701,1,0,0:0:0:0:
192,192,894,1,0,0:0:0:0:
320,192,894,1,0,0:0:0:0:
64,192,1086,1,0,0:0:0:0:
448,192,1086,1,0,0:0:0:0:
64,192,1375,1,0,0:0:0:0:
320,192,1375,1,0,0:0:0:0:
64,192,1471,1,0,0:0:0:0:
192,192,1471,1,0,0:0:0:0:
320,192,1567,1,0,0:0:0:0:
64,192,1663,1,0,0:0:0:0:
448,192,1663,1,0,0:0:0:0:
192,192,1663,1,0,0:0:0:0:
192,192,1855,1,0,0:0:0:0:
320,192,1855,1,0,0:0:0:0:
64,192,2048,1,0,0:0:0:0:
320,192,2048,1,0,0:0:0:0:
192,192,2144,1,0,0:0:0:0:
64,192,2240,1,0,0:0:0:0:
448,192,2240,1,0,0:0:0:0:
192,192,2432,1,0,0:0:0:0:
320,192,2432,1,0,0:0:0:0:
64,192,2625,1,0,0:0:0:0:
448,192,2625,1,0,0:0:0:0:
192,192,2817,1,0,0:0:0:0:
448,192,2817,1,0,0:0:0:0:
192,192,3009,1,0,0:0:0:0:
448,192,3105,1,0,0:0:0:0:
64,192,3201,1,0,0:0:0:0:
192,192,3201,1,0,0:0:0:0:
320,192,3298,1,0,0:0:0:0:
448,192,3298,1,0,0:0:0:0:
192,192,3394,1,0,0:0:0:0:
64,192,3394,1,0,0:0:0:0:
320,192,3490,1,0,0:0:0:0:
448,192,3586,1,0,0:0:0:0:
64,192,3586,1,0,0:0:0:0:
192,192,3682,1,0,0:0:0:0:
64,192,3778,1,0,0:0:0:0:
448,192,3778,1,0,0:0:0:0:
192,192,3875,1,0,0:0:0:0:
64,192,3971,1,0,0:0:0:0:
448,192,3971,1,0,0:0:0:0:
320,192,4067,1,0,0:0:0:0:
64,192,4163,1,0,0:0:0:0:
448,192,4163,1,0,0:0:0:0:
320,192,4259,1,0,0:0:0:0:
64,192,4355,1,0,0:0:0:0:
448,192,4355,1,0,0:0:0:0:
192,192,4451,1,0,0:0:0:0:
64,192,4548,1,0,0:0:0:0:
320,192,4644,1,0,0:0:0:0:
448,192,4644,1,0,0:0:0:0:
192,192,4740,1,0,0:0:0:0:
64,192,4740,1,0,0:0:0:0:
320,192,4836,1,0,0:0:0:0:
64,192,4932,1,0,0:0:0:0:
448,192,4932,1,0,0:0:0:0:
192,192,5125,1,0,0:0:0:0:
320,192,5125,1,0,0:0:0:0:
64,192,5317,1,0,0:0:0:0:
448,192,5317,1,0,0:0:0:0:
320,192,5509,1,0,0:0:0:0:
448,192,5509,1,0,0:0:0:0:
64,192,5701,1,0,0:0:0:0:
320,192,5701,1,0,0:0:0:0:
192,192,5894,1,0,0:0:0:0:
448,192,5894,1,0,0:0:0:0:
320,192,6086,1,0,0:0:0:0:
64,192,6086,1,0,0:0:0:0:
192,192,6182,1,0,0:0:0:0:
64,192,6278,1,0,0:0:0:0:
448,192,6278,1,0,0:0:0:0:
192,192,6342,1,0,0:0:0:0:
320,192,6407,1,0,0:0:0:0:
64,192,6471,1,0,0:0:0:0:
448,192,6471,1,0,0:0:0:0:
192,192,6535,1,0,0:0:0:0:
448,192,6599,1,0,0:0:0:0:
64,192,6663,1,0,0:0:0:0:
192,192,6663,1,0,0:0:0:0:
320,192,6727,1,0,0:0:0:0:
448,192,6791,1,0,0:0:0:0:
64,192,6855,1,0,0:0:0:0:
192,192,6855,1,0,0:0:0:0:
320,192,6951,1,0,0:0:0:0:
448,192,7048,1,0,0:0:0:0:
64,192,7048,1,0,0:0:0:0:
320,192,7144,1,0,0:0:0:0:
192,192,7240,1,0,0:0:0:0:
64,192,7240,1,0,0:0:0:0:
448,192,7336,1,0,0:0:0:0:
320,192,7432,1,0,0:0:0:0:
64,192,7432,1,0,0:0:0:0:
192,192,7528,1,0,0:0:0:0:
64,192,7625,1,0,0:0:0:0:
448,192,7625,1,0,0:0:0:0:
320,192,7721,1,0,0:0:0:0:
192,192,7817,128,0,8009:0:0:0:0:
448,192,7817,1,0,0:0:0:0:
64,192,8009,1,0,0:0:0:0:
448,192,8009,1,0,0:0:0:0:
320,192,8009,1,0,0:0:0:0:
320,192,8201,1,0,0:0:0:0:
64,192,8201,1,0,0:0:0:0:
192,192,8394,1,0,0:0:0:0:
320,192,8394,1,0,0:0:0:0:
448,192,8394,1,0,0:0:0:0:
64,192,8586,1,0,0:0:0:0:
320,192,8586,1,0,0:0:0:0:
64,192,8778,1,0,0:0:0:0:
448,192,8778,1,0,0:0:0:0:
320,192,8778,1,0,0:0:0:0:
192,192,8971,1,0,0:0:0:0:
448,192,8971,1,0,0:0:0:0:
64,192,9163,1,0,0:0:0:0:
192,192,9163,1,0,0:0:0:0:
320,192,9163,1,0,0:0:0:0:
192,192,9355,1,0,0:0:0:0:
448,192,9355,1,0,0:0:0:0:
448,192,9548,1,0,0:0:0:0:
320,192,9548,1,0,0:0:0:0:
64,192,9548,1,0,0:0:0:0:
64,192,9740,1,0,0:0:0:0:
192,192,9740,1,0,0:0:0:0:
448,192,9932,1,0,0:0:0:0:
192,192,9932,1,0,0:0:0:0:
320,192,9932,1,0,0:0:0:0:
192,192,10125,1,0,0:0:0:0:
64,192,10125,1,0,0:0:0:0:
192,192,10317,1,0,0:0:0:0:
448,192,10317,1,0,0:0:0:0:
64,192,10317,1,0,0:0:0:0:
448,192,10509,1,0,0:0:0:0:
320,192,10509,1,0,0:0:0:0:
192,192,10701,1,0,0:0:0:0:
64,192,10701,1,0,0:0:0:0:
448,192,10701,1,0,0:0:0:0:
192,192,10798,1,0,0:0:0:0:
320,192,10798,1,0,0:0:0:0:
448,192,10894,1,0,0:0:0:0:
64,192,10894,1,0,0:0:0:0:
192,192,10894,1,0,0:0:0:0:
320,192,10990,1,0,0:0:0:0:
448,192,10990,1,0,0:0:0:0:
64,192,11086,1,0,0:0:0:0:
192,192,11086,1,0,0:0:0:0:
448,192,11086,1,0,0:0:0:0:
320,192,11182,1,0,0:0:0:0:
448,192,11278,1,0,0:0:0:0:
192,192,11278,1,0,0:0:0:0:
64,192,11342,1,0,0:0:0:0:
192,192,11407,1,0,0:0:0:0:
448,192,11471,5,0,0:0:0:0:
320,192,11471,1,0,0:0:0:0:
64,192,11535,1,0,0:0:0:0:
320,192,11599,1,0,0:0:0:0:
448,192,11663,1,0,0:0:0:0:
64,192,11663,1,0,0:0:0:0:
192,192,11727,1,0,0:0:0:0:
320,192,11791,1,0,0:0:0:0:
448,192,11855,1,0,0:0:0:0:
64,192,11855,1,0,0:0:0:0:
192,192,11855,1,0,0:0:0:0:
448,192,11951,1,0,0:0:0:0:
64,192,12048,1,0,0:0:0:0:
320,192,12048,1,0,0:0:0:0:
320,192,12144,1,0,0:0:0:0:
192,192,12240,1,0,0:0:0:0:
448,192,12240,1,0,0:0:0:0:
64,192,12240,1,0,0:0:0:0:
192,192,12336,1,0,0:0:0:0:
64,192,12432,1,0,0:0:0:0:
448,192,12432,1,0,0:0:0:0:
320,192,12432,1,0,0:0:0:0:
64,192,12528,1,0,0:0:0:0:
320,192,12625,5,0,0:0:0:0:
448,192,12625,1,0,0:0:0:0:
192,192,12673,1,0,0:0:0:0:
64,192,12721,1,0,0:0:0:0:
320,192,12769,1,0,0:0:0:0:
192,192,12817,1,0,0:0:0:0:
448,192,12865,1,0,0:0:0:0:
64,192,12913,1,0,0:0:0:0:
192,192,12913,1,0,0:0:0:0:
320,192,12961,1,0,0:0:0:0:
448,192,13009,1,0,0:0:0:0:
192,192,13057,1,0,0:0:0:0:
320,192,13105,1,0,0:0:0:0:
64,192,13153,1,0,0:0:0:0:
320,192,13201,1,0,0:0:0:0:
448,192,13201,1,0,0:0:0:0:
192,192,13250,1,0,0:0:0:0:
448,192,13298,1,0,0:0:0:0:
320,192,13346,1,0,0:0:0:0:
64,192,13394,5,0,0:0:0:0:
192,192,13394,1,0,0:0:0:0:
192,192,13490,1,0,0:0:0:0:
320,192,13586,1,0,0:0:0:0:
448,192,13586,1,0,0:0:0:0:
320,192,13682,1,0,0:0:0:0:
448,192,13778,128,0,14163:0:0:0:0:
64,192,13778,1,0,0:0:0:0:
64,192,13875,1,0,0:0:0:0:
192,192,13971,1,0,0:0:0:0:
192,192,14067,1,0,0:0:0:0:
320,192,14163,1,0,0:0:0:0:
64,192,14163,1,0,0:0:0:0:
192,192,14163,1,0,0:0:0:0:
320,192,14355,1,0,0:0:0:0:
448,192,14355,1,0,0:0:0:0:
64,192,14451,1,0,0:0:0:0:
448,192,14451,1,0,0:0:0:0:
320,192,14451,1,0,0:0:0:0:
64,192,14548,1,0,0:0:0:0:
192,192,14548,1,0,0:0:0:0:
192,192,14644,1,0,0:0:0:0:
448,192,14644,1,0,0:0:0:0:
320,192,14740,1,0,0:0:0:0:
448,192,14740,1,0,0:0:0:0:
64,192,14740,1,0,0:0:0:0:
320,192,14932,1,0,0:0:0:0:
448,192,14932,1,0,0:0:0:0:
64,192,15028,1,0,0:0:0:0:
192,192,15028,1,0,0:0:0:0:
448,192,15125,1,0,0:0:0:0:
192,192,15125,1,0,0:0:0:0:
64,192,15125,1,0,0:0:0:0:
192,192,15221,1,0,0:0:0:0:
320,192,15221,1,0,0:0:0:0:
64,192,15317,1,0,0:0:0:0:
448,192,15317,1,0,0:0:0:0:
320,192,15317,1,0,0:0:0:0:
64,192,15509,1,0,0:0:0:0:
192,192,15509,1,0,0:0:0:0:
448,192,15509,1,0,0:0:0:0:
320,192,15701,1,0,0:0:0:0:
448,192,15701,1,0,0:0:0:0:
192,192,15701,1,0,0:0:0:0:
64,192,15798,1,0,0:0:0:0:
320,192,15798,1,0,0:0:0:0:
448,192,15894,1,0,0:0:0:0:
192,192,15894,1,0,0:0:0:0:
64,192,15894,1,0,0:0:0:0:
320,192,15990,1,0,0:0:0:0:
448,192,15990,1,0,0:0:0:0:
64,192,16086,1,0,0:0:0:0:
192,192,16086,1,0,0:0:0:0:
448,192,16086,1,0,0:0:0:0:
320,192,16278,1,0,0:0:0:0:
192,192,16278,1,0,0:0:0:0:
320,192,16375,1,0,0:0:0:0:
64,192,16375,1,0,0:0:0:0:
192,192,16471,1,0,0:0:0:0:
320,192,16471,1,0,0:0:0:0:
448,192,16471,1,0,0:0:0:0:
192,192,16663,1,0,0:0:0:0:
320,192,16663,1,0,0:0:0:0:
192,192,16759,1,0,0:0:0:0:
448,192,16759,1,0,0:0:0:0:
320,192,16855,1,0,0:0:0:0:
192,192,16855,1,0,0:0:0:0:
64,192,16855,1,0,0:0:0:0:
320,192,16951,1,0,0:0:0:0:
448,192,16951,1,0,0:0:0:0:
448,192,17048,1,0,0:0:0:0:
64,192,17048,1,0,0:0:0:0:
192,192,17048,1,0,0:0:0:0:
192,192,17240,1,0,0:0:0:0:
448,192,17240,1,0,0:0:0:0:
320,192,17240,1,0,0:0:0:0:
192,192,17432,1,0,0:0:0:0:
64,192,17432,1,0,0:0:0:0:
448,192,17528,1,0,0:0:0:0:
64,192,17528,1,0,0:0:0:0:
192,192,17528,1,0,0:0:0:0:
448,192,17625,1,0,0:0:0:0:
320,192,17625,1,0,0:0:0:0:
320,192,17721,1,0,0:0:0:0:
64,192,17721,1,0,0:0:0:0:
192,192,17817,1,0,0:0:0:0:
64,192,17817,1,0,0:0:0:0:
448,192,17817,1,0,0:0:0:0:
192,192,18009,1,0,0:0:0:0:
64,192,18009,1,0,0:0:0:0:
448,192,18105,1,0,0:0:0:0:
320,192,18105,1,0,0:0:0:0:
64,192,18201,1,0,0:0:0:0:
320,192,18201,1,0,0:0:0:0:
448,192,18201,1,0,0:0:0:0:
320,192,18298,1,0,0:0:0:0:
192,192,18298,1,0,0:0:0:0:
448,192,18394,1,0,0:0:0:0:
64,192,18394,1,0,0:0:0:0:
192,192,18394,1,0,0:0:0:0:
448,192,18586,1,0,0:0:0:0:
320,192,18586,1,0,0:0:0:0:
64,192,18586,1,0,0:0:0:0:
192,192,18778,1,0,0:0:0:0:
64,192,18778,1,0,0:0:0:0:
320,192,18778,1,0,0:0:0:0:
448,192,18875,1,0,0:0:0:0:
192,192,18875,1,0,0:0:0:0:
64,192,18971,1,0,0:0:0:0:
320,192,18971,1,0,0:0:0:0:
448,192,18971,1,0,0:0:0:0:
192,192,19067,1,0,0:0:0:0:
64,192,19067,1,0,0:0:0:0:
448,192,19163,1,0,0:0:0:0:
320,192,19163,1,0,0:0:0:0:
64,192,19163,1,0,0:0:0:0:
192,192,19355,1,0,0:0:0:0:
320,192,19355,1,0,0:0:0:0:
320,192,19548,1,0,0:0:0:0:
192,192,19548,1,0,0:0:0:0:
64,192,19548,1,0,0:0:0:0:
320,192,19644,1,0,0:0:0:0:
448,192,19740,1,0,0:0:0:0:
192,192,19740,1,0,0:0:0:0:
192,192,19836,1,0,0:0:0:0:
320,192,19932,1,0,0:0:0:0:
448,192,19932,1,0,0:0:0:0:
64,192,19932,1,0,0:0:0:0:
320,192,20028,1,0,0:0:0:0:
448,192,20028,1,0,0:0:0:0:
448,192,20125,1,0,0:0:0:0:
320,192,20125,1,0,0:0:0:0:
192,192,20125,1,0,0:0:0:0:
320,192,20221,1,0,0:0:0:0:
448,192,20221,1,0,0:0:0:0:
448,192,20317,1,0,0:0:0:0:
320,192,20317,1,0,0:0:0:0:
64,192,20317,1,0,0:0:0:0:
320,192,20509,1,0,0:0:0:0:
192,192,20509,1,0,0:0:0:0:
320,192,20605,1,0,0:0:0:0:
64,192,20605,1,0,0:0:0:0:
448,192,20605,1,0,0:0:0:0:
192,192,20701,1,0,0:0:0:0:
448,192,20701,1,0,0:0:0:0:
192,192,20798,1,0,0:0:0:0:
320,192,20798,1,0,0:0:0:0:
448,192,20894,1,0,0:0:0:0:
64,192,20894,1,0,0:0:0:0:
192,192,20894,1,0,0:0:0:0:
320,192,21086,1,0,0:0:0:0:
192,192,21086,1,0,0:0:0:0:
64,192,21182,1,0,0:0:0:0:
192,192,21182,1,0,0:0:0:0:
448,192,21182,1,0,0:0:0:0:
64,192,21278,1,0,0:0:0:0:
320,192,21278,1,0,0:0:0:0:
320,192,21375,1,0,0:0:0:0:
192,192,21375,1,0,0:0:0:0:
320,192,21471,1,0,0:0:0:0:
64,192,21471,1,0,0:0:0:0:
448,192,21471,1,0,0:0:0:0:
192,192,21663,1,0,0:0:0:0:
64,192,21663,1,0,0:0:0:0:
448,192,21663,1,0,0:0:0:0:
192,192,21855,1,0,0:0:0:0:
64,192,21855,1,0,0:0:0:0:
320,192,21855,1,0,0:0:0:0:
448,192,21951,1,0,0:0:0:0:
192,192,21951,1,0,0:0:0:0:
448,192,22048,1,0,0:0:0:0:
64,192,22048,1,0,0:0:0:0:
320,192,22048,1,0,0:0:0:0:
64,192,22144,1,0,0:0:0:0:
320,192,22144,1,0,0:0:0:0:
64,192,22240,1,0,0:0:0:0:
192,192,22240,1,0,0:0:0:0:
448,192,22240,1,0,0:0:0:0:
320,192,22432,1,0,0:0:0:0:
64,192,22432,1,0,0:0:0:0:
448,192,22528,1,0,0:0:0:0:
192,192,22528,1,0,0:0:0:0:
64,192,22625,1,0,0:0:0:0:
192,192,22625,1,0,0:0:0:0:
320,192,22625,1,0,0:0:0:0:
192,192,22817,1,0,0:0:0:0:
448,192,22817,1,0,0:0:0:0:
64,192,22913,1,0,0:0:0:0:
320,192,22913,1,0,0:0:0:0:
448,192,23009,1,0,0:0:0:0:
192,192,23009,1,0,0:0:0:0:
320,192,23009,1,0,0:0:0:0:
64,192,23105,1,0,0:0:0:0:
320,192,23105,1,0,0:0:0:0:
192,192,23201,1,0,0:0:0:0:
448,192,23201,1,0,0:0:0:0:
64,192,23201,1,0,0:0:0:0:
320,192,23394,1,0,0:0:0:0:
64,192,23394,1,0,0:0:0:0:
192,192,23394,1,0,0:0:0:0:
448,192,23586,1,0,0:0:0:0:
192,192,23586,1,0,0:0:0:0:
192,192,23682,1,0,0:0:0:0:
448,192,23682,1,0,0:0:0:0:
64,192,23682,1,0,0:0:0:0:
320,192,23778,1,0,0:0:0:0:
64,192,23778,1,0,0:0:0:0:
448,192,23875,1,0,0:0:0:0:
320,192,23875,1,0,0:0:0:0:
64,192,23971,1,0,0:0:0:0:
448,192,23971,1,0,0:0:0:0:
192,192,23971,1,0,0:0:0:0:
448,192,24163,1,0,0:0:0:0:
192,192,24163,1,0,0:0:0:0:
320,192,24259,1,0,0:0:0:0:
64,192,24259,1,0,0:0:0:0:
64,192,24355,1,0,0:0:0:0:
320,192,24355,1,0,0:0:0:0:
448,192,24355,1,0,0:0:0:0:
192,192,24451,1,0,0:0:0:0:
320,192,24451,1,0,0:0:0:0:
192,192,24548,1,0,0:0:0:0:
448,192,24548,1,0,0:0:0:0:
64,192,24548,1,0,0:0:0:0:
320,192,24740,1,0,0:0:0:0:
448,192,24740,1,0,0:0:0:0:
64,192,24740,1,0,0:0:0:0:
320,192,24836,1,0,0:0:0:0:
448,192,24836,1,0,0:0:0:0:
448,192,24932,1,0,0:0:0:0:
192,192,24932,1,0,0:0:0:0:
64,192,24932,1,0,0:0:0:0:
320,192,25028,1,0,0:0:0:0:
64,192,25028,1,0,0:0:0:0:
448,192,25125,1,0,0:0:0:0:
192,192,25125,1,0,0:0:0:0:
320,192,25125,1,0,0:0:0:0:
192,192,25221,1,0,0:0:0:0:
64,192,25221,1,0,0:0:0:0:
320,192,25317,1,0,0:0:0:0:
448,192,25317,1,0,0:0:0:0:
64,192,25317,1,0,0:0:0:0:
320,192,25509,1,0,0:0:0:0:
64,192,25509,1,0,0:0:0:0:
448,192,25509,1,0,0:0:0:0:
192,192,25605,1,0,0:0:0:0:
448,192,25605,1,0,0:0:0:0:
64,192,25701,1,0,0:0:0:0:
320,192,25701,1,0,0:0:0:0:
192,192,25701,1,0,0:0:0:0:
320,192,25798,1,0,0:0:0:0:
448,192,25798,1,0,0:0:0:0:
192,192,25894,1,0,0:0:0:0:
64,192,25894,1,0,0:0:0:0:
448,192,25894,1,0,0:0:0:0:
448,192,26086,1,0,0:0:0:0:
64,192,26086,1,0,0:0:0:0:
320,192,26086,1,0,0:0:0:0:
320,192,26278,1,0,0:0:0:0:
192,192,26278,1,0,0:0:0:0:
448,192,26471,1,0,0:0:0:0:
64,192,26471,1,0,0:0:0:0:
320,192,26471,1,0,0:0:0:0:
192,192,26663,1,0,0:0:0:0:
448,192,26663,1,0,0:0:0:0:
64,192,26855,1,0,0:0:0:0:
192,192,26855,1,0,0:0:0:0:
448,192,26855,1,0,0:0:0:0:
64,192,27048,1,0,0:0:0:0:
320,192,27048,1,0,0:0:0:0:
320,192,27144,1,0,0:0:0:0:
64,192,27240,1,0,0:0:0:0:
448,192,27240,1,0,0:0:0:0:
192,192,27240,1,0,0:0:0:0:
192,192,27336,1,0,0:0:0:0:
64,192,27432,1,0,0:0:0:0:
320,192,27432,1,0,0:0:0:0:
64,192,27625,1,0,0:0:0:0:
448,192,27625,1,0,0:0:0:0:
192,192,27625,1,0,0:0:0:0:
448,192,27721,1,0,0:0:0:0:
192,192,27817,1,0,0:0:0:0:
320,192,27817,1,0,0:0:0:0:
192,192,27913,1,0,0:0:0:0:
448,192,28009,1,0,0:0:0:0:
64,192,28009,1,0,0:0:0:0:
320,192,28009,1,0,0:0:0:0:
192,192,28201,1,0,0:0:0:0:
448,192,28201,1,0,0:0:0:0:
64,192,28394,1,0,0:0:0:0:
192,192,28394,1,0,0:0:0:0:
448,192,28394,1,0,0:0:0:0:
320,192,28586,1,0,0:0:0:0:
448,192,28586,1,0,0:0:0:0:
192,192,28586,1,0,0:0:0:0:
64,192,28682,1,0,0:0:0:0:
320,192,28682,1,0,0:0:0:0:
64,192,28778,1,0,0:0:0:0:
448,192,28778,1,0,0:0:0:0:
192,192,28778,1,0,0:0:0:0:
64,192,28971,1,0,0:0:0:0:
192,192,28971,1,0,0:0:0:0:
320,192,28971,1,0,0:0:0:0:
448,192,29067,1,0,0:0:0:0:
192,192,29067,1,0,0:0:0:0:
64,192,29163,1,0,0:0:0:0:
448,192,29163,1,0,0:0:0:0:
320,192,29163,1,0,0:0:0:0:
64,192,29259,1,0,0:0:0:0:
192,192,29355,1,0,0:0:0:0:
320,192,29355,1,0,0:0:0:0:
320,192,29451,1,0,0:0:0:0:
192,192,29548,1,0,0:0:0:0:
448,192,29548,1,0,0:0:0:0:
64,192,29548,1,0,0:0:0:0:
64,192,29740,1,0,0:0:0:0:
320,192,29740,1,0,0:0:0:0:
64,192,29932,1,0,0:0:0:0:
320,192,29932,1,0,0:0:0:0:
448,192,29932,1,0,0:0:0:0:
192,192,30125,1,0,0:0:0:0:
448,192,30125,1,0,0:0:0:0:
192,192,30221,1,0,0:0:0:0:
320,192,30317,1,0,0:0:0:0:
64,192,30317,1,0,0:0:0:0:
448,192,30317,1,0,0:0:0:0:
320,192,30413,1,0,0:0:0:0:
192,192,30509,1,0,0:0:0:0:
448,192,30509,1,0,0:0:0:0:
320,192,30701,1,0,0:0:0:0:
64,192,30701,1,0,0:0:0:0:
448,192,30701,1,0,0:0:0:0:
64,192,30798,1,0,0:0:0:0:
192,192,30894,1,0,0:0:0:0:
320,192,30894,1,0,0:0:0:0:
320,192,30990,1,0,0:0:0:0:
192,192,31086,1,0,0:0:0:0:
448,192,31086,1,0,0:0:0:0:
64,192,31086,1,0,0:0:0:0:
64,192,31278,1,0,0:0:0:0:
320,192,31278,1,0,0:0:0:0:
64,192,31471,1,0,0:0:0:0:
320,192,31471,1,0,0:0:0:0:
448,192,31471,1,0,0:0:0:0:
320,192,31663,1,0,0:0:0:0:
64,192,31663,1,0,0:0:0:0:
192,192,31663,1,0,0:0:0:0:
192,192,31759,1,0,0:0:0:0:
448,192,31759,1,0,0:0:0:0:
320,192,31855,1,0,0:0:0:0:
64,192,31855,1,0,0:0:0:0:
448,192,31855,1,0,0:0:0:0:
192,192,32048,1,0,0:0:0:0:
320,192,32048,1,0,0:0:0:0:
448,192,32048,1,0,0:0:0:0:
320,192,32144,1,0,0:0:0:0:
64,192,32144,1,0,0:0:0:0:
192,192,32240,1,0,0:0:0:0:
64,192,32240,1,0,0:0:0:0:
448,192,32240,1,0,0:0:0:0:
448,192,32336,1,0,0:0:0:0:
192,192,32432,1,0,0:0:0:0:
320,192,32432,1,0,0:0:0:0:
192,192,32528,1,0,0:0:0:0:
320,192,32625,1,0,0:0:0:0:
64,192,32625,1,0,0:0:0:0:
448,192,32625,1,0,0:0:0:0:
448,192,32817,1,0,0:0:0:0:
192,192,32817,1,0,0:0:0:0:
448,192,33009,1,0,0:0:0:0:
192,192,33009,1,0,0:0:0:0:
64,192,33009,1,0,0:0:0:0:
320,192,33201,1,0,0:0:0:0:
64,192,33201,1,0,0:0:0:0:
320,192,33298,1,0,0:0:0:0:
192,192,33394,1,0,0:0:0:0:
448,192,33394,1,0,0:0:0:0:
64,192,33394,1,0,0:0:0:0:
192,192,33490,1,0,0:0:0:0:
320,192,33586,1,0,0:0:0:0:
64,192,33586,1,0,0:0:0:0:
192,192,33778,1,0,0:0:0:0:
448,192,33778,1,0,0:0:0:0:
64,192,33778,1,0,0:0:0:0:
448,192,33875,1,0,0:0:0:0:
320,192,33971,1,0,0:0:0:0:
192,192,33971,1,0,0:0:0:0:
192,192,34067,1,0,0:0:0:0:
320,192,34163,1,0,0:0:0:0:
64,192,34163,1,0,0:0:0:0:
448,192,34163,1,0,0:0:0:0:
320,192,34259,1,0,0:0:0:0:
448,192,34355,1,0,0:0:0:0:
192,192,34355,1,0,0:0:0:0:
192,192,34451,1,0,0:0:0:0:
448,192,34548,1,0,0:0:0:0:
64,192,34548,1,0,0:0:0:0:
320,192,34548,1,0,0:0:0:0:
192,192,34740,1,0,0:0:0:0:
448,192,34740,1,0,0:0:0:0:
320,192,34740,1,0,0:0:0:0:
320,192,34836,1,0,0:0:0:0:
64,192,34836,1,0,0:0:0:0:
192,192,34932,1,0,0:0:0:0:
448,192,34932,1,0,0:0:0:0:
64,192,34932,1,0,0:0:0:0:
320,192,35125,1,0,0:0:0:0:
192,192,35125,1,0,0:0:0:0:
64,192,35125,1,0,0:0:0:0:
192,192,35221,1,0,0:0:0:0:
448,192,35221,1,0,0:0:0:0:
320,192,35317,1,0,0:0:0:0:
448,192,35317,1,0,0:0:0:0:
64,192,35317,1,0,0:0:0:0:
64,192,35413,1,0,0:0:0:0:
320,192,35509,1,0,0:0:0:0:
192,192,35509,1,0,0:0:0:0:
320,192,35605,1,0,0:0:0:0:
64,192,35701,1,0,0:0:0:0:
448,192,35701,1,0,0:0:0:0:
192,192,35701,1,0,0:0:0:0:
320,192,35894,1,0,0:0:0:0:
64,192,35894,1,0,0:0:0:0:
448,192,36086,1,0,0:0:0:0:
320,192,36086,1,0,0:0:0:0:
64,192,36086,1,0,0:0:0:0:
448,192,36278,1,0,0:0:0:0:
192,192,36278,1,0,0:0:0:0:
192,192,36375,1,0,0:0:0:0:
448,192,36471,1,0,0:0:0:0:
64,192,36471,1,0,0:0:0:0:
320,192,36471,1,0,0:0:0:0:
320,192,36567,1,0,0:0:0:0:
448,192,36663,1,0,0:0:0:0:
192,192,36663,1,0,0:0:0:0:
192,192,36759,1,0,0:0:0:0:
448,192,36855,1,0,0:0:0:0:
64,192,36855,1,0,0:0:0:0:
320,192,36855,1,0,0:0:0:0:
64,192,36951,1,0,0:0:0:0:
320,192,37048,1,0,0:0:0:0:
192,192,37048,1,0,0:0:0:0:
320,192,37144,1,0,0:0:0:0:
64,192,37144,1,0,0:0:0:0:
64,192,37240,1,0,0:0:0:0:
448,192,37240,1,0,0:0:0:0:
192,192,37240,1,0,0:0:0:0:
320,192,37432,1,0,0:0:0:0:
192,192,37432,1,0,0:0:0:0:
448,192,37625,1,0,0:0:0:0:
320,192,37625,1,0,0:0:0:0:
64,192,37625,1,0,0:0:0:0:
192,192,37817,1,0,0:0:0:0:
64,192,37817,1,0,0:0:0:0:
448,192,37817,1,0,0:0:0:0:
320,192,37913,1,0,0:0:0:0:
448,192,38009,1,0,0:0:0:0:
192,192,38009,1,0,0:0:0:0:
64,192,38105,1,0,0:0:0:0:
192,192,38105,1,0,0:0:0:0:
448,192,38201,1,0,0:0:0:0:
320,192,38201,1,0,0:0:0:0:
64,192,38201,1,0,0:0:0:0:
192,192,38298,1,0,0:0:0:0:
64,192,38394,1,0,0:0:0:0:
320,192,38394,1,0,0:0:0:0:
448,192,38490,1,0,0:0:0:0:
320,192,38490,1,0,0:0:0:0:
192,192,38586,1,0,0:0:0:0:
64,192,38586,1,0,0:0:0:0:
448,192,38586,1,0,0:0:0:0:
192,192,38682,1,0,0:0:0:0:
64,192,38682,1,0,0:0:0:0:
320,192,38682,1,0,0:0:0:0:
64,192,38778,1,0,0:0:0:0:
192,192,38778,1,0,0:0:0:0:
448,192,38778,128,0,40317:0:0:0:0:
192,192,38971,1,0,0:0:0:0:
64,192,39163,1,0,0:0:0:0:
320,192,39163,1,0,0:0:0:0:
192,192,39355,1,0,0:0:0:0:
320,192,39355,1,0,0:0:0:0:
192,192,39548,1,0,0:0:0:0:
64,192,39548,1,0,0:0:0:0:
192,192,39740,1,0,0:0:0:0:
320,192,39932,1,0,0:0:0:0:
64,192,39932,1,0,0:0:0:0:
64,192,40125,1,0,0:0:0:0:
192,192,40125,1,0,0:0:0:0:
320,192,40221,1,0,0:0:0:0:
64,192,40317,128,0,41855:0:0:0:0:
192,192,40317,1,0,0:0:0:0:
320,192,40317,1,0,0:0:0:0:
320,192,40509,1,0,0:0:0:0:
448,192,40701,1,0,0:0:0:0:
192,192,40701,1,0,0:0:0:0:
448,192,40894,1,0,0:0:0:0:
320,192,40894,1,0,0:0:0:0:
448,192,40990,1,0,0:0:0:0:
192,192,41086,1,0,0:0:0:0:
320,192,41086,1,0,0:0:0:0:
320,192,41278,1,0,0:0:0:0:
448,192,41471,1,0,0:0:0:0:
192,192,41471,1,0,0:0:0:0:
320,192,41663,1,0,0:0:0:0:
448,192,41663,1,0,0:0:0:0:
192,192,41759,1,0,0:0:0:0:
320,192,41855,128,0,43394:0:0:0:0:
192,192,41855,1,0,0:0:0:0:
448,192,41855,1,0,0:0:0:0:
192,192,42048,1,0,0:0:0:0:
64,192,42240,1,0,0:0:0:0:
448,192,42240,1,0,0:0:0:0:
448,192,42432,1,0,0:0:0:0:
192,192,42432,1,0,0:0:0:0:
192,192,42625,1,0,0:0:0:0:
64,192,42625,1,0,0:0:0:0:
192,192,42817,1,0,0:0:0:0:
448,192,42817,1,0,0:0:0:0:
64,192,43009,1,0,0:0:0:0:
192,192,43201,1,0,0:0:0:0:
64,192,43201,1,0,0:0:0:0:
448,192,43298,1,0,0:0:0:0:
64,192,43394,1,0,0:0:0:0:
448,192,43394,1,0,0:0:0:0:
192,192,43394,128,0,44163:0:0:0:0:
320,192,43586,1,0,0:0:0:0:
64,192,43778,1,0,0:0:0:0:
448,192,43778,1,0,0:0:0:0:
320,192,43971,1,0,0:0:0:0:
448,192,43971,1,0,0:0:0:0:
64,192,44163,1,0,0:0:0:0:
320,192,44163,1,0,0:0:0:0:
448,192,44163,1,0,0:0:0:0:
192,192,44259,1,0,0:0:0:0:
448,192,44355,1,0,0:0:0:0:
320,192,44355,1,0,0:0:0:0:
64,192,44355,1,0,0:0:0:0:
448,192,44451,1,0,0:0:0:0:
320,192,44451,1,0,0:0:0:0:
64,192,44548,1,0,0:0:0:0:
192,192,44548,1,0,0:0:0:0:
448,192,44548,1,0,0:0:0:0:
320,192,44644,1,0,0:0:0:0:
64,192,44740,1,0,0:0:0:0:
192,192,44740,1,0,0:0:0:0:
448,192,44740,1,0,0:0:0:0:
64,192,44836,1,0,0:0:0:0:
192,192,44836,1,0,0:0:0:0:
64,192,44932,1,0,0:0:0:0:
320,192,44932,1,0,0:0:0:0:
448,192,44932,1,0,0:0:0:0:
192,192,45125,1,0,0:0:0:0:
320,192,45125,1,0,0:0:0:0:
64,192,45317,1,0,0:0:0:0:
448,192,45317,1,0,0:0:0:0:
320,192,45317,1,0,0:0:0:0:
448,192,45413,1,0,0:0:0:0:
320,192,45413,1,0,0:0:0:0:
448,192,45509,1,0,0:0:0:0:
320,192,45509,1,0,0:0:0:0:
192,192,45509,1,0,0:0:0:0:
64,192,45701,1,0,0:0:0:0:
320,192,45701,1,0,0:0:0:0:
448,192,45701,1,0,0:0:0:0:
192,192,45894,1,0,0:0:0:0:
320,192,45894,1,0,0:0:0:0:
64,192,45990,1,0,0:0:0:0:
320,192,45990,1,0,0:0:0:0:
64,192,46086,1,0,0:0:0:0:
192,192,46086,1,0,0:0:0:0:
448,192,46086,1,0,0:0:0:0:
192,192,46278,1,0,0:0:0:0:
320,192,46278,1,0,0:0:0:0:
64,192,46471,1,0,0:0:0:0:
192,192,46471,1,0,0:0:0:0:
448,192,46471,1,0,0:0:0:0:
192,192,46663,1,0,0:0:0:0:
320,192,46663,1,0,0:0:0:0:
64,192,46855,1,0,0:0:0:0:
448,192,46855,1,0,0:0:0:0:
192,192,46855,1,0,0:0:0:0:
64,192,46951,1,0,0:0:0:0:
192,192,46951,1,0,0:0:0:0:
64,192,47048,1,0,0:0:0:0:
192,192,47048,1,0,0:0:0:0:
320,192,47048,1,0,0:0:0:0:
64,192,47144,1,0,0:0:0:0:
192,192,47144,1,0,0:0:0:0:
64,192,47240,1,0,0:0:0:0:
192,192,47240,1,0,0:0:0:0:
448,192,47240,1,0,0:0:0:0:
192,192,47432,1,0,0:0:0:0:
320,192,47432,1,0,0:0:0:0:
192,192,47528,1,0,0:0:0:0:
448,192,47528,1,0,0:0:0:0:
64,192,47625,1,0,0:0:0:0:
320,192,47625,1,0,0:0:0:0:
448,192,47625,1,0,0:0:0:0:
192,192,47817,1,0,0:0:0:0:
320,192,47817,1,0,0:0:0:0:
64,192,48009,1,0,0:0:0:0:
320,192,48009,1,0,0:0:0:0:
448,192,48009,1,0,0:0:0:0:
192,192,48201,1,0,0:0:0:0:
448,192,48201,1,0,0:0:0:0:
64,192,48394,1,0,0:0:0:0:
192,192,48394,1,0,0:0:0:0:
448,192,48394,1,0,0:0:0:0:
64,192,48586,1,0,0:0:0:0:
320,192,48586,1,0,0:0:0:0:
64,192,48778,1,0,0:0:0:0:
320,192,48778,1,0,0:0:0:0:
448,192,48778,1,0,0:0:0:0:
448,192,48875,1,0,0:0:0:0:
192,192,48971,1,0,0:0:0:0:
448,192,48971,1,0,0:0:0:0:
64,192,49163,1,0,0:0:0:0:
192,192,49163,1,0,0:0:0:0:
448,192,49163,1,0,0:0:0:0:
64,192,49259,1,0,0:0:0:0:
64,192,49355,1,0,0:0:0:0:
320,192,49355,1,0,0:0:0:0:
64,192,49548,1,0,0:0:0:0:
192,192,49548,1,0,0:0:0:0:
448,192,49548,1,0,0:0:0:0:
320,192,49644,1,0,0:0:0:0:
448,192,49740,1,0,0:0:0:0:
64,192,49740,1,0,0:0:0:0:
192,192,49836,1,0,0:0:0:0:
64,192,49932,1,0,0:0:0:0:
448,192,49932,1,0,0:0:0:0:
320,192,49932,1,0,0:0:0:0:
192,192,50028,1,0,0:0:0:0:
448,192,50125,1,0,0:0:0:0:
64,192,50125,1,0,0:0:0:0:
320,192,50221,1,0,0:0:0:0:
64,192,50317,1,0,0:0:0:0:
192,192,50317,1,0,0:0:0:0:
448,192,50317,1,0,0:0:0:0:
320,192,50413,1,0,0:0:0:0:
64,192,50509,1,0,0:0:0:0:
448,192,50509,1,0,0:0:0:0:
320,192,50605,1,0,0:0:0:0:
64,192,50701,1,0,0:0:0:0:
448,192,50701,1,0,0:0:0:0:
320,192,50701,1,0,0:0:0:0:
192,192,50798,1,0,0:0:0:0:
64,192,50894,1,0,0:0:0:0:
448,192,50894,1,0,0:0:0:0:
192,192,50990,1,0,0:0:0:0:
320,192,50990,1,0,0:0:0:0:
64,192,51086,128,0,51471:0:0:0:0:
192,192,51086,128,0,51471:0:0:0:0:
320,192,51086,128,0,51471:0:0:0:0:
448,192,51086,128,0,51471:0:0:0:0:
192,192,52240,128,0,52625:0:0:0:0:
64,192,52625,1,0,0:0:0:0:
320,192,52625,1,0,0:0:0:0:
448,192,52625,1,0,0:0:0:0:
64,192,52817,1,0,0:0:0:0:
192,192,52817,1,0,0:0:0:0:
64,192,53009,1,0,0:0:0:0:
320,192,53009,1,0,0:0:0:0:
448,192,53009,1,0,0:0:0:0:
320,192,53201,1,0,0:0:0:0:
192,192,53201,1,0,0:0:0:0:
192,192,53298,1,0,0:0:0:0:
64,192,53298,1,0,0:0:0:0:
448,192,53394,1,0,0:0:0:0:
320,192,53394,1,0,0:0:0:0:
64,192,53394,1,0,0:0:0:0:
64,192,53586,1,0,0:0:0:0:
320,192,53586,1,0,0:0:0:0:
192,192,53778,1,0,0:0:0:0:
448,192,53778,1,0,0:0:0:0:
320,192,53778,1,0,0:0:0:0:
64,192,53971,1,0,0:0:0:0:
320,192,53971,1,0,0:0:0:0:
64,192,54163,1,0,0:0:0:0:
448,192,54163,1,0,0:0:0:0:
192,192,54163,1,0,0:0:0:0:
320,192,54355,1,0,0:0:0:0:
448,192,54355,1,0,0:0:0:0:
64,192,54548,1,0,0:0:0:0:
192,192,54548,1,0,0:0:0:0:
448,192,54548,1,0,0:0:0:0:
448,192,54740,1,0,0:0:0:0:
320,192,54740,1,0,0:0:0:0:
192,192,54836,1,0,0:0:0:0:
320,192,54836,1,0,0:0:0:0:
448,192,54932,5,0,0:0:0:0:
64,192,54932,1,0,0:0:0:0:
192,192,54980,1,0,0:0:0:0:
320,192,55028,1,0,0:0:0:0:
448,192,55076,1,0,0:0:0:0:
192,192,55125,1,0,0:0:0:0:
64,192,55125,1,0,0:0:0:0:
320,192,55173,1,0,0:0:0:0:
448,192,55221,1,0,0:0:0:0:
192,192,55269,1,0,0:0:0:0:
64,192,55317,1,0,0:0:0:0:
448,192,55317,1,0,0:0:0:0:
320,192,55317,1,0,0:0:0:0:
192,192,55413,1,0,0:0:0:0:
320,192,55413,1,0,0:0:0:0:
448,192,55509,1,0,0:0:0:0:
320,192,55509,1,0,0:0:0:0:
64,192,55509,1,0,0:0:0:0:
64,192,55605,1,0,0:0:0:0:
192,192,55605,1,0,0:0:0:0:
64,192,55701,1,0,0:0:0:0:
448,192,55701,1,0,0:0:0:0:
320,192,55701,1,0,0:0:0:0:
192,192,55894,1,0,0:0:0:0:
320,192,55894,1,0,0:0:0:0:
320,192,56086,1,0,0:0:0:0:
448,192,56086,1,0,0:0:0:0:
64,192,56086,1,0,0:0:0:0:
320,192,56182,1,0,0:0:0:0:
448,192,56182,1,0,0:0:0:0:
64,192,56278,1,0,0:0:0:0:
192,192,56278,1,0,0:0:0:0:
64,192,56375,1,0,0:0:0:0:
192,192,56375,1,0,0:0:0:0:
64,192,56471,1,0,0:0:0:0:
320,192,56471,1,0,0:0:0:0:
448,192,56471,1,0,0:0:0:0:
192,192,56663,1,0,0:0:0:0:
448,192,56663,1,0,0:0:0:0:
192,192,56855,1,0,0:0:0:0:
64,192,56855,1,0,0:0:0:0:
448,192,56855,1,0,0:0:0:0:
64,192,56951,1,0,0:0:0:0:
192,192,56951,1,0,0:0:0:0:
320,192,57048,1,0,0:0:0:0:
448,192,57048,1,0,0:0:0:0:
320,192,57144,1,0,0:0:0:0:
448,192,57144,1,0,0:0:0:0:
192,192,57240,1,0,0:0:0:0:
448,192,57240,1,0,0:0:0:0:
64,192,57240,128,0,57625:0:0:0:0:
320,192,57432,1,0,0:0:0:0:
320,192,57625,1,0,0:0:0:0:
448,192,57625,128,0,58009:0:0:0:0:
192,192,57625,1,0,0:0:0:0:
192,192,57817,1,0,0:0:0:0:
320,192,58009,1,0,0:0:0:0:
64,192,58009,1,0,0:0:0:0:
64,192,58105,1,0,0:0:0:0:
448,192,58201,1,0,0:0:0:0:
192,192,58201,1,0,0:0:0:0:
192,192,58298,1,0,0:0:0:0:
320,192,58394,1,0,0:0:0:0:
448,192,58394,1,0,0:0:0:0:
64,192,58394,1,0,0:0:0:0:
320,192,58490,1,0,0:0:0:0:
448,192,58490,1,0,0:0:0:0:
320,192,58586,1,0,0:0:0:0:
448,192,58586,1,0,0:0:0:0:
192,192,58586,1,0,0:0:0:0:
320,192,58682,1,0,0:0:0:0:
448,192,58682,1,0,0:0:0:0:
448,192,58778,1,0,0:0:0:0:
64,192,58778,1,0,0:0:0:0:
320,192,58778,1,0,0:0:0:0:
448,192,58971,1,0,0:0:0:0:
320,192,58971,1,0,0:0:0:0:
448,192,59163,1,0,0:0:0:0:
192,192,59163,1,0,0:0:0:0:
64,192,59163,1,0,0:0:0:0:
192,192,59355,1,0,0:0:0:0:
320,192,59355,1,0,0:0:0:0:
320,192,59451,1,0,0:0:0:0:
448,192,59451,1,0,0:0:0:0:
64,192,59548,1,0,0:0:0:0:
192,192,59548,1,0,0:0:0:0:
448,192,59548,1,0,0:0:0:0:
448,192,59740,1,0,0:0:0:0:
192,192,59740,1,0,0:0:0:0:
320,192,59932,1,0,0:0:0:0:
64,192,59932,1,0,0:0:0:0:
192,192,59932,1,0,0:0:0:0:
448,192,60125,1,0,0:0:0:0:
192,192,60125,1,0,0:0:0:0:
448,192,60317,1,0,0:0:0:0:
64,192,60317,1,0,0:0:0:0:
320,192,60317,1,0,0:0:0:0:
192,192,60509,1,0,0:0:0:0:
64,192,60509,1,0,0:0:0:0:
320,192,60701,1,0,0:0:0:0:
64,192,60701,1,0,0:0:0:0:
448,192,60701,1,0,0:0:0:0:
320,192,60798,1,0,0:0:0:0:
448,192,60798,1,0,0:0:0:0:
64,192,60894,1,0,0:0:0:0:
192,192,60894,1,0,0:0:0:0:
320,192,60990,1,0,0:0:0:0:
192,192,60990,1,0,0:0:0:0:
64,192,61086,5,0,0:0:0:0:
448,192,61086,1,0,0:0:0:0:
320,192,61134,1,0,0:0:0:0:
192,192,61182,1,0,0:0:0:0:
64,192,61230,1,0,0:0:0:0:
320,192,61278,1,0,0:0:0:0:
448,192,61278,1,0,0:0:0:0:
192,192,61326,1,0,0:0:0:0:
64,192,61375,1,0,0:0:0:0:
320,192,61423,1,0,0:0:0:0:
448,192,61471,1,0,0:0:0:0:
64,192,61471,1,0,0:0:0:0:
192,192,61471,1,0,0:0:0:0:
64,192,61663,1,0,0:0:0:0:
320,192,61663,1,0,0:0:0:0:
448,192,61855,1,0,0:0:0:0:
64,192,61855,1,0,0:0:0:0:
192,192,61855,1,0,0:0:0:0:
320,192,62048,1,0,0:0:0:0:
192,192,62048,1,0,0:0:0:0:
64,192,62240,1,0,0:0:0:0:
320,192,62240,1,0,0:0:0:0:
448,192,62240,1,0,0:0:0:0:
192,192,62432,1,0,0:0:0:0:
448,192,62432,1,0,0:0:0:0:
192,192,62625,1,0,0:0:0:0:
64,192,62625,1,0,0:0:0:0:
448,192,62625,1,0,0:0:0:0:
320,192,62817,1,0,0:0:0:0:
192,192,62817,1,0,0:0:0:0:
320,192,63009,1,0,0:0:0:0:
448,192,63009,1,0,0:0:0:0:
64,192,63009,1,0,0:0:0:0:
192,192,63201,1,0,0:0:0:0:
448,192,63201,1,0,0:0:0:0:
64,192,63394,1,0,0:0:0:0:
448,192,63394,128,0,63778:0:0:0:0:
192,192,63394,1,0,0:0:0:0:
64,192,63586,1,0,0:0:0:0:
320,192,63586,1,0,0:0:0:0:
192,192,63682,1,0,0:0:0:0:
192,192,63778,1,0,0:0:0:0:
64,192,63778,128,0,64163:0:0:0:0:
320,192,63778,1,0,0:0:0:0:
448,192,63971,1,0,0:0:0:0:
320,192,63971,1,0,0:0:0:0:
192,192,64163,1,0,0:0:0:0:
448,192,64163,1,0,0:0:0:0:
448,192,64259,1,0,0:0:0:0:
64,192,64355,1,0,0:0:0:0:
320,192,64355,1,0,0:0:0:0:
320,192,64451,1,0,0:0:0:0:
192,192,64548,1,0,0:0:0:0:
64,192,64548,1,0,0:0:0:0:
448,192,64548,1,0,0:0:0:0:
192,192,64644,1,0,0:0:0:0:
64,192,64644,1,0,0:0:0:0:
192,192,64740,1,0,0:0:0:0:
64,192,64740,1,0,0:0:0:0:
320,192,64740,1,0,0:0:0:0:
192,192,64836,1,0,0:0:0:0:
64,192,64836,1,0,0:0:0:0:
192,192,64932,1,0,0:0:0:0:
64,192,64932,1,0,0:0:0:0:
448,192,64932,1,0,0:0:0:0:
320,192,65125,1,0,0:0:0:0:
64,192,65125,1,0,0:0:0:0:
448,192,65317,1,0,0:0:0:0:
192,192,65317,1,0,0:0:0:0:
64,192,65317,1,0,0:0:0:0:
320,192,65509,1,0,0:0:0:0:
192,192,65509,1,0,0:0:0:0:
64,192,65605,1,0,0:0:0:0:
320,192,65605,1,0,0:0:0:0:
64,192,65701,1,0,0:0:0:0:
192,192,65701,1,0,0:0:0:0:
448,192,65701,1,0,0:0:0:0:
192,192,65894,1,0,0:0:0:0:
64,192,65894,1,0,0:0:0:0:
192,192,66086,1,0,0:0:0:0:
448,192,66086,1,0,0:0:0:0:
320,192,66086,1,0,0:0:0:0:
192,192,66278,1,0,0:0:0:0:
64,192,66278,1,0,0:0:0:0:
320,192,66471,1,0,0:0:0:0:
448,192,66471,1,0,0:0:0:0:
64,192,66471,1,0,0:0:0:0:
448,192,66663,1,0,0:0:0:0:
192,192,66663,1,0,0:0:0:0:
448,192,66855,1,0,0:0:0:0:
320,192,66855,1,0,0:0:0:0:
64,192,66855,1,0,0:0:0:0:
448,192,67048,1,0,0:0:0:0:
192,192,67048,1,0,0:0:0:0:
320,192,67144,1,0,0:0:0:0:
192,192,67144,1,0,0:0:0:0:
448,192,67240,5,0,0:0:0:0:
64,192,67240,1,0,0:0:0:0:
192,192,67288,1,0,0:0:0:0:
320,192,67336,1,0,0:0:0:0:
448,192,67384,1,0,0:0:0:0:
64,192,67432,1,0,0:0:0:0:
192,192,67432,1,0,0:0:0:0:
320,192,67480,1,0,0:0:0:0:
448,192,67528,1,0,0:0:0:0:
192,192,67576,1,0,0:0:0:0:
320,192,67625,1,0,0:0:0:0:
448,192,67625,1,0,0:0:0:0:
64,192,67625,1,0,0:0:0:0:
320,192,67721,1,0,0:0:0:0:
192,192,67721,1,0,0:0:0:0:
64,192,67817,1,0,0:0:0:0:
320,192,67817,1,0,0:0:0:0:
448,192,67817,1,0,0:0:0:0:
192,192,67913,1,0,0:0:0:0:
64,192,67913,1,0,0:0:0:0:
320,192,68009,1,0,0:0:0:0:
448,192,68009,1,0,0:0:0:0:
64,192,68009,1,0,0:0:0:0:
192,192,68201,1,0,0:0:0:0:
320,192,68201,1,0,0:0:0:0:
64,192,68394,1,0,0:0:0:0:
448,192,68394,1,0,0:0:0:0:
192,192,68394,1,0,0:0:0:0:
448,192,68490,1,0,0:0:0:0:
192,192,68490,1,0,0:0:0:0:
320,192,68586,1,0,0:0:0:0:
64,192,68586,1,0,0:0:0:0:
320,192,68682,1,0,0:0:0:0:
64,192,68682,1,0,0:0:0:0:
448,192,68778,1,0,0:0:0:0:
192,192,68778,1,0,0:0:0:0:
64,192,68778,1,0,0:0:0:0:
448,192,68971,1,0,0:0:0:0:
320,192,68971,1,0,0:0:0:0:
448,192,69163,1,0,0:0:0:0:
64,192,69163,1,0,0:0:0:0:
320,192,69163,1,0,0:0:0:0:
320,192,69259,1,0,0:0:0:0:
64,192,69259,1,0,0:0:0:0:
448,192,69355,1,0,0:0:0:0:
192,192,69355,1,0,0:0:0:0:
448,192,69451,1,0,0:0:0:0:
192,192,69451,1,0,0:0:0:0:
64,192,69548,128,0,69932:0:0:0:0:
448,192,69548,1,0,0:0:0:0:
320,192,69548,1,0,0:0:0:0:
320,192,69740,1,0,0:0:0:0:
192,192,69932,1,0,0:0:0:0:
448,192,69932,128,0,70317:0:0:0:0:
320,192,69932,1,0,0:0:0:0:
192,192,70125,1,0,0:0:0:0:
64,192,70317,1,0,0:0:0:0:
320,192,70317,1,0,0:0:0:0:
64,192,70413,1,0,0:0:0:0:
192,192,70509,1,0,0:0:0:0:
448,192,70509,1,0,0:0:0:0:
192,192,70605,1,0,0:0:0:0:
64,192,70701,1,0,0:0:0:0:
448,192,70701,1,0,0:0:0:0:
320,192,70701,1,0,0:0:0:0:
448,192,70798,1,0,0:0:0:0:
320,192,70798,1,0,0:0:0:0:
192,192,70894,1,0,0:0:0:0:
448,192,70894,1,0,0:0:0:0:
320,192,70894,1,0,0:0:0:0:
448,192,70990,1,0,0:0:0:0:
320,192,70990,1,0,0:0:0:0:
320,192,71086,1,0,0:0:0:0:
64,192,71086,1,0,0:0:0:0:
448,192,71086,1,0,0:0:0:0:
192,192,71278,1,0,0:0:0:0:
448,192,71278,1,0,0:0:0:0:
64,192,71471,1,0,0:0:0:0:
320,192,71471,1,0,0:0:0:0:
448,192,71471,1,0,0:0:0:0:
192,192,71663,1,0,0:0:0:0:
320,192,71663,1,0,0:0:0:0:
448,192,71759,1,0,0:0:0:0:
192,192,71759,1,0,0:0:0:0:
448,192,71855,1,0,0:0:0:0:
320,192,71855,1,0,0:0:0:0:
64,192,71855,1,0,0:0:0:0:
320,192,72048,1,0,0:0:0:0:
448,192,72048,1,0,0:0:0:0:
320,192,72240,1,0,0:0:0:0:
64,192,72240,1,0,0:0:0:0:
192,192,72240,1,0,0:0:0:0:
320,192,72432,1,0,0:0:0:0:
448,192,72432,1,0,0:0:0:0:
192,192,72625,1,0,0:0:0:0:
64,192,72625,1,0,0:0:0:0:
448,192,72625,1,0,0:0:0:0:
64,192,72817,1,0,0:0:0:0:
320,192,72817,1,0,0:0:0:0:
448,192,73009,1,0,0:0:0:0:
64,192,73009,1,0,0:0:0:0:
192,192,73009,1,0,0:0:0:0:
192,192,73105,1,0,0:0:0:0:
64,192,73105,1,0,0:0:0:0:
320,192,73201,1,0,0:0:0:0:
448,192,73201,1,0,0:0:0:0:
192,192,73298,1,0,0:0:0:0:
320,192,73298,1,0,0:0:0:0:
64,192,73394,5,0,0:0:0:0:
448,192,73394,1,0,0:0:0:0:
320,192,73442,1,0,0:0:0:0:
192,192,73490,1,0,0:0:0:0:
64,192,73538,1,0,0:0:0:0:
448,192,73586,1,0,0:0:0:0:
320,192,73586,1,0,0:0:0:0:
192,192,73634,1,0,0:0:0:0:
64,192,73682,1,0,0:0:0:0:
320,192,73730,1,0,0:0:0:0:
192,192,73778,1,0,0:0:0:0:
64,192,73778,1,0,0:0:0:0:
448,192,73778,1,0,0:0:0:0:
64,192,73971,1,0,0:0:0:0:
320,192,73971,1,0,0:0:0:0:
192,192,74163,1,0,0:0:0:0:
64,192,74163,1,0,0:0:0:0:
448,192,74163,1,0,0:0:0:0:
320,192,74355,1,0,0:0:0:0:
192,192,74355,1,0,0:0:0:0:
448,192,74548,1,0,0:0:0:0:
192,192,74548,1,0,0:0:0:0:
64,192,74548,1,0,0:0:0:0:
448,192,74740,1,0,0:0:0:0:
320,192,74740,1,0,0:0:0:0:
448,192,74932,1,0,0:0:0:0:
64,192,74932,1,0,0:0:0:0:
192,192,74932,1,0,0:0:0:0:
448,192,75028,1,0,0:0:0:0:
320,192,75125,1,0,0:0:0:0:
192,192,75125,1,0,0:0:0:0:
320,192,75221,1,0,0:0:0:0:
192,192,75317,1,0,0:0:0:0:
64,192,75317,1,0,0:0:0:0:
448,192,75317,1,0,0:0:0:0:
192,192,75413,1,0,0:0:0:0:
64,192,75413,1,0,0:0:0:0:
192,192,75509,1,0,0:0:0:0:
64,192,75509,1,0,0:0:0:0:
448,192,75509,1,0,0:0:0:0:
192,192,75605,1,0,0:0:0:0:
64,192,75605,1,0,0:0:0:0:
448,192,75701,1,0,0:0:0:0:
320,192,75701,1,0,0:0:0:0:
192,192,75701,1,0,0:0:0:0:
64,192,75701,1,0,0:0:0:0:
64,192,75894,1,0,0:0:0:0:
320,192,75894,1,0,0:0:0:0:
448,192,75894,1,0,0:0:0:0:
192,192,76086,1,0,0:0:0:0:
64,192,76278,1,0,0:0:0:0:
192,192,76278,1,0,0:0:0:0:
448,192,76278,1,0,0:0:0:0:
192,192,76663,1,0,0:0:0:0:
320,192,76663,1,0,0:0:0:0:
64,192,76855,1,0,0:0:0:0:
448,192,76855,1,0,0:0:0:0:
192,192,77048,1,0,0:0:0:0:
320,192,77048,1,0,0:0:0:0:
448,192,77240,128,0,77432:0:0:0:0:
64,192,77240,1,0,0:0:0:0:
192,192,77240,1,0,0:0:0:0:
192,192,77432,1,0,0:0:0:0:
448,192,77528,128,0,77625:0:0:0:0:
64,192,77625,1,0,0:0:0:0:
192,192,77625,1,0,0:0:0:0:
192,192,77817,1,0,0:0:0:0:
320,192,78009,1,0,0:0:0:0:
448,192,78009,1,0,0:0:0:0:
64,192,78009,128,0,78201:0:0:0:0:
320,192,78201,1,0,0:0:0:0:
64,192,78298,128,0,78394:0:0:0:0:
448,192,78394,1,0,0:0:0:0:
320,192,78394,1,0,0:0:0:0:
320,192,78586,1,0,0:0:0:0:
64,192,78778,1,0,0:0:0:0:
192,192,78778,1,0,0:0:0:0:
448,192,78778,128,0,78875:0:0:0:0:
320,192,78971,1,0,0:0:0:0:
448,192,78971,1,0,0:0:0:0:
64,192,78971,128,0,79067:0:0:0:0:
64,192,79163,1,0,0:0:0:0:
192,192,79163,1,0,0:0:0:0:
448,192,79163,128,0,79259:0:0:0:0:
320,192,79355,1,0,0:0:0:0:
448,192,79355,1,0,0:0:0:0:
64,192,79355,128,0,79451:0:0:0:0:
64,192,79548,1,0,0:0:0:0:
192,192,79548,1,0,0:0:0:0:
64,192,79644,1,0,0:0:0:0:
192,192,79644,1,0,0:0:0:0:
320,192,79740,1,0,0:0:0:0:
448,192,79740,1,0,0:0:0:0:
320,192,79836,1,0,0:0:0:0:
448,192,79836,1,0,0:0:0:0:
320,192,79932,128,0,80221:0:0:0:0:
448,192,79932,128,0,80221:0:0:0:0:
64,192,79932,128,0,80221:0:0:0:0:
192,192,79932,128,0,80221:0:0:0:0:
64,192,80317,1,0,0:0:0:0:
320,192,80317,1,0,0:0:0:0:
448,192,80317,1,0,0:0:0:0:
64,192,80509,1,0,0:0:0:0:
192,192,80509,1,0,0:0:0:0:
192,192,80605,1,0,0:0:0:0:
64,192,80605,1,0,0:0:0:0:
448,192,80605,1,0,0:0:0:0:
320,192,80701,1,0,0:0:0:0:
448,192,80701,1,0,0:0:0:0:
64,192,80798,1,0,0:0:0:0:
320,192,80798,1,0,0:0:0:0:
448,192,80894,1,0,0:0:0:0:
64,192,80894,1,0,0:0:0:0:
192,192,80894,1,0,0:0:0:0:
64,192,81086,1,0,0:0:0:0:
192,192,81086,1,0,0:0:0:0:
320,192,81182,1,0,0:0:0:0:
448,192,81182,1,0,0:0:0:0:
448,192,81278,1,0,0:0:0:0:
320,192,81278,1,0,0:0:0:0:
64,192,81278,1,0,0:0:0:0:
192,192,81375,1,0,0:0:0:0:
320,192,81375,1,0,0:0:0:0:
192,192,81471,1,0,0:0:0:0:
64,192,81471,1,0,0:0:0:0:
448,192,81471,1,0,0:0:0:0:
64,192,81663,1,0,0:0:0:0:
320,192,81663,1,0,0:0:0:0:
448,192,81663,1,0,0:0:0:0:
320,192,81855,1,0,0:0:0:0:
64,192,81855,1,0,0:0:0:0:
192,192,81855,1,0,0:0:0:0:
192,192,81951,1,0,0:0:0:0:
448,192,81951,1,0,0:0:0:0:
448,192,82048,1,0,0:0:0:0:
320,192,82048,1,0,0:0:0:0:
64,192,82048,1,0,0:0:0:0:
64,192,82144,1,0,0:0:0:0:
192,192,82144,1,0,0:0:0:0:
64,192,82240,1,0,0:0:0:0:
320,192,82240,1,0,0:0:0:0:
448,192,82240,1,0,0:0:0:0:
320,192,82432,1,0,0:0:0:0:
192,192,82432,1,0,0:0:0:0:
448,192,82528,1,0,0:0:0:0:
192,192,82528,1,0,0:0:0:0:
64,192,82625,1,0,0:0:0:0:
192,192,82625,1,0,0:0:0:0:
320,192,82625,1,0,0:0:0:0:
192,192,82817,1,0,0:0:0:0:
320,192,82817,1,0,0:0:0:0:
64,192,82913,1,0,0:0:0:0:
320,192,82913,1,0,0:0:0:0:
448,192,83009,1,0,0:0:0:0:
320,192,83009,1,0,0:0:0:0:
192,192,83009,1,0,0:0:0:0:
64,192,83105,1,0,0:0:0:0:
192,192,83105,1,0,0:0:0:0:
320,192,83201,1,0,0:0:0:0:
448,192,83201,1,0,0:0:0:0:
64,192,83201,1,0,0:0:0:0:
192,192,83394,1,0,0:0:0:0:
64,192,83394,1,0,0:0:0:0:
320,192,83394,1,0,0:0:0:0:
448,192,83586,1,0,0:0:0:0:
320,192,83586,1,0,0:0:0:0:
320,192,83682,1,0,0:0:0:0:
448,192,83682,1,0,0:0:0:0:
64,192,83682,1,0,0:0:0:0:
192,192,83778,1,0,0:0:0:0:
64,192,83778,1,0,0:0:0:0:
448,192,83875,1,0,0:0:0:0:
192,192,83875,1,0,0:0:0:0:
64,192,83971,1,0,0:0:0:0:
448,192,83971,1,0,0:0:0:0:
320,192,83971,1,0,0:0:0:0:
448,192,84163,1,0,0:0:0:0:
320,192,84163,1,0,0:0:0:0:
192,192,84259,1,0,0:0:0:0:
64,192,84259,1,0,0:0:0:0:
64,192,84355,1,0,0:0:0:0:
192,192,84355,1,0,0:0:0:0:
448,192,84355,1,0,0:0:0:0:
320,192,84451,1,0,0:0:0:0:
192,192,84451,1,0,0:0:0:0:
320,192,84548,1,0,0:0:0:0:
448,192,84548,1,0,0:0:0:0:
64,192,84548,1,0,0:0:0:0:
448,192,84740,1,0,0:0:0:0:
192,192,84740,1,0,0:0:0:0:
64,192,84740,1,0,0:0:0:0:
192,192,84932,1,0,0:0:0:0:
448,192,84932,1,0,0:0:0:0:
320,192,84932,1,0,0:0:0:0:
320,192,85028,1,0,0:0:0:0:
64,192,85028,1,0,0:0:0:0:
64,192,85125,1,0,0:0:0:0:
192,192,85125,1,0,0:0:0:0:
448,192,85125,1,0,0:0:0:0:
448,192,85221,1,0,0:0:0:0:
320,192,85221,1,0,0:0:0:0:
448,192,85317,1,0,0:0:0:0:
192,192,85317,1,0,0:0:0:0:
64,192,85317,1,0,0:0:0:0:
192,192,85509,1,0,0:0:0:0:
320,192,85509,1,0,0:0:0:0:
448,192,85701,1,0,0:0:0:0:
320,192,85701,1,0,0:0:0:0:
192,192,85701,1,0,0:0:0:0:
192,192,85798,1,0,0:0:0:0:
320,192,85894,1,0,0:0:0:0:
64,192,85894,1,0,0:0:0:0:
320,192,85990,1,0,0:0:0:0:
448,192,86086,1,0,0:0:0:0:
64,192,86086,1,0,0:0:0:0:
192,192,86086,1,0,0:0:0:0:
64,192,86182,1,0,0:0:0:0:
192,192,86182,1,0,0:0:0:0:
320,192,86278,1,0,0:0:0:0:
192,192,86278,1,0,0:0:0:0:
64,192,86278,1,0,0:0:0:0:
64,192,86375,1,0,0:0:0:0:
192,192,86375,1,0,0:0:0:0:
448,192,86471,1,0,0:0:0:0:
192,192,86471,1,0,0:0:0:0:
64,192,86471,1,0,0:0:0:0:
320,192,86663,1,0,0:0:0:0:
192,192,86663,1,0,0:0:0:0:
64,192,86759,1,0,0:0:0:0:
448,192,86759,1,0,0:0:0:0:
192,192,86759,1,0,0:0:0:0:
64,192,86855,1,0,0:0:0:0:
320,192,86855,1,0,0:0:0:0:
192,192,86951,1,0,0:0:0:0:
320,192,86951,1,0,0:0:0:0:
320,192,87048,1,0,0:0:0:0:
448,192,87048,1,0,0:0:0:0:
64,192,87048,1,0,0:0:0:0:
320,192,87240,1,0,0:0:0:0:
192,192,87240,1,0,0:0:0:0:
64,192,87336,1,0,0:0:0:0:
320,192,87336,1,0,0:0:0:0:
448,192,87336,1,0,0:0:0:0:
192,192,87432,1,0,0:0:0:0:
448,192,87432,1,0,0:0:0:0:
320,192,87528,1,0,0:0:0:0:
192,192,87528,1,0,0:0:0:0:
64,192,87625,1,0,0:0:0:0:
448,192,87625,1,0,0:0:0:0:
192,192,87625,1,0,0:0:0:0:
64,192,87817,1,0,0:0:0:0:
448,192,87817,1,0,0:0:0:0:
320,192,87817,1,0,0:0:0:0:
192,192,88009,1,0,0:0:0:0:
448,192,88009,1,0,0:0:0:0:
320,192,88009,1,0,0:0:0:0:
320,192,88105,1,0,0:0:0:0:
64,192,88105,1,0,0:0:0:0:
192,192,88201,1,0,0:0:0:0:
448,192,88201,1,0,0:0:0:0:
64,192,88201,1,0,0:0:0:0:
192,192,88298,1,0,0:0:0:0:
448,192,88298,1,0,0:0:0:0:
64,192,88394,1,0,0:0:0:0:
320,192,88394,1,0,0:0:0:0:
448,192,88394,1,0,0:0:0:0:
448,192,88586,1,0,0:0:0:0:
192,192,88586,1,0,0:0:0:0:
320,192,88682,1,0,0:0:0:0:
64,192,88682,1,0,0:0:0:0:
192,192,88778,1,0,0:0:0:0:
320,192,88778,1,0,0:0:0:0:
448,192,88778,1,0,0:0:0:0:
64,192,88971,1,0,0:0:0:0:
320,192,88971,1,0,0:0:0:0:
192,192,89067,1,0,0:0:0:0:
448,192,89067,1,0,0:0:0:0:
192,192,89163,1,0,0:0:0:0:
320,192,89163,1,0,0:0:0:0:
64,192,89163,1,0,0:0:0:0:
192,192,89259,1,0,0:0:0:0:
448,192,89259,1,0,0:0:0:0:
448,192,89355,1,0,0:0:0:0:
64,192,89355,1,0,0:0:0:0:
320,192,89355,1,0,0:0:0:0:
320,192,89548,1,0,0:0:0:0:
448,192,89548,1,0,0:0:0:0:
192,192,89548,1,0,0:0:0:0:
320,192,89740,1,0,0:0:0:0:
64,192,89740,1,0,0:0:0:0:
448,192,89836,1,0,0:0:0:0:
64,192,89836,1,0,0:0:0:0:
320,192,89836,1,0,0:0:0:0:
448,192,89932,1,0,0:0:0:0:
192,192,89932,1,0,0:0:0:0:
192,192,90028,1,0,0:0:0:0:
64,192,90028,1,0,0:0:0:0:
320,192,90125,1,0,0:0:0:0:
64,192,90125,1,0,0:0:0:0:
448,192,90125,1,0,0:0:0:0:
320,192,90317,1,0,0:0:0:0:
64,192,90317,1,0,0:0:0:0:
448,192,90413,1,0,0:0:0:0:
192,192,90413,1,0,0:0:0:0:
64,192,90509,1,0,0:0:0:0:
192,192,90509,1,0,0:0:0:0:
448,192,90509,1,0,0:0:0:0:
192,192,90605,1,0,0:0:0:0:
320,192,90605,1,0,0:0:0:0:
448,192,90701,1,0,0:0:0:0:
64,192,90701,1,0,0:0:0:0:
320,192,90701,1,0,0:0:0:0:
448,192,90894,1,0,0:0:0:0:
64,192,90894,1,0,0:0:0:0:
192,192,90894,1,0,0:0:0:0:
64,192,90990,1,0,0:0:0:0:
192,192,90990,1,0,0:0:0:0:
448,192,91086,1,0,0:0:0:0:
320,192,91086,1,0,0:0:0:0:
64,192,91086,1,0,0:0:0:0:
192,192,91182,1,0,0:0:0:0:
448,192,91182,1,0,0:0:0:0:
320,192,91278,1,0,0:0:0:0:
64,192,91278,1,0,0:0:0:0:
192,192,91278,1,0,0:0:0:0:
320,192,91375,1,0,0:0:0:0:
448,192,91375,1,0,0:0:0:0:
448,192,91471,1,0,0:0:0:0:
64,192,91471,1,0,0:0:0:0:
192,192,91471,1,0,0:0:0:0:
64,192,91663,1,0,0:0:0:0:
448,192,91663,1,0,0:0:0:0:
192,192,91663,1,0,0:0:0:0:
320,192,91759,1,0,0:0:0:0:
64,192,91759,1,0,0:0:0:0:
192,192,91855,1,0,0:0:0:0:
448,192,91855,1,0,0:0:0:0:
320,192,91855,1,0,0:0:0:0:
192,192,91951,1,0,0:0:0:0:
64,192,91951,1,0,0:0:0:0:
64,192,92048,1,0,0:0:0:0:
448,192,92048,1,0,0:0:0:0:
320,192,92048,1,0,0:0:0:0:
448,192,92240,1,0,0:0:0:0:
64,192,92240,1,0,0:0:0:0:
192,192,92240,1,0,0:0:0:0:
320,192,92432,1,0,0:0:0:0:
192,192,92432,1,0,0:0:0:0:
192,192,92625,1,0,0:0:0:0:
448,192,92625,1,0,0:0:0:0:
64,192,92625,1,0,0:0:0:0:
320,192,92817,1,0,0:0:0:0:
64,192,92817,1,0,0:0:0:0:
64,192,93009,1,0,0:0:0:0:
192,192,93009,1,0,0:0:0:0:
448,192,93009,1,0,0:0:0:0:
64,192,93201,1,0,0:0:0:0:
320,192,93201,1,0,0:0:0:0:
64,192,93394,1,0,0:0:0:0:
320,192,93394,1,0,0:0:0:0:
448,192,93394,1,0,0:0:0:0:
192,192,93586,1,0,0:0:0:0:
448,192,93586,1,0,0:0:0:0:
64,192,93778,1,0,0:0:0:0:
320,192,93778,1,0,0:0:0:0:
448,192,93778,1,0,0:0:0:0:
320,192,93971,1,0,0:0:0:0:
448,192,93971,1,0,0:0:0:0:
64,192,93971,1,0,0:0:0:0:
320,192,94067,1,0,0:0:0:0:
448,192,94067,1,0,0:0:0:0:
64,192,94067,1,0,0:0:0:0:
64,192,94163,1,0,0:0:0:0:
192,192,94163,1,0,0:0:0:0:
320,192,94163,1,0,0:0:0:0:
64,192,94355,1,0,0:0:0:0:
320,192,94355,1,0,0:0:0:0:
448,192,94355,1,0,0:0:0:0:
192,192,94548,1,0,0:0:0:0:
320,192,94548,1,0,0:0:0:0:
448,192,94548,1,0,0:0:0:0:
192,192,94740,1,0,0:0:0:0:
448,192,94740,1,0,0:0:0:0:
64,192,94740,1,0,0:0:0:0:
64,192,94932,1,0,0:0:0:0:
320,192,94932,1,0,0:0:0:0:
192,192,94932,1,0,0:0:0:0:
64,192,95125,1,0,0:0:0:0:
448,192,95125,1,0,0:0:0:0:
192,192,95125,1,0,0:0:0:0:
64,192,95221,1,0,0:0:0:0:
448,192,95221,1,0,0:0:0:0:
192,192,95221,1,0,0:0:0:0:
64,192,95317,128,0,95701:0:0:0:0:
448,192,95317,128,0,95701:0:0:0:0:
320,192,95317,128,0,95701:0:0:0:0:
192,192,95317,128,0,95701:0:0:0:0:
