osu file format v14

[General]
AudioFilename: Zzz Eurobeat.mp3
AudioLeadIn: 0
PreviewTime: 9935
Countdown: 0
SampleSet: Soft
StackLeniency: 0.7
Mode: 3
LetterboxInBreaks: 0
SpecialStyle: 0
WidescreenStoryboard: 1

[Editor]
DistanceSpacing: 1
BeatDivisor: 4
GridSize: 8
TimelineZoom: 2.4

[Metadata]
Title:Simple PACK
TitleUnicode:Simple PACK
Artist:Various Artists
ArtistUnicode:Various Artists
Creator:frolica
Version:Sasaki Sayaka - Zzz (Euro Star Mix) [9]
Source:
Tags:
BeatmapID:1010019
BeatmapSetID:472712

[Difficulty]
HPDrainRate:8
CircleSize:4
OverallDifficulty:8
ApproachRate:5
SliderMultiplier:1.4
SliderTickRate:1

[Events]
//Background and Video events
0,0,"BG4.jpg",0,0
//Break Periods
//Storyboard Layer 0 (Background)
//Storyboard Layer 1 (Fail)
//Storyboard Layer 2 (Pass)
//Storyboard Layer 3 (Foreground)
//Storyboard Sound Samples

[TimingPoints]
585,389.61038961039,4,2,0,0,1,0

[HitObjects]
64,192,585,5,0,0:0:0:0:
320,192,585,1,0,0:0:0:0:
192,192,779,1,0,0:0:0:0:
64,192,974,1,0,0:0:0:0:
320,192,974,1,0,0:0:0:0:
320,192,1169,1,0,0:0:0:0:
64,192,1364,1,0,0:0:0:0:
448,192,1559,1,0,0:0:0:0:
192,192,1753,1,0,0:0:0:0:
64,192,1753,1,0,0:0:0:0:
448,192,2143,5,0,0:0:0:0:
192,192,2143,1,0,0:0:0:0:
320,192,2338,1,0,0:0:0:0:
448,192,2533,1,0,0:0:0:0:
192,192,2533,1,0,0:0:0:0:
192,192,2727,1,0,0:0:0:0:
448,192,2922,1,0,0:0:0:0:
64,192,3117,1,0,0:0:0:0:
320,192,3312,1,0,0:0:0:0:
448,192,3312,1,0,0:0:0:0:
64,192,3701,5,0,0:0:0:0:
320,192,3701,1,0,0:0:0:0:
192,192,3896,1,0,0:0:0:0:
320,192,4091,1,0,0:0:0:0:
64,192,4091,1,0,0:0:0:0:
448,192,4286,1,0,0:0:0:0:
64,192,4481,1,0,0:0:0:0:
320,192,4675,1,0,0:0:0:0:
192,192,4870,1,0,0:0:0:0:
448,192,4870,1,0,0:0:0:0:
192,192,5065,1,0,0:0:0:0:
320,192,5260,1,0,0:0:0:0:
192,192,5649,1,0,0:0:0:0:
448,192,5649,1,0,0:0:0:0:
192,192,6039,1,0,0:0:0:0:
320,192,6234,1,0,0:0:0:0:
64,192,6429,1,0,0:0:0:0:
320,192,6429,1,0,0:0:0:0:
192,192,6623,1,0,0:0:0:0:
448,192,6818,1,0,0:0:0:0:
192,192,7208,1,0,0:0:0:0:
448,192,7208,1,0,0:0:0:0:
64,192,7597,1,0,0:0:0:0:
64,192,7987,1,0,0:0:0:0:
320,192,7987,1,0,0:0:0:0:
448,192,8182,128,0,8864:0:0:0:0:
192,192,8377,1,0,0:0:0:0:
192,192,8572,128,0,9838:0:0:0:0:
320,192,8766,128,0,9838:0:0:0:0:
64,192,8766,1,0,0:0:0:0:
448,192,8961,128,0,9838:0:0:0:0:
64,192,9156,128,0,9838:0:0:0:0:
64,192,9935,5,0,0:0:0:0:
192,192,9935,1,0,0:0:0:0:
448,192,9935,1,0,0:0:0:0:
320,192,9935,1,0,0:0:0:0:
64,192,10130,1,0,0:0:0:0:
320,192,10130,1,0,0:0:0:0:
448,192,10325,1,0,0:0:0:0:
192,192,10325,1,0,0:0:0:0:
320,192,10520,1,0,0:0:0:0:
448,192,10520,1,0,0:0:0:0:
64,192,10520,1,0,0:0:0:0:
320,192,10617,1,0,0:0:0:0:
64,192,10714,1,0,0:0:0:0:
448,192,10714,1,0,0:0:0:0:
64,192,10812,1,0,0:0:0:0:
448,192,10909,1,0,0:0:0:0:
192,192,10909,1,0,0:0:0:0:
192,192,11104,1,0,0:0:0:0:
320,192,11104,1,0,0:0:0:0:
448,192,11104,1,0,0:0:0:0:
64,192,11299,1,0,0:0:0:0:
320,192,11299,1,0,0:0:0:0:
448,192,11494,5,0,0:0:0:0:
64,192,11494,1,0,0:0:0:0:
320,192,11494,1,0,0:0:0:0:
192,192,11688,1,0,0:0:0:0:
448,192,11688,1,0,0:0:0:0:
64,192,11883,1,0,0:0:0:0:
192,192,11883,1,0,0:0:0:0:
448,192,12078,1,0,0:0:0:0:
64,192,12078,1,0,0:0:0:0:
192,192,12078,1,0,0:0:0:0:
192,192,12175,1,0,0:0:0:0:
64,192,12273,1,0,0:0:0:0:
448,192,12273,1,0,0:0:0:0:
448,192,12370,1,0,0:0:0:0:
64,192,12468,1,0,0:0:0:0:
320,192,12468,1,0,0:0:0:0:
64,192,12662,1,0,0:0:0:0:
192,192,12662,1,0,0:0:0:0:
320,192,12662,1,0,0:0:0:0:
192,192,12857,1,0,0:0:0:0:
448,192,12857,1,0,0:0:0:0:
320,192,13052,1,0,0:0:0:0:
64,192,13052,1,0,0:0:0:0:
448,192,13052,1,0,0:0:0:0:
448,192,13247,1,0,0:0:0:0:
192,192,13247,1,0,0:0:0:0:
192,192,13442,1,0,0:0:0:0:
64,192,13442,1,0,0:0:0:0:
192,192,13636,1,0,0:0:0:0:
64,192,13636,1,0,0:0:0:0:
448,192,13636,1,0,0:0:0:0:
192,192,13734,1,0,0:0:0:0:
448,192,13831,1,0,0:0:0:0:
64,192,13831,1,0,0:0:0:0:
448,192,13929,1,0,0:0:0:0:
64,192,14026,1,0,0:0:0:0:
320,192,14026,1,0,0:0:0:0:
320,192,14221,1,0,0:0:0:0:
192,192,14221,1,0,0:0:0:0:
64,192,14221,1,0,0:0:0:0:
448,192,14416,1,0,0:0:0:0:
192,192,14416,1,0,0:0:0:0:
64,192,14610,5,0,0:0:0:0:
448,192,14610,1,0,0:0:0:0:
192,192,14610,1,0,0:0:0:0:
320,192,14805,1,0,0:0:0:0:
64,192,14805,1,0,0:0:0:0:
448,192,15000,1,0,0:0:0:0:
320,192,15000,1,0,0:0:0:0:
64,192,15195,1,0,0:0:0:0:
448,192,15195,1,0,0:0:0:0:
320,192,15195,1,0,0:0:0:0:
320,192,15292,1,0,0:0:0:0:
192,192,15390,1,0,0:0:0:0:
448,192,15390,1,0,0:0:0:0:
192,192,15487,1,0,0:0:0:0:
448,192,15585,1,0,0:0:0:0:
64,192,15585,1,0,0:0:0:0:
320,192,15585,1,0,0:0:0:0:
192,192,15779,1,0,0:0:0:0:
64,192,15779,1,0,0:0:0:0:
320,192,15779,1,0,0:0:0:0:
64,192,15974,1,0,0:0:0:0:
192,192,15974,1,0,0:0:0:0:
448,192,15974,1,0,0:0:0:0:
448,192,16169,1,0,0:0:0:0:
320,192,16169,1,0,0:0:0:0:
192,192,16169,1,0,0:0:0:0:
320,192,16364,1,0,0:0:0:0:
64,192,16364,1,0,0:0:0:0:
448,192,16559,1,0,0:0:0:0:
320,192,16559,1,0,0:0:0:0:
64,192,16753,1,0,0:0:0:0:
448,192,16753,1,0,0:0:0:0:
320,192,16753,1,0,0:0:0:0:
448,192,16851,1,0,0:0:0:0:
320,192,16948,1,0,0:0:0:0:
192,192,16948,1,0,0:0:0:0:
192,192,17046,1,0,0:0:0:0:
448,192,17143,1,0,0:0:0:0:
64,192,17143,1,0,0:0:0:0:
448,192,17338,1,0,0:0:0:0:
320,192,17338,1,0,0:0:0:0:
192,192,17338,1,0,0:0:0:0:
320,192,17533,1,0,0:0:0:0:
64,192,17533,1,0,0:0:0:0:
448,192,17727,5,0,0:0:0:0:
320,192,17727,1,0,0:0:0:0:
64,192,17727,1,0,0:0:0:0:
448,192,17922,1,0,0:0:0:0:
192,192,17922,1,0,0:0:0:0:
192,192,18117,1,0,0:0:0:0:
64,192,18117,1,0,0:0:0:0:
192,192,18312,1,0,0:0:0:0:
64,192,18312,1,0,0:0:0:0:
448,192,18312,1,0,0:0:0:0:
64,192,18409,1,0,0:0:0:0:
320,192,18507,1,0,0:0:0:0:
192,192,18507,1,0,0:0:0:0:
320,192,18604,1,0,0:0:0:0:
448,192,18701,1,0,0:0:0:0:
64,192,18701,1,0,0:0:0:0:
320,192,18896,1,0,0:0:0:0:
192,192,18896,1,0,0:0:0:0:
64,192,18896,1,0,0:0:0:0:
448,192,19091,1,0,0:0:0:0:
192,192,19091,1,0,0:0:0:0:
448,192,19286,1,0,0:0:0:0:
64,192,19286,1,0,0:0:0:0:
320,192,19286,1,0,0:0:0:0:
192,192,19481,1,0,0:0:0:0:
448,192,19481,1,0,0:0:0:0:
64,192,19675,1,0,0:0:0:0:
192,192,19675,1,0,0:0:0:0:
320,192,19675,1,0,0:0:0:0:
448,192,19870,1,0,0:0:0:0:
64,192,19870,1,0,0:0:0:0:
192,192,19870,1,0,0:0:0:0:
192,192,19968,1,0,0:0:0:0:
448,192,20065,1,0,0:0:0:0:
64,192,20065,1,0,0:0:0:0:
448,192,20162,1,0,0:0:0:0:
320,192,20260,1,0,0:0:0:0:
64,192,20260,1,0,0:0:0:0:
64,192,20455,1,0,0:0:0:0:
192,192,20455,1,0,0:0:0:0:
320,192,20455,1,0,0:0:0:0:
192,192,20649,1,0,0:0:0:0:
448,192,20649,1,0,0:0:0:0:
64,192,20844,5,0,0:0:0:0:
192,192,20844,1,0,0:0:0:0:
448,192,20844,1,0,0:0:0:0:
64,192,21039,1,0,0:0:0:0:
320,192,21039,1,0,0:0:0:0:
64,192,21136,1,0,0:0:0:0:
320,192,21234,1,0,0:0:0:0:
448,192,21234,1,0,0:0:0:0:
320,192,21429,1,0,0:0:0:0:
448,192,21429,1,0,0:0:0:0:
64,192,21429,1,0,0:0:0:0:
192,192,21623,1,0,0:0:0:0:
320,192,21623,1,0,0:0:0:0:
192,192,21721,1,0,0:0:0:0:
64,192,21818,1,0,0:0:0:0:
448,192,21818,1,0,0:0:0:0:
448,192,21916,1,0,0:0:0:0:
320,192,22013,1,0,0:0:0:0:
64,192,22013,1,0,0:0:0:0:
64,192,22110,1,0,0:0:0:0:
192,192,22208,1,0,0:0:0:0:
320,192,22208,1,0,0:0:0:0:
320,192,22305,1,0,0:0:0:0:
192,192,22403,1,0,0:0:0:0:
448,192,22403,1,0,0:0:0:0:
64,192,22403,1,0,0:0:0:0:
320,192,22403,1,0,0:0:0:0:
64,192,22597,1,0,0:0:0:0:
320,192,22597,1,0,0:0:0:0:
320,192,22792,1,0,0:0:0:0:
448,192,22792,1,0,0:0:0:0:
64,192,22792,1,0,0:0:0:0:
320,192,22890,1,0,0:0:0:0:
192,192,22890,1,0,0:0:0:0:
64,192,22987,1,0,0:0:0:0:
192,192,22987,1,0,0:0:0:0:
448,192,22987,1,0,0:0:0:0:
64,192,23085,1,0,0:0:0:0:
320,192,23085,1,0,0:0:0:0:
192,192,23182,1,0,0:0:0:0:
448,192,23182,1,0,0:0:0:0:
192,192,23279,1,0,0:0:0:0:
448,192,23279,1,0,0:0:0:0:
448,192,23377,1,0,0:0:0:0:
320,192,23377,1,0,0:0:0:0:
64,192,23377,1,0,0:0:0:0:
192,192,23572,1,0,0:0:0:0:
320,192,23572,1,0,0:0:0:0:
448,192,23766,1,0,0:0:0:0:
192,192,23766,1,0,0:0:0:0:
64,192,23961,1,0,0:0:0:0:
320,192,23961,1,0,0:0:0:0:
448,192,23961,1,0,0:0:0:0:
192,192,24156,1,0,0:0:0:0:
448,192,24156,1,0,0:0:0:0:
64,192,24351,1,0,0:0:0:0:
320,192,24351,1,0,0:0:0:0:
448,192,24351,1,0,0:0:0:0:
192,192,24448,1,0,0:0:0:0:
448,192,24448,1,0,0:0:0:0:
64,192,24546,1,0,0:0:0:0:
320,192,24546,1,0,0:0:0:0:
192,192,24546,1,0,0:0:0:0:
64,192,24643,1,0,0:0:0:0:
448,192,24643,1,0,0:0:0:0:
192,192,24740,1,0,0:0:0:0:
320,192,24740,1,0,0:0:0:0:
192,192,24838,1,0,0:0:0:0:
320,192,24838,1,0,0:0:0:0:
192,192,24935,1,0,0:0:0:0:
64,192,24935,1,0,0:0:0:0:
448,192,24935,1,0,0:0:0:0:
192,192,25130,1,0,0:0:0:0:
320,192,25130,1,0,0:0:0:0:
64,192,25325,1,0,0:0:0:0:
320,192,25325,1,0,0:0:0:0:
320,192,25520,1,0,0:0:0:0:
64,192,25520,1,0,0:0:0:0:
448,192,25520,1,0,0:0:0:0:
192,192,25520,1,0,0:0:0:0:
448,192,25714,1,0,0:0:0:0:
192,192,25714,1,0,0:0:0:0:
192,192,25909,1,0,0:0:0:0:
64,192,25909,1,0,0:0:0:0:
448,192,25909,1,0,0:0:0:0:
192,192,26007,1,0,0:0:0:0:
320,192,26007,1,0,0:0:0:0:
448,192,26104,1,0,0:0:0:0:
320,192,26104,1,0,0:0:0:0:
64,192,26104,1,0,0:0:0:0:
448,192,26201,1,0,0:0:0:0:
192,192,26201,1,0,0:0:0:0:
320,192,26299,1,0,0:0:0:0:
64,192,26299,1,0,0:0:0:0:
320,192,26396,1,0,0:0:0:0:
64,192,26396,1,0,0:0:0:0:
64,192,26494,1,0,0:0:0:0:
192,192,26494,1,0,0:0:0:0:
448,192,26494,1,0,0:0:0:0:
320,192,26688,1,0,0:0:0:0:
192,192,26688,1,0,0:0:0:0:
64,192,26883,1,0,0:0:0:0:
320,192,26883,1,0,0:0:0:0:
64,192,27078,1,0,0:0:0:0:
320,192,27078,1,0,0:0:0:0:
448,192,27078,1,0,0:0:0:0:
192,192,27273,1,0,0:0:0:0:
448,192,27273,1,0,0:0:0:0:
64,192,27468,1,0,0:0:0:0:
192,192,27468,1,0,0:0:0:0:
448,192,27468,1,0,0:0:0:0:
320,192,27565,1,0,0:0:0:0:
64,192,27565,1,0,0:0:0:0:
320,192,27662,1,0,0:0:0:0:
448,192,27662,1,0,0:0:0:0:
192,192,27662,1,0,0:0:0:0:
448,192,27760,1,0,0:0:0:0:
64,192,27760,1,0,0:0:0:0:
320,192,27857,1,0,0:0:0:0:
192,192,27857,1,0,0:0:0:0:
320,192,27955,1,0,0:0:0:0:
192,192,27955,1,0,0:0:0:0:
64,192,28052,1,0,0:0:0:0:
448,192,28052,1,0,0:0:0:0:
320,192,28052,1,0,0:0:0:0:
64,192,28247,1,0,0:0:0:0:
448,192,28247,1,0,0:0:0:0:
192,192,28247,1,0,0:0:0:0:
320,192,28344,1,0,0:0:0:0:
64,192,28442,1,0,0:0:0:0:
448,192,28442,1,0,0:0:0:0:
320,192,28442,1,0,0:0:0:0:
192,192,28539,1,0,0:0:0:0:
192,192,28636,1,0,0:0:0:0:
448,192,28636,1,0,0:0:0:0:
64,192,28636,1,0,0:0:0:0:
320,192,28636,1,0,0:0:0:0:
64,192,28831,1,0,0:0:0:0:
320,192,28831,1,0,0:0:0:0:
320,192,29026,1,0,0:0:0:0:
448,192,29026,1,0,0:0:0:0:
64,192,29026,1,0,0:0:0:0:
320,192,29123,1,0,0:0:0:0:
192,192,29123,1,0,0:0:0:0:
64,192,29221,1,0,0:0:0:0:
192,192,29221,1,0,0:0:0:0:
448,192,29221,1,0,0:0:0:0:
64,192,29318,1,0,0:0:0:0:
320,192,29318,1,0,0:0:0:0:
192,192,29416,1,0,0:0:0:0:
448,192,29416,1,0,0:0:0:0:
192,192,29513,1,0,0:0:0:0:
448,192,29513,1,0,0:0:0:0:
448,192,29610,1,0,0:0:0:0:
320,192,29610,1,0,0:0:0:0:
64,192,29610,1,0,0:0:0:0:
192,192,29805,1,0,0:0:0:0:
320,192,29805,1,0,0:0:0:0:
448,192,30000,1,0,0:0:0:0:
192,192,30000,1,0,0:0:0:0:
64,192,30195,1,0,0:0:0:0:
320,192,30195,1,0,0:0:0:0:
448,192,30195,1,0,0:0:0:0:
192,192,30390,1,0,0:0:0:0:
448,192,30390,1,0,0:0:0:0:
64,192,30585,1,0,0:0:0:0:
320,192,30585,1,0,0:0:0:0:
448,192,30585,1,0,0:0:0:0:
192,192,30682,1,0,0:0:0:0:
448,192,30682,1,0,0:0:0:0:
64,192,30779,1,0,0:0:0:0:
320,192,30779,1,0,0:0:0:0:
192,192,30779,1,0,0:0:0:0:
64,192,30877,1,0,0:0:0:0:
448,192,30877,1,0,0:0:0:0:
192,192,30974,1,0,0:0:0:0:
320,192,30974,1,0,0:0:0:0:
192,192,31072,1,0,0:0:0:0:
320,192,31072,1,0,0:0:0:0:
192,192,31169,1,0,0:0:0:0:
64,192,31169,1,0,0:0:0:0:
448,192,31169,1,0,0:0:0:0:
192,192,31364,1,0,0:0:0:0:
320,192,31364,1,0,0:0:0:0:
64,192,31559,1,0,0:0:0:0:
320,192,31559,1,0,0:0:0:0:
320,192,31753,1,0,0:0:0:0:
64,192,31753,1,0,0:0:0:0:
448,192,31753,1,0,0:0:0:0:
192,192,31753,1,0,0:0:0:0:
448,192,31948,1,0,0:0:0:0:
192,192,31948,1,0,0:0:0:0:
192,192,32143,1,0,0:0:0:0:
64,192,32143,1,0,0:0:0:0:
448,192,32143,1,0,0:0:0:0:
192,192,32240,1,0,0:0:0:0:
320,192,32240,1,0,0:0:0:0:
448,192,32338,1,0,0:0:0:0:
320,192,32338,1,0,0:0:0:0:
64,192,32338,1,0,0:0:0:0:
448,192,32435,1,0,0:0:0:0:
192,192,32435,1,0,0:0:0:0:
320,192,32533,1,0,0:0:0:0:
64,192,32533,1,0,0:0:0:0:
320,192,32630,1,0,0:0:0:0:
64,192,32630,1,0,0:0:0:0:
64,192,32727,1,0,0:0:0:0:
192,192,32727,1,0,0:0:0:0:
448,192,32727,1,0,0:0:0:0:
320,192,32922,1,0,0:0:0:0:
192,192,32922,1,0,0:0:0:0:
448,192,33117,1,0,0:0:0:0:
192,192,33117,1,0,0:0:0:0:
64,192,33312,1,0,0:0:0:0:
320,192,33312,1,0,0:0:0:0:
448,192,33312,1,0,0:0:0:0:
320,192,33409,1,0,0:0:0:0:
64,192,33507,1,0,0:0:0:0:
192,192,33507,1,0,0:0:0:0:
64,192,33604,1,0,0:0:0:0:
192,192,33604,1,0,0:0:0:0:
192,192,33701,1,0,0:0:0:0:
320,192,33701,1,0,0:0:0:0:
448,192,33701,1,0,0:0:0:0:
320,192,33799,1,0,0:0:0:0:
192,192,33896,1,0,0:0:0:0:
448,192,33896,1,0,0:0:0:0:
64,192,33896,1,0,0:0:0:0:
320,192,33994,1,0,0:0:0:0:
192,192,33994,1,0,0:0:0:0:
320,192,34091,1,0,0:0:0:0:
448,192,34091,1,0,0:0:0:0:
64,192,34091,1,0,0:0:0:0:
192,192,34188,1,0,0:0:0:0:
320,192,34286,1,0,0:0:0:0:
448,192,34286,1,0,0:0:0:0:
64,192,34286,1,0,0:0:0:0:
320,192,34383,1,0,0:0:0:0:
448,192,34383,1,0,0:0:0:0:
64,192,34481,1,0,0:0:0:0:
192,192,34481,1,0,0:0:0:0:
320,192,34481,1,0,0:0:0:0:
192,192,34578,1,0,0:0:0:0:
448,192,34675,1,0,0:0:0:0:
320,192,34675,1,0,0:0:0:0:
64,192,34675,1,0,0:0:0:0:
320,192,34773,1,0,0:0:0:0:
192,192,34773,1,0,0:0:0:0:
192,192,34870,1,0,0:0:0:0:
448,192,34870,1,0,0:0:0:0:
64,192,34870,1,0,0:0:0:0:
320,192,34968,1,0,0:0:0:0:
448,192,35065,1,0,0:0:0:0:
64,192,35065,1,0,0:0:0:0:
192,192,35162,1,0,0:0:0:0:
192,192,35260,1,0,0:0:0:0:
448,192,35260,1,0,0:0:0:0:
320,192,35357,1,0,0:0:0:0:
64,192,35455,1,0,0:0:0:0:
448,192,35455,1,0,0:0:0:0:
192,192,35552,1,0,0:0:0:0:
320,192,35649,1,0,0:0:0:0:
448,192,35649,1,0,0:0:0:0:
64,192,35649,1,0,0:0:0:0:
320,192,35747,1,0,0:0:0:0:
192,192,35747,1,0,0:0:0:0:
64,192,35844,1,0,0:0:0:0:
448,192,35844,1,0,0:0:0:0:
320,192,35844,1,0,0:0:0:0:
192,192,35942,1,0,0:0:0:0:
64,192,35942,1,0,0:0:0:0:
64,192,36039,1,0,0:0:0:0:
320,192,36039,1,0,0:0:0:0:
448,192,36039,1,0,0:0:0:0:
192,192,36234,1,0,0:0:0:0:
448,192,36234,1,0,0:0:0:0:
64,192,36429,1,0,0:0:0:0:
320,192,36429,1,0,0:0:0:0:
448,192,36429,1,0,0:0:0:0:
192,192,36526,1,0,0:0:0:0:
64,192,36623,1,0,0:0:0:0:
448,192,36623,1,0,0:0:0:0:
320,192,36721,1,0,0:0:0:0:
64,192,36818,1,0,0:0:0:0:
320,192,36818,1,0,0:0:0:0:
192,192,36916,1,0,0:0:0:0:
64,192,37013,1,0,0:0:0:0:
448,192,37013,1,0,0:0:0:0:
320,192,37110,1,0,0:0:0:0:
448,192,37208,1,0,0:0:0:0:
64,192,37208,1,0,0:0:0:0:
192,192,37208,1,0,0:0:0:0:
192,192,37305,1,0,0:0:0:0:
320,192,37305,1,0,0:0:0:0:
192,192,37403,1,0,0:0:0:0:
448,192,37403,1,0,0:0:0:0:
64,192,37403,1,0,0:0:0:0:
448,192,37500,1,0,0:0:0:0:
320,192,37500,1,0,0:0:0:0:
448,192,37597,1,0,0:0:0:0:
64,192,37597,1,0,0:0:0:0:
192,192,37597,1,0,0:0:0:0:
64,192,37792,1,0,0:0:0:0:
320,192,37792,1,0,0:0:0:0:
64,192,37987,1,0,0:0:0:0:
192,192,37987,1,0,0:0:0:0:
448,192,37987,1,0,0:0:0:0:
320,192,38085,1,0,0:0:0:0:
192,192,38182,1,0,0:0:0:0:
448,192,38182,1,0,0:0:0:0:
64,192,38279,1,0,0:0:0:0:
448,192,38377,1,0,0:0:0:0:
192,192,38377,1,0,0:0:0:0:
192,192,38474,1,0,0:0:0:0:
320,192,38572,1,0,0:0:0:0:
448,192,38572,1,0,0:0:0:0:
192,192,38669,1,0,0:0:0:0:
320,192,38766,1,0,0:0:0:0:
448,192,38766,1,0,0:0:0:0:
64,192,38766,1,0,0:0:0:0:
64,192,38864,1,0,0:0:0:0:
192,192,38864,1,0,0:0:0:0:
320,192,38961,1,0,0:0:0:0:
64,192,38961,1,0,0:0:0:0:
448,192,38961,1,0,0:0:0:0:
320,192,39059,1,0,0:0:0:0:
192,192,39059,1,0,0:0:0:0:
320,192,39156,1,0,0:0:0:0:
64,192,39156,1,0,0:0:0:0:
448,192,39156,1,0,0:0:0:0:
192,192,39351,1,0,0:0:0:0:
448,192,39351,1,0,0:0:0:0:
64,192,39546,1,0,0:0:0:0:
320,192,39546,1,0,0:0:0:0:
448,192,39546,1,0,0:0:0:0:
192,192,39643,1,0,0:0:0:0:
64,192,39740,1,0,0:0:0:0:
320,192,39740,1,0,0:0:0:0:
448,192,39838,1,0,0:0:0:0:
320,192,39935,1,0,0:0:0:0:
64,192,39935,1,0,0:0:0:0:
320,192,40033,1,0,0:0:0:0:
64,192,40130,1,0,0:0:0:0:
192,192,40130,1,0,0:0:0:0:
320,192,40227,1,0,0:0:0:0:
448,192,40325,1,0,0:0:0:0:
64,192,40325,1,0,0:0:0:0:
192,192,40325,1,0,0:0:0:0:
320,192,40422,1,0,0:0:0:0:
448,192,40422,1,0,0:0:0:0:
64,192,40520,1,0,0:0:0:0:
448,192,40520,1,0,0:0:0:0:
192,192,40520,1,0,0:0:0:0:
320,192,40617,1,0,0:0:0:0:
192,192,40617,1,0,0:0:0:0:
64,192,40714,1,0,0:0:0:0:
448,192,40714,1,0,0:0:0:0:
192,192,40714,1,0,0:0:0:0:
64,192,40909,1,0,0:0:0:0:
320,192,40909,1,0,0:0:0:0:
64,192,41104,1,0,0:0:0:0:
192,192,41104,1,0,0:0:0:0:
320,192,41104,1,0,0:0:0:0:
448,192,41104,1,0,0:0:0:0:
64,192,41299,1,0,0:0:0:0:
320,192,41299,1,0,0:0:0:0:
192,192,41494,1,0,0:0:0:0:
320,192,41494,1,0,0:0:0:0:
448,192,41494,1,0,0:0:0:0:
448,192,41688,1,0,0:0:0:0:
64,192,41688,1,0,0:0:0:0:
320,192,41883,1,0,0:0:0:0:
448,192,41883,1,0,0:0:0:0:
64,192,41883,1,0,0:0:0:0:
320,192,41981,1,0,0:0:0:0:
192,192,42078,1,0,0:0:0:0:
448,192,42078,1,0,0:0:0:0:
192,192,42175,1,0,0:0:0:0:
448,192,42175,1,0,0:0:0:0:
64,192,42273,1,0,0:0:0:0:
192,192,42273,1,0,0:0:0:0:
320,192,42273,1,0,0:0:0:0:
64,192,42468,1,0,0:0:0:0:
448,192,42468,1,0,0:0:0:0:
448,192,42662,1,0,0:0:0:0:
192,192,42662,1,0,0:0:0:0:
64,192,42662,1,0,0:0:0:0:
448,192,42857,1,0,0:0:0:0:
192,192,42857,1,0,0:0:0:0:
320,192,43052,1,0,0:0:0:0:
192,192,43052,1,0,0:0:0:0:
64,192,43052,1,0,0:0:0:0:
64,192,43247,1,0,0:0:0:0:
448,192,43247,1,0,0:0:0:0:
192,192,43442,1,0,0:0:0:0:
64,192,43442,1,0,0:0:0:0:
448,192,43442,1,0,0:0:0:0:
192,192,43539,1,0,0:0:0:0:
320,192,43636,1,0,0:0:0:0:
64,192,43636,1,0,0:0:0:0:
448,192,43831,1,0,0:0:0:0:
320,192,43831,1,0,0:0:0:0:
192,192,43831,1,0,0:0:0:0:
448,192,44026,1,0,0:0:0:0:
64,192,44026,1,0,0:0:0:0:
448,192,44221,1,0,0:0:0:0:
320,192,44221,1,0,0:0:0:0:
192,192,44221,1,0,0:0:0:0:
64,192,44221,1,0,0:0:0:0:
448,192,44416,1,0,0:0:0:0:
192,192,44416,1,0,0:0:0:0:
320,192,44610,1,0,0:0:0:0:
192,192,44610,1,0,0:0:0:0:
64,192,44610,1,0,0:0:0:0:
64,192,44805,1,0,0:0:0:0:
448,192,44805,1,0,0:0:0:0:
192,192,45000,1,0,0:0:0:0:
64,192,45000,1,0,0:0:0:0:
448,192,45000,1,0,0:0:0:0:
192,192,45097,1,0,0:0:0:0:
320,192,45195,1,0,0:0:0:0:
64,192,45195,1,0,0:0:0:0:
320,192,45292,1,0,0:0:0:0:
448,192,45390,1,0,0:0:0:0:
192,192,45390,1,0,0:0:0:0:
64,192,45390,1,0,0:0:0:0:
448,192,45585,1,0,0:0:0:0:
64,192,45585,1,0,0:0:0:0:
448,192,45779,1,0,0:0:0:0:
320,192,45779,1,0,0:0:0:0:
64,192,45779,1,0,0:0:0:0:
320,192,45877,1,0,0:0:0:0:
192,192,45974,1,0,0:0:0:0:
64,192,45974,1,0,0:0:0:0:
192,192,46072,1,0,0:0:0:0:
448,192,46072,1,0,0:0:0:0:
448,192,46169,1,0,0:0:0:0:
320,192,46169,1,0,0:0:0:0:
64,192,46169,1,0,0:0:0:0:
192,192,46266,1,0,0:0:0:0:
448,192,46364,1,0,0:0:0:0:
320,192,46364,1,0,0:0:0:0:
192,192,46364,1,0,0:0:0:0:
320,192,46461,1,0,0:0:0:0:
64,192,46461,1,0,0:0:0:0:
64,192,46559,1,0,0:0:0:0:
192,192,46559,1,0,0:0:0:0:
448,192,46559,1,0,0:0:0:0:
192,192,46656,1,0,0:0:0:0:
448,192,46656,1,0,0:0:0:0:
320,192,46753,1,0,0:0:0:0:
64,192,46753,1,0,0:0:0:0:
192,192,46851,1,0,0:0:0:0:
448,192,46851,1,0,0:0:0:0:
448,192,46948,1,0,0:0:0:0:
320,192,46948,1,0,0:0:0:0:
64,192,46948,1,0,0:0:0:0:
64,192,47046,1,0,0:0:0:0:
320,192,47046,1,0,0:0:0:0:
448,192,47143,1,0,0:0:0:0:
192,192,47143,1,0,0:0:0:0:
320,192,47240,1,0,0:0:0:0:
64,192,47240,1,0,0:0:0:0:
64,192,47338,1,0,0:0:0:0:
448,192,47338,1,0,0:0:0:0:
192,192,47338,1,0,0:0:0:0:
320,192,47338,1,0,0:0:0:0:
192,192,47533,1,0,0:0:0:0:
448,192,47533,1,0,0:0:0:0:
64,192,47727,1,0,0:0:0:0:
192,192,47727,1,0,0:0:0:0:
320,192,47727,1,0,0:0:0:0:
192,192,47922,1,0,0:0:0:0:
448,192,47922,1,0,0:0:0:0:
64,192,48117,1,0,0:0:0:0:
192,192,48117,1,0,0:0:0:0:
64,192,48214,1,0,0:0:0:0:
192,192,48214,1,0,0:0:0:0:
448,192,48312,128,0,48409:0:0:0:0:
64,192,48312,1,0,0:0:0:0:
320,192,48312,1,0,0:0:0:0:
448,192,48507,128,0,48896:0:0:0:0:
64,192,48507,1,0,0:0:0:0:
192,192,48507,1,0,0:0:0:0:
320,192,48701,1,0,0:0:0:0:
64,192,48701,1,0,0:0:0:0:
64,192,48896,1,0,0:0:0:0:
320,192,48896,1,0,0:0:0:0:
192,192,48896,1,0,0:0:0:0:
320,192,49091,1,0,0:0:0:0:
64,192,49091,1,0,0:0:0:0:
448,192,49286,1,0,0:0:0:0:
320,192,49286,1,0,0:0:0:0:
192,192,49286,1,0,0:0:0:0:
320,192,49481,1,0,0:0:0:0:
64,192,49481,1,0,0:0:0:0:
448,192,49675,1,0,0:0:0:0:
320,192,49675,1,0,0:0:0:0:
448,192,49773,1,0,0:0:0:0:
320,192,49773,1,0,0:0:0:0:
64,192,49870,128,0,49968:0:0:0:0:
448,192,49870,1,0,0:0:0:0:
192,192,49870,1,0,0:0:0:0:
64,192,50065,128,0,50455:0:0:0:0:
448,192,50065,1,0,0:0:0:0:
320,192,50065,1,0,0:0:0:0:
192,192,50260,1,0,0:0:0:0:
448,192,50260,1,0,0:0:0:0:
320,192,50455,1,0,0:0:0:0:
192,192,50455,1,0,0:0:0:0:
448,192,50455,1,0,0:0:0:0:
64,192,50649,1,0,0:0:0:0:
320,192,50649,1,0,0:0:0:0:
64,192,50844,1,0,0:0:0:0:
192,192,50844,1,0,0:0:0:0:
448,192,50844,1,0,0:0:0:0:
64,192,51039,1,0,0:0:0:0:
320,192,51039,1,0,0:0:0:0:
64,192,51234,1,0,0:0:0:0:
192,192,51234,1,0,0:0:0:0:
320,192,51234,1,0,0:0:0:0:
320,192,51331,1,0,0:0:0:0:
64,192,51331,1,0,0:0:0:0:
448,192,51429,1,0,0:0:0:0:
192,192,51429,1,0,0:0:0:0:
64,192,51623,1,0,0:0:0:0:
192,192,51623,1,0,0:0:0:0:
320,192,51623,1,0,0:0:0:0:
192,192,51818,1,0,0:0:0:0:
448,192,51818,1,0,0:0:0:0:
64,192,52013,1,0,0:0:0:0:
320,192,52013,1,0,0:0:0:0:
192,192,52013,1,0,0:0:0:0:
192,192,52208,1,0,0:0:0:0:
448,192,52208,1,0,0:0:0:0:
64,192,52403,1,0,0:0:0:0:
320,192,52403,1,0,0:0:0:0:
448,192,52403,1,0,0:0:0:0:
192,192,52597,1,0,0:0:0:0:
448,192,52597,1,0,0:0:0:0:
192,192,52792,1,0,0:0:0:0:
448,192,52792,1,0,0:0:0:0:
64,192,52792,1,0,0:0:0:0:
192,192,52890,1,0,0:0:0:0:
448,192,52890,1,0,0:0:0:0:
320,192,52987,1,0,0:0:0:0:
64,192,52987,1,0,0:0:0:0:
192,192,53182,1,0,0:0:0:0:
320,192,53182,1,0,0:0:0:0:
448,192,53182,1,0,0:0:0:0:
64,192,53377,1,0,0:0:0:0:
320,192,53377,1,0,0:0:0:0:
64,192,53572,1,0,0:0:0:0:
192,192,53572,1,0,0:0:0:0:
448,192,53572,1,0,0:0:0:0:
320,192,53572,1,0,0:0:0:0:
192,192,53766,1,0,0:0:0:0:
448,192,53766,1,0,0:0:0:0:
64,192,53961,1,0,0:0:0:0:
192,192,53961,1,0,0:0:0:0:
320,192,53961,1,0,0:0:0:0:
192,192,54156,1,0,0:0:0:0:
448,192,54156,1,0,0:0:0:0:
192,192,54351,1,0,0:0:0:0:
320,192,54351,1,0,0:0:0:0:
448,192,54351,1,0,0:0:0:0:
448,192,54448,1,0,0:0:0:0:
192,192,54448,1,0,0:0:0:0:
64,192,54546,1,0,0:0:0:0:
320,192,54546,1,0,0:0:0:0:
192,192,54740,1,0,0:0:0:0:
320,192,54740,1,0,0:0:0:0:
448,192,54740,1,0,0:0:0:0:
64,192,54935,1,0,0:0:0:0:
320,192,54935,1,0,0:0:0:0:
64,192,55130,1,0,0:0:0:0:
192,192,55130,1,0,0:0:0:0:
320,192,55130,1,0,0:0:0:0:
192,192,55325,1,0,0:0:0:0:
448,192,55325,1,0,0:0:0:0:
64,192,55520,1,0,0:0:0:0:
192,192,55520,1,0,0:0:0:0:
320,192,55520,1,0,0:0:0:0:
192,192,55714,1,0,0:0:0:0:
448,192,55714,1,0,0:0:0:0:
64,192,55909,1,0,0:0:0:0:
320,192,55909,1,0,0:0:0:0:
448,192,55909,1,0,0:0:0:0:
64,192,56007,1,0,0:0:0:0:
320,192,56007,1,0,0:0:0:0:
448,192,56104,1,0,0:0:0:0:
192,192,56104,1,0,0:0:0:0:
64,192,56299,1,0,0:0:0:0:
448,192,56299,1,0,0:0:0:0:
192,192,56299,1,0,0:0:0:0:
192,192,56396,1,0,0:0:0:0:
448,192,56396,1,0,0:0:0:0:
64,192,56494,1,0,0:0:0:0:
320,192,56494,1,0,0:0:0:0:
64,192,56688,1,0,0:0:0:0:
192,192,56688,1,0,0:0:0:0:
448,192,56688,1,0,0:0:0:0:
192,192,56883,1,0,0:0:0:0:
448,192,56883,1,0,0:0:0:0:
320,192,56981,1,0,0:0:0:0:
64,192,57078,1,0,0:0:0:0:
320,192,57078,1,0,0:0:0:0:
448,192,57078,1,0,0:0:0:0:
64,192,57273,1,0,0:0:0:0:
320,192,57273,1,0,0:0:0:0:
192,192,57370,1,0,0:0:0:0:
64,192,57468,1,0,0:0:0:0:
192,192,57468,1,0,0:0:0:0:
448,192,57468,1,0,0:0:0:0:
320,192,57565,1,0,0:0:0:0:
64,192,57662,1,0,0:0:0:0:
320,192,57662,1,0,0:0:0:0:
448,192,57760,1,0,0:0:0:0:
320,192,57857,1,0,0:0:0:0:
64,192,57857,1,0,0:0:0:0:
448,192,57857,1,0,0:0:0:0:
192,192,57955,1,0,0:0:0:0:
192,192,58052,1,0,0:0:0:0:
448,192,58052,1,0,0:0:0:0:
64,192,58149,1,0,0:0:0:0:
192,192,58247,1,0,0:0:0:0:
448,192,58247,1,0,0:0:0:0:
320,192,58247,1,0,0:0:0:0:
192,192,58344,1,0,0:0:0:0:
64,192,58442,1,0,0:0:0:0:
320,192,58442,1,0,0:0:0:0:
320,192,58539,1,0,0:0:0:0:
64,192,58636,1,0,0:0:0:0:
192,192,58636,1,0,0:0:0:0:
448,192,58636,1,0,0:0:0:0:
448,192,58734,1,0,0:0:0:0:
64,192,58831,1,0,0:0:0:0:
320,192,58831,1,0,0:0:0:0:
192,192,58929,1,0,0:0:0:0:
320,192,59026,1,0,0:0:0:0:
64,192,59026,1,0,0:0:0:0:
448,192,59026,1,0,0:0:0:0:
320,192,59123,1,0,0:0:0:0:
192,192,59221,1,0,0:0:0:0:
448,192,59221,1,0,0:0:0:0:
192,192,59318,1,0,0:0:0:0:
64,192,59416,1,0,0:0:0:0:
320,192,59416,1,0,0:0:0:0:
448,192,59416,1,0,0:0:0:0:
64,192,59513,1,0,0:0:0:0:
192,192,59610,1,0,0:0:0:0:
448,192,59610,1,0,0:0:0:0:
320,192,59708,1,0,0:0:0:0:
192,192,59805,128,0,61169:0:0:0:0:
320,192,59805,1,0,0:0:0:0:
448,192,59805,1,0,0:0:0:0:
64,192,60000,1,0,0:0:0:0:
448,192,60000,1,0,0:0:0:0:
64,192,60097,1,0,0:0:0:0:
320,192,60097,1,0,0:0:0:0:
320,192,60195,1,0,0:0:0:0:
448,192,60195,1,0,0:0:0:0:
448,192,60390,1,0,0:0:0:0:
64,192,60390,1,0,0:0:0:0:
448,192,60585,1,0,0:0:0:0:
64,192,60585,1,0,0:0:0:0:
320,192,60682,1,0,0:0:0:0:
64,192,60779,1,0,0:0:0:0:
448,192,60779,1,0,0:0:0:0:
320,192,60974,1,0,0:0:0:0:
448,192,60974,1,0,0:0:0:0:
448,192,61169,128,0,62922:0:0:0:0:
64,192,61169,1,0,0:0:0:0:
320,192,61169,1,0,0:0:0:0:
64,192,61364,1,0,0:0:0:0:
192,192,61364,1,0,0:0:0:0:
64,192,61559,1,0,0:0:0:0:
320,192,61559,1,0,0:0:0:0:
192,192,61656,1,0,0:0:0:0:
320,192,61656,1,0,0:0:0:0:
64,192,61753,1,0,0:0:0:0:
192,192,61753,1,0,0:0:0:0:
64,192,61948,1,0,0:0:0:0:
320,192,61948,1,0,0:0:0:0:
192,192,62046,1,0,0:0:0:0:
64,192,62143,1,0,0:0:0:0:
320,192,62143,1,0,0:0:0:0:
64,192,62240,1,0,0:0:0:0:
192,192,62240,1,0,0:0:0:0:
192,192,62338,1,0,0:0:0:0:
320,192,62338,1,0,0:0:0:0:
64,192,62533,1,0,0:0:0:0:
192,192,62533,1,0,0:0:0:0:
64,192,62727,1,0,0:0:0:0:
320,192,62727,1,0,0:0:0:0:
64,192,62922,128,0,64481:0:0:0:0:
192,192,62922,1,0,0:0:0:0:
320,192,62922,1,0,0:0:0:0:
192,192,63117,1,0,0:0:0:0:
448,192,63117,1,0,0:0:0:0:
320,192,63214,1,0,0:0:0:0:
192,192,63214,1,0,0:0:0:0:
320,192,63312,1,0,0:0:0:0:
448,192,63312,1,0,0:0:0:0:
192,192,63507,1,0,0:0:0:0:
448,192,63507,1,0,0:0:0:0:
320,192,63604,1,0,0:0:0:0:
320,192,63701,1,0,0:0:0:0:
448,192,63701,1,0,0:0:0:0:
192,192,63799,1,0,0:0:0:0:
192,192,63896,1,0,0:0:0:0:
448,192,63896,1,0,0:0:0:0:
320,192,64091,1,0,0:0:0:0:
448,192,64091,1,0,0:0:0:0:
192,192,64286,1,0,0:0:0:0:
448,192,64286,1,0,0:0:0:0:
320,192,64383,1,0,0:0:0:0:
192,192,64481,1,0,0:0:0:0:
448,192,64481,1,0,0:0:0:0:
192,192,64675,1,0,0:0:0:0:
64,192,64870,1,0,0:0:0:0:
320,192,64870,1,0,0:0:0:0:
320,192,65065,1,0,0:0:0:0:
64,192,65260,1,0,0:0:0:0:
448,192,65260,1,0,0:0:0:0:
192,192,65455,1,0,0:0:0:0:
320,192,65455,1,0,0:0:0:0:
192,192,65552,1,0,0:0:0:0:
320,192,65552,1,0,0:0:0:0:
320,192,65649,1,0,0:0:0:0:
448,192,65649,1,0,0:0:0:0:
64,192,65649,1,0,0:0:0:0:
320,192,65844,1,0,0:0:0:0:
448,192,65844,1,0,0:0:0:0:
64,192,65844,1,0,0:0:0:0:
192,192,66039,1,0,0:0:0:0:
448,192,66039,1,0,0:0:0:0:
320,192,66039,1,0,0:0:0:0:
64,192,66039,1,0,0:0:0:0:
64,192,66234,1,0,0:0:0:0:
320,192,66234,1,0,0:0:0:0:
320,192,66429,1,0,0:0:0:0:
448,192,66429,1,0,0:0:0:0:
64,192,66429,1,0,0:0:0:0:
192,192,66526,1,0,0:0:0:0:
320,192,66526,1,0,0:0:0:0:
64,192,66623,1,0,0:0:0:0:
448,192,66623,1,0,0:0:0:0:
192,192,66623,1,0,0:0:0:0:
320,192,66721,1,0,0:0:0:0:
64,192,66721,1,0,0:0:0:0:
192,192,66818,1,0,0:0:0:0:
448,192,66818,1,0,0:0:0:0:
320,192,66818,1,0,0:0:0:0:
448,192,66916,1,0,0:0:0:0:
192,192,66916,1,0,0:0:0:0:
448,192,67013,1,0,0:0:0:0:
320,192,67013,1,0,0:0:0:0:
64,192,67013,1,0,0:0:0:0:
320,192,67208,1,0,0:0:0:0:
192,192,67208,1,0,0:0:0:0:
192,192,67403,1,0,0:0:0:0:
448,192,67403,1,0,0:0:0:0:
64,192,67597,1,0,0:0:0:0:
320,192,67597,1,0,0:0:0:0:
448,192,67597,1,0,0:0:0:0:
192,192,67792,1,0,0:0:0:0:
448,192,67792,1,0,0:0:0:0:
64,192,67987,1,0,0:0:0:0:
448,192,67987,1,0,0:0:0:0:
320,192,67987,1,0,0:0:0:0:
448,192,68085,1,0,0:0:0:0:
192,192,68085,1,0,0:0:0:0:
320,192,68182,1,0,0:0:0:0:
64,192,68182,1,0,0:0:0:0:
192,192,68182,1,0,0:0:0:0:
448,192,68279,1,0,0:0:0:0:
64,192,68279,1,0,0:0:0:0:
320,192,68377,1,0,0:0:0:0:
192,192,68377,1,0,0:0:0:0:
448,192,68377,1,0,0:0:0:0:
192,192,68474,1,0,0:0:0:0:
320,192,68474,1,0,0:0:0:0:
448,192,68572,1,0,0:0:0:0:
192,192,68572,1,0,0:0:0:0:
64,192,68572,1,0,0:0:0:0:
192,192,68766,1,0,0:0:0:0:
320,192,68766,1,0,0:0:0:0:
64,192,68961,1,0,0:0:0:0:
320,192,68961,1,0,0:0:0:0:
320,192,69156,1,0,0:0:0:0:
64,192,69156,1,0,0:0:0:0:
448,192,69156,1,0,0:0:0:0:
192,192,69156,1,0,0:0:0:0:
448,192,69351,1,0,0:0:0:0:
192,192,69351,1,0,0:0:0:0:
64,192,69546,1,0,0:0:0:0:
448,192,69546,1,0,0:0:0:0:
192,192,69546,1,0,0:0:0:0:
192,192,69643,1,0,0:0:0:0:
320,192,69643,1,0,0:0:0:0:
448,192,69740,1,0,0:0:0:0:
320,192,69740,1,0,0:0:0:0:
64,192,69740,1,0,0:0:0:0:
448,192,69838,1,0,0:0:0:0:
192,192,69838,1,0,0:0:0:0:
320,192,69935,1,0,0:0:0:0:
64,192,69935,1,0,0:0:0:0:
192,192,69935,1,0,0:0:0:0:
320,192,70033,1,0,0:0:0:0:
64,192,70033,1,0,0:0:0:0:
448,192,70130,1,0,0:0:0:0:
64,192,70130,1,0,0:0:0:0:
192,192,70130,1,0,0:0:0:0:
320,192,70325,1,0,0:0:0:0:
192,192,70325,1,0,0:0:0:0:
64,192,70520,1,0,0:0:0:0:
320,192,70520,1,0,0:0:0:0:
320,192,70714,1,0,0:0:0:0:
448,192,70714,1,0,0:0:0:0:
64,192,70714,1,0,0:0:0:0:
192,192,70909,1,0,0:0:0:0:
448,192,70909,1,0,0:0:0:0:
448,192,71104,1,0,0:0:0:0:
64,192,71104,1,0,0:0:0:0:
192,192,71104,1,0,0:0:0:0:
320,192,71201,1,0,0:0:0:0:
64,192,71201,1,0,0:0:0:0:
320,192,71299,1,0,0:0:0:0:
448,192,71299,1,0,0:0:0:0:
192,192,71299,1,0,0:0:0:0:
448,192,71396,1,0,0:0:0:0:
64,192,71396,1,0,0:0:0:0:
320,192,71494,1,0,0:0:0:0:
192,192,71494,1,0,0:0:0:0:
64,192,71494,1,0,0:0:0:0:
320,192,71591,1,0,0:0:0:0:
192,192,71591,1,0,0:0:0:0:
320,192,71688,1,0,0:0:0:0:
64,192,71688,1,0,0:0:0:0:
448,192,71688,1,0,0:0:0:0:
448,192,71883,1,0,0:0:0:0:
192,192,71883,1,0,0:0:0:0:
64,192,71883,1,0,0:0:0:0:
320,192,71981,1,0,0:0:0:0:
320,192,72078,1,0,0:0:0:0:
448,192,72078,1,0,0:0:0:0:
64,192,72078,1,0,0:0:0:0:
192,192,72175,1,0,0:0:0:0:
64,192,72273,1,0,0:0:0:0:
320,192,72273,1,0,0:0:0:0:
192,192,72273,1,0,0:0:0:0:
448,192,72273,1,0,0:0:0:0:
320,192,72468,1,0,0:0:0:0:
64,192,72468,1,0,0:0:0:0:
320,192,72662,1,0,0:0:0:0:
448,192,72662,1,0,0:0:0:0:
64,192,72662,1,0,0:0:0:0:
320,192,72760,1,0,0:0:0:0:
192,192,72760,1,0,0:0:0:0:
64,192,72857,1,0,0:0:0:0:
192,192,72857,1,0,0:0:0:0:
448,192,72857,1,0,0:0:0:0:
320,192,72955,1,0,0:0:0:0:
64,192,72955,1,0,0:0:0:0:
192,192,73052,1,0,0:0:0:0:
448,192,73052,1,0,0:0:0:0:
320,192,73052,1,0,0:0:0:0:
448,192,73149,1,0,0:0:0:0:
192,192,73149,1,0,0:0:0:0:
448,192,73247,1,0,0:0:0:0:
64,192,73247,1,0,0:0:0:0:
320,192,73247,1,0,0:0:0:0:
192,192,73442,1,0,0:0:0:0:
320,192,73442,1,0,0:0:0:0:
192,192,73636,1,0,0:0:0:0:
448,192,73636,1,0,0:0:0:0:
64,192,73831,1,0,0:0:0:0:
448,192,73831,1,0,0:0:0:0:
320,192,73831,1,0,0:0:0:0:
448,192,74026,1,0,0:0:0:0:
192,192,74026,1,0,0:0:0:0:
448,192,74221,1,0,0:0:0:0:
320,192,74221,1,0,0:0:0:0:
64,192,74221,1,0,0:0:0:0:
192,192,74318,1,0,0:0:0:0:
448,192,74318,1,0,0:0:0:0:
64,192,74416,1,0,0:0:0:0:
320,192,74416,1,0,0:0:0:0:
192,192,74416,1,0,0:0:0:0:
64,192,74513,1,0,0:0:0:0:
448,192,74513,1,0,0:0:0:0:
320,192,74610,1,0,0:0:0:0:
192,192,74610,1,0,0:0:0:0:
448,192,74610,1,0,0:0:0:0:
320,192,74708,1,0,0:0:0:0:
192,192,74708,1,0,0:0:0:0:
448,192,74805,1,0,0:0:0:0:
64,192,74805,1,0,0:0:0:0:
192,192,74805,1,0,0:0:0:0:
192,192,75000,1,0,0:0:0:0:
320,192,75000,1,0,0:0:0:0:
64,192,75195,1,0,0:0:0:0:
320,192,75195,1,0,0:0:0:0:
192,192,75390,1,0,0:0:0:0:
320,192,75390,1,0,0:0:0:0:
64,192,75390,1,0,0:0:0:0:
448,192,75390,1,0,0:0:0:0:
448,192,75585,1,0,0:0:0:0:
192,192,75585,1,0,0:0:0:0:
192,192,75779,1,0,0:0:0:0:
448,192,75779,1,0,0:0:0:0:
64,192,75779,1,0,0:0:0:0:
320,192,75877,1,0,0:0:0:0:
192,192,75877,1,0,0:0:0:0:
448,192,75974,1,0,0:0:0:0:
320,192,75974,1,0,0:0:0:0:
64,192,75974,1,0,0:0:0:0:
448,192,76072,1,0,0:0:0:0:
192,192,76072,1,0,0:0:0:0:
320,192,76169,1,0,0:0:0:0:
64,192,76169,1,0,0:0:0:0:
192,192,76169,1,0,0:0:0:0:
320,192,76266,1,0,0:0:0:0:
64,192,76266,1,0,0:0:0:0:
192,192,76364,1,0,0:0:0:0:
448,192,76364,1,0,0:0:0:0:
64,192,76364,1,0,0:0:0:0:
320,192,76559,1,0,0:0:0:0:
192,192,76559,1,0,0:0:0:0:
448,192,76753,1,0,0:0:0:0:
192,192,76753,1,0,0:0:0:0:
64,192,76948,1,0,0:0:0:0:
320,192,76948,1,0,0:0:0:0:
448,192,76948,1,0,0:0:0:0:
192,192,77143,1,0,0:0:0:0:
448,192,77338,1,0,0:0:0:0:
192,192,77533,1,0,0:0:0:0:
64,192,77727,1,0,0:0:0:0:
192,192,77727,1,0,0:0:0:0:
448,192,77727,1,0,0:0:0:0:
192,192,77922,1,0,0:0:0:0:
320,192,77922,1,0,0:0:0:0:
192,192,78020,1,0,0:0:0:0:
320,192,78020,1,0,0:0:0:0:
64,192,78117,1,0,0:0:0:0:
320,192,78117,1,0,0:0:0:0:
448,192,78117,1,0,0:0:0:0:
64,192,78312,1,0,0:0:0:0:
320,192,78312,1,0,0:0:0:0:
448,192,78312,1,0,0:0:0:0:
64,192,78507,1,0,0:0:0:0:
192,192,78507,1,0,0:0:0:0:
320,192,78507,1,0,0:0:0:0:
448,192,78507,1,0,0:0:0:0:
192,192,78701,1,0,0:0:0:0:
320,192,78896,1,0,0:0:0:0:
64,192,79091,1,0,0:0:0:0:
448,192,79286,1,0,0:0:0:0:
320,192,79481,1,0,0:0:0:0:
192,192,79675,1,0,0:0:0:0:
448,192,79870,1,0,0:0:0:0:
192,192,80065,1,0,0:0:0:0:
448,192,80260,1,0,0:0:0:0:
64,192,80455,1,0,0:0:0:0:
192,192,80649,1,0,0:0:0:0:
320,192,80844,1,0,0:0:0:0:
64,192,81039,1,0,0:0:0:0:
448,192,81234,1,0,0:0:0:0:
320,192,81429,1,0,0:0:0:0:
192,192,81623,1,0,0:0:0:0:
448,192,82013,1,0,0:0:0:0:
320,192,82403,1,0,0:0:0:0:
192,192,82792,1,0,0:0:0:0:
64,192,83182,1,0,0:0:0:0:
448,192,83182,1,0,0:0:0:0:
192,192,83377,1,0,0:0:0:0:
448,192,83572,1,0,0:0:0:0:
192,192,83766,1,0,0:0:0:0:
320,192,83961,1,0,0:0:0:0:
64,192,84156,1,0,0:0:0:0:
320,192,84351,1,0,0:0:0:0:
448,192,84546,1,0,0:0:0:0:
64,192,84740,1,0,0:0:0:0:
320,192,84935,1,0,0:0:0:0:
192,192,85130,1,0,0:0:0:0:
448,192,85325,1,0,0:0:0:0:
192,192,85520,1,0,0:0:0:0:
448,192,85714,1,0,0:0:0:0:
320,192,85909,1,0,0:0:0:0:
64,192,86104,1,0,0:0:0:0:
320,192,86299,128,0,90974:0:0:0:0:
