osu file format v14

[General]
AudioFilename: Streak.mp3
AudioLeadIn: 0
PreviewTime: 19994
Countdown: 0
SampleSet: Soft
StackLeniency: 0.7
Mode: 3
LetterboxInBreaks: 0
SpecialStyle: 0
WidescreenStoryboard: 0

[Editor]
DistanceSpacing: 1
BeatDivisor: 3
GridSize: 8
TimelineZoom: 2.4

[Metadata]
Title:Simple PACK
TitleUnicode:Simple PACK
Artist:Various Artists
ArtistUnicode:Various Artists
Creator:frolica
Version:ARM - Streak [10]
Source:
Tags:
BeatmapID:1010011
BeatmapSetID:472712

[Difficulty]
HPDrainRate:8
CircleSize:4
OverallDifficulty:8
ApproachRate:5
SliderMultiplier:1.4
SliderTickRate:1

[Events]
//Background and Video events
0,0,"BG3.jpg",0,0
//Break Periods
//Storyboard Layer 0 (Background)
//Storyboard Layer 1 (Fail)
//Storyboard Layer 2 (Pass)
//Storyboard Layer 3 (Foreground)
//Storyboard Sound Samples

[TimingPoints]
5594,400,4,2,0,0,1,0

[HitObjects]
192,192,7194,5,0,0:0:0:0:
448,192,7194,1,0,0:0:0:0:
64,192,7194,1,0,0:0:0:0:
320,192,7294,1,0,0:0:0:0:
64,192,7394,1,0,0:0:0:0:
320,192,7494,1,0,0:0:0:0:
448,192,7594,1,0,0:0:0:0:
192,192,7594,1,0,0:0:0:0:
64,192,7694,1,0,0:0:0:0:
192,192,7794,1,0,0:0:0:0:
320,192,7894,1,0,0:0:0:0:
64,192,7994,1,0,0:0:0:0:
320,192,7994,1,0,0:0:0:0:
448,192,7994,1,0,0:0:0:0:
192,192,8094,1,0,0:0:0:0:
448,192,8194,1,0,0:0:0:0:
192,192,8294,1,0,0:0:0:0:
64,192,8394,1,0,0:0:0:0:
320,192,8394,1,0,0:0:0:0:
448,192,8494,1,0,0:0:0:0:
320,192,8594,1,0,0:0:0:0:
192,192,8694,1,0,0:0:0:0:
64,192,8794,1,0,0:0:0:0:
448,192,8794,1,0,0:0:0:0:
320,192,8894,1,0,0:0:0:0:
64,192,8994,1,0,0:0:0:0:
320,192,9094,1,0,0:0:0:0:
64,192,9194,1,0,0:0:0:0:
448,192,9194,1,0,0:0:0:0:
192,192,9294,1,0,0:0:0:0:
320,192,9394,1,0,0:0:0:0:
192,192,9494,1,0,0:0:0:0:
64,192,9594,1,0,0:0:0:0:
192,192,9594,1,0,0:0:0:0:
448,192,9594,1,0,0:0:0:0:
320,192,9694,1,0,0:0:0:0:
192,192,9794,1,0,0:0:0:0:
320,192,9894,1,0,0:0:0:0:
448,192,9994,1,0,0:0:0:0:
64,192,9994,1,0,0:0:0:0:
192,192,10094,1,0,0:0:0:0:
448,192,10194,1,0,0:0:0:0:
192,192,10294,1,0,0:0:0:0:
64,192,10394,1,0,0:0:0:0:
448,192,10394,1,0,0:0:0:0:
192,192,10394,1,0,0:0:0:0:
320,192,10494,1,0,0:0:0:0:
448,192,10594,1,0,0:0:0:0:
192,192,10694,1,0,0:0:0:0:
64,192,10794,1,0,0:0:0:0:
320,192,10794,1,0,0:0:0:0:
448,192,10894,1,0,0:0:0:0:
320,192,10994,1,0,0:0:0:0:
192,192,11094,1,0,0:0:0:0:
448,192,11194,1,0,0:0:0:0:
192,192,11194,1,0,0:0:0:0:
64,192,11194,1,0,0:0:0:0:
320,192,11294,1,0,0:0:0:0:
64,192,11394,1,0,0:0:0:0:
320,192,11494,1,0,0:0:0:0:
448,192,11594,1,0,0:0:0:0:
192,192,11594,1,0,0:0:0:0:
64,192,11694,1,0,0:0:0:0:
192,192,11794,1,0,0:0:0:0:
320,192,11894,1,0,0:0:0:0:
448,192,11994,1,0,0:0:0:0:
64,192,11994,1,0,0:0:0:0:
192,192,12094,1,0,0:0:0:0:
320,192,12194,1,0,0:0:0:0:
192,192,12294,1,0,0:0:0:0:
448,192,12394,1,0,0:0:0:0:
64,192,12394,1,0,0:0:0:0:
320,192,12494,1,0,0:0:0:0:
64,192,12594,1,0,0:0:0:0:
192,192,12594,1,0,0:0:0:0:
64,192,12694,1,0,0:0:0:0:
192,192,12694,1,0,0:0:0:0:
448,192,12794,1,0,0:0:0:0:
320,192,12794,1,0,0:0:0:0:
64,192,12794,1,0,0:0:0:0:
192,192,12894,1,0,0:0:0:0:
64,192,12994,1,0,0:0:0:0:
192,192,12994,1,0,0:0:0:0:
320,192,13094,1,0,0:0:0:0:
64,192,13194,1,0,0:0:0:0:
448,192,13194,1,0,0:0:0:0:
192,192,13294,1,0,0:0:0:0:
448,192,13394,1,0,0:0:0:0:
192,192,13494,1,0,0:0:0:0:
64,192,13594,1,0,0:0:0:0:
448,192,13594,1,0,0:0:0:0:
192,192,13594,1,0,0:0:0:0:
320,192,13694,1,0,0:0:0:0:
64,192,13794,1,0,0:0:0:0:
320,192,13894,1,0,0:0:0:0:
192,192,13994,1,0,0:0:0:0:
448,192,13994,1,0,0:0:0:0:
64,192,14094,1,0,0:0:0:0:
192,192,14194,1,0,0:0:0:0:
320,192,14294,1,0,0:0:0:0:
448,192,14394,1,0,0:0:0:0:
320,192,14394,1,0,0:0:0:0:
64,192,14394,1,0,0:0:0:0:
192,192,14494,1,0,0:0:0:0:
448,192,14594,1,0,0:0:0:0:
192,192,14694,1,0,0:0:0:0:
320,192,14794,1,0,0:0:0:0:
64,192,14794,1,0,0:0:0:0:
448,192,14894,1,0,0:0:0:0:
320,192,14994,1,0,0:0:0:0:
192,192,15094,1,0,0:0:0:0:
448,192,15194,1,0,0:0:0:0:
64,192,15194,1,0,0:0:0:0:
320,192,15294,1,0,0:0:0:0:
192,192,15394,1,0,0:0:0:0:
320,192,15494,1,0,0:0:0:0:
448,192,15594,1,0,0:0:0:0:
64,192,15594,1,0,0:0:0:0:
192,192,15694,1,0,0:0:0:0:
448,192,15794,1,0,0:0:0:0:
192,192,15894,1,0,0:0:0:0:
448,192,15994,1,0,0:0:0:0:
192,192,15994,1,0,0:0:0:0:
64,192,15994,1,0,0:0:0:0:
320,192,16094,1,0,0:0:0:0:
64,192,16194,1,0,0:0:0:0:
320,192,16294,1,0,0:0:0:0:
64,192,16394,1,0,0:0:0:0:
448,192,16394,1,0,0:0:0:0:
192,192,16494,1,0,0:0:0:0:
320,192,16594,1,0,0:0:0:0:
192,192,16694,1,0,0:0:0:0:
448,192,16794,5,0,0:0:0:0:
64,192,16794,1,0,0:0:0:0:
192,192,16794,1,0,0:0:0:0:
448,192,16894,1,0,0:0:0:0:
448,192,16994,1,0,0:0:0:0:
448,192,17094,1,0,0:0:0:0:
192,192,17194,1,0,0:0:0:0:
320,192,17194,1,0,0:0:0:0:
192,192,17294,1,0,0:0:0:0:
192,192,17394,1,0,0:0:0:0:
192,192,17494,1,0,0:0:0:0:
64,192,17594,1,0,0:0:0:0:
448,192,17594,1,0,0:0:0:0:
320,192,17594,1,0,0:0:0:0:
320,192,17694,1,0,0:0:0:0:
320,192,17794,1,0,0:0:0:0:
320,192,17894,1,0,0:0:0:0:
64,192,17994,1,0,0:0:0:0:
448,192,17994,1,0,0:0:0:0:
64,192,18094,1,0,0:0:0:0:
64,192,18194,1,0,0:0:0:0:
64,192,18294,1,0,0:0:0:0:
448,192,18394,1,0,0:0:0:0:
320,192,18394,1,0,0:0:0:0:
192,192,18444,1,0,0:0:0:0:
64,192,18494,1,0,0:0:0:0:
448,192,18544,1,0,0:0:0:0:
192,192,18594,1,0,0:0:0:0:
64,192,18644,1,0,0:0:0:0:
448,192,18694,1,0,0:0:0:0:
320,192,18744,1,0,0:0:0:0:
64,192,18794,1,0,0:0:0:0:
320,192,18844,1,0,0:0:0:0:
192,192,18894,1,0,0:0:0:0:
64,192,18944,1,0,0:0:0:0:
448,192,18994,1,0,0:0:0:0:
320,192,19044,1,0,0:0:0:0:
192,192,19094,1,0,0:0:0:0:
64,192,19144,1,0,0:0:0:0:
448,192,19194,1,0,0:0:0:0:
320,192,19194,128,0,19594:0:0:0:0:
64,192,19594,1,0,0:0:0:0:
448,192,19594,1,0,0:0:0:0:
64,192,19994,1,0,0:0:0:0:
192,192,19994,1,0,0:0:0:0:
448,192,19994,1,0,0:0:0:0:
320,192,19994,1,0,0:0:0:0:
448,192,20194,1,0,0:0:0:0:
320,192,20194,1,0,0:0:0:0:
192,192,20294,1,0,0:0:0:0:
448,192,20294,1,0,0:0:0:0:
64,192,20294,1,0,0:0:0:0:
64,192,20394,1,0,0:0:0:0:
192,192,20394,1,0,0:0:0:0:
320,192,20394,1,0,0:0:0:0:
192,192,20594,1,0,0:0:0:0:
320,192,20594,1,0,0:0:0:0:
64,192,20794,1,0,0:0:0:0:
192,192,20794,1,0,0:0:0:0:
448,192,20794,1,0,0:0:0:0:
64,192,20894,1,0,0:0:0:0:
192,192,20894,1,0,0:0:0:0:
320,192,20994,1,0,0:0:0:0:
448,192,20994,1,0,0:0:0:0:
64,192,21094,1,0,0:0:0:0:
320,192,21094,1,0,0:0:0:0:
64,192,21194,128,0,21294:0:0:0:0:
192,192,21194,128,0,21294:0:0:0:0:
448,192,21194,1,0,0:0:0:0:
64,192,21394,128,0,21494:0:0:0:0:
192,192,21394,128,0,21494:0:0:0:0:
64,192,21594,1,0,0:0:0:0:
320,192,21594,1,0,0:0:0:0:
448,192,21594,1,0,0:0:0:0:
64,192,21794,1,0,0:0:0:0:
192,192,21794,1,0,0:0:0:0:
320,192,21894,1,0,0:0:0:0:
448,192,21894,1,0,0:0:0:0:
64,192,21894,1,0,0:0:0:0:
320,192,21994,1,0,0:0:0:0:
448,192,21994,1,0,0:0:0:0:
192,192,21994,1,0,0:0:0:0:
192,192,22194,1,0,0:0:0:0:
320,192,22194,1,0,0:0:0:0:
320,192,22394,1,0,0:0:0:0:
448,192,22394,1,0,0:0:0:0:
64,192,22394,1,0,0:0:0:0:
320,192,22494,1,0,0:0:0:0:
448,192,22494,1,0,0:0:0:0:
64,192,22594,1,0,0:0:0:0:
192,192,22594,1,0,0:0:0:0:
192,192,22694,1,0,0:0:0:0:
448,192,22694,1,0,0:0:0:0:
448,192,22794,128,0,22894:0:0:0:0:
320,192,22794,128,0,22894:0:0:0:0:
64,192,22794,1,0,0:0:0:0:
64,192,22994,128,0,23094:0:0:0:0:
192,192,22994,128,0,23094:0:0:0:0:
64,192,23194,1,0,0:0:0:0:
320,192,23194,1,0,0:0:0:0:
448,192,23194,1,0,0:0:0:0:
64,192,23394,1,0,0:0:0:0:
192,192,23394,1,0,0:0:0:0:
448,192,23494,1,0,0:0:0:0:
320,192,23494,1,0,0:0:0:0:
192,192,23594,1,0,0:0:0:0:
64,192,23594,128,0,23994:0:0:0:0:
448,192,23594,1,0,0:0:0:0:
448,192,23794,1,0,0:0:0:0:
192,192,23794,1,0,0:0:0:0:
320,192,23894,1,0,0:0:0:0:
320,192,23994,1,0,0:0:0:0:
448,192,23994,128,0,24394:0:0:0:0:
192,192,23994,1,0,0:0:0:0:
192,192,24094,1,0,0:0:0:0:
64,192,24194,1,0,0:0:0:0:
320,192,24194,1,0,0:0:0:0:
64,192,24294,1,0,0:0:0:0:
64,192,24394,128,0,24794:0:0:0:0:
192,192,24394,128,0,24794:0:0:0:0:
320,192,24394,1,0,0:0:0:0:
320,192,24594,1,0,0:0:0:0:
448,192,24594,1,0,0:0:0:0:
320,192,24794,1,0,0:0:0:0:
448,192,24794,1,0,0:0:0:0:
64,192,24994,1,0,0:0:0:0:
192,192,24994,1,0,0:0:0:0:
448,192,25094,1,0,0:0:0:0:
320,192,25094,1,0,0:0:0:0:
192,192,25094,1,0,0:0:0:0:
448,192,25194,1,0,0:0:0:0:
320,192,25194,1,0,0:0:0:0:
64,192,25194,1,0,0:0:0:0:
192,192,25394,1,0,0:0:0:0:
320,192,25394,1,0,0:0:0:0:
448,192,25594,1,0,0:0:0:0:
320,192,25594,1,0,0:0:0:0:
64,192,25594,1,0,0:0:0:0:
192,192,25694,1,0,0:0:0:0:
448,192,25694,1,0,0:0:0:0:
192,192,25794,1,0,0:0:0:0:
64,192,25794,1,0,0:0:0:0:
64,192,25894,1,0,0:0:0:0:
320,192,25894,1,0,0:0:0:0:
448,192,25994,1,0,0:0:0:0:
320,192,25994,1,0,0:0:0:0:
192,192,25994,1,0,0:0:0:0:
448,192,26094,1,0,0:0:0:0:
192,192,26094,1,0,0:0:0:0:
320,192,26194,1,0,0:0:0:0:
64,192,26194,1,0,0:0:0:0:
320,192,26294,1,0,0:0:0:0:
64,192,26294,1,0,0:0:0:0:
448,192,26394,1,0,0:0:0:0:
192,192,26394,1,0,0:0:0:0:
64,192,26394,1,0,0:0:0:0:
448,192,26594,1,0,0:0:0:0:
192,192,26594,1,0,0:0:0:0:
64,192,26694,1,0,0:0:0:0:
448,192,26694,1,0,0:0:0:0:
320,192,26694,1,0,0:0:0:0:
320,192,26794,1,0,0:0:0:0:
192,192,26794,1,0,0:0:0:0:
64,192,26794,1,0,0:0:0:0:
320,192,26994,1,0,0:0:0:0:
192,192,26994,1,0,0:0:0:0:
448,192,27194,1,0,0:0:0:0:
192,192,27194,1,0,0:0:0:0:
64,192,27194,1,0,0:0:0:0:
192,192,27294,1,0,0:0:0:0:
64,192,27294,1,0,0:0:0:0:
448,192,27394,1,0,0:0:0:0:
320,192,27394,1,0,0:0:0:0:
320,192,27494,1,0,0:0:0:0:
64,192,27494,1,0,0:0:0:0:
448,192,27594,1,0,0:0:0:0:
192,192,27594,128,0,27694:0:0:0:0:
64,192,27594,128,0,27694:0:0:0:0:
192,192,27794,128,0,27894:0:0:0:0:
64,192,27794,128,0,27894:0:0:0:0:
448,192,27994,1,0,0:0:0:0:
320,192,27994,1,0,0:0:0:0:
64,192,27994,1,0,0:0:0:0:
64,192,28194,1,0,0:0:0:0:
320,192,28194,1,0,0:0:0:0:
64,192,28294,1,0,0:0:0:0:
448,192,28294,1,0,0:0:0:0:
192,192,28294,1,0,0:0:0:0:
192,192,28394,1,0,0:0:0:0:
448,192,28394,1,0,0:0:0:0:
320,192,28394,1,0,0:0:0:0:
320,192,28594,1,0,0:0:0:0:
192,192,28594,1,0,0:0:0:0:
64,192,28794,1,0,0:0:0:0:
448,192,28794,1,0,0:0:0:0:
320,192,28794,1,0,0:0:0:0:
448,192,28894,1,0,0:0:0:0:
320,192,28894,1,0,0:0:0:0:
192,192,28994,1,0,0:0:0:0:
64,192,28994,1,0,0:0:0:0:
448,192,29094,1,0,0:0:0:0:
192,192,29094,1,0,0:0:0:0:
64,192,29194,1,0,0:0:0:0:
320,192,29194,128,0,29294:0:0:0:0:
448,192,29194,128,0,29294:0:0:0:0:
192,192,29394,128,0,29494:0:0:0:0:
64,192,29394,128,0,29494:0:0:0:0:
448,192,29594,1,0,0:0:0:0:
320,192,29594,1,0,0:0:0:0:
64,192,29594,1,0,0:0:0:0:
192,192,29794,1,0,0:0:0:0:
64,192,29794,1,0,0:0:0:0:
320,192,29894,1,0,0:0:0:0:
448,192,29894,1,0,0:0:0:0:
448,192,29994,1,0,0:0:0:0:
64,192,29994,128,0,30394:0:0:0:0:
192,192,29994,1,0,0:0:0:0:
448,192,30194,1,0,0:0:0:0:
320,192,30194,1,0,0:0:0:0:
320,192,30294,1,0,0:0:0:0:
192,192,30394,1,0,0:0:0:0:
448,192,30394,1,0,0:0:0:0:
192,192,30494,1,0,0:0:0:0:
320,192,30594,1,0,0:0:0:0:
64,192,30594,1,0,0:0:0:0:
64,192,30694,1,0,0:0:0:0:
320,192,30794,1,0,0:0:0:0:
448,192,30794,128,0,31194:0:0:0:0:
192,192,30794,1,0,0:0:0:0:
192,192,30994,1,0,0:0:0:0:
64,192,30994,1,0,0:0:0:0:
192,192,31094,1,0,0:0:0:0:
320,192,31194,1,0,0:0:0:0:
64,192,31194,1,0,0:0:0:0:
320,192,31594,1,0,0:0:0:0:
320,192,31994,1,0,0:0:0:0:
64,192,31994,1,0,0:0:0:0:
320,192,32127,1,0,0:0:0:0:
64,192,32127,1,0,0:0:0:0:
320,192,32260,1,0,0:0:0:0:
64,192,32260,1,0,0:0:0:0:
64,192,32394,1,0,0:0:0:0:
192,192,32394,1,0,0:0:0:0:
320,192,32394,1,0,0:0:0:0:
448,192,32394,1,0,0:0:0:0:
448,192,32527,1,0,0:0:0:0:
192,192,32527,1,0,0:0:0:0:
448,192,32660,1,0,0:0:0:0:
192,192,32660,1,0,0:0:0:0:
448,192,32794,1,0,0:0:0:0:
320,192,32794,1,0,0:0:0:0:
64,192,32794,1,0,0:0:0:0:
192,192,32794,1,0,0:0:0:0:
320,192,32994,1,0,0:0:0:0:
448,192,32994,1,0,0:0:0:0:
64,192,33094,1,0,0:0:0:0:
448,192,33094,1,0,0:0:0:0:
192,192,33094,1,0,0:0:0:0:
320,192,33194,1,0,0:0:0:0:
192,192,33194,1,0,0:0:0:0:
64,192,33194,1,0,0:0:0:0:
320,192,33394,1,0,0:0:0:0:
192,192,33394,1,0,0:0:0:0:
448,192,33594,1,0,0:0:0:0:
192,192,33594,1,0,0:0:0:0:
64,192,33594,1,0,0:0:0:0:
192,192,33694,1,0,0:0:0:0:
64,192,33694,1,0,0:0:0:0:
448,192,33794,1,0,0:0:0:0:
320,192,33794,1,0,0:0:0:0:
320,192,33894,1,0,0:0:0:0:
64,192,33894,1,0,0:0:0:0:
448,192,33994,1,0,0:0:0:0:
192,192,33994,128,0,34094:0:0:0:0:
64,192,33994,128,0,34094:0:0:0:0:
192,192,34194,128,0,34294:0:0:0:0:
64,192,34194,128,0,34294:0:0:0:0:
448,192,34394,1,0,0:0:0:0:
320,192,34394,1,0,0:0:0:0:
64,192,34394,1,0,0:0:0:0:
192,192,34594,1,0,0:0:0:0:
64,192,34594,1,0,0:0:0:0:
64,192,34694,1,0,0:0:0:0:
448,192,34694,1,0,0:0:0:0:
320,192,34694,1,0,0:0:0:0:
192,192,34794,1,0,0:0:0:0:
448,192,34794,1,0,0:0:0:0:
320,192,34794,1,0,0:0:0:0:
320,192,34994,1,0,0:0:0:0:
192,192,34994,1,0,0:0:0:0:
64,192,35194,1,0,0:0:0:0:
448,192,35194,1,0,0:0:0:0:
320,192,35194,1,0,0:0:0:0:
448,192,35294,1,0,0:0:0:0:
320,192,35294,1,0,0:0:0:0:
192,192,35394,1,0,0:0:0:0:
64,192,35394,1,0,0:0:0:0:
448,192,35494,1,0,0:0:0:0:
192,192,35494,1,0,0:0:0:0:
64,192,35594,1,0,0:0:0:0:
320,192,35594,128,0,35694:0:0:0:0:
448,192,35594,128,0,35694:0:0:0:0:
192,192,35794,128,0,35894:0:0:0:0:
64,192,35794,128,0,35894:0:0:0:0:
448,192,35994,1,0,0:0:0:0:
320,192,35994,1,0,0:0:0:0:
64,192,35994,1,0,0:0:0:0:
192,192,36194,1,0,0:0:0:0:
64,192,36194,1,0,0:0:0:0:
320,192,36294,1,0,0:0:0:0:
448,192,36294,1,0,0:0:0:0:
448,192,36394,1,0,0:0:0:0:
64,192,36394,128,0,36794:0:0:0:0:
192,192,36394,1,0,0:0:0:0:
192,192,36594,1,0,0:0:0:0:
448,192,36594,1,0,0:0:0:0:
320,192,36694,1,0,0:0:0:0:
192,192,36794,1,0,0:0:0:0:
448,192,36794,128,0,37194:0:0:0:0:
320,192,36794,1,0,0:0:0:0:
192,192,36894,1,0,0:0:0:0:
320,192,36994,1,0,0:0:0:0:
64,192,36994,1,0,0:0:0:0:
64,192,37094,1,0,0:0:0:0:
320,192,37194,1,0,0:0:0:0:
192,192,37194,128,0,37594:0:0:0:0:
64,192,37194,128,0,37594:0:0:0:0:
448,192,37394,1,0,0:0:0:0:
320,192,37394,1,0,0:0:0:0:
448,192,37594,1,0,0:0:0:0:
320,192,37594,1,0,0:0:0:0:
192,192,37794,1,0,0:0:0:0:
64,192,37794,1,0,0:0:0:0:
192,192,37894,1,0,0:0:0:0:
320,192,37894,1,0,0:0:0:0:
448,192,37894,1,0,0:0:0:0:
64,192,37994,1,0,0:0:0:0:
320,192,37994,1,0,0:0:0:0:
448,192,37994,1,0,0:0:0:0:
320,192,38194,1,0,0:0:0:0:
192,192,38194,1,0,0:0:0:0:
64,192,38394,1,0,0:0:0:0:
320,192,38394,1,0,0:0:0:0:
448,192,38394,1,0,0:0:0:0:
448,192,38494,1,0,0:0:0:0:
192,192,38494,1,0,0:0:0:0:
64,192,38594,1,0,0:0:0:0:
192,192,38594,1,0,0:0:0:0:
320,192,38694,1,0,0:0:0:0:
64,192,38694,1,0,0:0:0:0:
192,192,38794,1,0,0:0:0:0:
320,192,38794,1,0,0:0:0:0:
448,192,38794,1,0,0:0:0:0:
192,192,38894,1,0,0:0:0:0:
448,192,38894,1,0,0:0:0:0:
64,192,38994,1,0,0:0:0:0:
320,192,38994,1,0,0:0:0:0:
64,192,39094,1,0,0:0:0:0:
320,192,39094,1,0,0:0:0:0:
64,192,39194,1,0,0:0:0:0:
192,192,39194,1,0,0:0:0:0:
448,192,39194,1,0,0:0:0:0:
192,192,39394,1,0,0:0:0:0:
448,192,39394,1,0,0:0:0:0:
320,192,39494,1,0,0:0:0:0:
448,192,39494,1,0,0:0:0:0:
64,192,39494,1,0,0:0:0:0:
64,192,39594,1,0,0:0:0:0:
192,192,39594,1,0,0:0:0:0:
320,192,39594,1,0,0:0:0:0:
192,192,39794,1,0,0:0:0:0:
320,192,39794,1,0,0:0:0:0:
64,192,39994,1,0,0:0:0:0:
192,192,39994,1,0,0:0:0:0:
448,192,39994,1,0,0:0:0:0:
64,192,40094,1,0,0:0:0:0:
192,192,40094,1,0,0:0:0:0:
320,192,40194,1,0,0:0:0:0:
448,192,40194,1,0,0:0:0:0:
64,192,40294,1,0,0:0:0:0:
320,192,40294,1,0,0:0:0:0:
64,192,40394,128,0,40494:0:0:0:0:
192,192,40394,128,0,40494:0:0:0:0:
448,192,40394,1,0,0:0:0:0:
64,192,40594,128,0,40694:0:0:0:0:
192,192,40594,128,0,40694:0:0:0:0:
64,192,40794,1,0,0:0:0:0:
320,192,40794,1,0,0:0:0:0:
448,192,40794,1,0,0:0:0:0:
320,192,40994,1,0,0:0:0:0:
64,192,40994,1,0,0:0:0:0:
192,192,41094,1,0,0:0:0:0:
448,192,41094,1,0,0:0:0:0:
64,192,41094,1,0,0:0:0:0:
320,192,41194,1,0,0:0:0:0:
448,192,41194,1,0,0:0:0:0:
192,192,41194,1,0,0:0:0:0:
192,192,41394,1,0,0:0:0:0:
320,192,41394,1,0,0:0:0:0:
320,192,41594,1,0,0:0:0:0:
448,192,41594,1,0,0:0:0:0:
64,192,41594,1,0,0:0:0:0:
320,192,41694,1,0,0:0:0:0:
448,192,41694,1,0,0:0:0:0:
64,192,41794,1,0,0:0:0:0:
192,192,41794,1,0,0:0:0:0:
192,192,41894,1,0,0:0:0:0:
448,192,41894,1,0,0:0:0:0:
448,192,41994,128,0,42094:0:0:0:0:
320,192,41994,128,0,42094:0:0:0:0:
64,192,41994,1,0,0:0:0:0:
64,192,42194,128,0,42294:0:0:0:0:
192,192,42194,128,0,42294:0:0:0:0:
64,192,42394,1,0,0:0:0:0:
320,192,42394,1,0,0:0:0:0:
448,192,42394,1,0,0:0:0:0:
64,192,42594,1,0,0:0:0:0:
192,192,42594,1,0,0:0:0:0:
448,192,42694,1,0,0:0:0:0:
320,192,42694,1,0,0:0:0:0:
192,192,42794,1,0,0:0:0:0:
64,192,42794,128,0,43194:0:0:0:0:
448,192,42794,1,0,0:0:0:0:
320,192,42994,1,0,0:0:0:0:
448,192,42994,1,0,0:0:0:0:
320,192,43094,1,0,0:0:0:0:
448,192,43194,1,0,0:0:0:0:
192,192,43194,1,0,0:0:0:0:
192,192,43294,1,0,0:0:0:0:
64,192,43394,1,0,0:0:0:0:
320,192,43394,1,0,0:0:0:0:
64,192,43494,1,0,0:0:0:0:
192,192,43594,1,0,0:0:0:0:
448,192,43594,128,0,43994:0:0:0:0:
320,192,43594,1,0,0:0:0:0:
64,192,43794,1,0,0:0:0:0:
192,192,43794,1,0,0:0:0:0:
192,192,43894,1,0,0:0:0:0:
64,192,43994,1,0,0:0:0:0:
320,192,43994,1,0,0:0:0:0:
320,192,44394,1,0,0:0:0:0:
64,192,44594,1,0,0:0:0:0:
64,192,44694,1,0,0:0:0:0:
448,192,44794,1,0,0:0:0:0:
448,192,44894,1,0,0:0:0:0:
192,192,44994,1,0,0:0:0:0:
192,192,45094,1,0,0:0:0:0:
320,192,45194,1,0,0:0:0:0:
448,192,45194,1,0,0:0:0:0:
64,192,45194,1,0,0:0:0:0:
192,192,45294,1,0,0:0:0:0:
320,192,45294,1,0,0:0:0:0:
320,192,45494,1,0,0:0:0:0:
192,192,45494,1,0,0:0:0:0:
64,192,45594,1,0,0:0:0:0:
448,192,45594,1,0,0:0:0:0:
192,192,45644,1,0,0:0:0:0:
320,192,45694,1,0,0:0:0:0:
64,192,45744,1,0,0:0:0:0:
192,192,45794,1,0,0:0:0:0:
320,192,45844,1,0,0:0:0:0:
64,192,45894,1,0,0:0:0:0:
192,192,45944,1,0,0:0:0:0:
320,192,45994,1,0,0:0:0:0:
448,192,45994,1,0,0:0:0:0:
192,192,46094,1,0,0:0:0:0:
448,192,46194,1,0,0:0:0:0:
64,192,46194,1,0,0:0:0:0:
320,192,46244,1,0,0:0:0:0:
192,192,46294,1,0,0:0:0:0:
448,192,46344,1,0,0:0:0:0:
320,192,46394,1,0,0:0:0:0:
192,192,46444,1,0,0:0:0:0:
448,192,46494,1,0,0:0:0:0:
320,192,46544,1,0,0:0:0:0:
192,192,46594,1,0,0:0:0:0:
64,192,46594,1,0,0:0:0:0:
320,192,46694,1,0,0:0:0:0:
64,192,46794,1,0,0:0:0:0:
448,192,46794,1,0,0:0:0:0:
192,192,46844,1,0,0:0:0:0:
320,192,46894,1,0,0:0:0:0:
64,192,46944,1,0,0:0:0:0:
448,192,46994,1,0,0:0:0:0:
320,192,47044,1,0,0:0:0:0:
192,192,47094,1,0,0:0:0:0:
448,192,47144,1,0,0:0:0:0:
64,192,47194,1,0,0:0:0:0:
320,192,47194,1,0,0:0:0:0:
320,192,47394,128,0,47594:0:0:0:0:
64,192,47494,1,0,0:0:0:0:
192,192,47494,1,0,0:0:0:0:
448,192,47594,128,0,47794:0:0:0:0:
64,192,47594,1,0,0:0:0:0:
192,192,47594,1,0,0:0:0:0:
320,192,47794,1,0,0:0:0:0:
64,192,47794,128,0,47994:0:0:0:0:
320,192,47994,1,0,0:0:0:0:
448,192,47994,1,0,0:0:0:0:
192,192,48094,1,0,0:0:0:0:
448,192,48194,1,0,0:0:0:0:
192,192,48294,1,0,0:0:0:0:
64,192,48394,1,0,0:0:0:0:
448,192,48394,1,0,0:0:0:0:
192,192,48394,1,0,0:0:0:0:
320,192,48494,1,0,0:0:0:0:
64,192,48594,1,0,0:0:0:0:
320,192,48694,1,0,0:0:0:0:
448,192,48794,1,0,0:0:0:0:
320,192,48794,1,0,0:0:0:0:
64,192,48794,1,0,0:0:0:0:
448,192,48894,1,0,0:0:0:0:
448,192,48994,1,0,0:0:0:0:
448,192,49094,1,0,0:0:0:0:
192,192,49094,1,0,0:0:0:0:
64,192,49094,1,0,0:0:0:0:
448,192,49194,1,0,0:0:0:0:
64,192,49194,1,0,0:0:0:0:
320,192,49194,1,0,0:0:0:0:
448,192,49294,1,0,0:0:0:0:
448,192,49394,1,0,0:0:0:0:
192,192,49394,1,0,0:0:0:0:
448,192,49494,1,0,0:0:0:0:
192,192,49494,1,0,0:0:0:0:
64,192,49594,1,0,0:0:0:0:
320,192,49594,1,0,0:0:0:0:
448,192,49594,1,0,0:0:0:0:
64,192,49694,1,0,0:0:0:0:
64,192,49794,1,0,0:0:0:0:
320,192,49794,1,0,0:0:0:0:
448,192,49794,1,0,0:0:0:0:
64,192,49894,1,0,0:0:0:0:
64,192,49994,1,0,0:0:0:0:
192,192,49994,1,0,0:0:0:0:
448,192,49994,1,0,0:0:0:0:
64,192,50094,1,0,0:0:0:0:
64,192,50194,1,0,0:0:0:0:
320,192,50194,1,0,0:0:0:0:
64,192,50294,1,0,0:0:0:0:
320,192,50294,1,0,0:0:0:0:
192,192,50394,1,0,0:0:0:0:
448,192,50394,1,0,0:0:0:0:
64,192,50394,1,0,0:0:0:0:
192,192,50594,1,0,0:0:0:0:
448,192,50594,1,0,0:0:0:0:
64,192,50694,1,0,0:0:0:0:
192,192,50694,1,0,0:0:0:0:
320,192,50694,1,0,0:0:0:0:
64,192,50794,1,0,0:0:0:0:
320,192,50794,1,0,0:0:0:0:
448,192,50794,1,0,0:0:0:0:
320,192,50994,1,0,0:0:0:0:
192,192,50994,1,0,0:0:0:0:
448,192,50994,1,0,0:0:0:0:
64,192,51094,1,0,0:0:0:0:
320,192,51094,1,0,0:0:0:0:
448,192,51194,1,0,0:0:0:0:
64,192,51194,1,0,0:0:0:0:
192,192,51194,1,0,0:0:0:0:
192,192,51394,1,0,0:0:0:0:
320,192,51394,1,0,0:0:0:0:
448,192,51594,1,0,0:0:0:0:
64,192,51594,128,0,51994:0:0:0:0:
192,192,51694,1,0,0:0:0:0:
320,192,51694,1,0,0:0:0:0:
448,192,51994,1,0,0:0:0:0:
192,192,51994,1,0,0:0:0:0:
320,192,52044,1,0,0:0:0:0:
64,192,52094,1,0,0:0:0:0:
448,192,52144,1,0,0:0:0:0:
320,192,52194,1,0,0:0:0:0:
64,192,52244,1,0,0:0:0:0:
448,192,52294,1,0,0:0:0:0:
320,192,52344,1,0,0:0:0:0:
64,192,52394,1,0,0:0:0:0:
192,192,52394,1,0,0:0:0:0:
448,192,52494,1,0,0:0:0:0:
64,192,52594,1,0,0:0:0:0:
320,192,52594,1,0,0:0:0:0:
192,192,52644,1,0,0:0:0:0:
448,192,52694,1,0,0:0:0:0:
64,192,52744,1,0,0:0:0:0:
192,192,52794,1,0,0:0:0:0:
448,192,52844,1,0,0:0:0:0:
64,192,52894,1,0,0:0:0:0:
192,192,52944,1,0,0:0:0:0:
448,192,52994,1,0,0:0:0:0:
320,192,52994,1,0,0:0:0:0:
192,192,53094,1,0,0:0:0:0:
448,192,53194,1,0,0:0:0:0:
64,192,53194,1,0,0:0:0:0:
192,192,53244,1,0,0:0:0:0:
320,192,53294,1,0,0:0:0:0:
448,192,53344,1,0,0:0:0:0:
64,192,53394,1,0,0:0:0:0:
320,192,53444,1,0,0:0:0:0:
192,192,53494,1,0,0:0:0:0:
64,192,53544,1,0,0:0:0:0:
320,192,53594,1,0,0:0:0:0:
448,192,53594,1,0,0:0:0:0:
192,192,53794,128,0,53994:0:0:0:0:
320,192,53894,1,0,0:0:0:0:
448,192,53894,1,0,0:0:0:0:
320,192,53994,1,0,0:0:0:0:
448,192,53994,1,0,0:0:0:0:
64,192,53994,128,0,54194:0:0:0:0:
448,192,54194,128,0,54394:0:0:0:0:
192,192,54194,1,0,0:0:0:0:
64,192,54394,1,0,0:0:0:0:
192,192,54394,1,0,0:0:0:0:
320,192,54494,1,0,0:0:0:0:
64,192,54594,1,0,0:0:0:0:
320,192,54694,1,0,0:0:0:0:
320,192,54794,1,0,0:0:0:0:
64,192,54794,1,0,0:0:0:0:
448,192,54794,1,0,0:0:0:0:
192,192,54894,1,0,0:0:0:0:
448,192,54994,1,0,0:0:0:0:
192,192,55094,1,0,0:0:0:0:
448,192,55194,1,0,0:0:0:0:
192,192,55194,1,0,0:0:0:0:
64,192,55194,1,0,0:0:0:0:
64,192,55394,1,0,0:0:0:0:
192,192,55394,1,0,0:0:0:0:
448,192,55394,1,0,0:0:0:0:
64,192,55594,1,0,0:0:0:0:
320,192,55594,1,0,0:0:0:0:
448,192,55594,1,0,0:0:0:0:
320,192,55794,1,0,0:0:0:0:
448,192,55794,1,0,0:0:0:0:
64,192,55794,1,0,0:0:0:0:
64,192,55994,1,0,0:0:0:0:
448,192,55994,1,0,0:0:0:0:
192,192,55994,1,0,0:0:0:0:
192,192,56127,1,0,0:0:0:0:
448,192,56127,1,0,0:0:0:0:
192,192,56260,1,0,0:0:0:0:
448,192,56260,1,0,0:0:0:0:
320,192,56394,1,0,0:0:0:0:
448,192,56394,1,0,0:0:0:0:
64,192,56394,1,0,0:0:0:0:
192,192,56394,1,0,0:0:0:0:
64,192,56527,1,0,0:0:0:0:
320,192,56527,1,0,0:0:0:0:
64,192,56660,1,0,0:0:0:0:
320,192,56660,1,0,0:0:0:0:
64,192,56794,1,0,0:0:0:0:
320,192,56794,1,0,0:0:0:0:
448,192,56794,1,0,0:0:0:0:
64,192,57094,1,0,0:0:0:0:
320,192,57094,1,0,0:0:0:0:
448,192,57094,1,0,0:0:0:0:
192,192,57394,1,0,0:0:0:0:
320,192,57394,1,0,0:0:0:0:
448,192,57394,1,0,0:0:0:0:
64,192,57794,1,0,0:0:0:0:
320,192,57794,1,0,0:0:0:0:
192,192,57994,1,0,0:0:0:0:
320,192,57994,1,0,0:0:0:0:
448,192,57994,1,0,0:0:0:0:
64,192,58094,1,0,0:0:0:0:
320,192,58094,1,0,0:0:0:0:
64,192,58194,1,0,0:0:0:0:
192,192,58194,1,0,0:0:0:0:
320,192,58294,1,0,0:0:0:0:
448,192,58294,1,0,0:0:0:0:
64,192,58394,1,0,0:0:0:0:
192,192,58394,1,0,0:0:0:0:
448,192,58394,1,0,0:0:0:0:
64,192,58594,1,0,0:0:0:0:
320,192,58594,1,0,0:0:0:0:
320,192,58694,1,0,0:0:0:0:
448,192,58694,1,0,0:0:0:0:
192,192,58694,1,0,0:0:0:0:
64,192,58794,1,0,0:0:0:0:
192,192,58794,1,0,0:0:0:0:
448,192,58794,1,0,0:0:0:0:
64,192,58994,1,0,0:0:0:0:
320,192,58994,1,0,0:0:0:0:
192,192,59194,1,0,0:0:0:0:
320,192,59194,1,0,0:0:0:0:
192,192,59394,1,0,0:0:0:0:
320,192,59394,1,0,0:0:0:0:
192,192,59494,1,0,0:0:0:0:
448,192,59494,1,0,0:0:0:0:
64,192,59594,1,0,0:0:0:0:
448,192,59594,1,0,0:0:0:0:
320,192,59594,1,0,0:0:0:0:
64,192,59794,1,0,0:0:0:0:
192,192,59794,1,0,0:0:0:0:
448,192,59894,1,0,0:0:0:0:
192,192,59894,1,0,0:0:0:0:
64,192,59994,1,0,0:0:0:0:
448,192,59994,1,0,0:0:0:0:
320,192,59994,1,0,0:0:0:0:
192,192,60194,1,0,0:0:0:0:
448,192,60194,1,0,0:0:0:0:
64,192,60294,1,0,0:0:0:0:
192,192,60294,1,0,0:0:0:0:
320,192,60294,1,0,0:0:0:0:
64,192,60394,1,0,0:0:0:0:
320,192,60394,1,0,0:0:0:0:
448,192,60394,1,0,0:0:0:0:
192,192,60594,1,0,0:0:0:0:
448,192,60594,1,0,0:0:0:0:
192,192,60794,1,0,0:0:0:0:
320,192,60794,1,0,0:0:0:0:
320,192,60994,1,0,0:0:0:0:
448,192,60994,1,0,0:0:0:0:
64,192,61094,1,0,0:0:0:0:
320,192,61094,1,0,0:0:0:0:
64,192,61194,1,0,0:0:0:0:
448,192,61194,1,0,0:0:0:0:
192,192,61194,1,0,0:0:0:0:
192,192,61294,1,0,0:0:0:0:
320,192,61294,1,0,0:0:0:0:
320,192,61394,1,0,0:0:0:0:
64,192,61394,1,0,0:0:0:0:
320,192,61594,1,0,0:0:0:0:
448,192,61594,1,0,0:0:0:0:
64,192,61594,1,0,0:0:0:0:
320,192,61694,1,0,0:0:0:0:
320,192,61794,1,0,0:0:0:0:
320,192,61894,1,0,0:0:0:0:
192,192,61894,1,0,0:0:0:0:
320,192,61994,1,0,0:0:0:0:
448,192,61994,1,0,0:0:0:0:
64,192,61994,1,0,0:0:0:0:
320,192,62094,1,0,0:0:0:0:
320,192,62194,1,0,0:0:0:0:
64,192,62194,1,0,0:0:0:0:
320,192,62294,1,0,0:0:0:0:
192,192,62294,1,0,0:0:0:0:
64,192,62394,1,0,0:0:0:0:
448,192,62394,1,0,0:0:0:0:
320,192,62394,1,0,0:0:0:0:
64,192,62494,1,0,0:0:0:0:
64,192,62594,1,0,0:0:0:0:
320,192,62594,1,0,0:0:0:0:
64,192,62694,1,0,0:0:0:0:
64,192,62794,1,0,0:0:0:0:
192,192,62794,1,0,0:0:0:0:
448,192,62794,1,0,0:0:0:0:
64,192,62894,1,0,0:0:0:0:
64,192,62994,1,0,0:0:0:0:
320,192,62994,1,0,0:0:0:0:
64,192,63094,1,0,0:0:0:0:
320,192,63094,1,0,0:0:0:0:
64,192,63194,1,0,0:0:0:0:
192,192,63194,1,0,0:0:0:0:
448,192,63194,1,0,0:0:0:0:
192,192,63394,1,0,0:0:0:0:
320,192,63394,1,0,0:0:0:0:
320,192,63494,1,0,0:0:0:0:
64,192,63494,1,0,0:0:0:0:
448,192,63494,1,0,0:0:0:0:
64,192,63594,1,0,0:0:0:0:
192,192,63594,1,0,0:0:0:0:
320,192,63794,1,0,0:0:0:0:
64,192,63794,1,0,0:0:0:0:
448,192,63794,1,0,0:0:0:0:
320,192,63994,1,0,0:0:0:0:
448,192,63994,1,0,0:0:0:0:
320,192,64094,1,0,0:0:0:0:
64,192,64094,1,0,0:0:0:0:
64,192,64194,1,0,0:0:0:0:
192,192,64194,1,0,0:0:0:0:
192,192,64294,1,0,0:0:0:0:
448,192,64294,1,0,0:0:0:0:
64,192,64394,1,0,0:0:0:0:
320,192,64394,1,0,0:0:0:0:
448,192,64394,128,0,64794:0:0:0:0:
192,192,64494,1,0,0:0:0:0:
64,192,64494,1,0,0:0:0:0:
320,192,64594,1,0,0:0:0:0:
192,192,64694,1,0,0:0:0:0:
64,192,64794,1,0,0:0:0:0:
192,192,64794,1,0,0:0:0:0:
320,192,64994,1,0,0:0:0:0:
64,192,64994,1,0,0:0:0:0:
192,192,65094,1,0,0:0:0:0:
448,192,65094,1,0,0:0:0:0:
320,192,65094,1,0,0:0:0:0:
448,192,65194,1,0,0:0:0:0:
192,192,65194,1,0,0:0:0:0:
64,192,65194,1,0,0:0:0:0:
320,192,65394,1,0,0:0:0:0:
64,192,65394,1,0,0:0:0:0:
320,192,65594,1,0,0:0:0:0:
192,192,65594,1,0,0:0:0:0:
320,192,65794,1,0,0:0:0:0:
192,192,65794,1,0,0:0:0:0:
448,192,65894,1,0,0:0:0:0:
192,192,65894,1,0,0:0:0:0:
320,192,65994,1,0,0:0:0:0:
448,192,65994,1,0,0:0:0:0:
64,192,65994,1,0,0:0:0:0:
192,192,66194,1,0,0:0:0:0:
64,192,66194,1,0,0:0:0:0:
192,192,66294,1,0,0:0:0:0:
448,192,66294,1,0,0:0:0:0:
320,192,66394,1,0,0:0:0:0:
448,192,66394,1,0,0:0:0:0:
64,192,66394,1,0,0:0:0:0:
448,192,66594,1,0,0:0:0:0:
192,192,66594,1,0,0:0:0:0:
320,192,66694,1,0,0:0:0:0:
192,192,66694,1,0,0:0:0:0:
64,192,66694,1,0,0:0:0:0:
448,192,66794,1,0,0:0:0:0:
320,192,66794,1,0,0:0:0:0:
64,192,66794,1,0,0:0:0:0:
448,192,66994,5,0,0:0:0:0:
192,192,66994,1,0,0:0:0:0:
320,192,67194,1,0,0:0:0:0:
192,192,67194,1,0,0:0:0:0:
448,192,67394,1,0,0:0:0:0:
320,192,67394,1,0,0:0:0:0:
320,192,67494,1,0,0:0:0:0:
64,192,67494,1,0,0:0:0:0:
192,192,67594,1,0,0:0:0:0:
448,192,67594,1,0,0:0:0:0:
64,192,67594,1,0,0:0:0:0:
320,192,67694,1,0,0:0:0:0:
192,192,67694,1,0,0:0:0:0:
64,192,67794,1,0,0:0:0:0:
320,192,67794,1,0,0:0:0:0:
448,192,67994,5,0,0:0:0:0:
64,192,67994,1,0,0:0:0:0:
448,192,68194,1,0,0:0:0:0:
64,192,68194,1,0,0:0:0:0:
192,192,68194,1,0,0:0:0:0:
64,192,68294,1,0,0:0:0:0:
192,192,68294,1,0,0:0:0:0:
448,192,68394,1,0,0:0:0:0:
64,192,68394,1,0,0:0:0:0:
320,192,68394,1,0,0:0:0:0:
448,192,68594,1,0,0:0:0:0:
192,192,68594,1,0,0:0:0:0:
192,192,68794,1,0,0:0:0:0:
64,192,68794,1,0,0:0:0:0:
448,192,68794,1,0,0:0:0:0:
192,192,68927,1,0,0:0:0:0:
320,192,68994,1,0,0:0:0:0:
192,192,69060,1,0,0:0:0:0:
192,192,69194,1,0,0:0:0:0:
64,192,69194,1,0,0:0:0:0:
448,192,69194,1,0,0:0:0:0:
192,192,69327,1,0,0:0:0:0:
320,192,69394,1,0,0:0:0:0:
448,192,69394,1,0,0:0:0:0:
192,192,69460,1,0,0:0:0:0:
64,192,69594,1,0,0:0:0:0:
192,192,69594,1,0,0:0:0:0:
448,192,69594,1,0,0:0:0:0:
320,192,69994,1,0,0:0:0:0:
320,192,70194,1,0,0:0:0:0:
192,192,70394,1,0,0:0:0:0:
64,192,70394,1,0,0:0:0:0:
320,192,70460,1,0,0:0:0:0:
448,192,70460,1,0,0:0:0:0:
64,192,70527,1,0,0:0:0:0:
192,192,70527,1,0,0:0:0:0:
320,192,70594,1,0,0:0:0:0:
448,192,70594,1,0,0:0:0:0:
64,192,70594,1,0,0:0:0:0:
320,192,70794,1,0,0:0:0:0:
448,192,70794,1,0,0:0:0:0:
448,192,70894,1,0,0:0:0:0:
320,192,70894,1,0,0:0:0:0:
192,192,70994,1,0,0:0:0:0:
64,192,70994,1,0,0:0:0:0:
320,192,71094,1,0,0:0:0:0:
448,192,71094,1,0,0:0:0:0:
64,192,71194,128,0,71594:0:0:0:0:
320,192,71194,1,0,0:0:0:0:
448,192,71194,1,0,0:0:0:0:
192,192,71394,1,0,0:0:0:0:
448,192,71394,1,0,0:0:0:0:
320,192,71494,1,0,0:0:0:0:
320,192,71594,128,0,71994:0:0:0:0:
448,192,71594,1,0,0:0:0:0:
448,192,71794,1,0,0:0:0:0:
64,192,71794,1,0,0:0:0:0:
192,192,71894,1,0,0:0:0:0:
448,192,71994,1,0,0:0:0:0:
192,192,71994,1,0,0:0:0:0:
64,192,71994,1,0,0:0:0:0:
192,192,72094,1,0,0:0:0:0:
64,192,72094,1,0,0:0:0:0:
448,192,72194,1,0,0:0:0:0:
320,192,72194,1,0,0:0:0:0:
320,192,72294,1,0,0:0:0:0:
64,192,72294,1,0,0:0:0:0:
448,192,72394,1,0,0:0:0:0:
192,192,72394,128,0,72494:0:0:0:0:
64,192,72394,128,0,72494:0:0:0:0:
192,192,72594,128,0,72694:0:0:0:0:
64,192,72594,128,0,72694:0:0:0:0:
64,192,72794,1,0,0:0:0:0:
448,192,72794,128,0,73194:0:0:0:0:
320,192,72794,1,0,0:0:0:0:
64,192,72994,1,0,0:0:0:0:
320,192,72994,1,0,0:0:0:0:
192,192,73094,1,0,0:0:0:0:
192,192,73194,128,0,73594:0:0:0:0:
64,192,73194,1,0,0:0:0:0:
64,192,73394,1,0,0:0:0:0:
448,192,73394,1,0,0:0:0:0:
320,192,73494,1,0,0:0:0:0:
320,192,73594,1,0,0:0:0:0:
448,192,73594,1,0,0:0:0:0:
64,192,73594,1,0,0:0:0:0:
320,192,73694,1,0,0:0:0:0:
448,192,73694,1,0,0:0:0:0:
64,192,73794,1,0,0:0:0:0:
192,192,73794,1,0,0:0:0:0:
192,192,73894,1,0,0:0:0:0:
448,192,73894,1,0,0:0:0:0:
448,192,73994,128,0,74094:0:0:0:0:
320,192,73994,128,0,74094:0:0:0:0:
64,192,73994,1,0,0:0:0:0:
64,192,74194,128,0,74294:0:0:0:0:
192,192,74194,128,0,74294:0:0:0:0:
192,192,74394,1,0,0:0:0:0:
320,192,74394,1,0,0:0:0:0:
192,192,74794,1,0,0:0:0:0:
320,192,74794,1,0,0:0:0:0:
64,192,75194,1,0,0:0:0:0:
320,192,75194,1,0,0:0:0:0:
448,192,75194,1,0,0:0:0:0:
64,192,75594,1,0,0:0:0:0:
448,192,75594,1,0,0:0:0:0:
64,192,75994,1,0,0:0:0:0:
448,192,75994,1,0,0:0:0:0:
64,192,76394,1,0,0:0:0:0:
448,192,76394,1,0,0:0:0:0:
192,192,76394,1,0,0:0:0:0:
320,192,76594,1,0,0:0:0:0:
192,192,76594,1,0,0:0:0:0:
192,192,76694,1,0,0:0:0:0:
320,192,76694,1,0,0:0:0:0:
64,192,76794,1,0,0:0:0:0:
320,192,76794,1,0,0:0:0:0:
448,192,76794,1,0,0:0:0:0:
192,192,76994,1,0,0:0:0:0:
320,192,76994,1,0,0:0:0:0:
64,192,77194,1,0,0:0:0:0:
192,192,77194,1,0,0:0:0:0:
448,192,77194,1,0,0:0:0:0:
320,192,77394,1,0,0:0:0:0:
320,192,77594,128,0,79594:0:0:0:0:
64,192,77594,128,0,79594:0:0:0:0:
448,192,77594,128,0,79594:0:0:0:0:
192,192,77594,128,0,79594:0:0:0:0:
