osu file format v14

[General]
AudioFilename: JAGER - BECAUSE OF YOU (Speedy Speed Up).mp3
AudioLeadIn: 0
PreviewTime: 85424
Countdown: 0
SampleSet: Normal
StackLeniency: 0.7
Mode: 3
LetterboxInBreaks: 0
SpecialStyle: 0
WidescreenStoryboard: 1

[Editor]
Bookmarks: 30537,36642,42747,62586,74795,87004
DistanceSpacing: 0.8
BeatDivisor: 8
GridSize: 32
TimelineZoom: 1.699999

[Metadata]
Title:SUPER EUROBEAT FOR RUNNING SELECTIONS
TitleUnicode:SUPER EUROBEAT FOR RUNNING SELECTIONS
Artist:Various Artists
ArtistUnicode:Various Artists
Creator:Jole
Version:[SPEED & JS] JAGER - BECAUSE OF YOU (SPED UP VER.)
Source:SUPER EUROBEAT 216
Tags:eurobeat 4 key stream initial d jole hotblade domino & scream team christine eurodudes
BeatmapID:1051475
BeatmapSetID:342407

[Difficulty]
HPDrainRate:8
CircleSize:4
OverallDifficulty:8
ApproachRate:5
SliderMultiplier:1.4
SliderTickRate:1

[Events]
//Background and Video events
0,0,"becauseofyou.jpg",0,0
//Break Periods
//Storyboard Layer 0 (Background)
//Storyboard Layer 1 (Fail)
//Storyboard Layer 2 (Pass)
//Storyboard Layer 3 (Foreground)
//Storyboard Sound Samples

[TimingPoints]
940,368.527731711811,4,1,0,5,1,0

[HitObjects]
192,192,940,5,0,0:0:0:0:
448,192,940,1,0,0:0:0:0:
320,192,1032,1,0,0:0:0:0:
64,192,1124,1,0,0:0:0:0:
448,192,1216,1,0,0:0:0:0:
320,192,1400,1,0,0:0:0:0:
192,192,1492,1,0,0:0:0:0:
448,192,1677,1,0,0:0:0:0:
320,192,1769,1,0,0:0:0:0:
448,192,1861,1,0,0:0:0:0:
64,192,1953,1,0,0:0:0:0:
448,192,2137,1,0,0:0:0:0:
192,192,2229,1,0,0:0:0:0:
64,192,2414,1,0,0:0:0:0:
192,192,2506,1,0,0:0:0:0:
64,192,2598,1,0,0:0:0:0:
192,192,2690,1,0,0:0:0:0:
64,192,2874,1,0,0:0:0:0:
192,192,2966,1,0,0:0:0:0:
448,192,3151,1,0,0:0:0:0:
320,192,3243,1,0,0:0:0:0:
192,192,3335,1,0,0:0:0:0:
448,192,3427,1,0,0:0:0:0:
448,192,3611,1,0,0:0:0:0:
192,192,3703,1,0,0:0:0:0:
64,192,3888,1,0,0:0:0:0:
320,192,3980,1,0,0:0:0:0:
448,192,4072,1,0,0:0:0:0:
64,192,4164,1,0,0:0:0:0:
64,192,4348,1,0,0:0:0:0:
448,192,4441,1,0,0:0:0:0:
320,192,4625,1,0,0:0:0:0:
64,192,4717,1,0,0:0:0:0:
192,192,4809,1,0,0:0:0:0:
320,192,4901,1,0,0:0:0:0:
64,192,5085,1,0,0:0:0:0:
320,192,5178,1,0,0:0:0:0:
192,192,5362,1,0,0:0:0:0:
320,192,5454,1,0,0:0:0:0:
192,192,5546,1,0,0:0:0:0:
320,192,5638,1,0,0:0:0:0:
192,192,5822,1,0,0:0:0:0:
320,192,5915,1,0,0:0:0:0:
320,192,6099,1,0,0:0:0:0:
448,192,6099,1,0,0:0:0:0:
64,192,6283,1,0,0:0:0:0:
320,192,6283,1,0,0:0:0:0:
64,192,6467,1,0,0:0:0:0:
192,192,6467,1,0,0:0:0:0:
192,192,6652,1,0,0:0:0:0:
448,192,6652,1,0,0:0:0:0:
64,192,6836,1,0,0:0:0:0:
448,192,6836,1,0,0:0:0:0:
320,192,6928,1,0,0:0:0:0:
64,192,7020,1,0,0:0:0:0:
192,192,7112,1,0,0:0:0:0:
64,192,7297,1,0,0:0:0:0:
192,192,7389,1,0,0:0:0:0:
448,192,7573,1,0,0:0:0:0:
320,192,7665,1,0,0:0:0:0:
448,192,7757,1,0,0:0:0:0:
320,192,7849,1,0,0:0:0:0:
448,192,8034,1,0,0:0:0:0:
320,192,8126,1,0,0:0:0:0:
64,192,8310,1,0,0:0:0:0:
320,192,8402,1,0,0:0:0:0:
64,192,8494,1,0,0:0:0:0:
320,192,8586,1,0,0:0:0:0:
64,192,8771,1,0,0:0:0:0:
320,192,8863,1,0,0:0:0:0:
448,192,9047,1,0,0:0:0:0:
64,192,9139,1,0,0:0:0:0:
448,192,9231,1,0,0:0:0:0:
64,192,9324,1,0,0:0:0:0:
448,192,9508,1,0,0:0:0:0:
64,192,9600,1,0,0:0:0:0:
320,192,9784,1,0,0:0:0:0:
448,192,9876,1,0,0:0:0:0:
192,192,9968,1,0,0:0:0:0:
64,192,10061,1,0,0:0:0:0:
320,192,10153,1,0,0:0:0:0:
192,192,10245,1,0,0:0:0:0:
448,192,10337,1,0,0:0:0:0:
64,192,10429,1,0,0:0:0:0:
448,192,10521,1,0,0:0:0:0:
192,192,10613,1,0,0:0:0:0:
320,192,10705,1,0,0:0:0:0:
64,192,10798,1,0,0:0:0:0:
448,192,10890,1,0,0:0:0:0:
192,192,10982,1,0,0:0:0:0:
320,192,11074,1,0,0:0:0:0:
64,192,11166,1,0,0:0:0:0:
192,192,11258,1,0,0:0:0:0:
448,192,11258,1,0,0:0:0:0:
192,192,11811,1,0,0:0:0:0:
448,192,11811,1,0,0:0:0:0:
64,192,11995,1,0,0:0:0:0:
192,192,11995,1,0,0:0:0:0:
64,192,12180,1,0,0:0:0:0:
448,192,12180,1,0,0:0:0:0:
192,192,12364,1,0,0:0:0:0:
320,192,12364,1,0,0:0:0:0:
192,192,12548,1,0,0:0:0:0:
448,192,12548,1,0,0:0:0:0:
64,192,12732,1,0,0:0:0:0:
192,192,12732,1,0,0:0:0:0:
448,192,12778,1,0,0:0:0:0:
320,192,12825,1,0,0:0:0:0:
192,192,12871,1,0,0:0:0:0:
64,192,12917,1,0,0:0:0:0:
448,192,12963,1,0,0:0:0:0:
192,192,13009,1,0,0:0:0:0:
320,192,13055,1,0,0:0:0:0:
448,192,13101,1,0,0:0:0:0:
64,192,13147,1,0,0:0:0:0:
192,192,13193,1,0,0:0:0:0:
320,192,13239,1,0,0:0:0:0:
448,192,13285,1,0,0:0:0:0:
192,192,13331,1,0,0:0:0:0:
320,192,13377,1,0,0:0:0:0:
64,192,13423,1,0,0:0:0:0:
448,192,13469,1,0,0:0:0:0:
320,192,13516,1,0,0:0:0:0:
192,192,13562,1,0,0:0:0:0:
64,192,13608,1,0,0:0:0:0:
448,192,13654,1,0,0:0:0:0:
320,192,13700,1,0,0:0:0:0:
192,192,13746,1,0,0:0:0:0:
448,192,13792,1,0,0:0:0:0:
64,192,13838,1,0,0:0:0:0:
192,192,13884,1,0,0:0:0:0:
320,192,13930,1,0,0:0:0:0:
448,192,13976,1,0,0:0:0:0:
64,192,14022,1,0,0:0:0:0:
192,192,14068,1,0,0:0:0:0:
448,192,14114,1,0,0:0:0:0:
64,192,14160,1,0,0:0:0:0:
320,192,14206,1,0,0:0:0:0:
192,192,14253,1,0,0:0:0:0:
448,192,14299,1,0,0:0:0:0:
64,192,14345,1,0,0:0:0:0:
320,192,14391,1,0,0:0:0:0:
192,192,14437,1,0,0:0:0:0:
320,192,14483,1,0,0:0:0:0:
448,192,14529,1,0,0:0:0:0:
64,192,14575,1,0,0:0:0:0:
192,192,14621,1,0,0:0:0:0:
64,192,14667,1,0,0:0:0:0:
320,192,14713,1,0,0:0:0:0:
448,192,14759,1,0,0:0:0:0:
192,192,14805,1,0,0:0:0:0:
448,192,14851,1,0,0:0:0:0:
64,192,14897,1,0,0:0:0:0:
320,192,14944,1,0,0:0:0:0:
192,192,14990,1,0,0:0:0:0:
64,192,15036,1,0,0:0:0:0:
448,192,15082,1,0,0:0:0:0:
192,192,15128,1,0,0:0:0:0:
320,192,15174,1,0,0:0:0:0:
448,192,15220,1,0,0:0:0:0:
192,192,15266,1,0,0:0:0:0:
64,192,15312,1,0,0:0:0:0:
320,192,15358,1,0,0:0:0:0:
448,192,15404,1,0,0:0:0:0:
64,192,15450,1,0,0:0:0:0:
192,192,15496,1,0,0:0:0:0:
320,192,15542,1,0,0:0:0:0:
64,192,15588,1,0,0:0:0:0:
192,192,15635,1,0,0:0:0:0:
448,192,15681,1,0,0:0:0:0:
320,192,15727,1,0,0:0:0:0:
192,192,15773,1,0,0:0:0:0:
64,192,15819,1,0,0:0:0:0:
192,192,15865,1,0,0:0:0:0:
320,192,15911,1,0,0:0:0:0:
448,192,15957,1,0,0:0:0:0:
64,192,16003,1,0,0:0:0:0:
320,192,16049,1,0,0:0:0:0:
192,192,16095,1,0,0:0:0:0:
64,192,16141,1,0,0:0:0:0:
448,192,16187,1,0,0:0:0:0:
320,192,16233,1,0,0:0:0:0:
192,192,16279,1,0,0:0:0:0:
64,192,16326,1,0,0:0:0:0:
448,192,16372,1,0,0:0:0:0:
320,192,16418,1,0,0:0:0:0:
192,192,16464,1,0,0:0:0:0:
64,192,16510,1,0,0:0:0:0:
448,192,16556,1,0,0:0:0:0:
192,192,16602,1,0,0:0:0:0:
64,192,16648,1,0,0:0:0:0:
320,192,16694,1,0,0:0:0:0:
448,192,16740,1,0,0:0:0:0:
64,192,16786,1,0,0:0:0:0:
192,192,16832,1,0,0:0:0:0:
320,192,16878,1,0,0:0:0:0:
448,192,16924,1,0,0:0:0:0:
64,192,16970,1,0,0:0:0:0:
320,192,17017,1,0,0:0:0:0:
192,192,17063,1,0,0:0:0:0:
64,192,17109,1,0,0:0:0:0:
448,192,17155,1,0,0:0:0:0:
320,192,17155,1,0,0:0:0:0:
192,192,17201,1,0,0:0:0:0:
64,192,17247,1,0,0:0:0:0:
448,192,17293,1,0,0:0:0:0:
192,192,17339,1,0,0:0:0:0:
320,192,17385,1,0,0:0:0:0:
192,192,17431,1,0,0:0:0:0:
448,192,17477,1,0,0:0:0:0:
320,192,17523,1,0,0:0:0:0:
64,192,17569,1,0,0:0:0:0:
448,192,17615,1,0,0:0:0:0:
192,192,17661,1,0,0:0:0:0:
448,192,17708,1,0,0:0:0:0:
64,192,17754,1,0,0:0:0:0:
192,192,17800,1,0,0:0:0:0:
320,192,17846,1,0,0:0:0:0:
448,192,17892,1,0,0:0:0:0:
64,192,17938,1,0,0:0:0:0:
192,192,17984,1,0,0:0:0:0:
448,192,18030,1,0,0:0:0:0:
64,192,18076,1,0,0:0:0:0:
192,192,18122,1,0,0:0:0:0:
320,192,18168,1,0,0:0:0:0:
448,192,18214,1,0,0:0:0:0:
64,192,18260,1,0,0:0:0:0:
192,192,18306,1,0,0:0:0:0:
448,192,18352,1,0,0:0:0:0:
64,192,18399,1,0,0:0:0:0:
320,192,18445,1,0,0:0:0:0:
192,192,18491,1,0,0:0:0:0:
448,192,18537,1,0,0:0:0:0:
64,192,18583,1,0,0:0:0:0:
192,192,18629,1,0,0:0:0:0:
320,192,18675,1,0,0:0:0:0:
448,192,18721,1,0,0:0:0:0:
64,192,18767,1,0,0:0:0:0:
320,192,18813,1,0,0:0:0:0:
448,192,18859,1,0,0:0:0:0:
64,192,18905,1,0,0:0:0:0:
192,192,18951,1,0,0:0:0:0:
320,192,18997,1,0,0:0:0:0:
448,192,18997,1,0,0:0:0:0:
64,192,19043,1,0,0:0:0:0:
192,192,19089,1,0,0:0:0:0:
448,192,19136,1,0,0:0:0:0:
320,192,19182,1,0,0:0:0:0:
64,192,19228,1,0,0:0:0:0:
320,192,19274,1,0,0:0:0:0:
448,192,19320,1,0,0:0:0:0:
64,192,19366,1,0,0:0:0:0:
192,192,19412,1,0,0:0:0:0:
320,192,19458,1,0,0:0:0:0:
64,192,19504,1,0,0:0:0:0:
448,192,19550,1,0,0:0:0:0:
320,192,19596,1,0,0:0:0:0:
192,192,19642,1,0,0:0:0:0:
64,192,19688,1,0,0:0:0:0:
448,192,19734,1,0,0:0:0:0:
320,192,19780,1,0,0:0:0:0:
64,192,19827,1,0,0:0:0:0:
448,192,19873,1,0,0:0:0:0:
320,192,19919,1,0,0:0:0:0:
192,192,19965,1,0,0:0:0:0:
64,192,20011,1,0,0:0:0:0:
320,192,20057,1,0,0:0:0:0:
448,192,20103,1,0,0:0:0:0:
192,192,20149,1,0,0:0:0:0:
320,192,20195,1,0,0:0:0:0:
448,192,20241,1,0,0:0:0:0:
64,192,20287,1,0,0:0:0:0:
192,192,20333,1,0,0:0:0:0:
64,192,20379,1,0,0:0:0:0:
448,192,20425,1,0,0:0:0:0:
320,192,20471,1,0,0:0:0:0:
192,192,20518,1,0,0:0:0:0:
320,192,20564,1,0,0:0:0:0:
64,192,20610,1,0,0:0:0:0:
448,192,20656,1,0,0:0:0:0:
192,192,20702,1,0,0:0:0:0:
448,192,20748,1,0,0:0:0:0:
64,192,20794,1,0,0:0:0:0:
320,192,20840,1,0,0:0:0:0:
448,192,20886,1,0,0:0:0:0:
64,192,20932,1,0,0:0:0:0:
192,192,20978,1,0,0:0:0:0:
320,192,21024,1,0,0:0:0:0:
64,192,21070,1,0,0:0:0:0:
448,192,21116,1,0,0:0:0:0:
192,192,21162,1,0,0:0:0:0:
320,192,21209,1,0,0:0:0:0:
448,192,21255,1,0,0:0:0:0:
64,192,21301,1,0,0:0:0:0:
320,192,21347,1,0,0:0:0:0:
192,192,21393,1,0,0:0:0:0:
64,192,21439,1,0,0:0:0:0:
448,192,21485,1,0,0:0:0:0:
320,192,21531,1,0,0:0:0:0:
64,192,21577,1,0,0:0:0:0:
192,192,21623,1,0,0:0:0:0:
320,192,21669,1,0,0:0:0:0:
448,192,21715,1,0,0:0:0:0:
320,192,21761,1,0,0:0:0:0:
192,192,21807,1,0,0:0:0:0:
64,192,21853,1,0,0:0:0:0:
448,192,21900,1,0,0:0:0:0:
192,192,21946,1,0,0:0:0:0:
64,192,21992,1,0,0:0:0:0:
320,192,22038,1,0,0:0:0:0:
192,192,22084,1,0,0:0:0:0:
64,192,22130,1,0,0:0:0:0:
320,192,22176,1,0,0:0:0:0:
448,192,22222,1,0,0:0:0:0:
64,192,22268,1,0,0:0:0:0:
192,192,22314,1,0,0:0:0:0:
320,192,22360,1,0,0:0:0:0:
448,192,22406,1,0,0:0:0:0:
64,192,22452,1,0,0:0:0:0:
320,192,22498,1,0,0:0:0:0:
192,192,22544,1,0,0:0:0:0:
64,192,22591,1,0,0:0:0:0:
320,192,22637,1,0,0:0:0:0:
448,192,22683,1,0,0:0:0:0:
192,192,22729,1,0,0:0:0:0:
320,192,22775,1,0,0:0:0:0:
448,192,22821,1,0,0:0:0:0:
64,192,22867,1,0,0:0:0:0:
192,192,22913,1,0,0:0:0:0:
320,192,22959,1,0,0:0:0:0:
448,192,23005,1,0,0:0:0:0:
64,192,23051,1,0,0:0:0:0:
192,192,23051,1,0,0:0:0:0:
320,192,23097,1,0,0:0:0:0:
448,192,23143,1,0,0:0:0:0:
64,192,23189,1,0,0:0:0:0:
320,192,23235,1,0,0:0:0:0:
192,192,23281,1,0,0:0:0:0:
320,192,23328,1,0,0:0:0:0:
64,192,23374,1,0,0:0:0:0:
192,192,23420,1,0,0:0:0:0:
320,192,23466,1,0,0:0:0:0:
448,192,23512,1,0,0:0:0:0:
192,192,23558,1,0,0:0:0:0:
448,192,23604,1,0,0:0:0:0:
64,192,23650,1,0,0:0:0:0:
192,192,23696,1,0,0:0:0:0:
320,192,23742,1,0,0:0:0:0:
64,192,23788,1,0,0:0:0:0:
448,192,23834,1,0,0:0:0:0:
320,192,23880,1,0,0:0:0:0:
192,192,23926,1,0,0:0:0:0:
64,192,23972,1,0,0:0:0:0:
320,192,24019,1,0,0:0:0:0:
192,192,24065,1,0,0:0:0:0:
64,192,24111,1,0,0:0:0:0:
320,192,24157,1,0,0:0:0:0:
448,192,24203,1,0,0:0:0:0:
64,192,24249,1,0,0:0:0:0:
192,192,24295,1,0,0:0:0:0:
320,192,24341,1,0,0:0:0:0:
448,192,24387,1,0,0:0:0:0:
64,192,24433,1,0,0:0:0:0:
192,192,24479,1,0,0:0:0:0:
320,192,24525,1,0,0:0:0:0:
192,192,24571,1,0,0:0:0:0:
64,192,24617,1,0,0:0:0:0:
448,192,24663,1,0,0:0:0:0:
320,192,24710,1,0,0:0:0:0:
192,192,24756,1,0,0:0:0:0:
64,192,24802,1,0,0:0:0:0:
448,192,24848,1,0,0:0:0:0:
320,192,24894,1,0,0:0:0:0:
64,192,24940,1,0,0:0:0:0:
448,192,24986,1,0,0:0:0:0:
320,192,25032,1,0,0:0:0:0:
64,192,25078,1,0,0:0:0:0:
192,192,25124,1,0,0:0:0:0:
320,192,25170,1,0,0:0:0:0:
448,192,25216,1,0,0:0:0:0:
64,192,25262,1,0,0:0:0:0:
192,192,25308,1,0,0:0:0:0:
320,192,25354,1,0,0:0:0:0:
64,192,25401,1,0,0:0:0:0:
448,192,25447,1,0,0:0:0:0:
192,192,25493,1,0,0:0:0:0:
320,192,25539,1,0,0:0:0:0:
64,192,25585,1,0,0:0:0:0:
448,192,25631,1,0,0:0:0:0:
320,192,25677,1,0,0:0:0:0:
192,192,25723,1,0,0:0:0:0:
64,192,25769,1,0,0:0:0:0:
448,192,25815,1,0,0:0:0:0:
192,192,25861,1,0,0:0:0:0:
320,192,25907,1,0,0:0:0:0:
448,192,25953,1,0,0:0:0:0:
64,192,25999,1,0,0:0:0:0:
192,192,26045,1,0,0:0:0:0:
320,192,26092,1,0,0:0:0:0:
448,192,26138,1,0,0:0:0:0:
64,192,26184,1,0,0:0:0:0:
192,192,26230,1,0,0:0:0:0:
64,192,26276,1,0,0:0:0:0:
448,192,26322,1,0,0:0:0:0:
320,192,26368,1,0,0:0:0:0:
192,192,26414,1,0,0:0:0:0:
320,192,26460,1,0,0:0:0:0:
64,192,26506,1,0,0:0:0:0:
448,192,26552,1,0,0:0:0:0:
192,192,26598,1,0,0:0:0:0:
448,192,26644,1,0,0:0:0:0:
64,192,26690,1,0,0:0:0:0:
192,192,26736,1,0,0:0:0:0:
320,192,26783,1,0,0:0:0:0:
448,192,26829,1,0,0:0:0:0:
64,192,26875,1,0,0:0:0:0:
192,192,26921,1,0,0:0:0:0:
320,192,26967,1,0,0:0:0:0:
448,192,27013,1,0,0:0:0:0:
320,192,27059,1,0,0:0:0:0:
192,192,27105,1,0,0:0:0:0:
64,192,27151,1,0,0:0:0:0:
192,192,27197,1,0,0:0:0:0:
320,192,27243,1,0,0:0:0:0:
448,192,27289,1,0,0:0:0:0:
64,192,27335,1,0,0:0:0:0:
192,192,27381,1,0,0:0:0:0:
448,192,27427,1,0,0:0:0:0:
64,192,27473,1,0,0:0:0:0:
320,192,27473,1,0,0:0:0:0:
192,192,27520,1,0,0:0:0:0:
448,192,27566,1,0,0:0:0:0:
320,192,27612,1,0,0:0:0:0:
64,192,27658,1,0,0:0:0:0:
448,192,27704,1,0,0:0:0:0:
64,192,27750,1,0,0:0:0:0:
192,192,27796,1,0,0:0:0:0:
320,192,27842,1,0,0:0:0:0:
448,192,27888,1,0,0:0:0:0:
64,192,27934,1,0,0:0:0:0:
320,192,27980,1,0,0:0:0:0:
192,192,28026,1,0,0:0:0:0:
64,192,28072,1,0,0:0:0:0:
448,192,28118,1,0,0:0:0:0:
320,192,28164,1,0,0:0:0:0:
192,192,28211,1,0,0:0:0:0:
64,192,28257,1,0,0:0:0:0:
448,192,28303,1,0,0:0:0:0:
320,192,28349,1,0,0:0:0:0:
192,192,28395,1,0,0:0:0:0:
448,192,28441,1,0,0:0:0:0:
64,192,28487,1,0,0:0:0:0:
192,192,28533,1,0,0:0:0:0:
320,192,28579,1,0,0:0:0:0:
448,192,28625,1,0,0:0:0:0:
320,192,28671,1,0,0:0:0:0:
192,192,28717,1,0,0:0:0:0:
64,192,28763,1,0,0:0:0:0:
192,192,28809,1,0,0:0:0:0:
320,192,28855,1,0,0:0:0:0:
448,192,28902,1,0,0:0:0:0:
192,192,28948,1,0,0:0:0:0:
64,192,28994,1,0,0:0:0:0:
448,192,29040,1,0,0:0:0:0:
320,192,29086,1,0,0:0:0:0:
192,192,29132,1,0,0:0:0:0:
448,192,29178,1,0,0:0:0:0:
192,192,29224,1,0,0:0:0:0:
64,192,29270,1,0,0:0:0:0:
320,192,29316,1,0,0:0:0:0:
192,192,29362,1,0,0:0:0:0:
448,192,29408,1,0,0:0:0:0:
320,192,29454,1,0,0:0:0:0:
448,192,29500,1,0,0:0:0:0:
64,192,29546,1,0,0:0:0:0:
192,192,29593,1,0,0:0:0:0:
320,192,29639,1,0,0:0:0:0:
448,192,29685,1,0,0:0:0:0:
64,192,29731,1,0,0:0:0:0:
192,192,29777,1,0,0:0:0:0:
320,192,29823,1,0,0:0:0:0:
64,192,29869,1,0,0:0:0:0:
192,192,29915,1,0,0:0:0:0:
448,192,29961,1,0,0:0:0:0:
320,192,30007,1,0,0:0:0:0:
64,192,30053,1,0,0:0:0:0:
448,192,30099,1,0,0:0:0:0:
320,192,30145,1,0,0:0:0:0:
192,192,30191,1,0,0:0:0:0:
64,192,30237,1,0,0:0:0:0:
448,192,30284,1,0,0:0:0:0:
192,192,30330,1,0,0:0:0:0:
320,192,30376,1,0,0:0:0:0:
64,192,30422,1,0,0:0:0:0:
192,192,30468,1,0,0:0:0:0:
320,192,30514,1,0,0:0:0:0:
448,192,30560,1,0,0:0:0:0:
64,192,30606,1,0,0:0:0:0:
192,192,30652,1,0,0:0:0:0:
320,192,30698,1,0,0:0:0:0:
448,192,30744,1,0,0:0:0:0:
192,192,30790,1,0,0:0:0:0:
64,192,30790,1,0,0:0:0:0:
320,192,30836,1,0,0:0:0:0:
448,192,30882,1,0,0:0:0:0:
64,192,30928,1,0,0:0:0:0:
320,192,30975,1,0,0:0:0:0:
192,192,31021,1,0,0:0:0:0:
64,192,31067,1,0,0:0:0:0:
448,192,31113,1,0,0:0:0:0:
320,192,31159,1,0,0:0:0:0:
192,192,31205,1,0,0:0:0:0:
64,192,31251,1,0,0:0:0:0:
192,192,31297,1,0,0:0:0:0:
320,192,31343,1,0,0:0:0:0:
448,192,31389,1,0,0:0:0:0:
64,192,31435,1,0,0:0:0:0:
192,192,31481,1,0,0:0:0:0:
448,192,31527,1,0,0:0:0:0:
64,192,31573,1,0,0:0:0:0:
192,192,31619,1,0,0:0:0:0:
320,192,31665,1,0,0:0:0:0:
64,192,31712,1,0,0:0:0:0:
192,192,31758,1,0,0:0:0:0:
448,192,31804,1,0,0:0:0:0:
320,192,31850,1,0,0:0:0:0:
64,192,31896,1,0,0:0:0:0:
448,192,31942,1,0,0:0:0:0:
320,192,31988,1,0,0:0:0:0:
192,192,32034,1,0,0:0:0:0:
64,192,32080,1,0,0:0:0:0:
448,192,32126,1,0,0:0:0:0:
64,192,32172,1,0,0:0:0:0:
320,192,32218,1,0,0:0:0:0:
192,192,32264,1,0,0:0:0:0:
448,192,32310,1,0,0:0:0:0:
192,192,32356,1,0,0:0:0:0:
64,192,32403,1,0,0:0:0:0:
320,192,32449,1,0,0:0:0:0:
192,192,32495,1,0,0:0:0:0:
320,192,32541,1,0,0:0:0:0:
448,192,32587,1,0,0:0:0:0:
64,192,32633,1,0,0:0:0:0:
192,192,32679,1,0,0:0:0:0:
320,192,32725,1,0,0:0:0:0:
448,192,32771,1,0,0:0:0:0:
64,192,32817,1,0,0:0:0:0:
192,192,32863,1,0,0:0:0:0:
320,192,32909,1,0,0:0:0:0:
448,192,32955,1,0,0:0:0:0:
64,192,33001,1,0,0:0:0:0:
192,192,33047,1,0,0:0:0:0:
448,192,33094,1,0,0:0:0:0:
64,192,33140,1,0,0:0:0:0:
320,192,33186,1,0,0:0:0:0:
192,192,33232,1,0,0:0:0:0:
64,192,33278,1,0,0:0:0:0:
448,192,33324,1,0,0:0:0:0:
320,192,33370,1,0,0:0:0:0:
192,192,33370,1,0,0:0:0:0:
64,192,33416,1,0,0:0:0:0:
448,192,33462,1,0,0:0:0:0:
320,192,33508,1,0,0:0:0:0:
192,192,33554,1,0,0:0:0:0:
448,192,33600,1,0,0:0:0:0:
192,192,33646,1,0,0:0:0:0:
64,192,33692,1,0,0:0:0:0:
320,192,33738,1,0,0:0:0:0:
448,192,33785,1,0,0:0:0:0:
64,192,33831,1,0,0:0:0:0:
192,192,33877,1,0,0:0:0:0:
320,192,33923,1,0,0:0:0:0:
448,192,33923,1,0,0:0:0:0:
64,192,33969,1,0,0:0:0:0:
192,192,34015,1,0,0:0:0:0:
320,192,34061,1,0,0:0:0:0:
448,192,34107,1,0,0:0:0:0:
320,192,34153,1,0,0:0:0:0:
192,192,34199,1,0,0:0:0:0:
64,192,34245,1,0,0:0:0:0:
192,192,34291,1,0,0:0:0:0:
320,192,34337,1,0,0:0:0:0:
448,192,34383,1,0,0:0:0:0:
64,192,34429,1,0,0:0:0:0:
320,192,34476,1,0,0:0:0:0:
192,192,34522,1,0,0:0:0:0:
64,192,34568,1,0,0:0:0:0:
448,192,34614,1,0,0:0:0:0:
320,192,34660,1,0,0:0:0:0:
192,192,34706,1,0,0:0:0:0:
448,192,34752,1,0,0:0:0:0:
64,192,34798,1,0,0:0:0:0:
192,192,34844,1,0,0:0:0:0:
320,192,34844,1,0,0:0:0:0:
448,192,34890,1,0,0:0:0:0:
64,192,34936,1,0,0:0:0:0:
192,192,34982,1,0,0:0:0:0:
320,192,35028,1,0,0:0:0:0:
64,192,35074,1,0,0:0:0:0:
320,192,35120,1,0,0:0:0:0:
448,192,35167,1,0,0:0:0:0:
192,192,35213,1,0,0:0:0:0:
64,192,35259,1,0,0:0:0:0:
320,192,35305,1,0,0:0:0:0:
448,192,35351,1,0,0:0:0:0:
320,192,35397,1,0,0:0:0:0:
192,192,35443,1,0,0:0:0:0:
64,192,35489,1,0,0:0:0:0:
320,192,35535,1,0,0:0:0:0:
192,192,35581,1,0,0:0:0:0:
448,192,35581,1,0,0:0:0:0:
192,192,35765,1,0,0:0:0:0:
320,192,35950,1,0,0:0:0:0:
64,192,36318,1,0,0:0:0:0:
448,192,36318,1,0,0:0:0:0:
320,192,36380,1,0,0:0:0:0:
64,192,36441,1,0,0:0:0:0:
320,192,36502,1,0,0:0:0:0:
448,192,36502,1,0,0:0:0:0:
192,192,36564,1,0,0:0:0:0:
64,192,36564,1,0,0:0:0:0:
320,192,36625,1,0,0:0:0:0:
448,192,36625,1,0,0:0:0:0:
64,192,36687,1,0,0:0:0:0:
192,192,36748,1,0,0:0:0:0:
320,192,36748,1,0,0:0:0:0:
64,192,36810,1,0,0:0:0:0:
448,192,36810,1,0,0:0:0:0:
320,192,36871,1,0,0:0:0:0:
192,192,36871,1,0,0:0:0:0:
448,192,36932,1,0,0:0:0:0:
192,192,36994,1,0,0:0:0:0:
64,192,37055,1,0,0:0:0:0:
320,192,37055,1,0,0:0:0:0:
448,192,37117,1,0,0:0:0:0:
192,192,37178,1,0,0:0:0:0:
64,192,37239,1,0,0:0:0:0:
320,192,37239,1,0,0:0:0:0:
192,192,37301,1,0,0:0:0:0:
448,192,37301,1,0,0:0:0:0:
64,192,37362,1,0,0:0:0:0:
320,192,37362,1,0,0:0:0:0:
448,192,37424,1,0,0:0:0:0:
192,192,37485,1,0,0:0:0:0:
64,192,37485,1,0,0:0:0:0:
320,192,37547,1,0,0:0:0:0:
448,192,37547,1,0,0:0:0:0:
192,192,37608,1,0,0:0:0:0:
64,192,37608,1,0,0:0:0:0:
192,192,37792,1,0,0:0:0:0:
320,192,37792,1,0,0:0:0:0:
192,192,38345,1,0,0:0:0:0:
64,192,38345,1,0,0:0:0:0:
64,192,38529,1,0,0:0:0:0:
448,192,38529,1,0,0:0:0:0:
192,192,38898,1,0,0:0:0:0:
448,192,38898,1,0,0:0:0:0:
64,192,39266,1,0,0:0:0:0:
192,192,39266,1,0,0:0:0:0:
320,192,39328,1,0,0:0:0:0:
448,192,39389,1,0,0:0:0:0:
64,192,39451,1,0,0:0:0:0:
192,192,39451,1,0,0:0:0:0:
320,192,39512,1,0,0:0:0:0:
448,192,39512,1,0,0:0:0:0:
64,192,39573,1,0,0:0:0:0:
192,192,39573,1,0,0:0:0:0:
448,192,39635,1,0,0:0:0:0:
64,192,39696,1,0,0:0:0:0:
320,192,39696,1,0,0:0:0:0:
192,192,39758,1,0,0:0:0:0:
448,192,39758,1,0,0:0:0:0:
64,192,39819,1,0,0:0:0:0:
320,192,39819,1,0,0:0:0:0:
192,192,39881,1,0,0:0:0:0:
448,192,39942,1,0,0:0:0:0:
64,192,40003,1,0,0:0:0:0:
320,192,40003,1,0,0:0:0:0:
192,192,40065,1,0,0:0:0:0:
448,192,40126,1,0,0:0:0:0:
64,192,40188,1,0,0:0:0:0:
320,192,40188,1,0,0:0:0:0:
192,192,40249,1,0,0:0:0:0:
448,192,40249,1,0,0:0:0:0:
64,192,40311,1,0,0:0:0:0:
320,192,40311,1,0,0:0:0:0:
192,192,40372,1,0,0:0:0:0:
320,192,40433,1,0,0:0:0:0:
448,192,40433,1,0,0:0:0:0:
64,192,40495,1,0,0:0:0:0:
192,192,40495,1,0,0:0:0:0:
320,192,40556,1,0,0:0:0:0:
448,192,40556,1,0,0:0:0:0:
64,192,40618,1,0,0:0:0:0:
192,192,40679,1,0,0:0:0:0:
320,192,40740,1,0,0:0:0:0:
448,192,40740,1,0,0:0:0:0:
64,192,40802,1,0,0:0:0:0:
448,192,40863,1,0,0:0:0:0:
192,192,40925,1,0,0:0:0:0:
320,192,40925,1,0,0:0:0:0:
64,192,40986,1,0,0:0:0:0:
448,192,40986,1,0,0:0:0:0:
320,192,41048,1,0,0:0:0:0:
192,192,41048,1,0,0:0:0:0:
64,192,41109,1,0,0:0:0:0:
320,192,41170,1,0,0:0:0:0:
448,192,41170,1,0,0:0:0:0:
192,192,41232,1,0,0:0:0:0:
64,192,41232,1,0,0:0:0:0:
448,192,41293,1,0,0:0:0:0:
320,192,41293,1,0,0:0:0:0:
192,192,41355,1,0,0:0:0:0:
64,192,41416,1,0,0:0:0:0:
192,192,41478,1,0,0:0:0:0:
448,192,41478,1,0,0:0:0:0:
320,192,41539,1,0,0:0:0:0:
64,192,41600,1,0,0:0:0:0:
192,192,41662,1,0,0:0:0:0:
448,192,41662,1,0,0:0:0:0:
320,192,41723,1,0,0:0:0:0:
64,192,41723,1,0,0:0:0:0:
192,192,41785,1,0,0:0:0:0:
448,192,41846,1,0,0:0:0:0:
192,192,41907,1,0,0:0:0:0:
448,192,41969,1,0,0:0:0:0:
192,192,42030,1,0,0:0:0:0:
448,192,42092,1,0,0:0:0:0:
192,192,42153,1,0,0:0:0:0:
320,192,42215,1,0,0:0:0:0:
448,192,42215,1,0,0:0:0:0:
192,192,42276,1,0,0:0:0:0:
64,192,42337,1,0,0:0:0:0:
192,192,42399,1,0,0:0:0:0:
320,192,42399,1,0,0:0:0:0:
64,192,42460,1,0,0:0:0:0:
448,192,42460,1,0,0:0:0:0:
320,192,42522,1,0,0:0:0:0:
192,192,42522,1,0,0:0:0:0:
448,192,42583,1,0,0:0:0:0:
64,192,42645,1,0,0:0:0:0:
320,192,42645,1,0,0:0:0:0:
192,192,42706,1,0,0:0:0:0:
448,192,42706,1,0,0:0:0:0:
320,192,42767,1,0,0:0:0:0:
64,192,42767,1,0,0:0:0:0:
192,192,42829,1,0,0:0:0:0:
448,192,42890,1,0,0:0:0:0:
64,192,42952,1,0,0:0:0:0:
192,192,42952,1,0,0:0:0:0:
320,192,43013,1,0,0:0:0:0:
448,192,43075,1,0,0:0:0:0:
64,192,43136,1,0,0:0:0:0:
320,192,43136,1,0,0:0:0:0:
192,192,43197,1,0,0:0:0:0:
448,192,43197,1,0,0:0:0:0:
320,192,43259,1,0,0:0:0:0:
64,192,43259,1,0,0:0:0:0:
192,192,43320,1,0,0:0:0:0:
320,192,43382,1,0,0:0:0:0:
448,192,43382,1,0,0:0:0:0:
192,192,43443,1,0,0:0:0:0:
64,192,43443,1,0,0:0:0:0:
448,192,43504,1,0,0:0:0:0:
320,192,43504,1,0,0:0:0:0:
192,192,43566,1,0,0:0:0:0:
64,192,43627,1,0,0:0:0:0:
192,192,43689,1,0,0:0:0:0:
448,192,43689,1,0,0:0:0:0:
320,192,43750,1,0,0:0:0:0:
64,192,43812,1,0,0:0:0:0:
192,192,43873,1,0,0:0:0:0:
320,192,43873,1,0,0:0:0:0:
448,192,43934,1,0,0:0:0:0:
64,192,43934,1,0,0:0:0:0:
192,192,43996,1,0,0:0:0:0:
320,192,43996,1,0,0:0:0:0:
448,192,44057,1,0,0:0:0:0:
64,192,44119,1,0,0:0:0:0:
192,192,44119,1,0,0:0:0:0:
320,192,44180,1,0,0:0:0:0:
448,192,44180,1,0,0:0:0:0:
192,192,44242,1,0,0:0:0:0:
64,192,44242,1,0,0:0:0:0:
448,192,44303,1,0,0:0:0:0:
320,192,44364,1,0,0:0:0:0:
192,192,44426,1,0,0:0:0:0:
64,192,44426,1,0,0:0:0:0:
320,192,44487,1,0,0:0:0:0:
448,192,44487,1,0,0:0:0:0:
192,192,44549,1,0,0:0:0:0:
64,192,44549,1,0,0:0:0:0:
320,192,44610,1,0,0:0:0:0:
448,192,44610,1,0,0:0:0:0:
64,192,44671,1,0,0:0:0:0:
192,192,44733,1,0,0:0:0:0:
320,192,44733,1,0,0:0:0:0:
448,192,44794,1,0,0:0:0:0:
64,192,44794,1,0,0:0:0:0:
192,192,44856,1,0,0:0:0:0:
320,192,44856,1,0,0:0:0:0:
448,192,44917,1,0,0:0:0:0:
64,192,44917,1,0,0:0:0:0:
320,192,44979,1,0,0:0:0:0:
192,192,45040,1,0,0:0:0:0:
320,192,45101,1,0,0:0:0:0:
64,192,45163,1,0,0:0:0:0:
192,192,45163,1,0,0:0:0:0:
448,192,45224,1,0,0:0:0:0:
320,192,45286,1,0,0:0:0:0:
64,192,45347,1,0,0:0:0:0:
192,192,45347,1,0,0:0:0:0:
320,192,45409,1,0,0:0:0:0:
448,192,45409,1,0,0:0:0:0:
192,192,45470,1,0,0:0:0:0:
64,192,45470,1,0,0:0:0:0:
320,192,45531,1,0,0:0:0:0:
192,192,45593,1,0,0:0:0:0:
448,192,45593,1,0,0:0:0:0:
64,192,45654,1,0,0:0:0:0:
320,192,45654,1,0,0:0:0:0:
192,192,45716,1,0,0:0:0:0:
448,192,45716,1,0,0:0:0:0:
64,192,45777,1,0,0:0:0:0:
320,192,45838,1,0,0:0:0:0:
192,192,45900,1,0,0:0:0:0:
448,192,45900,1,0,0:0:0:0:
64,192,45961,1,0,0:0:0:0:
320,192,46023,1,0,0:0:0:0:
64,192,46084,1,0,0:0:0:0:
192,192,46084,1,0,0:0:0:0:
320,192,46146,1,0,0:0:0:0:
448,192,46146,1,0,0:0:0:0:
192,192,46207,1,0,0:0:0:0:
64,192,46207,1,0,0:0:0:0:
448,192,46268,1,0,0:0:0:0:
192,192,46330,1,0,0:0:0:0:
320,192,46330,1,0,0:0:0:0:
64,192,46391,1,0,0:0:0:0:
448,192,46391,1,0,0:0:0:0:
320,192,46453,1,0,0:0:0:0:
192,192,46453,1,0,0:0:0:0:
64,192,46514,1,0,0:0:0:0:
448,192,46576,1,0,0:0:0:0:
64,192,46637,1,0,0:0:0:0:
192,192,46637,1,0,0:0:0:0:
320,192,46698,1,0,0:0:0:0:
448,192,46760,1,0,0:0:0:0:
64,192,46821,1,0,0:0:0:0:
320,192,46821,1,0,0:0:0:0:
192,192,46883,1,0,0:0:0:0:
448,192,46883,1,0,0:0:0:0:
320,192,46944,1,0,0:0:0:0:
64,192,46944,1,0,0:0:0:0:
192,192,47005,1,0,0:0:0:0:
448,192,47067,1,0,0:0:0:0:
320,192,47067,1,0,0:0:0:0:
64,192,47128,1,0,0:0:0:0:
192,192,47128,1,0,0:0:0:0:
320,192,47190,1,0,0:0:0:0:
448,192,47190,1,0,0:0:0:0:
64,192,47251,1,0,0:0:0:0:
192,192,47313,1,0,0:0:0:0:
64,192,47374,1,0,0:0:0:0:
448,192,47374,1,0,0:0:0:0:
320,192,47435,1,0,0:0:0:0:
192,192,47497,1,0,0:0:0:0:
320,192,47558,1,0,0:0:0:0:
448,192,47558,1,0,0:0:0:0:
192,192,47620,1,0,0:0:0:0:
64,192,47620,1,0,0:0:0:0:
320,192,47681,1,0,0:0:0:0:
64,192,47743,1,0,0:0:0:0:
320,192,47804,1,0,0:0:0:0:
64,192,47865,1,0,0:0:0:0:
320,192,47927,1,0,0:0:0:0:
64,192,47988,1,0,0:0:0:0:
320,192,48050,1,0,0:0:0:0:
192,192,48111,1,0,0:0:0:0:
64,192,48111,1,0,0:0:0:0:
448,192,48172,1,0,0:0:0:0:
320,192,48234,1,0,0:0:0:0:
64,192,48295,1,0,0:0:0:0:
192,192,48295,1,0,0:0:0:0:
320,192,48357,1,0,0:0:0:0:
448,192,48357,1,0,0:0:0:0:
192,192,48418,1,0,0:0:0:0:
64,192,48418,1,0,0:0:0:0:
448,192,48480,1,0,0:0:0:0:
192,192,48541,1,0,0:0:0:0:
320,192,48541,1,0,0:0:0:0:
64,192,48602,1,0,0:0:0:0:
448,192,48602,1,0,0:0:0:0:
320,192,48664,1,0,0:0:0:0:
192,192,48664,1,0,0:0:0:0:
64,192,48725,1,0,0:0:0:0:
320,192,48787,1,0,0:0:0:0:
192,192,48848,1,0,0:0:0:0:
64,192,48848,1,0,0:0:0:0:
448,192,48910,1,0,0:0:0:0:
320,192,48971,1,0,0:0:0:0:
448,192,49032,1,0,0:0:0:0:
192,192,49032,1,0,0:0:0:0:
320,192,49094,1,0,0:0:0:0:
64,192,49094,1,0,0:0:0:0:
192,192,49155,1,0,0:0:0:0:
448,192,49155,1,0,0:0:0:0:
64,192,49217,1,0,0:0:0:0:
320,192,49278,1,0,0:0:0:0:
448,192,49278,1,0,0:0:0:0:
192,192,49339,1,0,0:0:0:0:
64,192,49339,1,0,0:0:0:0:
320,192,49401,1,0,0:0:0:0:
448,192,49401,1,0,0:0:0:0:
64,192,49462,1,0,0:0:0:0:
192,192,49524,1,0,0:0:0:0:
64,192,49585,1,0,0:0:0:0:
320,192,49585,1,0,0:0:0:0:
192,192,49647,1,0,0:0:0:0:
448,192,49708,1,0,0:0:0:0:
192,192,49769,1,0,0:0:0:0:
64,192,49769,1,0,0:0:0:0:
320,192,49831,1,0,0:0:0:0:
448,192,49831,1,0,0:0:0:0:
192,192,49892,1,0,0:0:0:0:
64,192,49892,1,0,0:0:0:0:
448,192,49954,1,0,0:0:0:0:
192,192,50015,1,0,0:0:0:0:
320,192,50015,1,0,0:0:0:0:
64,192,50077,1,0,0:0:0:0:
448,192,50077,1,0,0:0:0:0:
320,192,50138,1,0,0:0:0:0:
192,192,50138,1,0,0:0:0:0:
64,192,50199,1,0,0:0:0:0:
448,192,50261,1,0,0:0:0:0:
64,192,50322,1,0,0:0:0:0:
192,192,50322,1,0,0:0:0:0:
320,192,50384,1,0,0:0:0:0:
448,192,50384,1,0,0:0:0:0:
64,192,50445,1,0,0:0:0:0:
192,192,50445,1,0,0:0:0:0:
320,192,50506,1,0,0:0:0:0:
448,192,50506,1,0,0:0:0:0:
64,192,50568,1,0,0:0:0:0:
320,192,50629,1,0,0:0:0:0:
192,192,50629,1,0,0:0:0:0:
448,192,50691,1,0,0:0:0:0:
64,192,50691,1,0,0:0:0:0:
320,192,50752,1,0,0:0:0:0:
192,192,50752,1,0,0:0:0:0:
64,192,50814,1,0,0:0:0:0:
448,192,50814,1,0,0:0:0:0:
320,192,50875,1,0,0:0:0:0:
192,192,50936,1,0,0:0:0:0:
64,192,50998,1,0,0:0:0:0:
320,192,51059,1,0,0:0:0:0:
448,192,51059,1,0,0:0:0:0:
64,192,51244,1,0,0:0:0:0:
320,192,51244,1,0,0:0:0:0:
192,192,51428,1,0,0:0:0:0:
448,192,51428,1,0,0:0:0:0:
192,192,51612,1,0,0:0:0:0:
64,192,51612,1,0,0:0:0:0:
320,192,51704,1,0,0:0:0:0:
64,192,51796,1,0,0:0:0:0:
448,192,51796,1,0,0:0:0:0:
192,192,51888,1,0,0:0:0:0:
320,192,51981,1,0,0:0:0:0:
448,192,51981,1,0,0:0:0:0:
64,192,52165,1,0,0:0:0:0:
320,192,52165,1,0,0:0:0:0:
192,192,52257,1,0,0:0:0:0:
448,192,52349,1,0,0:0:0:0:
64,192,52533,1,0,0:0:0:0:
192,192,52533,1,0,0:0:0:0:
192,192,52718,1,0,0:0:0:0:
448,192,52718,1,0,0:0:0:0:
64,192,52902,1,0,0:0:0:0:
320,192,52902,1,0,0:0:0:0:
192,192,53086,1,0,0:0:0:0:
320,192,53086,1,0,0:0:0:0:
448,192,53178,1,0,0:0:0:0:
64,192,53270,1,0,0:0:0:0:
320,192,53270,1,0,0:0:0:0:
192,192,53363,1,0,0:0:0:0:
448,192,53455,1,0,0:0:0:0:
64,192,53455,1,0,0:0:0:0:
192,192,53639,1,0,0:0:0:0:
320,192,53639,1,0,0:0:0:0:
64,192,53731,1,0,0:0:0:0:
192,192,53823,1,0,0:0:0:0:
448,192,53823,1,0,0:0:0:0:
192,192,54007,1,0,0:0:0:0:
448,192,54007,1,0,0:0:0:0:
320,192,54100,1,0,0:0:0:0:
192,192,54192,1,0,0:0:0:0:
64,192,54192,1,0,0:0:0:0:
192,192,54376,1,0,0:0:0:0:
448,192,54376,1,0,0:0:0:0:
64,192,54560,1,0,0:0:0:0:
320,192,54560,1,0,0:0:0:0:
192,192,54652,1,0,0:0:0:0:
448,192,54745,1,0,0:0:0:0:
320,192,54745,1,0,0:0:0:0:
64,192,54837,1,0,0:0:0:0:
192,192,54929,1,0,0:0:0:0:
448,192,54929,1,0,0:0:0:0:
64,192,55113,1,0,0:0:0:0:
448,192,55113,1,0,0:0:0:0:
320,192,55205,1,0,0:0:0:0:
192,192,55297,1,0,0:0:0:0:
192,192,55482,1,0,0:0:0:0:
64,192,55482,1,0,0:0:0:0:
192,192,55666,1,0,0:0:0:0:
448,192,55666,1,0,0:0:0:0:
192,192,55850,1,0,0:0:0:0:
320,192,55850,1,0,0:0:0:0:
192,192,56034,1,0,0:0:0:0:
448,192,56034,1,0,0:0:0:0:
64,192,56127,1,0,0:0:0:0:
320,192,56127,1,0,0:0:0:0:
448,192,56219,1,0,0:0:0:0:
192,192,56219,1,0,0:0:0:0:
320,192,56311,1,0,0:0:0:0:
192,192,56403,1,0,0:0:0:0:
64,192,56403,1,0,0:0:0:0:
320,192,56495,1,0,0:0:0:0:
448,192,56495,1,0,0:0:0:0:
64,192,56587,1,0,0:0:0:0:
192,192,56679,1,0,0:0:0:0:
320,192,56679,1,0,0:0:0:0:
64,192,56771,1,0,0:0:0:0:
448,192,56771,1,0,0:0:0:0:
192,192,56956,1,0,0:0:0:0:
448,192,56956,1,0,0:0:0:0:
320,192,56956,1,0,0:0:0:0:
64,192,57140,1,0,0:0:0:0:
320,192,57140,1,0,0:0:0:0:
64,192,57324,1,0,0:0:0:0:
448,192,57324,1,0,0:0:0:0:
320,192,57509,1,0,0:0:0:0:
448,192,57509,1,0,0:0:0:0:
192,192,57601,1,0,0:0:0:0:
64,192,57693,1,0,0:0:0:0:
192,192,57877,1,0,0:0:0:0:
448,192,57877,1,0,0:0:0:0:
192,192,58061,1,0,0:0:0:0:
320,192,58061,1,0,0:0:0:0:
448,192,58153,1,0,0:0:0:0:
320,192,58246,1,0,0:0:0:0:
64,192,58430,1,0,0:0:0:0:
192,192,58430,1,0,0:0:0:0:
192,192,58614,1,0,0:0:0:0:
448,192,58614,1,0,0:0:0:0:
192,192,58798,1,0,0:0:0:0:
320,192,58798,1,0,0:0:0:0:
64,192,58983,1,0,0:0:0:0:
320,192,58983,1,0,0:0:0:0:
192,192,59075,1,0,0:0:0:0:
448,192,59167,1,0,0:0:0:0:
64,192,59167,1,0,0:0:0:0:
320,192,59259,1,0,0:0:0:0:
64,192,59351,1,0,0:0:0:0:
320,192,59535,1,0,0:0:0:0:
448,192,59535,1,0,0:0:0:0:
64,192,59628,1,0,0:0:0:0:
192,192,59720,1,0,0:0:0:0:
320,192,59720,1,0,0:0:0:0:
192,192,59904,1,0,0:0:0:0:
64,192,59904,1,0,0:0:0:0:
192,192,60088,1,0,0:0:0:0:
448,192,60088,1,0,0:0:0:0:
320,192,60272,1,0,0:0:0:0:
448,192,60272,1,0,0:0:0:0:
64,192,60457,1,0,0:0:0:0:
320,192,60457,1,0,0:0:0:0:
192,192,60549,1,0,0:0:0:0:
448,192,60641,1,0,0:0:0:0:
192,192,60825,1,0,0:0:0:0:
320,192,60825,1,0,0:0:0:0:
64,192,61010,1,0,0:0:0:0:
448,192,61010,1,0,0:0:0:0:
192,192,61378,1,0,0:0:0:0:
320,192,61378,1,0,0:0:0:0:
448,192,61378,1,0,0:0:0:0:
320,192,61562,1,0,0:0:0:0:
448,192,61562,1,0,0:0:0:0:
64,192,61747,1,0,0:0:0:0:
448,192,61747,1,0,0:0:0:0:
192,192,61931,1,0,0:0:0:0:
64,192,61931,1,0,0:0:0:0:
192,192,62115,1,0,0:0:0:0:
448,192,62115,1,0,0:0:0:0:
64,192,62299,1,0,0:0:0:0:
320,192,62299,1,0,0:0:0:0:
320,192,62484,1,0,0:0:0:0:
448,192,62484,1,0,0:0:0:0:
192,192,62852,1,0,0:0:0:0:
448,192,62852,1,0,0:0:0:0:
320,192,62914,1,0,0:0:0:0:
64,192,62975,1,0,0:0:0:0:
320,192,63036,1,0,0:0:0:0:
448,192,63098,1,0,0:0:0:0:
192,192,63159,1,0,0:0:0:0:
64,192,63221,1,0,0:0:0:0:
320,192,63221,1,0,0:0:0:0:
448,192,63282,1,0,0:0:0:0:
320,192,63344,1,0,0:0:0:0:
192,192,63405,1,0,0:0:0:0:
448,192,63466,1,0,0:0:0:0:
64,192,63528,1,0,0:0:0:0:
320,192,63589,1,0,0:0:0:0:
448,192,63589,1,0,0:0:0:0:
192,192,63651,1,0,0:0:0:0:
64,192,63712,1,0,0:0:0:0:
192,192,63773,1,0,0:0:0:0:
448,192,63773,1,0,0:0:0:0:
320,192,63835,1,0,0:0:0:0:
448,192,63896,1,0,0:0:0:0:
64,192,63958,1,0,0:0:0:0:
192,192,63958,1,0,0:0:0:0:
320,192,64019,1,0,0:0:0:0:
448,192,64081,1,0,0:0:0:0:
192,192,64142,1,0,0:0:0:0:
320,192,64203,1,0,0:0:0:0:
64,192,64265,1,0,0:0:0:0:
320,192,64326,1,0,0:0:0:0:
448,192,64326,1,0,0:0:0:0:
192,192,64388,1,0,0:0:0:0:
64,192,64449,1,0,0:0:0:0:
192,192,64511,1,0,0:0:0:0:
448,192,64511,1,0,0:0:0:0:
320,192,64572,1,0,0:0:0:0:
448,192,64633,1,0,0:0:0:0:
320,192,64695,1,0,0:0:0:0:
192,192,64695,1,0,0:0:0:0:
64,192,64756,1,0,0:0:0:0:
320,192,64818,1,0,0:0:0:0:
448,192,64879,1,0,0:0:0:0:
64,192,64940,1,0,0:0:0:0:
320,192,65002,1,0,0:0:0:0:
192,192,65063,1,0,0:0:0:0:
448,192,65063,1,0,0:0:0:0:
64,192,65125,1,0,0:0:0:0:
320,192,65186,1,0,0:0:0:0:
192,192,65248,1,0,0:0:0:0:
64,192,65248,1,0,0:0:0:0:
320,192,65309,1,0,0:0:0:0:
448,192,65370,1,0,0:0:0:0:
64,192,65432,1,0,0:0:0:0:
320,192,65432,1,0,0:0:0:0:
192,192,65493,1,0,0:0:0:0:
448,192,65555,1,0,0:0:0:0:
320,192,65616,1,0,0:0:0:0:
64,192,65678,1,0,0:0:0:0:
448,192,65739,1,0,0:0:0:0:
192,192,65800,1,0,0:0:0:0:
320,192,65800,1,0,0:0:0:0:
64,192,65862,1,0,0:0:0:0:
320,192,65923,1,0,0:0:0:0:
192,192,65985,1,0,0:0:0:0:
448,192,65985,1,0,0:0:0:0:
64,192,66046,1,0,0:0:0:0:
192,192,66107,1,0,0:0:0:0:
320,192,66169,1,0,0:0:0:0:
448,192,66169,1,0,0:0:0:0:
64,192,66230,1,0,0:0:0:0:
192,192,66292,1,0,0:0:0:0:
320,192,66353,1,0,0:0:0:0:
448,192,66415,1,0,0:0:0:0:
192,192,66476,1,0,0:0:0:0:
320,192,66537,1,0,0:0:0:0:
448,192,66537,1,0,0:0:0:0:
64,192,66599,1,0,0:0:0:0:
192,192,66660,1,0,0:0:0:0:
64,192,66722,1,0,0:0:0:0:
448,192,66722,1,0,0:0:0:0:
320,192,66783,1,0,0:0:0:0:
192,192,66845,1,0,0:0:0:0:
320,192,66906,1,0,0:0:0:0:
448,192,66906,1,0,0:0:0:0:
192,192,66967,1,0,0:0:0:0:
64,192,67029,1,0,0:0:0:0:
320,192,67090,1,0,0:0:0:0:
192,192,67152,1,0,0:0:0:0:
448,192,67213,1,0,0:0:0:0:
192,192,67274,1,0,0:0:0:0:
64,192,67274,1,0,0:0:0:0:
320,192,67336,1,0,0:0:0:0:
448,192,67397,1,0,0:0:0:0:
64,192,67459,1,0,0:0:0:0:
320,192,67459,1,0,0:0:0:0:
192,192,67520,1,0,0:0:0:0:
320,192,67582,1,0,0:0:0:0:
64,192,67643,1,0,0:0:0:0:
192,192,67643,1,0,0:0:0:0:
448,192,67704,1,0,0:0:0:0:
320,192,67766,1,0,0:0:0:0:
192,192,67827,1,0,0:0:0:0:
448,192,67827,1,0,0:0:0:0:
64,192,67889,1,0,0:0:0:0:
320,192,67950,1,0,0:0:0:0:
64,192,68012,1,0,0:0:0:0:
448,192,68012,1,0,0:0:0:0:
192,192,68073,1,0,0:0:0:0:
448,192,68134,1,0,0:0:0:0:
192,192,68196,1,0,0:0:0:0:
320,192,68196,1,0,0:0:0:0:
64,192,68257,1,0,0:0:0:0:
320,192,68319,1,0,0:0:0:0:
192,192,68380,1,0,0:0:0:0:
448,192,68380,1,0,0:0:0:0:
64,192,68441,1,0,0:0:0:0:
192,192,68503,1,0,0:0:0:0:
320,192,68564,1,0,0:0:0:0:
448,192,68626,1,0,0:0:0:0:
192,192,68687,1,0,0:0:0:0:
64,192,68749,1,0,0:0:0:0:
320,192,68749,1,0,0:0:0:0:
192,192,68810,1,0,0:0:0:0:
448,192,68871,1,0,0:0:0:0:
192,192,68933,1,0,0:0:0:0:
64,192,68994,1,0,0:0:0:0:
320,192,69056,1,0,0:0:0:0:
192,192,69117,1,0,0:0:0:0:
448,192,69117,1,0,0:0:0:0:
64,192,69179,1,0,0:0:0:0:
192,192,69240,1,0,0:0:0:0:
320,192,69301,1,0,0:0:0:0:
64,192,69363,1,0,0:0:0:0:
448,192,69424,1,0,0:0:0:0:
64,192,69486,1,0,0:0:0:0:
192,192,69486,1,0,0:0:0:0:
320,192,69547,1,0,0:0:0:0:
448,192,69609,1,0,0:0:0:0:
64,192,69670,1,0,0:0:0:0:
320,192,69670,1,0,0:0:0:0:
192,192,69731,1,0,0:0:0:0:
64,192,69793,1,0,0:0:0:0:
320,192,69854,1,0,0:0:0:0:
448,192,69854,1,0,0:0:0:0:
192,192,69916,1,0,0:0:0:0:
64,192,69977,1,0,0:0:0:0:
320,192,70038,1,0,0:0:0:0:
192,192,70100,1,0,0:0:0:0:
448,192,70161,1,0,0:0:0:0:
64,192,70223,1,0,0:0:0:0:
192,192,70223,1,0,0:0:0:0:
320,192,70284,1,0,0:0:0:0:
448,192,70346,1,0,0:0:0:0:
64,192,70407,1,0,0:0:0:0:
320,192,70407,1,0,0:0:0:0:
192,192,70468,1,0,0:0:0:0:
448,192,70530,1,0,0:0:0:0:
192,192,70591,1,0,0:0:0:0:
320,192,70591,1,0,0:0:0:0:
448,192,70653,1,0,0:0:0:0:
64,192,70714,1,0,0:0:0:0:
192,192,70776,1,0,0:0:0:0:
448,192,70776,1,0,0:0:0:0:
320,192,70837,1,0,0:0:0:0:
448,192,70898,1,0,0:0:0:0:
64,192,70960,1,0,0:0:0:0:
192,192,70960,1,0,0:0:0:0:
320,192,71021,1,0,0:0:0:0:
448,192,71083,1,0,0:0:0:0:
64,192,71144,1,0,0:0:0:0:
320,192,71144,1,0,0:0:0:0:
192,192,71205,1,0,0:0:0:0:
448,192,71267,1,0,0:0:0:0:
192,192,71328,1,0,0:0:0:0:
320,192,71328,1,0,0:0:0:0:
64,192,71390,1,0,0:0:0:0:
320,192,71451,1,0,0:0:0:0:
192,192,71513,1,0,0:0:0:0:
448,192,71574,1,0,0:0:0:0:
320,192,71635,1,0,0:0:0:0:
192,192,71697,1,0,0:0:0:0:
64,192,71697,1,0,0:0:0:0:
448,192,71758,1,0,0:0:0:0:
192,192,71820,1,0,0:0:0:0:
64,192,71881,1,0,0:0:0:0:
320,192,71881,1,0,0:0:0:0:
448,192,71943,1,0,0:0:0:0:
192,192,72004,1,0,0:0:0:0:
320,192,72065,1,0,0:0:0:0:
448,192,72065,1,0,0:0:0:0:
64,192,72127,1,0,0:0:0:0:
192,192,72188,1,0,0:0:0:0:
64,192,72250,1,0,0:0:0:0:
448,192,72250,1,0,0:0:0:0:
320,192,72311,1,0,0:0:0:0:
192,192,72372,1,0,0:0:0:0:
320,192,72434,1,0,0:0:0:0:
448,192,72434,1,0,0:0:0:0:
64,192,72495,1,0,0:0:0:0:
192,192,72557,1,0,0:0:0:0:
64,192,72618,1,0,0:0:0:0:
320,192,72618,1,0,0:0:0:0:
448,192,72680,1,0,0:0:0:0:
192,192,72741,1,0,0:0:0:0:
320,192,72802,1,0,0:0:0:0:
448,192,72802,1,0,0:0:0:0:
64,192,72864,1,0,0:0:0:0:
192,192,72925,1,0,0:0:0:0:
64,192,72987,1,0,0:0:0:0:
448,192,72987,1,0,0:0:0:0:
320,192,73048,1,0,0:0:0:0:
192,192,73110,1,0,0:0:0:0:
320,192,73171,1,0,0:0:0:0:
448,192,73232,1,0,0:0:0:0:
64,192,73294,1,0,0:0:0:0:
320,192,73355,1,0,0:0:0:0:
192,192,73417,1,0,0:0:0:0:
448,192,73478,1,0,0:0:0:0:
192,192,73539,1,0,0:0:0:0:
320,192,73539,1,0,0:0:0:0:
64,192,73601,1,0,0:0:0:0:
192,192,73662,1,0,0:0:0:0:
320,192,73724,1,0,0:0:0:0:
448,192,73724,1,0,0:0:0:0:
192,192,73908,1,0,0:0:0:0:
448,192,73908,1,0,0:0:0:0:
64,192,74092,1,0,0:0:0:0:
192,192,74092,1,0,0:0:0:0:
192,192,74277,1,0,0:0:0:0:
320,192,74277,1,0,0:0:0:0:
64,192,74645,1,0,0:0:0:0:
192,192,74645,1,0,0:0:0:0:
64,192,75014,1,0,0:0:0:0:
320,192,75198,1,0,0:0:0:0:
64,192,75382,1,0,0:0:0:0:
192,192,75382,1,0,0:0:0:0:
448,192,75566,1,0,0:0:0:0:
64,192,75751,1,0,0:0:0:0:
320,192,75751,1,0,0:0:0:0:
64,192,76119,1,0,0:0:0:0:
192,192,76119,1,0,0:0:0:0:
64,192,76488,1,0,0:0:0:0:
320,192,76672,1,0,0:0:0:0:
64,192,76856,1,0,0:0:0:0:
192,192,76856,1,0,0:0:0:0:
448,192,77040,1,0,0:0:0:0:
64,192,77225,1,0,0:0:0:0:
320,192,77225,1,0,0:0:0:0:
64,192,77593,1,0,0:0:0:0:
448,192,77593,1,0,0:0:0:0:
64,192,77962,1,0,0:0:0:0:
320,192,77962,1,0,0:0:0:0:
448,192,78146,1,0,0:0:0:0:
64,192,78330,1,0,0:0:0:0:
64,192,78699,1,0,0:0:0:0:
320,192,78883,1,0,0:0:0:0:
64,192,79067,1,0,0:0:0:0:
448,192,79067,1,0,0:0:0:0:
448,192,79252,1,0,0:0:0:0:
64,192,79436,1,0,0:0:0:0:
192,192,79436,1,0,0:0:0:0:
320,192,79620,1,0,0:0:0:0:
64,192,79804,1,0,0:0:0:0:
448,192,79804,1,0,0:0:0:0:
320,192,79989,1,0,0:0:0:0:
64,192,80173,1,0,0:0:0:0:
192,192,80173,1,0,0:0:0:0:
64,192,80357,1,0,0:0:0:0:
320,192,80357,1,0,0:0:0:0:
448,192,80357,1,0,0:0:0:0:
64,192,80541,1,0,0:0:0:0:
448,192,80541,1,0,0:0:0:0:
320,192,80541,1,0,0:0:0:0:
64,192,80910,1,0,0:0:0:0:
320,192,81094,1,0,0:0:0:0:
64,192,81279,1,0,0:0:0:0:
448,192,81279,1,0,0:0:0:0:
64,192,81647,1,0,0:0:0:0:
320,192,81831,1,0,0:0:0:0:
64,192,82016,1,0,0:0:0:0:
448,192,82016,1,0,0:0:0:0:
64,192,82384,1,0,0:0:0:0:
192,192,82568,1,0,0:0:0:0:
64,192,82753,1,0,0:0:0:0:
320,192,82753,1,0,0:0:0:0:
448,192,82937,1,0,0:0:0:0:
64,192,83121,1,0,0:0:0:0:
448,192,83121,1,0,0:0:0:0:
448,192,83305,1,0,0:0:0:0:
192,192,83305,1,0,0:0:0:0:
64,192,83490,1,0,0:0:0:0:
448,192,83490,1,0,0:0:0:0:
320,192,83490,1,0,0:0:0:0:
64,192,83858,1,0,0:0:0:0:
448,192,84043,1,0,0:0:0:0:
192,192,84043,1,0,0:0:0:0:
64,192,84227,1,0,0:0:0:0:
448,192,84227,1,0,0:0:0:0:
320,192,84227,1,0,0:0:0:0:
64,192,84595,1,0,0:0:0:0:
64,192,84964,1,0,0:0:0:0:
448,192,84964,1,0,0:0:0:0:
64,192,85517,1,0,0:0:0:0:
320,192,85517,1,0,0:0:0:0:
448,192,85701,1,0,0:0:0:0:
64,192,85701,1,0,0:0:0:0:
64,192,86069,1,0,0:0:0:0:
448,192,86069,1,0,0:0:0:0:
320,192,86438,1,0,0:0:0:0:
448,192,86438,1,0,0:0:0:0:
192,192,86484,1,0,0:0:0:0:
64,192,86530,1,0,0:0:0:0:
320,192,86576,1,0,0:0:0:0:
192,192,86622,1,0,0:0:0:0:
448,192,86668,1,0,0:0:0:0:
64,192,86714,1,0,0:0:0:0:
192,192,86760,1,0,0:0:0:0:
320,192,86806,1,0,0:0:0:0:
448,192,86806,1,0,0:0:0:0:
64,192,86853,1,0,0:0:0:0:
192,192,86899,1,0,0:0:0:0:
320,192,86945,1,0,0:0:0:0:
448,192,86991,1,0,0:0:0:0:
192,192,87037,1,0,0:0:0:0:
64,192,87083,1,0,0:0:0:0:
320,192,87129,1,0,0:0:0:0:
192,192,87175,1,0,0:0:0:0:
64,192,87221,1,0,0:0:0:0:
448,192,87267,1,0,0:0:0:0:
320,192,87313,1,0,0:0:0:0:
64,192,87359,1,0,0:0:0:0:
448,192,87405,1,0,0:0:0:0:
192,192,87451,1,0,0:0:0:0:
320,192,87497,1,0,0:0:0:0:
448,192,87544,1,0,0:0:0:0:
64,192,87590,1,0,0:0:0:0:
192,192,87636,1,0,0:0:0:0:
320,192,87682,1,0,0:0:0:0:
448,192,87728,1,0,0:0:0:0:
192,192,87774,1,0,0:0:0:0:
64,192,87820,1,0,0:0:0:0:
448,192,87866,1,0,0:0:0:0:
192,192,87912,1,0,0:0:0:0:
320,192,87958,1,0,0:0:0:0:
448,192,88004,1,0,0:0:0:0:
64,192,88050,1,0,0:0:0:0:
192,192,88096,1,0,0:0:0:0:
448,192,88142,1,0,0:0:0:0:
192,192,88188,1,0,0:0:0:0:
320,192,88235,1,0,0:0:0:0:
64,192,88281,1,0,0:0:0:0:
448,192,88327,1,0,0:0:0:0:
64,192,88373,1,0,0:0:0:0:
192,192,88419,1,0,0:0:0:0:
448,192,88465,1,0,0:0:0:0:
320,192,88511,1,0,0:0:0:0:
448,192,88557,1,0,0:0:0:0:
64,192,88603,1,0,0:0:0:0:
192,192,88649,1,0,0:0:0:0:
320,192,88695,1,0,0:0:0:0:
448,192,88741,1,0,0:0:0:0:
64,192,88787,1,0,0:0:0:0:
320,192,88833,1,0,0:0:0:0:
192,192,88879,1,0,0:0:0:0:
64,192,88925,1,0,0:0:0:0:
448,192,88972,1,0,0:0:0:0:
192,192,89018,1,0,0:0:0:0:
64,192,89064,1,0,0:0:0:0:
448,192,89110,1,0,0:0:0:0:
320,192,89156,1,0,0:0:0:0:
192,192,89202,1,0,0:0:0:0:
64,192,89248,1,0,0:0:0:0:
320,192,89294,1,0,0:0:0:0:
448,192,89340,1,0,0:0:0:0:
64,192,89386,1,0,0:0:0:0:
192,192,89432,1,0,0:0:0:0:
320,192,89478,1,0,0:0:0:0:
448,192,89524,1,0,0:0:0:0:
64,192,89570,1,0,0:0:0:0:
192,192,89616,1,0,0:0:0:0:
320,192,89663,1,0,0:0:0:0:
448,192,89709,1,0,0:0:0:0:
64,192,89755,1,0,0:0:0:0:
192,192,89801,1,0,0:0:0:0:
448,192,89847,1,0,0:0:0:0:
64,192,89893,1,0,0:0:0:0:
320,192,89939,1,0,0:0:0:0:
448,192,89985,1,0,0:0:0:0:
192,192,90031,1,0,0:0:0:0:
320,192,90077,1,0,0:0:0:0:
448,192,90123,1,0,0:0:0:0:
64,192,90169,1,0,0:0:0:0:
320,192,90215,1,0,0:0:0:0:
192,192,90261,1,0,0:0:0:0:
64,192,90307,1,0,0:0:0:0:
320,192,90354,1,0,0:0:0:0:
192,192,90400,1,0,0:0:0:0:
448,192,90446,1,0,0:0:0:0:
320,192,90492,1,0,0:0:0:0:
192,192,90538,1,0,0:0:0:0:
64,192,90584,1,0,0:0:0:0:
448,192,90630,1,0,0:0:0:0:
192,192,90676,1,0,0:0:0:0:
320,192,90722,1,0,0:0:0:0:
448,192,90768,1,0,0:0:0:0:
64,192,90814,1,0,0:0:0:0:
192,192,90860,1,0,0:0:0:0:
320,192,90906,1,0,0:0:0:0:
448,192,90952,1,0,0:0:0:0:
64,192,90998,1,0,0:0:0:0:
192,192,91045,1,0,0:0:0:0:
448,192,91091,1,0,0:0:0:0:
192,192,91137,1,0,0:0:0:0:
64,192,91183,1,0,0:0:0:0:
448,192,91229,1,0,0:0:0:0:
320,192,91275,1,0,0:0:0:0:
64,192,91321,1,0,0:0:0:0:
192,192,91367,1,0,0:0:0:0:
64,192,91413,1,0,0:0:0:0:
448,192,91459,1,0,0:0:0:0:
192,192,91505,1,0,0:0:0:0:
64,192,91551,1,0,0:0:0:0:
448,192,91597,1,0,0:0:0:0:
320,192,91643,1,0,0:0:0:0:
192,192,91689,1,0,0:0:0:0:
64,192,91736,1,0,0:0:0:0:
320,192,91782,1,0,0:0:0:0:
192,192,91828,1,0,0:0:0:0:
64,192,91874,1,0,0:0:0:0:
448,192,91920,1,0,0:0:0:0:
192,192,91966,1,0,0:0:0:0:
320,192,92012,1,0,0:0:0:0:
448,192,92058,1,0,0:0:0:0:
64,192,92104,1,0,0:0:0:0:
192,192,92150,1,0,0:0:0:0:
320,192,92196,1,0,0:0:0:0:
448,192,92242,1,0,0:0:0:0:
64,192,92288,1,0,0:0:0:0:
320,192,92334,1,0,0:0:0:0:
192,192,92380,1,0,0:0:0:0:
64,192,92427,1,0,0:0:0:0:
448,192,92473,1,0,0:0:0:0:
192,192,92519,1,0,0:0:0:0:
64,192,92565,1,0,0:0:0:0:
448,192,92611,1,0,0:0:0:0:
320,192,92657,1,0,0:0:0:0:
192,192,92703,1,0,0:0:0:0:
64,192,92749,1,0,0:0:0:0:
448,192,92795,1,0,0:0:0:0:
320,192,92841,1,0,0:0:0:0:
192,192,92887,1,0,0:0:0:0:
448,192,92933,1,0,0:0:0:0:
64,192,92979,1,0,0:0:0:0:
192,192,93025,1,0,0:0:0:0:
320,192,93071,1,0,0:0:0:0:
448,192,93117,1,0,0:0:0:0:
64,192,93164,1,0,0:0:0:0:
192,192,93210,1,0,0:0:0:0:
320,192,93256,1,0,0:0:0:0:
448,192,93302,1,0,0:0:0:0:
64,192,93348,1,0,0:0:0:0:
192,192,93394,1,0,0:0:0:0:
448,192,93440,1,0,0:0:0:0:
320,192,93486,1,0,0:0:0:0:
64,192,93532,1,0,0:0:0:0:
192,192,93578,1,0,0:0:0:0:
320,192,93624,1,0,0:0:0:0:
448,192,93670,1,0,0:0:0:0:
192,192,93716,1,0,0:0:0:0:
320,192,93762,1,0,0:0:0:0:
64,192,93808,1,0,0:0:0:0:
448,192,93855,1,0,0:0:0:0:
320,192,93901,1,0,0:0:0:0:
192,192,93947,1,0,0:0:0:0:
64,192,93993,1,0,0:0:0:0:
448,192,94039,1,0,0:0:0:0:
64,192,94085,1,0,0:0:0:0:
192,192,94131,1,0,0:0:0:0:
448,192,94177,1,0,0:0:0:0:
320,192,94223,1,0,0:0:0:0:
448,192,94269,1,0,0:0:0:0:
64,192,94315,1,0,0:0:0:0:
192,192,94361,1,0,0:0:0:0:
448,192,94407,1,0,0:0:0:0:
192,192,94453,1,0,0:0:0:0:
320,192,94499,1,0,0:0:0:0:
448,192,94546,1,0,0:0:0:0:
64,192,94592,1,0,0:0:0:0:
192,192,94638,1,0,0:0:0:0:
320,192,94684,1,0,0:0:0:0:
64,192,94730,1,0,0:0:0:0:
448,192,94776,1,0,0:0:0:0:
320,192,94822,1,0,0:0:0:0:
192,192,94868,1,0,0:0:0:0:
64,192,94914,1,0,0:0:0:0:
320,192,94960,1,0,0:0:0:0:
448,192,95006,1,0,0:0:0:0:
64,192,95052,1,0,0:0:0:0:
192,192,95098,1,0,0:0:0:0:
320,192,95144,1,0,0:0:0:0:
64,192,95190,1,0,0:0:0:0:
448,192,95237,1,0,0:0:0:0:
320,192,95283,1,0,0:0:0:0:
192,192,95329,1,0,0:0:0:0:
64,192,95375,1,0,0:0:0:0:
448,192,95421,1,0,0:0:0:0:
192,192,95467,1,0,0:0:0:0:
64,192,95513,1,0,0:0:0:0:
320,192,95559,1,0,0:0:0:0:
192,192,95605,1,0,0:0:0:0:
64,192,95651,1,0,0:0:0:0:
448,192,95697,1,0,0:0:0:0:
320,192,95743,1,0,0:0:0:0:
192,192,95789,1,0,0:0:0:0:
64,192,95835,1,0,0:0:0:0:
448,192,95881,1,0,0:0:0:0:
192,192,95928,1,0,0:0:0:0:
320,192,95974,1,0,0:0:0:0:
448,192,96020,1,0,0:0:0:0:
64,192,96066,1,0,0:0:0:0:
192,192,96112,1,0,0:0:0:0:
320,192,96158,1,0,0:0:0:0:
448,192,96204,1,0,0:0:0:0:
64,192,96250,1,0,0:0:0:0:
192,192,96296,1,0,0:0:0:0:
320,192,96342,1,0,0:0:0:0:
64,192,96388,1,0,0:0:0:0:
192,192,96434,1,0,0:0:0:0:
448,192,96480,1,0,0:0:0:0:
64,192,96526,1,0,0:0:0:0:
320,192,96572,1,0,0:0:0:0:
192,192,96619,1,0,0:0:0:0:
64,192,96665,1,0,0:0:0:0:
448,192,96711,1,0,0:0:0:0:
320,192,96757,1,0,0:0:0:0:
192,192,96803,1,0,0:0:0:0:
448,192,96849,1,0,0:0:0:0:
64,192,96895,1,0,0:0:0:0:
192,192,96941,1,0,0:0:0:0:
320,192,96987,1,0,0:0:0:0:
192,192,97033,1,0,0:0:0:0:
448,192,97079,1,0,0:0:0:0:
64,192,97125,1,0,0:0:0:0:
192,192,97171,1,0,0:0:0:0:
320,192,97217,1,0,0:0:0:0:
448,192,97263,1,0,0:0:0:0:
320,192,97310,1,0,0:0:0:0:
64,192,97356,1,0,0:0:0:0:
192,192,97402,1,0,0:0:0:0:
448,192,97448,1,0,0:0:0:0:
192,192,97494,1,0,0:0:0:0:
64,192,97494,1,0,0:0:0:0:
448,192,98231,1,0,0:0:0:0:
64,192,98231,1,0,0:0:0:0:
192,192,98292,1,0,0:0:0:0:
448,192,98354,1,0,0:0:0:0:
64,192,98415,1,0,0:0:0:0:
192,192,98415,1,0,0:0:0:0:
448,192,98477,1,0,0:0:0:0:
320,192,98477,1,0,0:0:0:0:
64,192,98538,1,0,0:0:0:0:
192,192,98538,1,0,0:0:0:0:
448,192,98599,1,0,0:0:0:0:
320,192,98661,1,0,0:0:0:0:
192,192,98661,1,0,0:0:0:0:
64,192,98722,1,0,0:0:0:0:
448,192,98722,1,0,0:0:0:0:
320,192,98784,1,0,0:0:0:0:
192,192,98784,1,0,0:0:0:0:
64,192,98845,1,0,0:0:0:0:
320,192,98906,1,0,0:0:0:0:
448,192,98968,1,0,0:0:0:0:
192,192,98968,1,0,0:0:0:0:
64,192,99029,1,0,0:0:0:0:
320,192,99091,1,0,0:0:0:0:
448,192,99152,1,0,0:0:0:0:
192,192,99152,1,0,0:0:0:0:
320,192,99214,1,0,0:0:0:0:
64,192,99214,1,0,0:0:0:0:
448,192,99275,1,0,0:0:0:0:
192,192,99275,1,0,0:0:0:0:
64,192,99336,1,0,0:0:0:0:
448,192,99398,1,0,0:0:0:0:
320,192,99398,1,0,0:0:0:0:
64,192,99459,1,0,0:0:0:0:
192,192,99459,1,0,0:0:0:0:
320,192,99521,1,0,0:0:0:0:
448,192,99521,1,0,0:0:0:0:
320,192,99705,1,0,0:0:0:0:
192,192,99705,1,0,0:0:0:0:
64,192,100073,1,0,0:0:0:0:
320,192,100073,1,0,0:0:0:0:
320,192,100442,1,0,0:0:0:0:
448,192,100442,1,0,0:0:0:0:
64,192,100811,1,0,0:0:0:0:
192,192,100811,1,0,0:0:0:0:
64,192,100995,1,0,0:0:0:0:
448,192,100995,1,0,0:0:0:0:
448,192,101179,1,0,0:0:0:0:
320,192,101179,1,0,0:0:0:0:
192,192,101240,1,0,0:0:0:0:
64,192,101302,1,0,0:0:0:0:
448,192,101363,1,0,0:0:0:0:
320,192,101363,1,0,0:0:0:0:
192,192,101425,1,0,0:0:0:0:
64,192,101425,1,0,0:0:0:0:
448,192,101486,1,0,0:0:0:0:
320,192,101486,1,0,0:0:0:0:
64,192,101548,1,0,0:0:0:0:
448,192,101609,1,0,0:0:0:0:
192,192,101609,1,0,0:0:0:0:
320,192,101670,1,0,0:0:0:0:
64,192,101670,1,0,0:0:0:0:
448,192,101732,1,0,0:0:0:0:
192,192,101732,1,0,0:0:0:0:
320,192,101793,1,0,0:0:0:0:
64,192,101855,1,0,0:0:0:0:
448,192,101916,1,0,0:0:0:0:
192,192,101916,1,0,0:0:0:0:
320,192,101978,1,0,0:0:0:0:
64,192,102039,1,0,0:0:0:0:
448,192,102100,1,0,0:0:0:0:
192,192,102100,1,0,0:0:0:0:
320,192,102162,1,0,0:0:0:0:
64,192,102162,1,0,0:0:0:0:
448,192,102223,1,0,0:0:0:0:
192,192,102223,1,0,0:0:0:0:
320,192,102285,1,0,0:0:0:0:
192,192,102346,1,0,0:0:0:0:
64,192,102346,1,0,0:0:0:0:
448,192,102407,1,0,0:0:0:0:
320,192,102407,1,0,0:0:0:0:
192,192,102469,1,0,0:0:0:0:
64,192,102469,1,0,0:0:0:0:
448,192,102530,1,0,0:0:0:0:
320,192,102592,1,0,0:0:0:0:
192,192,102653,1,0,0:0:0:0:
64,192,102653,1,0,0:0:0:0:
448,192,102715,1,0,0:0:0:0:
64,192,102776,1,0,0:0:0:0:
320,192,102837,1,0,0:0:0:0:
192,192,102837,1,0,0:0:0:0:
448,192,102899,1,0,0:0:0:0:
64,192,102899,1,0,0:0:0:0:
192,192,102960,1,0,0:0:0:0:
320,192,102960,1,0,0:0:0:0:
448,192,103022,1,0,0:0:0:0:
192,192,103083,1,0,0:0:0:0:
64,192,103083,1,0,0:0:0:0:
320,192,103145,1,0,0:0:0:0:
448,192,103145,1,0,0:0:0:0:
64,192,103206,1,0,0:0:0:0:
192,192,103206,1,0,0:0:0:0:
320,192,103267,1,0,0:0:0:0:
448,192,103329,1,0,0:0:0:0:
320,192,103390,1,0,0:0:0:0:
64,192,103390,1,0,0:0:0:0:
192,192,103452,1,0,0:0:0:0:
448,192,103513,1,0,0:0:0:0:
320,192,103574,1,0,0:0:0:0:
64,192,103574,1,0,0:0:0:0:
192,192,103636,1,0,0:0:0:0:
448,192,103636,1,0,0:0:0:0:
320,192,103697,1,0,0:0:0:0:
64,192,103759,1,0,0:0:0:0:
320,192,103820,1,0,0:0:0:0:
64,192,103882,1,0,0:0:0:0:
320,192,103943,1,0,0:0:0:0:
64,192,104004,1,0,0:0:0:0:
320,192,104066,1,0,0:0:0:0:
192,192,104127,1,0,0:0:0:0:
64,192,104127,1,0,0:0:0:0:
320,192,104189,1,0,0:0:0:0:
448,192,104250,1,0,0:0:0:0:
320,192,104312,1,0,0:0:0:0:
192,192,104312,1,0,0:0:0:0:
448,192,104373,1,0,0:0:0:0:
64,192,104373,1,0,0:0:0:0:
192,192,104434,1,0,0:0:0:0:
320,192,104434,1,0,0:0:0:0:
64,192,104496,1,0,0:0:0:0:
448,192,104557,1,0,0:0:0:0:
192,192,104557,1,0,0:0:0:0:
320,192,104619,1,0,0:0:0:0:
64,192,104619,1,0,0:0:0:0:
192,192,104680,1,0,0:0:0:0:
448,192,104680,1,0,0:0:0:0:
320,192,104741,1,0,0:0:0:0:
64,192,104803,1,0,0:0:0:0:
448,192,104864,1,0,0:0:0:0:
320,192,104864,1,0,0:0:0:0:
192,192,104926,1,0,0:0:0:0:
64,192,104987,1,0,0:0:0:0:
448,192,105049,1,0,0:0:0:0:
192,192,105049,1,0,0:0:0:0:
320,192,105110,1,0,0:0:0:0:
64,192,105110,1,0,0:0:0:0:
192,192,105171,1,0,0:0:0:0:
448,192,105171,1,0,0:0:0:0:
320,192,105233,1,0,0:0:0:0:
192,192,105294,1,0,0:0:0:0:
64,192,105294,1,0,0:0:0:0:
320,192,105356,1,0,0:0:0:0:
448,192,105356,1,0,0:0:0:0:
64,192,105417,1,0,0:0:0:0:
192,192,105417,1,0,0:0:0:0:
320,192,105479,1,0,0:0:0:0:
448,192,105540,1,0,0:0:0:0:
320,192,105601,1,0,0:0:0:0:
64,192,105601,1,0,0:0:0:0:
192,192,105663,1,0,0:0:0:0:
448,192,105724,1,0,0:0:0:0:
320,192,105786,1,0,0:0:0:0:
192,192,105786,1,0,0:0:0:0:
64,192,105847,1,0,0:0:0:0:
448,192,105847,1,0,0:0:0:0:
320,192,105908,1,0,0:0:0:0:
192,192,105908,1,0,0:0:0:0:
64,192,105970,1,0,0:0:0:0:
448,192,106031,1,0,0:0:0:0:
320,192,106031,1,0,0:0:0:0:
192,192,106093,1,0,0:0:0:0:
64,192,106093,1,0,0:0:0:0:
320,192,106154,1,0,0:0:0:0:
448,192,106154,1,0,0:0:0:0:
64,192,106216,1,0,0:0:0:0:
192,192,106277,1,0,0:0:0:0:
320,192,106338,1,0,0:0:0:0:
448,192,106338,1,0,0:0:0:0:
192,192,106400,1,0,0:0:0:0:
64,192,106400,1,0,0:0:0:0:
320,192,106461,1,0,0:0:0:0:
448,192,106461,1,0,0:0:0:0:
192,192,106523,1,0,0:0:0:0:
64,192,106523,1,0,0:0:0:0:
448,192,106584,1,0,0:0:0:0:
320,192,106646,1,0,0:0:0:0:
192,192,106646,1,0,0:0:0:0:
64,192,106707,1,0,0:0:0:0:
448,192,106707,1,0,0:0:0:0:
320,192,106768,1,0,0:0:0:0:
192,192,106768,1,0,0:0:0:0:
64,192,106830,1,0,0:0:0:0:
448,192,106830,1,0,0:0:0:0:
192,192,106891,1,0,0:0:0:0:
320,192,106953,1,0,0:0:0:0:
192,192,107014,1,0,0:0:0:0:
448,192,107075,1,0,0:0:0:0:
320,192,107075,1,0,0:0:0:0:
64,192,107137,1,0,0:0:0:0:
192,192,107198,1,0,0:0:0:0:
448,192,107260,1,0,0:0:0:0:
320,192,107260,1,0,0:0:0:0:
192,192,107321,1,0,0:0:0:0:
64,192,107321,1,0,0:0:0:0:
320,192,107383,1,0,0:0:0:0:
448,192,107383,1,0,0:0:0:0:
192,192,107444,1,0,0:0:0:0:
320,192,107505,1,0,0:0:0:0:
64,192,107505,1,0,0:0:0:0:
448,192,107567,1,0,0:0:0:0:
192,192,107567,1,0,0:0:0:0:
320,192,107628,1,0,0:0:0:0:
64,192,107628,1,0,0:0:0:0:
448,192,107690,1,0,0:0:0:0:
192,192,107751,1,0,0:0:0:0:
320,192,107813,1,0,0:0:0:0:
64,192,107813,1,0,0:0:0:0:
448,192,107874,1,0,0:0:0:0:
192,192,107935,1,0,0:0:0:0:
448,192,107997,1,0,0:0:0:0:
320,192,107997,1,0,0:0:0:0:
192,192,108058,1,0,0:0:0:0:
64,192,108058,1,0,0:0:0:0:
320,192,108120,1,0,0:0:0:0:
448,192,108120,1,0,0:0:0:0:
64,192,108181,1,0,0:0:0:0:
320,192,108242,1,0,0:0:0:0:
192,192,108242,1,0,0:0:0:0:
448,192,108304,1,0,0:0:0:0:
64,192,108304,1,0,0:0:0:0:
192,192,108365,1,0,0:0:0:0:
320,192,108365,1,0,0:0:0:0:
448,192,108427,1,0,0:0:0:0:
64,192,108488,1,0,0:0:0:0:
448,192,108550,1,0,0:0:0:0:
320,192,108550,1,0,0:0:0:0:
192,192,108611,1,0,0:0:0:0:
64,192,108672,1,0,0:0:0:0:
448,192,108734,1,0,0:0:0:0:
192,192,108734,1,0,0:0:0:0:
320,192,108795,1,0,0:0:0:0:
64,192,108795,1,0,0:0:0:0:
192,192,108857,1,0,0:0:0:0:
448,192,108857,1,0,0:0:0:0:
320,192,108918,1,0,0:0:0:0:
64,192,108980,1,0,0:0:0:0:
192,192,108980,1,0,0:0:0:0:
448,192,109041,1,0,0:0:0:0:
320,192,109041,1,0,0:0:0:0:
192,192,109102,1,0,0:0:0:0:
64,192,109102,1,0,0:0:0:0:
448,192,109164,1,0,0:0:0:0:
320,192,109225,1,0,0:0:0:0:
448,192,109287,1,0,0:0:0:0:
64,192,109287,1,0,0:0:0:0:
192,192,109348,1,0,0:0:0:0:
320,192,109409,1,0,0:0:0:0:
192,192,109471,1,0,0:0:0:0:
64,192,109471,1,0,0:0:0:0:
320,192,109532,1,0,0:0:0:0:
448,192,109532,1,0,0:0:0:0:
192,192,109594,1,0,0:0:0:0:
448,192,109655,1,0,0:0:0:0:
192,192,109717,1,0,0:0:0:0:
448,192,109778,1,0,0:0:0:0:
192,192,109839,1,0,0:0:0:0:
448,192,109901,1,0,0:0:0:0:
192,192,109962,1,0,0:0:0:0:
320,192,110024,1,0,0:0:0:0:
448,192,110024,1,0,0:0:0:0:
64,192,110085,1,0,0:0:0:0:
192,192,110147,1,0,0:0:0:0:
448,192,110208,1,0,0:0:0:0:
320,192,110208,1,0,0:0:0:0:
192,192,110269,1,0,0:0:0:0:
64,192,110269,1,0,0:0:0:0:
320,192,110331,1,0,0:0:0:0:
448,192,110331,1,0,0:0:0:0:
64,192,110392,1,0,0:0:0:0:
320,192,110454,1,0,0:0:0:0:
192,192,110454,1,0,0:0:0:0:
448,192,110515,1,0,0:0:0:0:
64,192,110515,1,0,0:0:0:0:
192,192,110577,1,0,0:0:0:0:
320,192,110577,1,0,0:0:0:0:
448,192,110638,1,0,0:0:0:0:
192,192,110699,1,0,0:0:0:0:
320,192,110761,1,0,0:0:0:0:
448,192,110761,1,0,0:0:0:0:
64,192,110822,1,0,0:0:0:0:
192,192,110884,1,0,0:0:0:0:
64,192,110945,1,0,0:0:0:0:
320,192,110945,1,0,0:0:0:0:
192,192,111006,1,0,0:0:0:0:
448,192,111006,1,0,0:0:0:0:
320,192,111068,1,0,0:0:0:0:
64,192,111068,1,0,0:0:0:0:
448,192,111129,1,0,0:0:0:0:
192,192,111191,1,0,0:0:0:0:
64,192,111191,1,0,0:0:0:0:
320,192,111252,1,0,0:0:0:0:
448,192,111252,1,0,0:0:0:0:
192,192,111314,1,0,0:0:0:0:
64,192,111314,1,0,0:0:0:0:
448,192,111375,1,0,0:0:0:0:
320,192,111436,1,0,0:0:0:0:
448,192,111498,1,0,0:0:0:0:
192,192,111498,1,0,0:0:0:0:
320,192,111559,1,0,0:0:0:0:
64,192,111621,1,0,0:0:0:0:
320,192,111682,1,0,0:0:0:0:
448,192,111682,1,0,0:0:0:0:
192,192,111744,1,0,0:0:0:0:
64,192,111744,1,0,0:0:0:0:
320,192,111805,1,0,0:0:0:0:
448,192,111805,1,0,0:0:0:0:
64,192,111866,1,0,0:0:0:0:
320,192,111928,1,0,0:0:0:0:
192,192,111928,1,0,0:0:0:0:
448,192,111989,1,0,0:0:0:0:
64,192,111989,1,0,0:0:0:0:
192,192,112051,1,0,0:0:0:0:
320,192,112051,1,0,0:0:0:0:
448,192,112112,1,0,0:0:0:0:
64,192,112173,1,0,0:0:0:0:
448,192,112235,1,0,0:0:0:0:
320,192,112235,1,0,0:0:0:0:
192,192,112296,1,0,0:0:0:0:
64,192,112296,1,0,0:0:0:0:
448,192,112358,1,0,0:0:0:0:
320,192,112358,1,0,0:0:0:0:
192,192,112419,1,0,0:0:0:0:
64,192,112419,1,0,0:0:0:0:
448,192,112481,1,0,0:0:0:0:
192,192,112542,1,0,0:0:0:0:
320,192,112542,1,0,0:0:0:0:
64,192,112603,1,0,0:0:0:0:
448,192,112603,1,0,0:0:0:0:
192,192,112665,1,0,0:0:0:0:
320,192,112665,1,0,0:0:0:0:
448,192,112726,1,0,0:0:0:0:
64,192,112726,1,0,0:0:0:0:
192,192,112788,1,0,0:0:0:0:
320,192,112849,1,0,0:0:0:0:
64,192,112911,1,0,0:0:0:0:
192,192,112972,1,0,0:0:0:0:
448,192,112972,1,0,0:0:0:0:
192,192,113156,1,0,0:0:0:0:
448,192,113340,1,0,0:0:0:0:
320,192,113525,1,0,0:0:0:0:
320,192,113893,128,0,113985:0:0:0:0:
64,192,114078,128,0,114170:0:0:0:0:
192,192,114262,128,0,114354:0:0:0:0:
64,192,114630,1,0,0:0:0:0:
448,192,114815,1,0,0:0:0:0:
64,192,114999,1,0,0:0:0:0:
448,192,115367,128,0,115459:0:0:0:0:
448,192,115736,128,0,115828:0:0:0:0:
192,192,116104,1,0,0:0:0:0:
64,192,116289,1,0,0:0:0:0:
448,192,116473,1,0,0:0:0:0:
320,192,116534,1,0,0:0:0:0:
192,192,116596,1,0,0:0:0:0:
320,192,116657,1,0,0:0:0:0:
192,192,116719,1,0,0:0:0:0:
320,192,116780,1,0,0:0:0:0:
64,192,116841,1,0,0:0:0:0:
192,192,116903,1,0,0:0:0:0:
320,192,116964,1,0,0:0:0:0:
448,192,117026,1,0,0:0:0:0:
448,192,117210,1,0,0:0:0:0:
320,192,117947,128,0,118039:0:0:0:0:
192,192,118316,128,0,118408:0:0:0:0:
64,192,118316,128,0,118500:0:0:0:0:
448,192,118684,1,0,0:0:0:0:
320,192,118684,128,0,118776:0:0:0:0:
64,192,118868,1,0,0:0:0:0:
448,192,118868,1,0,0:0:0:0:
320,192,119053,1,0,0:0:0:0:
64,192,119237,1,0,0:0:0:0:
448,192,119421,1,0,0:0:0:0:
64,192,119790,128,0,119882:0:0:0:0:
192,192,120158,128,0,120250:0:0:0:0:
448,192,120527,1,0,0:0:0:0:
192,192,120711,1,0,0:0:0:0:
320,192,120895,1,0,0:0:0:0:
64,192,121264,128,0,121356:0:0:0:0:
320,192,121448,128,0,121540:0:0:0:0:
192,192,121632,128,0,121724:0:0:0:0:
448,192,122001,1,0,0:0:0:0:
320,192,122185,1,0,0:0:0:0:
192,192,122369,1,0,0:0:0:0:
64,192,123106,1,0,0:0:0:0:
448,192,123106,1,0,0:0:0:0:
448,192,123475,128,0,123843:0:0:0:0:
192,192,124028,1,0,0:0:0:0:
448,192,124028,1,0,0:0:0:0:
64,192,124212,1,0,0:0:0:0:
192,192,124212,1,0,0:0:0:0:
64,192,124396,1,0,0:0:0:0:
448,192,124396,1,0,0:0:0:0:
320,192,124581,1,0,0:0:0:0:
64,192,124581,1,0,0:0:0:0:
192,192,124765,1,0,0:0:0:0:
448,192,124765,1,0,0:0:0:0:
320,192,124811,1,0,0:0:0:0:
64,192,124857,1,0,0:0:0:0:
448,192,124903,1,0,0:0:0:0:
320,192,124949,1,0,0:0:0:0:
192,192,124995,1,0,0:0:0:0:
64,192,125041,1,0,0:0:0:0:
448,192,125087,1,0,0:0:0:0:
320,192,125133,1,0,0:0:0:0:
192,192,125179,1,0,0:0:0:0:
64,192,125225,1,0,0:0:0:0:
448,192,125272,1,0,0:0:0:0:
192,192,125318,1,0,0:0:0:0:
320,192,125364,1,0,0:0:0:0:
448,192,125410,1,0,0:0:0:0:
64,192,125456,1,0,0:0:0:0:
192,192,125502,1,0,0:0:0:0:
320,192,125548,1,0,0:0:0:0:
64,192,125640,1,0,0:0:0:0:
192,192,125686,1,0,0:0:0:0:
448,192,125732,1,0,0:0:0:0:
64,192,125778,1,0,0:0:0:0:
192,192,125824,1,0,0:0:0:0:
320,192,125870,1,0,0:0:0:0:
448,192,125916,1,0,0:0:0:0:
320,192,125963,1,0,0:0:0:0:
192,192,126009,1,0,0:0:0:0:
64,192,126055,1,0,0:0:0:0:
448,192,126101,1,0,0:0:0:0:
320,192,126147,1,0,0:0:0:0:
192,192,126193,1,0,0:0:0:0:
448,192,126239,1,0,0:0:0:0:
64,192,126285,1,0,0:0:0:0:
192,192,126331,1,0,0:0:0:0:
320,192,126377,1,0,0:0:0:0:
64,192,126423,1,0,0:0:0:0:
448,192,126469,1,0,0:0:0:0:
64,192,126515,1,0,0:0:0:0:
192,192,126561,1,0,0:0:0:0:
448,192,126607,1,0,0:0:0:0:
320,192,126654,1,0,0:0:0:0:
448,192,126700,1,0,0:0:0:0:
192,192,126746,1,0,0:0:0:0:
64,192,126792,1,0,0:0:0:0:
320,192,126838,1,0,0:0:0:0:
64,192,126884,1,0,0:0:0:0:
192,192,126930,1,0,0:0:0:0:
320,192,126976,1,0,0:0:0:0:
448,192,127022,1,0,0:0:0:0:
64,192,127068,1,0,0:0:0:0:
192,192,127114,1,0,0:0:0:0:
448,192,127160,1,0,0:0:0:0:
320,192,127206,1,0,0:0:0:0:
64,192,127252,1,0,0:0:0:0:
192,192,127298,1,0,0:0:0:0:
320,192,127345,1,0,0:0:0:0:
448,192,127391,1,0,0:0:0:0:
64,192,127437,1,0,0:0:0:0:
192,192,127483,1,0,0:0:0:0:
320,192,127529,1,0,0:0:0:0:
448,192,127575,1,0,0:0:0:0:
192,192,127621,1,0,0:0:0:0:
64,192,127667,1,0,0:0:0:0:
448,192,127713,1,0,0:0:0:0:
320,192,127759,1,0,0:0:0:0:
192,192,127805,1,0,0:0:0:0:
64,192,127851,1,0,0:0:0:0:
320,192,127897,1,0,0:0:0:0:
192,192,127943,1,0,0:0:0:0:
320,192,127989,1,0,0:0:0:0:
64,192,128036,1,0,0:0:0:0:
192,192,128082,1,0,0:0:0:0:
320,192,128128,1,0,0:0:0:0:
448,192,128174,1,0,0:0:0:0:
64,192,128220,1,0,0:0:0:0:
192,192,128266,1,0,0:0:0:0:
320,192,128266,1,0,0:0:0:0:
448,192,128312,1,0,0:0:0:0:
64,192,128358,1,0,0:0:0:0:
192,192,128404,1,0,0:0:0:0:
448,192,128450,1,0,0:0:0:0:
64,192,128496,1,0,0:0:0:0:
192,192,128542,1,0,0:0:0:0:
320,192,128588,1,0,0:0:0:0:
448,192,128634,1,0,0:0:0:0:
64,192,128680,1,0,0:0:0:0:
320,192,128726,1,0,0:0:0:0:
192,192,128773,1,0,0:0:0:0:
64,192,128819,1,0,0:0:0:0:
448,192,128865,1,0,0:0:0:0:
192,192,128911,1,0,0:0:0:0:
320,192,128957,1,0,0:0:0:0:
448,192,129003,1,0,0:0:0:0:
64,192,129049,1,0,0:0:0:0:
192,192,129095,1,0,0:0:0:0:
320,192,129141,1,0,0:0:0:0:
448,192,129187,1,0,0:0:0:0:
192,192,129233,1,0,0:0:0:0:
64,192,129279,1,0,0:0:0:0:
320,192,129325,1,0,0:0:0:0:
192,192,129371,1,0,0:0:0:0:
448,192,129417,1,0,0:0:0:0:
192,192,129464,1,0,0:0:0:0:
64,192,129510,1,0,0:0:0:0:
320,192,129556,1,0,0:0:0:0:
448,192,129602,1,0,0:0:0:0:
192,192,129648,1,0,0:0:0:0:
64,192,129694,1,0,0:0:0:0:
192,192,129740,1,0,0:0:0:0:
448,192,129786,1,0,0:0:0:0:
64,192,129832,1,0,0:0:0:0:
192,192,129878,1,0,0:0:0:0:
320,192,129924,1,0,0:0:0:0:
448,192,129924,1,0,0:0:0:0:
64,192,129970,1,0,0:0:0:0:
192,192,130016,1,0,0:0:0:0:
320,192,130062,1,0,0:0:0:0:
448,192,130108,1,0,0:0:0:0:
64,192,130155,1,0,0:0:0:0:
320,192,130201,1,0,0:0:0:0:
192,192,130247,1,0,0:0:0:0:
64,192,130293,1,0,0:0:0:0:
448,192,130339,1,0,0:0:0:0:
320,192,130385,1,0,0:0:0:0:
192,192,130431,1,0,0:0:0:0:
448,192,130477,1,0,0:0:0:0:
320,192,130523,1,0,0:0:0:0:
64,192,130569,1,0,0:0:0:0:
448,192,130615,1,0,0:0:0:0:
192,192,130661,1,0,0:0:0:0:
320,192,130661,1,0,0:0:0:0:
64,192,130707,1,0,0:0:0:0:
448,192,130753,1,0,0:0:0:0:
320,192,130799,1,0,0:0:0:0:
192,192,130846,1,0,0:0:0:0:
64,192,130892,1,0,0:0:0:0:
192,192,130938,1,0,0:0:0:0:
320,192,130984,1,0,0:0:0:0:
448,192,131030,1,0,0:0:0:0:
64,192,131076,1,0,0:0:0:0:
192,192,131122,1,0,0:0:0:0:
448,192,131168,1,0,0:0:0:0:
64,192,131214,1,0,0:0:0:0:
192,192,131260,1,0,0:0:0:0:
320,192,131306,1,0,0:0:0:0:
64,192,131352,1,0,0:0:0:0:
192,192,131398,1,0,0:0:0:0:
320,192,131444,1,0,0:0:0:0:
448,192,131490,1,0,0:0:0:0:
64,192,131537,1,0,0:0:0:0:
192,192,131583,1,0,0:0:0:0:
320,192,131629,1,0,0:0:0:0:
448,192,131675,1,0,0:0:0:0:
64,192,131721,1,0,0:0:0:0:
320,192,131767,1,0,0:0:0:0:
192,192,131813,1,0,0:0:0:0:
64,192,131859,1,0,0:0:0:0:
448,192,131905,1,0,0:0:0:0:
320,192,131951,1,0,0:0:0:0:
192,192,131997,1,0,0:0:0:0:
64,192,132043,1,0,0:0:0:0:
448,192,132089,1,0,0:0:0:0:
320,192,132135,1,0,0:0:0:0:
192,192,132181,1,0,0:0:0:0:
448,192,132228,1,0,0:0:0:0:
320,192,132274,1,0,0:0:0:0:
64,192,132320,1,0,0:0:0:0:
192,192,132366,1,0,0:0:0:0:
64,192,132412,1,0,0:0:0:0:
448,192,132458,1,0,0:0:0:0:
320,192,132504,1,0,0:0:0:0:
192,192,132550,1,0,0:0:0:0:
320,192,132596,1,0,0:0:0:0:
64,192,132642,1,0,0:0:0:0:
448,192,132688,1,0,0:0:0:0:
192,192,132734,1,0,0:0:0:0:
448,192,132780,1,0,0:0:0:0:
64,192,132826,1,0,0:0:0:0:
192,192,132872,1,0,0:0:0:0:
320,192,132918,1,0,0:0:0:0:
448,192,132965,1,0,0:0:0:0:
64,192,133011,1,0,0:0:0:0:
320,192,133057,1,0,0:0:0:0:
448,192,133103,1,0,0:0:0:0:
192,192,133149,1,0,0:0:0:0:
64,192,133195,1,0,0:0:0:0:
320,192,133241,1,0,0:0:0:0:
448,192,133287,1,0,0:0:0:0:
64,192,133333,1,0,0:0:0:0:
192,192,133379,1,0,0:0:0:0:
320,192,133425,1,0,0:0:0:0:
448,192,133471,1,0,0:0:0:0:
64,192,133517,1,0,0:0:0:0:
192,192,133563,1,0,0:0:0:0:
320,192,133609,1,0,0:0:0:0:
448,192,133656,1,0,0:0:0:0:
64,192,133702,1,0,0:0:0:0:
320,192,133748,1,0,0:0:0:0:
192,192,133794,1,0,0:0:0:0:
64,192,133840,1,0,0:0:0:0:
448,192,133886,1,0,0:0:0:0:
320,192,133932,1,0,0:0:0:0:
192,192,133978,1,0,0:0:0:0:
448,192,134024,1,0,0:0:0:0:
320,192,134070,1,0,0:0:0:0:
64,192,134116,1,0,0:0:0:0:
448,192,134162,1,0,0:0:0:0:
320,192,134208,1,0,0:0:0:0:
192,192,134254,1,0,0:0:0:0:
64,192,134300,1,0,0:0:0:0:
448,192,134347,1,0,0:0:0:0:
320,192,134393,1,0,0:0:0:0:
192,192,134439,1,0,0:0:0:0:
64,192,134485,1,0,0:0:0:0:
320,192,134531,1,0,0:0:0:0:
192,192,134577,1,0,0:0:0:0:
64,192,134623,1,0,0:0:0:0:
448,192,134669,1,0,0:0:0:0:
320,192,134715,1,0,0:0:0:0:
192,192,134761,1,0,0:0:0:0:
448,192,134807,1,0,0:0:0:0:
64,192,134853,1,0,0:0:0:0:
192,192,134899,1,0,0:0:0:0:
320,192,134945,1,0,0:0:0:0:
448,192,134991,1,0,0:0:0:0:
64,192,135038,1,0,0:0:0:0:
192,192,135084,1,0,0:0:0:0:
448,192,135130,1,0,0:0:0:0:
320,192,135176,1,0,0:0:0:0:
64,192,135222,1,0,0:0:0:0:
448,192,135268,1,0,0:0:0:0:
192,192,135314,1,0,0:0:0:0:
448,192,135360,1,0,0:0:0:0:
320,192,135406,1,0,0:0:0:0:
64,192,135452,1,0,0:0:0:0:
192,192,135498,1,0,0:0:0:0:
320,192,135544,1,0,0:0:0:0:
64,192,135590,1,0,0:0:0:0:
320,192,135636,1,0,0:0:0:0:
448,192,135682,1,0,0:0:0:0:
192,192,135729,1,0,0:0:0:0:
64,192,135775,1,0,0:0:0:0:
320,192,135821,1,0,0:0:0:0:
192,192,135867,1,0,0:0:0:0:
64,192,135913,1,0,0:0:0:0:
448,192,135959,1,0,0:0:0:0:
320,192,136005,1,0,0:0:0:0:
192,192,136051,1,0,0:0:0:0:
64,192,136097,1,0,0:0:0:0:
448,192,136143,1,0,0:0:0:0:
192,192,136189,1,0,0:0:0:0:
320,192,136235,1,0,0:0:0:0:
448,192,136281,1,0,0:0:0:0:
64,192,136327,1,0,0:0:0:0:
192,192,136373,1,0,0:0:0:0:
320,192,136420,1,0,0:0:0:0:
448,192,136466,1,0,0:0:0:0:
64,192,136512,1,0,0:0:0:0:
320,192,136558,1,0,0:0:0:0:
192,192,136604,1,0,0:0:0:0:
64,192,136650,1,0,0:0:0:0:
448,192,136696,1,0,0:0:0:0:
320,192,136742,1,0,0:0:0:0:
192,192,136788,1,0,0:0:0:0:
64,192,136834,1,0,0:0:0:0:
192,192,136880,1,0,0:0:0:0:
320,192,136926,1,0,0:0:0:0:
448,192,136972,1,0,0:0:0:0:
64,192,137018,1,0,0:0:0:0:
192,192,137064,1,0,0:0:0:0:
448,192,137110,1,0,0:0:0:0:
64,192,137157,1,0,0:0:0:0:
192,192,137203,1,0,0:0:0:0:
320,192,137249,1,0,0:0:0:0:
64,192,137295,1,0,0:0:0:0:
192,192,137341,1,0,0:0:0:0:
320,192,137387,1,0,0:0:0:0:
448,192,137433,1,0,0:0:0:0:
64,192,137479,1,0,0:0:0:0:
192,192,137525,1,0,0:0:0:0:
320,192,137571,1,0,0:0:0:0:
448,192,137617,1,0,0:0:0:0:
320,192,137663,1,0,0:0:0:0:
192,192,137709,1,0,0:0:0:0:
64,192,137755,1,0,0:0:0:0:
448,192,137801,1,0,0:0:0:0:
320,192,137848,1,0,0:0:0:0:
192,192,137894,1,0,0:0:0:0:
64,192,137940,1,0,0:0:0:0:
448,192,137986,1,0,0:0:0:0:
192,192,138032,1,0,0:0:0:0:
320,192,138078,1,0,0:0:0:0:
448,192,138124,1,0,0:0:0:0:
64,192,138170,1,0,0:0:0:0:
192,192,138216,1,0,0:0:0:0:
448,192,138262,1,0,0:0:0:0:
192,192,138308,1,0,0:0:0:0:
320,192,138354,1,0,0:0:0:0:
64,192,138400,1,0,0:0:0:0:
448,192,138446,1,0,0:0:0:0:
64,192,138492,1,0,0:0:0:0:
192,192,138539,1,0,0:0:0:0:
448,192,138585,1,0,0:0:0:0:
320,192,138631,1,0,0:0:0:0:
448,192,138677,1,0,0:0:0:0:
192,192,138723,1,0,0:0:0:0:
64,192,138769,1,0,0:0:0:0:
320,192,138815,1,0,0:0:0:0:
192,192,138861,1,0,0:0:0:0:
448,192,138907,1,0,0:0:0:0:
320,192,138953,1,0,0:0:0:0:
192,192,138999,1,0,0:0:0:0:
64,192,139045,1,0,0:0:0:0:
448,192,139091,1,0,0:0:0:0:
192,192,139137,1,0,0:0:0:0:
320,192,139183,1,0,0:0:0:0:
448,192,139230,1,0,0:0:0:0:
64,192,139276,1,0,0:0:0:0:
192,192,139322,1,0,0:0:0:0:
320,192,139368,1,0,0:0:0:0:
448,192,139414,1,0,0:0:0:0:
64,192,139460,1,0,0:0:0:0:
192,192,139506,1,0,0:0:0:0:
320,192,139552,1,0,0:0:0:0:
448,192,139598,1,0,0:0:0:0:
64,192,139644,1,0,0:0:0:0:
320,192,139690,1,0,0:0:0:0:
192,192,139736,1,0,0:0:0:0:
64,192,139782,1,0,0:0:0:0:
448,192,139828,1,0,0:0:0:0:
320,192,139874,1,0,0:0:0:0:
192,192,139921,1,0,0:0:0:0:
448,192,139967,1,0,0:0:0:0:
320,192,140013,1,0,0:0:0:0:
64,192,140059,1,0,0:0:0:0:
192,192,140105,1,0,0:0:0:0:
448,192,140151,1,0,0:0:0:0:
64,192,140197,1,0,0:0:0:0:
192,192,140243,1,0,0:0:0:0:
320,192,140289,1,0,0:0:0:0:
448,192,140335,1,0,0:0:0:0:
64,192,140381,1,0,0:0:0:0:
320,192,140427,1,0,0:0:0:0:
192,192,140473,1,0,0:0:0:0:
64,192,140519,1,0,0:0:0:0:
448,192,140565,1,0,0:0:0:0:
320,192,140612,1,0,0:0:0:0:
192,192,140658,1,0,0:0:0:0:
64,192,140704,1,0,0:0:0:0:
448,192,140750,1,0,0:0:0:0:
320,192,140796,1,0,0:0:0:0:
64,192,140842,1,0,0:0:0:0:
192,192,140888,1,0,0:0:0:0:
448,192,140934,1,0,0:0:0:0:
320,192,140980,1,0,0:0:0:0:
64,192,141026,1,0,0:0:0:0:
448,192,141072,1,0,0:0:0:0:
320,192,141118,1,0,0:0:0:0:
192,192,141164,1,0,0:0:0:0:
448,192,141210,1,0,0:0:0:0:
192,192,141256,1,0,0:0:0:0:
64,192,141302,1,0,0:0:0:0:
320,192,141349,1,0,0:0:0:0:
192,192,141395,1,0,0:0:0:0:
448,192,141441,1,0,0:0:0:0:
320,192,141487,1,0,0:0:0:0:
448,192,141533,1,0,0:0:0:0:
64,192,141579,1,0,0:0:0:0:
192,192,141625,1,0,0:0:0:0:
320,192,141671,1,0,0:0:0:0:
448,192,141717,1,0,0:0:0:0:
64,192,141763,1,0,0:0:0:0:
320,192,141809,1,0,0:0:0:0:
192,192,141855,1,0,0:0:0:0:
64,192,141901,1,0,0:0:0:0:
448,192,141947,1,0,0:0:0:0:
320,192,141993,1,0,0:0:0:0:
192,192,142040,1,0,0:0:0:0:
64,192,142086,1,0,0:0:0:0:
448,192,142132,1,0,0:0:0:0:
320,192,142178,1,0,0:0:0:0:
192,192,142224,1,0,0:0:0:0:
448,192,142270,1,0,0:0:0:0:
320,192,142316,1,0,0:0:0:0:
192,192,142362,1,0,0:0:0:0:
64,192,142408,1,0,0:0:0:0:
320,192,142454,1,0,0:0:0:0:
192,192,142500,1,0,0:0:0:0:
64,192,142546,1,0,0:0:0:0:
448,192,142592,1,0,0:0:0:0:
320,192,142638,1,0,0:0:0:0:
192,192,142684,1,0,0:0:0:0:
64,192,142731,1,0,0:0:0:0:
448,192,142777,1,0,0:0:0:0:
320,192,142823,1,0,0:0:0:0:
64,192,142869,1,0,0:0:0:0:
448,192,142915,1,0,0:0:0:0:
320,192,142961,1,0,0:0:0:0:
64,192,143007,1,0,0:0:0:0:
192,192,143053,1,0,0:0:0:0:
320,192,143099,1,0,0:0:0:0:
448,192,143145,1,0,0:0:0:0:
64,192,143191,1,0,0:0:0:0:
192,192,143237,1,0,0:0:0:0:
320,192,143283,1,0,0:0:0:0:
64,192,143329,1,0,0:0:0:0:
448,192,143375,1,0,0:0:0:0:
192,192,143422,1,0,0:0:0:0:
320,192,143468,1,0,0:0:0:0:
64,192,143514,1,0,0:0:0:0:
448,192,143560,1,0,0:0:0:0:
320,192,143606,1,0,0:0:0:0:
192,192,143652,1,0,0:0:0:0:
64,192,143698,1,0,0:0:0:0:
448,192,143744,1,0,0:0:0:0:
192,192,143790,1,0,0:0:0:0:
320,192,143836,1,0,0:0:0:0:
448,192,143882,1,0,0:0:0:0:
64,192,143928,1,0,0:0:0:0:
192,192,143974,1,0,0:0:0:0:
320,192,144020,1,0,0:0:0:0:
448,192,144066,1,0,0:0:0:0:
64,192,144113,1,0,0:0:0:0:
192,192,144159,1,0,0:0:0:0:
64,192,144205,1,0,0:0:0:0:
448,192,144251,1,0,0:0:0:0:
320,192,144297,1,0,0:0:0:0:
192,192,144343,1,0,0:0:0:0:
320,192,144389,1,0,0:0:0:0:
64,192,144435,1,0,0:0:0:0:
448,192,144481,1,0,0:0:0:0:
192,192,144527,1,0,0:0:0:0:
448,192,144573,1,0,0:0:0:0:
64,192,144619,1,0,0:0:0:0:
192,192,144665,1,0,0:0:0:0:
320,192,144711,1,0,0:0:0:0:
448,192,144757,1,0,0:0:0:0:
64,192,144804,1,0,0:0:0:0:
192,192,144850,1,0,0:0:0:0:
320,192,144896,1,0,0:0:0:0:
448,192,144942,1,0,0:0:0:0:
320,192,144988,1,0,0:0:0:0:
192,192,145034,1,0,0:0:0:0:
64,192,145080,1,0,0:0:0:0:
192,192,145126,1,0,0:0:0:0:
320,192,145172,1,0,0:0:0:0:
448,192,145218,1,0,0:0:0:0:
64,192,145264,1,0,0:0:0:0:
192,192,145310,1,0,0:0:0:0:
448,192,145356,1,0,0:0:0:0:
64,192,145402,1,0,0:0:0:0:
320,192,145402,1,0,0:0:0:0:
192,192,145448,1,0,0:0:0:0:
448,192,145495,1,0,0:0:0:0:
320,192,145541,1,0,0:0:0:0:
192,192,145587,1,0,0:0:0:0:
64,192,145633,1,0,0:0:0:0:
448,192,145679,1,0,0:0:0:0:
192,192,145725,1,0,0:0:0:0:
320,192,145771,1,0,0:0:0:0:
448,192,145817,1,0,0:0:0:0:
64,192,145863,1,0,0:0:0:0:
320,192,145909,1,0,0:0:0:0:
192,192,145955,1,0,0:0:0:0:
64,192,146001,1,0,0:0:0:0:
448,192,146047,1,0,0:0:0:0:
320,192,146093,1,0,0:0:0:0:
192,192,146139,1,0,0:0:0:0:
64,192,146185,1,0,0:0:0:0:
448,192,146232,1,0,0:0:0:0:
320,192,146278,1,0,0:0:0:0:
192,192,146324,1,0,0:0:0:0:
448,192,146370,1,0,0:0:0:0:
64,192,146416,1,0,0:0:0:0:
192,192,146462,1,0,0:0:0:0:
320,192,146508,1,0,0:0:0:0:
448,192,146554,1,0,0:0:0:0:
64,192,146600,1,0,0:0:0:0:
192,192,146646,1,0,0:0:0:0:
320,192,146692,1,0,0:0:0:0:
64,192,146738,1,0,0:0:0:0:
192,192,146784,1,0,0:0:0:0:
448,192,146830,1,0,0:0:0:0:
320,192,146876,1,0,0:0:0:0:
64,192,146923,1,0,0:0:0:0:
448,192,146969,1,0,0:0:0:0:
320,192,147015,1,0,0:0:0:0:
192,192,147061,1,0,0:0:0:0:
448,192,147107,1,0,0:0:0:0:
192,192,147153,1,0,0:0:0:0:
64,192,147199,1,0,0:0:0:0:
320,192,147245,1,0,0:0:0:0:
192,192,147291,1,0,0:0:0:0:
448,192,147337,1,0,0:0:0:0:
320,192,147383,1,0,0:0:0:0:
448,192,147429,1,0,0:0:0:0:
64,192,147475,1,0,0:0:0:0:
192,192,147521,1,0,0:0:0:0:
320,192,147567,1,0,0:0:0:0:
448,192,147614,1,0,0:0:0:0:
64,192,147660,1,0,0:0:0:0:
192,192,147706,1,0,0:0:0:0:
448,192,147752,1,0,0:0:0:0:
64,192,147798,1,0,0:0:0:0:
192,192,147844,1,0,0:0:0:0:
320,192,147890,1,0,0:0:0:0:
64,192,147936,1,0,0:0:0:0:
192,192,147982,1,0,0:0:0:0:
320,192,148028,1,0,0:0:0:0:
448,192,148074,1,0,0:0:0:0:
64,192,148120,1,0,0:0:0:0:
320,192,148166,1,0,0:0:0:0:
192,192,148212,1,0,0:0:0:0:
64,192,148258,1,0,0:0:0:0:
320,192,148305,1,0,0:0:0:0:
448,192,148351,128,0,149825:0:0:0:0:
