osu file format v14

[General]
AudioFilename: BORIS - SHALAKA BOOM.mp3
AudioLeadIn: 0
PreviewTime: 44538
Countdown: 0
SampleSet: Normal
StackLeniency: 0.7
Mode: 3
LetterboxInBreaks: 0
SpecialStyle: 0
WidescreenStoryboard: 1

[Editor]
Bookmarks: 30537,36642,42747,62586,74795,87004
DistanceSpacing: 0.8
BeatDivisor: 6
GridSize: 32
TimelineZoom: 1.8

[Metadata]
Title:SUPER EUROBEAT FOR RUNNING SELECTIONS
TitleUnicode:SUPER EUROBEAT FOR RUNNING SELECTIONS
Artist:Various Artists
ArtistUnicode:Various Artists
Creator:Jole
Version:[JS & TRILL] BORIS - SHALAKA BOOM
Source:SUPER EUROBEAT 216
Tags:eurobeat 4 key stream initial d jole hotblade domino & scream team christine eurodudes
BeatmapID:768179
BeatmapSetID:342407

[Difficulty]
HPDrainRate:8
CircleSize:4
OverallDifficulty:8
ApproachRate:5
SliderMultiplier:1.4
SliderTickRate:1

[Events]
//Background and Video events
0,0,"shalakaboom.jpg",0,0
//Break Periods
//Storyboard Layer 0 (Background)
//Storyboard Layer 1 (Fail)
//Storyboard Layer 2 (Pass)
//Storyboard Layer 3 (Foreground)
//Storyboard Sound Samples

[TimingPoints]
151,382.65306122449,4,1,0,5,1,0

[HitObjects]
64,192,151,5,0,0:0:0:0:
448,192,151,1,0,0:0:0:0:
192,192,724,1,0,0:0:0:0:
320,192,724,1,0,0:0:0:0:
448,192,724,1,0,0:0:0:0:
64,192,916,1,0,0:0:0:0:
192,192,916,1,0,0:0:0:0:
320,192,916,1,0,0:0:0:0:
192,192,1107,1,0,0:0:0:0:
64,192,1107,1,0,0:0:0:0:
448,192,1107,1,0,0:0:0:0:
64,192,1298,1,0,0:0:0:0:
192,192,1298,1,0,0:0:0:0:
320,192,1298,1,0,0:0:0:0:
64,192,1490,1,0,0:0:0:0:
192,192,1490,1,0,0:0:0:0:
448,192,1490,1,0,0:0:0:0:
64,192,1681,1,0,0:0:0:0:
448,192,1681,1,0,0:0:0:0:
320,192,1872,1,0,0:0:0:0:
64,192,2064,1,0,0:0:0:0:
192,192,2446,1,0,0:0:0:0:
448,192,2446,1,0,0:0:0:0:
320,192,2829,1,0,0:0:0:0:
448,192,2829,1,0,0:0:0:0:
64,192,2829,1,0,0:0:0:0:
192,192,2925,1,0,0:0:0:0:
448,192,3020,1,0,0:0:0:0:
320,192,3020,1,0,0:0:0:0:
192,192,3116,1,0,0:0:0:0:
64,192,3116,1,0,0:0:0:0:
448,192,3212,1,0,0:0:0:0:
320,192,3212,1,0,0:0:0:0:
192,192,3260,1,0,0:0:0:0:
64,192,3307,1,0,0:0:0:0:
448,192,3355,1,0,0:0:0:0:
320,192,3403,1,0,0:0:0:0:
192,192,3594,1,0,0:0:0:0:
320,192,3618,1,0,0:0:0:0:
448,192,3642,1,0,0:0:0:0:
64,192,3977,1,0,0:0:0:0:
448,192,3977,1,0,0:0:0:0:
192,192,4025,1,0,0:0:0:0:
448,192,4073,1,0,0:0:0:0:
320,192,4121,1,0,0:0:0:0:
64,192,4168,1,0,0:0:0:0:
320,192,4360,1,0,0:0:0:0:
192,192,4384,1,0,0:0:0:0:
64,192,4408,1,0,0:0:0:0:
64,192,4742,1,0,0:0:0:0:
448,192,4742,1,0,0:0:0:0:
64,192,5125,1,0,0:0:0:0:
448,192,5125,1,0,0:0:0:0:
64,192,5508,1,0,0:0:0:0:
448,192,5508,1,0,0:0:0:0:
448,192,5603,1,0,0:0:0:0:
64,192,5603,1,0,0:0:0:0:
448,192,5699,1,0,0:0:0:0:
64,192,5699,1,0,0:0:0:0:
448,192,5795,1,0,0:0:0:0:
64,192,5795,1,0,0:0:0:0:
448,192,5890,1,0,0:0:0:0:
64,192,5890,1,0,0:0:0:0:
192,192,5890,1,0,0:0:0:0:
320,192,5986,1,0,0:0:0:0:
64,192,6082,1,0,0:0:0:0:
192,192,6082,1,0,0:0:0:0:
448,192,6177,1,0,0:0:0:0:
320,192,6177,1,0,0:0:0:0:
192,192,6273,1,0,0:0:0:0:
64,192,6273,1,0,0:0:0:0:
320,192,6321,1,0,0:0:0:0:
448,192,6369,1,0,0:0:0:0:
64,192,6416,1,0,0:0:0:0:
320,192,6464,1,0,0:0:0:0:
64,192,6560,1,0,0:0:0:0:
320,192,6656,1,0,0:0:0:0:
448,192,6656,1,0,0:0:0:0:
192,192,6656,1,0,0:0:0:0:
64,192,6751,1,0,0:0:0:0:
320,192,6847,1,0,0:0:0:0:
448,192,6847,1,0,0:0:0:0:
192,192,6943,1,0,0:0:0:0:
64,192,7038,1,0,0:0:0:0:
448,192,7038,1,0,0:0:0:0:
320,192,7086,1,0,0:0:0:0:
192,192,7134,1,0,0:0:0:0:
64,192,7182,1,0,0:0:0:0:
448,192,7230,1,0,0:0:0:0:
320,192,7325,1,0,0:0:0:0:
64,192,7421,1,0,0:0:0:0:
192,192,7421,1,0,0:0:0:0:
320,192,7517,1,0,0:0:0:0:
448,192,7612,1,0,0:0:0:0:
192,192,7612,1,0,0:0:0:0:
64,192,7708,1,0,0:0:0:0:
320,192,7804,1,0,0:0:0:0:
448,192,7804,1,0,0:0:0:0:
192,192,7899,1,0,0:0:0:0:
64,192,7899,1,0,0:0:0:0:
320,192,7995,1,0,0:0:0:0:
448,192,7995,1,0,0:0:0:0:
192,192,8091,1,0,0:0:0:0:
64,192,8091,1,0,0:0:0:0:
320,192,8186,1,0,0:0:0:0:
448,192,8186,1,0,0:0:0:0:
64,192,8282,1,0,0:0:0:0:
192,192,8378,1,0,0:0:0:0:
448,192,8378,1,0,0:0:0:0:
64,192,8473,1,0,0:0:0:0:
320,192,8569,1,0,0:0:0:0:
448,192,8569,1,0,0:0:0:0:
64,192,8633,1,0,0:0:0:0:
192,192,8633,1,0,0:0:0:0:
448,192,8696,1,0,0:0:0:0:
320,192,8696,1,0,0:0:0:0:
64,192,8760,1,0,0:0:0:0:
192,192,8760,1,0,0:0:0:0:
448,192,8856,1,0,0:0:0:0:
320,192,8952,1,0,0:0:0:0:
192,192,8952,1,0,0:0:0:0:
64,192,8952,1,0,0:0:0:0:
448,192,9047,1,0,0:0:0:0:
192,192,9143,1,0,0:0:0:0:
320,192,9143,1,0,0:0:0:0:
448,192,9239,1,0,0:0:0:0:
64,192,9334,1,0,0:0:0:0:
320,192,9334,1,0,0:0:0:0:
448,192,9382,1,0,0:0:0:0:
192,192,9430,1,0,0:0:0:0:
64,192,9478,1,0,0:0:0:0:
320,192,9526,1,0,0:0:0:0:
192,192,9621,1,0,0:0:0:0:
320,192,9717,1,0,0:0:0:0:
448,192,9717,1,0,0:0:0:0:
64,192,9717,1,0,0:0:0:0:
192,192,9812,1,0,0:0:0:0:
320,192,9908,1,0,0:0:0:0:
448,192,9908,1,0,0:0:0:0:
64,192,10004,1,0,0:0:0:0:
192,192,10099,1,0,0:0:0:0:
448,192,10099,1,0,0:0:0:0:
320,192,10147,1,0,0:0:0:0:
192,192,10195,1,0,0:0:0:0:
64,192,10243,1,0,0:0:0:0:
448,192,10291,1,0,0:0:0:0:
64,192,10386,1,0,0:0:0:0:
192,192,10482,1,0,0:0:0:0:
320,192,10482,1,0,0:0:0:0:
448,192,10578,1,0,0:0:0:0:
64,192,10673,1,0,0:0:0:0:
320,192,10673,1,0,0:0:0:0:
192,192,10769,1,0,0:0:0:0:
64,192,10865,1,0,0:0:0:0:
448,192,10865,1,0,0:0:0:0:
320,192,10960,1,0,0:0:0:0:
192,192,10960,1,0,0:0:0:0:
64,192,11056,1,0,0:0:0:0:
448,192,11056,1,0,0:0:0:0:
192,192,11152,1,0,0:0:0:0:
64,192,11247,1,0,0:0:0:0:
448,192,11247,1,0,0:0:0:0:
320,192,11247,1,0,0:0:0:0:
192,192,11343,1,0,0:0:0:0:
64,192,11439,1,0,0:0:0:0:
320,192,11439,1,0,0:0:0:0:
448,192,11534,1,0,0:0:0:0:
320,192,11630,1,0,0:0:0:0:
192,192,11630,1,0,0:0:0:0:
64,192,11630,1,0,0:0:0:0:
448,192,11678,1,0,0:0:0:0:
192,192,11726,1,0,0:0:0:0:
64,192,11774,1,0,0:0:0:0:
320,192,11821,1,0,0:0:0:0:
448,192,11821,1,0,0:0:0:0:
192,192,11917,1,0,0:0:0:0:
64,192,12013,1,0,0:0:0:0:
320,192,12013,1,0,0:0:0:0:
448,192,12108,1,0,0:0:0:0:
320,192,12204,1,0,0:0:0:0:
192,192,12204,1,0,0:0:0:0:
64,192,12300,1,0,0:0:0:0:
320,192,12395,1,0,0:0:0:0:
448,192,12395,1,0,0:0:0:0:
192,192,12443,1,0,0:0:0:0:
64,192,12491,1,0,0:0:0:0:
448,192,12539,1,0,0:0:0:0:
192,192,12587,1,0,0:0:0:0:
320,192,12682,1,0,0:0:0:0:
192,192,12778,1,0,0:0:0:0:
64,192,12778,1,0,0:0:0:0:
448,192,12778,1,0,0:0:0:0:
320,192,12874,1,0,0:0:0:0:
192,192,12969,1,0,0:0:0:0:
448,192,12969,1,0,0:0:0:0:
64,192,13065,1,0,0:0:0:0:
192,192,13161,1,0,0:0:0:0:
320,192,13161,1,0,0:0:0:0:
448,192,13209,1,0,0:0:0:0:
64,192,13256,1,0,0:0:0:0:
320,192,13304,1,0,0:0:0:0:
448,192,13352,1,0,0:0:0:0:
192,192,13448,1,0,0:0:0:0:
64,192,13543,1,0,0:0:0:0:
320,192,13543,1,0,0:0:0:0:
448,192,13543,1,0,0:0:0:0:
192,192,13639,1,0,0:0:0:0:
64,192,13735,1,0,0:0:0:0:
448,192,13735,1,0,0:0:0:0:
320,192,13830,1,0,0:0:0:0:
192,192,13926,1,0,0:0:0:0:
64,192,13926,1,0,0:0:0:0:
320,192,14022,1,0,0:0:0:0:
448,192,14022,1,0,0:0:0:0:
192,192,14117,1,0,0:0:0:0:
64,192,14117,1,0,0:0:0:0:
448,192,14213,1,0,0:0:0:0:
320,192,14213,1,0,0:0:0:0:
192,192,14309,1,0,0:0:0:0:
64,192,14309,1,0,0:0:0:0:
320,192,14404,1,0,0:0:0:0:
64,192,14500,1,0,0:0:0:0:
192,192,14500,1,0,0:0:0:0:
448,192,14500,1,0,0:0:0:0:
320,192,14596,1,0,0:0:0:0:
448,192,14691,1,0,0:0:0:0:
64,192,14691,1,0,0:0:0:0:
192,192,14755,1,0,0:0:0:0:
320,192,14755,1,0,0:0:0:0:
448,192,14819,1,0,0:0:0:0:
64,192,14819,1,0,0:0:0:0:
320,192,14883,1,0,0:0:0:0:
192,192,14883,1,0,0:0:0:0:
64,192,14978,1,0,0:0:0:0:
192,192,15074,1,0,0:0:0:0:
320,192,15074,1,0,0:0:0:0:
448,192,15074,1,0,0:0:0:0:
64,192,15170,1,0,0:0:0:0:
192,192,15265,1,0,0:0:0:0:
448,192,15265,1,0,0:0:0:0:
320,192,15361,1,0,0:0:0:0:
64,192,15457,1,0,0:0:0:0:
448,192,15457,1,0,0:0:0:0:
192,192,15504,1,0,0:0:0:0:
320,192,15552,1,0,0:0:0:0:
448,192,15600,1,0,0:0:0:0:
64,192,15648,1,0,0:0:0:0:
320,192,15744,1,0,0:0:0:0:
64,192,15839,1,0,0:0:0:0:
192,192,15839,1,0,0:0:0:0:
448,192,15839,1,0,0:0:0:0:
320,192,15935,1,0,0:0:0:0:
64,192,16031,1,0,0:0:0:0:
192,192,16031,1,0,0:0:0:0:
320,192,16126,1,0,0:0:0:0:
64,192,16222,1,0,0:0:0:0:
448,192,16222,1,0,0:0:0:0:
192,192,16270,1,0,0:0:0:0:
320,192,16318,1,0,0:0:0:0:
448,192,16365,1,0,0:0:0:0:
64,192,16413,1,0,0:0:0:0:
320,192,16509,1,0,0:0:0:0:
192,192,16605,1,0,0:0:0:0:
64,192,16605,1,0,0:0:0:0:
448,192,16605,1,0,0:0:0:0:
320,192,16700,1,0,0:0:0:0:
192,192,16796,1,0,0:0:0:0:
64,192,16796,1,0,0:0:0:0:
320,192,16892,1,0,0:0:0:0:
192,192,16987,1,0,0:0:0:0:
448,192,16987,1,0,0:0:0:0:
64,192,17083,1,0,0:0:0:0:
320,192,17083,1,0,0:0:0:0:
192,192,17179,1,0,0:0:0:0:
448,192,17179,1,0,0:0:0:0:
320,192,17274,1,0,0:0:0:0:
192,192,17370,1,0,0:0:0:0:
448,192,17370,1,0,0:0:0:0:
64,192,17370,1,0,0:0:0:0:
64,192,17561,1,0,0:0:0:0:
192,192,17561,1,0,0:0:0:0:
320,192,17561,1,0,0:0:0:0:
64,192,17753,1,0,0:0:0:0:
192,192,17753,1,0,0:0:0:0:
320,192,17753,1,0,0:0:0:0:
448,192,17753,1,0,0:0:0:0:
320,192,17944,1,0,0:0:0:0:
64,192,18135,1,0,0:0:0:0:
448,192,18135,1,0,0:0:0:0:
192,192,18327,1,0,0:0:0:0:
64,192,18518,1,0,0:0:0:0:
320,192,18518,1,0,0:0:0:0:
448,192,18518,1,0,0:0:0:0:
192,192,18614,1,0,0:0:0:0:
448,192,18709,1,0,0:0:0:0:
320,192,18805,1,0,0:0:0:0:
192,192,18901,1,0,0:0:0:0:
64,192,18901,1,0,0:0:0:0:
448,192,18901,1,0,0:0:0:0:
320,192,18996,1,0,0:0:0:0:
192,192,19092,1,0,0:0:0:0:
64,192,19092,1,0,0:0:0:0:
448,192,19092,1,0,0:0:0:0:
320,192,19187,1,0,0:0:0:0:
192,192,19283,1,0,0:0:0:0:
64,192,19283,1,0,0:0:0:0:
448,192,19283,1,0,0:0:0:0:
320,192,19379,1,0,0:0:0:0:
64,192,19474,1,0,0:0:0:0:
448,192,19570,1,0,0:0:0:0:
320,192,19666,1,0,0:0:0:0:
192,192,19666,1,0,0:0:0:0:
64,192,19666,1,0,0:0:0:0:
448,192,19761,1,0,0:0:0:0:
64,192,19857,1,0,0:0:0:0:
192,192,19857,1,0,0:0:0:0:
320,192,19857,1,0,0:0:0:0:
448,192,19953,1,0,0:0:0:0:
320,192,20048,1,0,0:0:0:0:
192,192,20048,1,0,0:0:0:0:
64,192,20048,1,0,0:0:0:0:
448,192,20144,1,0,0:0:0:0:
64,192,20240,1,0,0:0:0:0:
320,192,20240,1,0,0:0:0:0:
192,192,20335,1,0,0:0:0:0:
448,192,20431,1,0,0:0:0:0:
320,192,20431,1,0,0:0:0:0:
64,192,20527,1,0,0:0:0:0:
192,192,20622,1,0,0:0:0:0:
320,192,20622,1,0,0:0:0:0:
448,192,20622,1,0,0:0:0:0:
64,192,20718,1,0,0:0:0:0:
192,192,20814,1,0,0:0:0:0:
320,192,20814,1,0,0:0:0:0:
448,192,20814,1,0,0:0:0:0:
64,192,20909,1,0,0:0:0:0:
320,192,21005,1,0,0:0:0:0:
448,192,21005,1,0,0:0:0:0:
192,192,21101,1,0,0:0:0:0:
64,192,21196,1,0,0:0:0:0:
320,192,21196,1,0,0:0:0:0:
448,192,21196,1,0,0:0:0:0:
192,192,21292,1,0,0:0:0:0:
64,192,21388,1,0,0:0:0:0:
448,192,21388,1,0,0:0:0:0:
320,192,21483,1,0,0:0:0:0:
64,192,21579,1,0,0:0:0:0:
448,192,21579,1,0,0:0:0:0:
192,192,21627,1,0,0:0:0:0:
320,192,21675,1,0,0:0:0:0:
448,192,21723,1,0,0:0:0:0:
64,192,21770,1,0,0:0:0:0:
192,192,21818,1,0,0:0:0:0:
320,192,21866,1,0,0:0:0:0:
64,192,21914,1,0,0:0:0:0:
192,192,21962,1,0,0:0:0:0:
448,192,22010,1,0,0:0:0:0:
320,192,22057,1,0,0:0:0:0:
192,192,22105,1,0,0:0:0:0:
64,192,22153,1,0,0:0:0:0:
320,192,22249,1,0,0:0:0:0:
64,192,22344,1,0,0:0:0:0:
448,192,22344,1,0,0:0:0:0:
192,192,22440,1,0,0:0:0:0:
64,192,22536,1,0,0:0:0:0:
320,192,22536,1,0,0:0:0:0:
448,192,22631,1,0,0:0:0:0:
64,192,22727,1,0,0:0:0:0:
192,192,22727,1,0,0:0:0:0:
320,192,22727,1,0,0:0:0:0:
448,192,22823,1,0,0:0:0:0:
64,192,22918,1,0,0:0:0:0:
320,192,23014,1,0,0:0:0:0:
192,192,23110,1,0,0:0:0:0:
64,192,23110,1,0,0:0:0:0:
320,192,23173,1,0,0:0:0:0:
64,192,23237,1,0,0:0:0:0:
448,192,23301,1,0,0:0:0:0:
192,192,23365,1,0,0:0:0:0:
320,192,23429,1,0,0:0:0:0:
64,192,23492,1,0,0:0:0:0:
192,192,23492,1,0,0:0:0:0:
448,192,23556,1,0,0:0:0:0:
192,192,23620,1,0,0:0:0:0:
64,192,23684,1,0,0:0:0:0:
320,192,23747,1,0,0:0:0:0:
192,192,23811,1,0,0:0:0:0:
320,192,23875,1,0,0:0:0:0:
448,192,23875,1,0,0:0:0:0:
64,192,23939,1,0,0:0:0:0:
192,192,24003,1,0,0:0:0:0:
320,192,24066,1,0,0:0:0:0:
448,192,24130,1,0,0:0:0:0:
192,192,24194,1,0,0:0:0:0:
320,192,24258,1,0,0:0:0:0:
448,192,24258,1,0,0:0:0:0:
64,192,24321,1,0,0:0:0:0:
192,192,24385,1,0,0:0:0:0:
448,192,24449,1,0,0:0:0:0:
320,192,24449,1,0,0:0:0:0:
64,192,24513,1,0,0:0:0:0:
192,192,24577,1,0,0:0:0:0:
320,192,24640,1,0,0:0:0:0:
448,192,24640,1,0,0:0:0:0:
64,192,24640,1,0,0:0:0:0:
192,192,24736,1,0,0:0:0:0:
448,192,24832,1,0,0:0:0:0:
64,192,24927,1,0,0:0:0:0:
192,192,25023,1,0,0:0:0:0:
320,192,25023,1,0,0:0:0:0:
448,192,25023,1,0,0:0:0:0:
64,192,25119,1,0,0:0:0:0:
192,192,25214,1,0,0:0:0:0:
320,192,25214,1,0,0:0:0:0:
448,192,25214,1,0,0:0:0:0:
64,192,25310,1,0,0:0:0:0:
192,192,25406,1,0,0:0:0:0:
320,192,25406,1,0,0:0:0:0:
448,192,25406,1,0,0:0:0:0:
64,192,25501,1,0,0:0:0:0:
320,192,25597,1,0,0:0:0:0:
448,192,25693,1,0,0:0:0:0:
320,192,25788,1,0,0:0:0:0:
192,192,25788,1,0,0:0:0:0:
64,192,25788,1,0,0:0:0:0:
448,192,25884,1,0,0:0:0:0:
320,192,25980,1,0,0:0:0:0:
192,192,25980,1,0,0:0:0:0:
64,192,25980,1,0,0:0:0:0:
448,192,26075,1,0,0:0:0:0:
320,192,26171,1,0,0:0:0:0:
192,192,26171,1,0,0:0:0:0:
64,192,26171,1,0,0:0:0:0:
448,192,26267,1,0,0:0:0:0:
64,192,26362,1,0,0:0:0:0:
320,192,26362,1,0,0:0:0:0:
448,192,26458,1,0,0:0:0:0:
64,192,26554,1,0,0:0:0:0:
192,192,26554,1,0,0:0:0:0:
320,192,26649,1,0,0:0:0:0:
192,192,26745,1,0,0:0:0:0:
448,192,26745,1,0,0:0:0:0:
64,192,26745,1,0,0:0:0:0:
320,192,26841,1,0,0:0:0:0:
192,192,26936,1,0,0:0:0:0:
64,192,26936,1,0,0:0:0:0:
448,192,26936,1,0,0:0:0:0:
320,192,27032,1,0,0:0:0:0:
64,192,27128,1,0,0:0:0:0:
448,192,27128,1,0,0:0:0:0:
192,192,27223,1,0,0:0:0:0:
64,192,27319,1,0,0:0:0:0:
320,192,27319,1,0,0:0:0:0:
448,192,27319,1,0,0:0:0:0:
192,192,27415,1,0,0:0:0:0:
64,192,27510,1,0,0:0:0:0:
320,192,27510,1,0,0:0:0:0:
448,192,27510,1,0,0:0:0:0:
192,192,27606,1,0,0:0:0:0:
64,192,27702,1,0,0:0:0:0:
320,192,27702,1,0,0:0:0:0:
448,192,27702,1,0,0:0:0:0:
192,192,27749,1,0,0:0:0:0:
320,192,27797,1,0,0:0:0:0:
448,192,27845,1,0,0:0:0:0:
192,192,27893,1,0,0:0:0:0:
64,192,27941,1,0,0:0:0:0:
448,192,27989,1,0,0:0:0:0:
320,192,28036,1,0,0:0:0:0:
192,192,28084,1,0,0:0:0:0:
448,192,28132,1,0,0:0:0:0:
64,192,28180,1,0,0:0:0:0:
192,192,28228,1,0,0:0:0:0:
320,192,28276,1,0,0:0:0:0:
448,192,28323,1,0,0:0:0:0:
64,192,28371,1,0,0:0:0:0:
320,192,28419,1,0,0:0:0:0:
64,192,28467,1,0,0:0:0:0:
192,192,28467,1,0,0:0:0:0:
320,192,28562,1,0,0:0:0:0:
192,192,28658,1,0,0:0:0:0:
448,192,28658,1,0,0:0:0:0:
320,192,28754,1,0,0:0:0:0:
64,192,28849,1,0,0:0:0:0:
448,192,28849,1,0,0:0:0:0:
192,192,28849,1,0,0:0:0:0:
320,192,28945,1,0,0:0:0:0:
192,192,29041,1,0,0:0:0:0:
64,192,29041,1,0,0:0:0:0:
448,192,29041,1,0,0:0:0:0:
192,192,29232,1,0,0:0:0:0:
320,192,29232,1,0,0:0:0:0:
448,192,29232,1,0,0:0:0:0:
64,192,29423,1,0,0:0:0:0:
192,192,29423,1,0,0:0:0:0:
320,192,29423,1,0,0:0:0:0:
448,192,29423,1,0,0:0:0:0:
320,192,29615,1,0,0:0:0:0:
192,192,29615,1,0,0:0:0:0:
64,192,29615,1,0,0:0:0:0:
64,192,29806,1,0,0:0:0:0:
192,192,29806,1,0,0:0:0:0:
320,192,29806,1,0,0:0:0:0:
448,192,29806,1,0,0:0:0:0:
320,192,29997,1,0,0:0:0:0:
448,192,29997,1,0,0:0:0:0:
64,192,29997,1,0,0:0:0:0:
192,192,30093,1,0,0:0:0:0:
320,192,30189,1,0,0:0:0:0:
64,192,30284,1,0,0:0:0:0:
448,192,30380,1,0,0:0:0:0:
192,192,30476,1,0,0:0:0:0:
448,192,30571,1,0,0:0:0:0:
64,192,30667,1,0,0:0:0:0:
192,192,30763,1,0,0:0:0:0:
448,192,30763,1,0,0:0:0:0:
320,192,30763,1,0,0:0:0:0:
320,192,30858,1,0,0:0:0:0:
448,192,30858,1,0,0:0:0:0:
192,192,30954,1,0,0:0:0:0:
64,192,30954,1,0,0:0:0:0:
448,192,31050,1,0,0:0:0:0:
192,192,31145,1,0,0:0:0:0:
64,192,31145,1,0,0:0:0:0:
320,192,31145,1,0,0:0:0:0:
448,192,31241,1,0,0:0:0:0:
192,192,31337,1,0,0:0:0:0:
64,192,31337,1,0,0:0:0:0:
320,192,31337,1,0,0:0:0:0:
448,192,31432,1,0,0:0:0:0:
64,192,31528,1,0,0:0:0:0:
192,192,31528,1,0,0:0:0:0:
320,192,31528,1,0,0:0:0:0:
448,192,31624,1,0,0:0:0:0:
320,192,31719,1,0,0:0:0:0:
192,192,31719,1,0,0:0:0:0:
64,192,31815,1,0,0:0:0:0:
192,192,31911,1,0,0:0:0:0:
320,192,31911,1,0,0:0:0:0:
448,192,31911,1,0,0:0:0:0:
64,192,32006,1,0,0:0:0:0:
192,192,32102,1,0,0:0:0:0:
320,192,32102,1,0,0:0:0:0:
448,192,32102,1,0,0:0:0:0:
64,192,32198,1,0,0:0:0:0:
192,192,32293,1,0,0:0:0:0:
320,192,32293,1,0,0:0:0:0:
448,192,32293,1,0,0:0:0:0:
448,192,32389,1,0,0:0:0:0:
320,192,32389,1,0,0:0:0:0:
192,192,32485,1,0,0:0:0:0:
64,192,32485,1,0,0:0:0:0:
320,192,32580,1,0,0:0:0:0:
448,192,32580,1,0,0:0:0:0:
192,192,32676,1,0,0:0:0:0:
64,192,32676,1,0,0:0:0:0:
448,192,32772,1,0,0:0:0:0:
192,192,32867,1,0,0:0:0:0:
64,192,32867,1,0,0:0:0:0:
320,192,32867,1,0,0:0:0:0:
448,192,32963,1,0,0:0:0:0:
192,192,33059,1,0,0:0:0:0:
64,192,33059,1,0,0:0:0:0:
320,192,33154,1,0,0:0:0:0:
448,192,33154,1,0,0:0:0:0:
192,192,33250,1,0,0:0:0:0:
64,192,33250,1,0,0:0:0:0:
320,192,33346,1,0,0:0:0:0:
192,192,33441,1,0,0:0:0:0:
448,192,33441,1,0,0:0:0:0:
64,192,33537,1,0,0:0:0:0:
320,192,33537,1,0,0:0:0:0:
192,192,33633,1,0,0:0:0:0:
448,192,33633,1,0,0:0:0:0:
64,192,33728,1,0,0:0:0:0:
192,192,33824,1,0,0:0:0:0:
320,192,33824,1,0,0:0:0:0:
448,192,33824,1,0,0:0:0:0:
64,192,33920,1,0,0:0:0:0:
192,192,34015,1,0,0:0:0:0:
320,192,34111,1,0,0:0:0:0:
192,192,34207,1,0,0:0:0:0:
64,192,34207,1,0,0:0:0:0:
448,192,34207,1,0,0:0:0:0:
320,192,34302,1,0,0:0:0:0:
192,192,34398,1,0,0:0:0:0:
64,192,34398,1,0,0:0:0:0:
448,192,34398,1,0,0:0:0:0:
320,192,34494,1,0,0:0:0:0:
192,192,34589,1,0,0:0:0:0:
64,192,34589,1,0,0:0:0:0:
448,192,34589,1,0,0:0:0:0:
320,192,34685,1,0,0:0:0:0:
64,192,34781,1,0,0:0:0:0:
192,192,34876,1,0,0:0:0:0:
64,192,34972,1,0,0:0:0:0:
320,192,34972,1,0,0:0:0:0:
448,192,34972,1,0,0:0:0:0:
192,192,35068,1,0,0:0:0:0:
64,192,35163,1,0,0:0:0:0:
320,192,35163,1,0,0:0:0:0:
448,192,35163,1,0,0:0:0:0:
192,192,35259,1,0,0:0:0:0:
64,192,35355,1,0,0:0:0:0:
320,192,35355,1,0,0:0:0:0:
448,192,35355,1,0,0:0:0:0:
192,192,35450,1,0,0:0:0:0:
64,192,35546,1,0,0:0:0:0:
448,192,35642,1,0,0:0:0:0:
320,192,35737,1,0,0:0:0:0:
192,192,35737,1,0,0:0:0:0:
64,192,35737,1,0,0:0:0:0:
448,192,35833,1,0,0:0:0:0:
320,192,35929,1,0,0:0:0:0:
192,192,35929,1,0,0:0:0:0:
64,192,35929,1,0,0:0:0:0:
448,192,36024,1,0,0:0:0:0:
192,192,36120,1,0,0:0:0:0:
64,192,36216,1,0,0:0:0:0:
192,192,36311,1,0,0:0:0:0:
320,192,36311,1,0,0:0:0:0:
448,192,36311,1,0,0:0:0:0:
64,192,36407,1,0,0:0:0:0:
192,192,36503,1,0,0:0:0:0:
320,192,36503,1,0,0:0:0:0:
448,192,36503,1,0,0:0:0:0:
64,192,36598,1,0,0:0:0:0:
192,192,36694,1,0,0:0:0:0:
448,192,36694,1,0,0:0:0:0:
320,192,36790,1,0,0:0:0:0:
192,192,36885,1,0,0:0:0:0:
64,192,36885,1,0,0:0:0:0:
448,192,36885,1,0,0:0:0:0:
64,192,36981,1,0,0:0:0:0:
192,192,36981,1,0,0:0:0:0:
320,192,37077,1,0,0:0:0:0:
448,192,37077,1,0,0:0:0:0:
64,192,37172,1,0,0:0:0:0:
192,192,37268,1,0,0:0:0:0:
320,192,37268,1,0,0:0:0:0:
448,192,37268,1,0,0:0:0:0:
64,192,37364,1,0,0:0:0:0:
320,192,37459,1,0,0:0:0:0:
192,192,37459,1,0,0:0:0:0:
448,192,37459,1,0,0:0:0:0:
64,192,37555,1,0,0:0:0:0:
192,192,37651,1,0,0:0:0:0:
320,192,37651,1,0,0:0:0:0:
448,192,37651,1,0,0:0:0:0:
64,192,37746,1,0,0:0:0:0:
192,192,37842,1,0,0:0:0:0:
320,192,37842,1,0,0:0:0:0:
448,192,37937,1,0,0:0:0:0:
64,192,38033,1,0,0:0:0:0:
192,192,38033,1,0,0:0:0:0:
320,192,38033,1,0,0:0:0:0:
448,192,38129,1,0,0:0:0:0:
64,192,38224,1,0,0:0:0:0:
192,192,38224,1,0,0:0:0:0:
320,192,38224,1,0,0:0:0:0:
448,192,38320,1,0,0:0:0:0:
320,192,38416,1,0,0:0:0:0:
192,192,38416,1,0,0:0:0:0:
64,192,38416,1,0,0:0:0:0:
64,192,38511,1,0,0:0:0:0:
192,192,38511,1,0,0:0:0:0:
448,192,38607,1,0,0:0:0:0:
320,192,38607,1,0,0:0:0:0:
64,192,38703,1,0,0:0:0:0:
192,192,38703,1,0,0:0:0:0:
320,192,38798,1,0,0:0:0:0:
448,192,38798,1,0,0:0:0:0:
64,192,38894,1,0,0:0:0:0:
192,192,38990,1,0,0:0:0:0:
320,192,38990,1,0,0:0:0:0:
448,192,38990,1,0,0:0:0:0:
64,192,39085,1,0,0:0:0:0:
192,192,39181,1,0,0:0:0:0:
448,192,39181,1,0,0:0:0:0:
320,192,39277,1,0,0:0:0:0:
64,192,39277,1,0,0:0:0:0:
192,192,39372,1,0,0:0:0:0:
448,192,39372,1,0,0:0:0:0:
320,192,39468,1,0,0:0:0:0:
64,192,39468,1,0,0:0:0:0:
192,192,39564,1,0,0:0:0:0:
448,192,39564,1,0,0:0:0:0:
64,192,39659,1,0,0:0:0:0:
320,192,39659,1,0,0:0:0:0:
192,192,39755,1,0,0:0:0:0:
448,192,39755,1,0,0:0:0:0:
64,192,39851,1,0,0:0:0:0:
192,192,39946,1,0,0:0:0:0:
320,192,39946,1,0,0:0:0:0:
448,192,39946,1,0,0:0:0:0:
64,192,40010,1,0,0:0:0:0:
320,192,40074,1,0,0:0:0:0:
448,192,40138,1,0,0:0:0:0:
192,192,40202,1,0,0:0:0:0:
320,192,40265,1,0,0:0:0:0:
64,192,40329,1,0,0:0:0:0:
192,192,40393,1,0,0:0:0:0:
320,192,40457,1,0,0:0:0:0:
192,192,40520,1,0,0:0:0:0:
64,192,40520,1,0,0:0:0:0:
448,192,40568,1,0,0:0:0:0:
320,192,40616,1,0,0:0:0:0:
64,192,40664,1,0,0:0:0:0:
448,192,40712,1,0,0:0:0:0:
320,192,40712,1,0,0:0:0:0:
192,192,40760,1,0,0:0:0:0:
320,192,40807,1,0,0:0:0:0:
448,192,40855,1,0,0:0:0:0:
64,192,40903,1,0,0:0:0:0:
192,192,40903,1,0,0:0:0:0:
320,192,40951,1,0,0:0:0:0:
192,192,40999,1,0,0:0:0:0:
64,192,41047,1,0,0:0:0:0:
320,192,41094,1,0,0:0:0:0:
448,192,41094,1,0,0:0:0:0:
192,192,41142,1,0,0:0:0:0:
64,192,41190,1,0,0:0:0:0:
448,192,41238,1,0,0:0:0:0:
192,192,41286,1,0,0:0:0:0:
320,192,41286,1,0,0:0:0:0:
64,192,41286,1,0,0:0:0:0:
64,192,41477,1,0,0:0:0:0:
448,192,41477,1,0,0:0:0:0:
192,192,41477,1,0,0:0:0:0:
320,192,41668,1,0,0:0:0:0:
448,192,41668,1,0,0:0:0:0:
192,192,41860,1,0,0:0:0:0:
320,192,41860,1,0,0:0:0:0:
448,192,41860,1,0,0:0:0:0:
320,192,41955,1,0,0:0:0:0:
448,192,41955,1,0,0:0:0:0:
64,192,42051,1,0,0:0:0:0:
192,192,42051,1,0,0:0:0:0:
320,192,42147,1,0,0:0:0:0:
448,192,42147,1,0,0:0:0:0:
192,192,42242,1,0,0:0:0:0:
64,192,42242,1,0,0:0:0:0:
320,192,42338,1,0,0:0:0:0:
448,192,42338,1,0,0:0:0:0:
64,192,42434,1,0,0:0:0:0:
192,192,42434,1,0,0:0:0:0:
320,192,42529,1,0,0:0:0:0:
448,192,42529,1,0,0:0:0:0:
64,192,42625,1,0,0:0:0:0:
320,192,42625,1,0,0:0:0:0:
448,192,42625,1,0,0:0:0:0:
64,192,43008,1,0,0:0:0:0:
192,192,43008,1,0,0:0:0:0:
448,192,43008,1,0,0:0:0:0:
64,192,43390,1,0,0:0:0:0:
192,192,43390,1,0,0:0:0:0:
448,192,43390,1,0,0:0:0:0:
448,192,43773,1,0,0:0:0:0:
192,192,43773,1,0,0:0:0:0:
64,192,43773,1,0,0:0:0:0:
64,192,43964,1,0,0:0:0:0:
192,192,43964,1,0,0:0:0:0:
448,192,43964,1,0,0:0:0:0:
448,192,44156,1,0,0:0:0:0:
192,192,44156,1,0,0:0:0:0:
64,192,44156,1,0,0:0:0:0:
64,192,44251,1,0,0:0:0:0:
192,192,44251,1,0,0:0:0:0:
448,192,44251,1,0,0:0:0:0:
448,192,44347,1,0,0:0:0:0:
192,192,44347,1,0,0:0:0:0:
64,192,44347,1,0,0:0:0:0:
64,192,44443,1,0,0:0:0:0:
192,192,44443,1,0,0:0:0:0:
448,192,44443,1,0,0:0:0:0:
448,192,44538,1,0,0:0:0:0:
192,192,44538,1,0,0:0:0:0:
64,192,44538,1,0,0:0:0:0:
320,192,44634,1,0,0:0:0:0:
64,192,44730,1,0,0:0:0:0:
448,192,44730,1,0,0:0:0:0:
192,192,44825,1,0,0:0:0:0:
320,192,44921,1,0,0:0:0:0:
448,192,44921,1,0,0:0:0:0:
192,192,45017,1,0,0:0:0:0:
64,192,45112,1,0,0:0:0:0:
448,192,45112,1,0,0:0:0:0:
192,192,45176,1,0,0:0:0:0:
448,192,45240,1,0,0:0:0:0:
64,192,45304,1,0,0:0:0:0:
192,192,45304,1,0,0:0:0:0:
320,192,45367,1,0,0:0:0:0:
448,192,45431,1,0,0:0:0:0:
192,192,45495,1,0,0:0:0:0:
320,192,45495,1,0,0:0:0:0:
448,192,45559,1,0,0:0:0:0:
64,192,45622,1,0,0:0:0:0:
320,192,45686,1,0,0:0:0:0:
448,192,45686,1,0,0:0:0:0:
192,192,45750,1,0,0:0:0:0:
64,192,45814,1,0,0:0:0:0:
192,192,45878,1,0,0:0:0:0:
448,192,45878,1,0,0:0:0:0:
320,192,45941,1,0,0:0:0:0:
64,192,46005,1,0,0:0:0:0:
320,192,46069,1,0,0:0:0:0:
192,192,46069,1,0,0:0:0:0:
448,192,46069,1,0,0:0:0:0:
64,192,46165,1,0,0:0:0:0:
192,192,46260,1,0,0:0:0:0:
448,192,46260,1,0,0:0:0:0:
320,192,46356,1,0,0:0:0:0:
64,192,46452,1,0,0:0:0:0:
448,192,46452,1,0,0:0:0:0:
192,192,46499,1,0,0:0:0:0:
320,192,46547,1,0,0:0:0:0:
448,192,46595,1,0,0:0:0:0:
64,192,46643,1,0,0:0:0:0:
192,192,46643,1,0,0:0:0:0:
320,192,46643,1,0,0:0:0:0:
448,192,46739,1,0,0:0:0:0:
320,192,46834,1,0,0:0:0:0:
192,192,46834,1,0,0:0:0:0:
64,192,46834,1,0,0:0:0:0:
448,192,46930,1,0,0:0:0:0:
64,192,47026,1,0,0:0:0:0:
192,192,47026,1,0,0:0:0:0:
320,192,47121,1,0,0:0:0:0:
448,192,47121,1,0,0:0:0:0:
192,192,47217,1,0,0:0:0:0:
64,192,47217,1,0,0:0:0:0:
320,192,47312,1,0,0:0:0:0:
64,192,47408,1,0,0:0:0:0:
192,192,47408,1,0,0:0:0:0:
448,192,47408,1,0,0:0:0:0:
320,192,47504,1,0,0:0:0:0:
64,192,47599,1,0,0:0:0:0:
192,192,47599,1,0,0:0:0:0:
448,192,47599,1,0,0:0:0:0:
320,192,47695,1,0,0:0:0:0:
64,192,47791,1,0,0:0:0:0:
192,192,47791,1,0,0:0:0:0:
320,192,47886,1,0,0:0:0:0:
64,192,47982,1,0,0:0:0:0:
448,192,47982,1,0,0:0:0:0:
320,192,48030,1,0,0:0:0:0:
192,192,48078,1,0,0:0:0:0:
64,192,48126,1,0,0:0:0:0:
192,192,48173,1,0,0:0:0:0:
320,192,48173,1,0,0:0:0:0:
448,192,48173,1,0,0:0:0:0:
64,192,48269,1,0,0:0:0:0:
192,192,48365,1,0,0:0:0:0:
320,192,48365,1,0,0:0:0:0:
448,192,48365,1,0,0:0:0:0:
64,192,48460,1,0,0:0:0:0:
192,192,48556,1,0,0:0:0:0:
448,192,48556,1,0,0:0:0:0:
320,192,48652,1,0,0:0:0:0:
192,192,48747,1,0,0:0:0:0:
64,192,48747,1,0,0:0:0:0:
448,192,48747,1,0,0:0:0:0:
320,192,48843,1,0,0:0:0:0:
64,192,48939,1,0,0:0:0:0:
192,192,48939,1,0,0:0:0:0:
448,192,49034,1,0,0:0:0:0:
64,192,49130,1,0,0:0:0:0:
192,192,49130,1,0,0:0:0:0:
448,192,49194,1,0,0:0:0:0:
64,192,49258,1,0,0:0:0:0:
448,192,49321,1,0,0:0:0:0:
64,192,49385,1,0,0:0:0:0:
448,192,49449,1,0,0:0:0:0:
64,192,49513,1,0,0:0:0:0:
192,192,49513,1,0,0:0:0:0:
320,192,49577,1,0,0:0:0:0:
64,192,49640,1,0,0:0:0:0:
320,192,49704,1,0,0:0:0:0:
64,192,49768,1,0,0:0:0:0:
320,192,49832,1,0,0:0:0:0:
64,192,49895,1,0,0:0:0:0:
192,192,49895,1,0,0:0:0:0:
448,192,49959,1,0,0:0:0:0:
192,192,50023,1,0,0:0:0:0:
448,192,50087,1,0,0:0:0:0:
192,192,50151,1,0,0:0:0:0:
448,192,50214,1,0,0:0:0:0:
192,192,50278,1,0,0:0:0:0:
64,192,50278,1,0,0:0:0:0:
320,192,50342,1,0,0:0:0:0:
192,192,50406,1,0,0:0:0:0:
320,192,50469,1,0,0:0:0:0:
192,192,50533,1,0,0:0:0:0:
320,192,50597,1,0,0:0:0:0:
64,192,50661,1,0,0:0:0:0:
192,192,50661,1,0,0:0:0:0:
448,192,50661,1,0,0:0:0:0:
320,192,50756,1,0,0:0:0:0:
448,192,50852,1,0,0:0:0:0:
64,192,50852,1,0,0:0:0:0:
192,192,50948,1,0,0:0:0:0:
320,192,51043,1,0,0:0:0:0:
448,192,51043,1,0,0:0:0:0:
64,192,51139,1,0,0:0:0:0:
192,192,51235,1,0,0:0:0:0:
448,192,51235,1,0,0:0:0:0:
320,192,51298,1,0,0:0:0:0:
64,192,51362,1,0,0:0:0:0:
320,192,51426,1,0,0:0:0:0:
448,192,51426,1,0,0:0:0:0:
192,192,51490,1,0,0:0:0:0:
64,192,51554,1,0,0:0:0:0:
192,192,51617,1,0,0:0:0:0:
320,192,51617,1,0,0:0:0:0:
64,192,51681,1,0,0:0:0:0:
448,192,51745,1,0,0:0:0:0:
64,192,51809,1,0,0:0:0:0:
320,192,51809,1,0,0:0:0:0:
192,192,51872,1,0,0:0:0:0:
64,192,51936,1,0,0:0:0:0:
320,192,52000,1,0,0:0:0:0:
448,192,52000,1,0,0:0:0:0:
192,192,52064,1,0,0:0:0:0:
64,192,52128,1,0,0:0:0:0:
192,192,52191,1,0,0:0:0:0:
320,192,52191,1,0,0:0:0:0:
448,192,52191,1,0,0:0:0:0:
64,192,52287,1,0,0:0:0:0:
192,192,52383,1,0,0:0:0:0:
448,192,52383,1,0,0:0:0:0:
320,192,52478,1,0,0:0:0:0:
64,192,52574,1,0,0:0:0:0:
448,192,52574,1,0,0:0:0:0:
320,192,52670,1,0,0:0:0:0:
64,192,52765,1,0,0:0:0:0:
192,192,52765,1,0,0:0:0:0:
320,192,52829,1,0,0:0:0:0:
448,192,52893,1,0,0:0:0:0:
192,192,52957,1,0,0:0:0:0:
320,192,52957,1,0,0:0:0:0:
448,192,53020,1,0,0:0:0:0:
64,192,53084,1,0,0:0:0:0:
320,192,53148,1,0,0:0:0:0:
448,192,53148,1,0,0:0:0:0:
192,192,53212,1,0,0:0:0:0:
64,192,53276,1,0,0:0:0:0:
192,192,53339,1,0,0:0:0:0:
320,192,53339,1,0,0:0:0:0:
64,192,53403,1,0,0:0:0:0:
448,192,53467,1,0,0:0:0:0:
64,192,53531,1,0,0:0:0:0:
320,192,53531,1,0,0:0:0:0:
192,192,53594,1,0,0:0:0:0:
448,192,53658,1,0,0:0:0:0:
64,192,53722,1,0,0:0:0:0:
192,192,53722,1,0,0:0:0:0:
320,192,53722,1,0,0:0:0:0:
192,192,54679,1,0,0:0:0:0:
64,192,54679,1,0,0:0:0:0:
320,192,54679,1,0,0:0:0:0:
192,192,54870,1,0,0:0:0:0:
320,192,54870,1,0,0:0:0:0:
448,192,54870,1,0,0:0:0:0:
64,192,55061,1,0,0:0:0:0:
448,192,55061,1,0,0:0:0:0:
320,192,55061,1,0,0:0:0:0:
192,192,55253,1,0,0:0:0:0:
320,192,55253,1,0,0:0:0:0:
448,192,55253,1,0,0:0:0:0:
64,192,55348,1,0,0:0:0:0:
192,192,55444,1,0,0:0:0:0:
448,192,55444,1,0,0:0:0:0:
320,192,55540,1,0,0:0:0:0:
192,192,55635,1,0,0:0:0:0:
64,192,55635,1,0,0:0:0:0:
448,192,55635,1,0,0:0:0:0:
320,192,55731,1,0,0:0:0:0:
64,192,55827,1,0,0:0:0:0:
448,192,55827,1,0,0:0:0:0:
192,192,55922,1,0,0:0:0:0:
320,192,55922,1,0,0:0:0:0:
64,192,56018,1,0,0:0:0:0:
448,192,56018,1,0,0:0:0:0:
192,192,56114,1,0,0:0:0:0:
448,192,56209,1,0,0:0:0:0:
320,192,56209,1,0,0:0:0:0:
64,192,56305,1,0,0:0:0:0:
448,192,56401,1,0,0:0:0:0:
320,192,56401,1,0,0:0:0:0:
192,192,56401,1,0,0:0:0:0:
64,192,56496,1,0,0:0:0:0:
448,192,56592,1,0,0:0:0:0:
192,192,56687,1,0,0:0:0:0:
64,192,56783,1,0,0:0:0:0:
320,192,56783,1,0,0:0:0:0:
448,192,56783,1,0,0:0:0:0:
192,192,56879,1,0,0:0:0:0:
320,192,56974,1,0,0:0:0:0:
448,192,56974,1,0,0:0:0:0:
64,192,57070,1,0,0:0:0:0:
192,192,57166,1,0,0:0:0:0:
448,192,57166,1,0,0:0:0:0:
320,192,57166,1,0,0:0:0:0:
64,192,57261,1,0,0:0:0:0:
192,192,57357,1,0,0:0:0:0:
448,192,57357,1,0,0:0:0:0:
320,192,57421,1,0,0:0:0:0:
64,192,57485,1,0,0:0:0:0:
320,192,57548,1,0,0:0:0:0:
448,192,57548,1,0,0:0:0:0:
192,192,57612,1,0,0:0:0:0:
64,192,57676,1,0,0:0:0:0:
192,192,57740,1,0,0:0:0:0:
320,192,57740,1,0,0:0:0:0:
448,192,57804,1,0,0:0:0:0:
64,192,57867,1,0,0:0:0:0:
192,192,57931,1,0,0:0:0:0:
448,192,57931,1,0,0:0:0:0:
320,192,57995,1,0,0:0:0:0:
64,192,58059,1,0,0:0:0:0:
320,192,58122,1,0,0:0:0:0:
448,192,58122,1,0,0:0:0:0:
192,192,58186,1,0,0:0:0:0:
64,192,58250,1,0,0:0:0:0:
192,192,58314,1,0,0:0:0:0:
320,192,58314,1,0,0:0:0:0:
448,192,58314,1,0,0:0:0:0:
64,192,58409,1,0,0:0:0:0:
320,192,58505,1,0,0:0:0:0:
448,192,58505,1,0,0:0:0:0:
192,192,58601,1,0,0:0:0:0:
64,192,58696,1,0,0:0:0:0:
448,192,58696,1,0,0:0:0:0:
192,192,58744,1,0,0:0:0:0:
320,192,58792,1,0,0:0:0:0:
448,192,58840,1,0,0:0:0:0:
64,192,58888,1,0,0:0:0:0:
192,192,58888,1,0,0:0:0:0:
320,192,58888,1,0,0:0:0:0:
448,192,58983,1,0,0:0:0:0:
64,192,59079,1,0,0:0:0:0:
320,192,59079,1,0,0:0:0:0:
192,192,59079,1,0,0:0:0:0:
448,192,59175,1,0,0:0:0:0:
192,192,59270,1,0,0:0:0:0:
320,192,59270,1,0,0:0:0:0:
64,192,59366,1,0,0:0:0:0:
192,192,59462,1,0,0:0:0:0:
320,192,59462,1,0,0:0:0:0:
448,192,59462,1,0,0:0:0:0:
64,192,59557,1,0,0:0:0:0:
192,192,59653,1,0,0:0:0:0:
320,192,59653,1,0,0:0:0:0:
448,192,59653,1,0,0:0:0:0:
64,192,59749,1,0,0:0:0:0:
192,192,59844,1,0,0:0:0:0:
320,192,59844,1,0,0:0:0:0:
448,192,59844,1,0,0:0:0:0:
64,192,59940,1,0,0:0:0:0:
192,192,60036,1,0,0:0:0:0:
448,192,60036,1,0,0:0:0:0:
320,192,60131,1,0,0:0:0:0:
64,192,60227,1,0,0:0:0:0:
448,192,60227,1,0,0:0:0:0:
320,192,60275,1,0,0:0:0:0:
192,192,60323,1,0,0:0:0:0:
64,192,60371,1,0,0:0:0:0:
192,192,60418,1,0,0:0:0:0:
320,192,60418,1,0,0:0:0:0:
448,192,60418,1,0,0:0:0:0:
64,192,60514,1,0,0:0:0:0:
192,192,60610,1,0,0:0:0:0:
448,192,60610,1,0,0:0:0:0:
320,192,60705,1,0,0:0:0:0:
64,192,60801,1,0,0:0:0:0:
448,192,60801,1,0,0:0:0:0:
192,192,60897,1,0,0:0:0:0:
64,192,60992,1,0,0:0:0:0:
448,192,60992,1,0,0:0:0:0:
320,192,60992,1,0,0:0:0:0:
192,192,61088,1,0,0:0:0:0:
64,192,61184,1,0,0:0:0:0:
448,192,61184,1,0,0:0:0:0:
320,192,61184,1,0,0:0:0:0:
192,192,61279,1,0,0:0:0:0:
320,192,61375,1,0,0:0:0:0:
448,192,61375,1,0,0:0:0:0:
64,192,61439,1,0,0:0:0:0:
320,192,61503,1,0,0:0:0:0:
64,192,61566,1,0,0:0:0:0:
320,192,61630,1,0,0:0:0:0:
64,192,61694,1,0,0:0:0:0:
320,192,61758,1,0,0:0:0:0:
448,192,61758,1,0,0:0:0:0:
192,192,61821,1,0,0:0:0:0:
320,192,61885,1,0,0:0:0:0:
192,192,61949,1,0,0:0:0:0:
320,192,62013,1,0,0:0:0:0:
192,192,62077,1,0,0:0:0:0:
320,192,62140,1,0,0:0:0:0:
448,192,62140,1,0,0:0:0:0:
64,192,62204,1,0,0:0:0:0:
448,192,62268,1,0,0:0:0:0:
64,192,62332,1,0,0:0:0:0:
448,192,62395,1,0,0:0:0:0:
64,192,62459,1,0,0:0:0:0:
320,192,62523,1,0,0:0:0:0:
448,192,62523,1,0,0:0:0:0:
64,192,62587,1,0,0:0:0:0:
320,192,62651,1,0,0:0:0:0:
64,192,62714,1,0,0:0:0:0:
320,192,62778,1,0,0:0:0:0:
64,192,62842,1,0,0:0:0:0:
192,192,62906,1,0,0:0:0:0:
320,192,62906,1,0,0:0:0:0:
448,192,62906,1,0,0:0:0:0:
64,192,63001,1,0,0:0:0:0:
448,192,63097,1,0,0:0:0:0:
192,192,63097,1,0,0:0:0:0:
320,192,63193,1,0,0:0:0:0:
448,192,63288,1,0,0:0:0:0:
64,192,63288,1,0,0:0:0:0:
192,192,63288,1,0,0:0:0:0:
320,192,63384,1,0,0:0:0:0:
64,192,63480,1,0,0:0:0:0:
448,192,63480,1,0,0:0:0:0:
192,192,63543,1,0,0:0:0:0:
448,192,63607,1,0,0:0:0:0:
64,192,63671,1,0,0:0:0:0:
192,192,63671,1,0,0:0:0:0:
320,192,63735,1,0,0:0:0:0:
448,192,63798,1,0,0:0:0:0:
192,192,63862,1,0,0:0:0:0:
320,192,63862,1,0,0:0:0:0:
448,192,63926,1,0,0:0:0:0:
64,192,63990,1,0,0:0:0:0:
448,192,64054,1,0,0:0:0:0:
320,192,64054,1,0,0:0:0:0:
192,192,64117,1,0,0:0:0:0:
64,192,64181,1,0,0:0:0:0:
192,192,64245,1,0,0:0:0:0:
448,192,64245,1,0,0:0:0:0:
320,192,64309,1,0,0:0:0:0:
192,192,64372,1,0,0:0:0:0:
320,192,64436,1,0,0:0:0:0:
448,192,64436,1,0,0:0:0:0:
64,192,64436,1,0,0:0:0:0:
192,192,64532,1,0,0:0:0:0:
64,192,64628,1,0,0:0:0:0:
320,192,64628,1,0,0:0:0:0:
448,192,64723,1,0,0:0:0:0:
64,192,64819,1,0,0:0:0:0:
192,192,64819,1,0,0:0:0:0:
320,192,64819,1,0,0:0:0:0:
448,192,64915,1,0,0:0:0:0:
64,192,65010,1,0,0:0:0:0:
320,192,65010,1,0,0:0:0:0:
192,192,65074,1,0,0:0:0:0:
448,192,65138,1,0,0:0:0:0:
192,192,65202,1,0,0:0:0:0:
320,192,65202,1,0,0:0:0:0:
64,192,65265,1,0,0:0:0:0:
448,192,65329,1,0,0:0:0:0:
64,192,65393,1,0,0:0:0:0:
192,192,65393,1,0,0:0:0:0:
320,192,65457,1,0,0:0:0:0:
448,192,65520,1,0,0:0:0:0:
192,192,65584,1,0,0:0:0:0:
320,192,65584,1,0,0:0:0:0:
64,192,65648,1,0,0:0:0:0:
448,192,65712,1,0,0:0:0:0:
64,192,65776,1,0,0:0:0:0:
320,192,65776,1,0,0:0:0:0:
192,192,65839,1,0,0:0:0:0:
448,192,65903,1,0,0:0:0:0:
320,192,65967,1,0,0:0:0:0:
192,192,65967,1,0,0:0:0:0:
64,192,65967,1,0,0:0:0:0:
320,192,66923,1,0,0:0:0:0:
448,192,66923,1,0,0:0:0:0:
192,192,67115,1,0,0:0:0:0:
320,192,67115,1,0,0:0:0:0:
192,192,67306,1,0,0:0:0:0:
448,192,67306,1,0,0:0:0:0:
192,192,67497,1,0,0:0:0:0:
320,192,67497,1,0,0:0:0:0:
448,192,67497,1,0,0:0:0:0:
64,192,67497,1,0,0:0:0:0:
64,192,67689,1,0,0:0:0:0:
192,192,67689,1,0,0:0:0:0:
320,192,67689,1,0,0:0:0:0:
448,192,67880,1,0,0:0:0:0:
320,192,67880,1,0,0:0:0:0:
64,192,67880,1,0,0:0:0:0:
64,192,68071,1,0,0:0:0:0:
64,192,68263,1,0,0:0:0:0:
192,192,68263,1,0,0:0:0:0:
320,192,68263,1,0,0:0:0:0:
64,192,68454,1,0,0:0:0:0:
192,192,68454,1,0,0:0:0:0:
448,192,68550,1,0,0:0:0:0:
320,192,68550,1,0,0:0:0:0:
64,192,68645,1,0,0:0:0:0:
192,192,68645,1,0,0:0:0:0:
192,192,68837,1,0,0:0:0:0:
64,192,68837,1,0,0:0:0:0:
64,192,69028,1,0,0:0:0:0:
448,192,69028,1,0,0:0:0:0:
192,192,69076,1,0,0:0:0:0:
320,192,69124,1,0,0:0:0:0:
448,192,69172,1,0,0:0:0:0:
64,192,69219,1,0,0:0:0:0:
320,192,69315,1,0,0:0:0:0:
64,192,69411,1,0,0:0:0:0:
192,192,69411,1,0,0:0:0:0:
448,192,69411,1,0,0:0:0:0:
320,192,69506,1,0,0:0:0:0:
64,192,69602,1,0,0:0:0:0:
448,192,69602,1,0,0:0:0:0:
320,192,69698,1,0,0:0:0:0:
64,192,69793,1,0,0:0:0:0:
448,192,69793,1,0,0:0:0:0:
320,192,69841,1,0,0:0:0:0:
192,192,69889,1,0,0:0:0:0:
64,192,69937,1,0,0:0:0:0:
448,192,69985,1,0,0:0:0:0:
192,192,70080,1,0,0:0:0:0:
64,192,70176,1,0,0:0:0:0:
320,192,70176,1,0,0:0:0:0:
448,192,70176,1,0,0:0:0:0:
192,192,70272,1,0,0:0:0:0:
64,192,70367,1,0,0:0:0:0:
448,192,70367,1,0,0:0:0:0:
192,192,70463,1,0,0:0:0:0:
320,192,70559,1,0,0:0:0:0:
448,192,70559,1,0,0:0:0:0:
192,192,70654,1,0,0:0:0:0:
64,192,70654,1,0,0:0:0:0:
320,192,70750,1,0,0:0:0:0:
448,192,70750,1,0,0:0:0:0:
192,192,70846,1,0,0:0:0:0:
64,192,70846,1,0,0:0:0:0:
320,192,70941,1,0,0:0:0:0:
448,192,70941,1,0,0:0:0:0:
64,192,71037,1,0,0:0:0:0:
192,192,71133,1,0,0:0:0:0:
320,192,71133,1,0,0:0:0:0:
448,192,71133,1,0,0:0:0:0:
64,192,71228,1,0,0:0:0:0:
448,192,71324,1,0,0:0:0:0:
320,192,71324,1,0,0:0:0:0:
192,192,71388,1,0,0:0:0:0:
64,192,71388,1,0,0:0:0:0:
320,192,71452,1,0,0:0:0:0:
448,192,71452,1,0,0:0:0:0:
192,192,71515,1,0,0:0:0:0:
64,192,71515,1,0,0:0:0:0:
448,192,71611,1,0,0:0:0:0:
64,192,71707,1,0,0:0:0:0:
192,192,71707,1,0,0:0:0:0:
320,192,71707,1,0,0:0:0:0:
448,192,71802,1,0,0:0:0:0:
320,192,71898,1,0,0:0:0:0:
64,192,71898,1,0,0:0:0:0:
192,192,71994,1,0,0:0:0:0:
64,192,72089,1,0,0:0:0:0:
448,192,72089,1,0,0:0:0:0:
192,192,72137,1,0,0:0:0:0:
320,192,72185,1,0,0:0:0:0:
448,192,72233,1,0,0:0:0:0:
64,192,72281,1,0,0:0:0:0:
320,192,72376,1,0,0:0:0:0:
192,192,72472,1,0,0:0:0:0:
64,192,72472,1,0,0:0:0:0:
448,192,72472,1,0,0:0:0:0:
320,192,72568,1,0,0:0:0:0:
192,192,72663,1,0,0:0:0:0:
448,192,72663,1,0,0:0:0:0:
320,192,72759,1,0,0:0:0:0:
64,192,72855,1,0,0:0:0:0:
448,192,72855,1,0,0:0:0:0:
192,192,72902,1,0,0:0:0:0:
320,192,72950,1,0,0:0:0:0:
448,192,72998,1,0,0:0:0:0:
64,192,73046,1,0,0:0:0:0:
192,192,73142,1,0,0:0:0:0:
320,192,73237,1,0,0:0:0:0:
448,192,73237,1,0,0:0:0:0:
192,192,73333,1,0,0:0:0:0:
64,192,73429,1,0,0:0:0:0:
448,192,73429,1,0,0:0:0:0:
320,192,73429,1,0,0:0:0:0:
192,192,73524,1,0,0:0:0:0:
64,192,73620,1,0,0:0:0:0:
448,192,73620,1,0,0:0:0:0:
320,192,73716,1,0,0:0:0:0:
192,192,73716,1,0,0:0:0:0:
64,192,73811,1,0,0:0:0:0:
448,192,73811,1,0,0:0:0:0:
320,192,73907,1,0,0:0:0:0:
192,192,73907,1,0,0:0:0:0:
64,192,74003,1,0,0:0:0:0:
448,192,74003,1,0,0:0:0:0:
320,192,74098,1,0,0:0:0:0:
64,192,74194,1,0,0:0:0:0:
192,192,74194,1,0,0:0:0:0:
448,192,74290,1,0,0:0:0:0:
64,192,74385,1,0,0:0:0:0:
192,192,74385,1,0,0:0:0:0:
320,192,74433,1,0,0:0:0:0:
448,192,74481,1,0,0:0:0:0:
64,192,74529,1,0,0:0:0:0:
192,192,74577,1,0,0:0:0:0:
448,192,74672,1,0,0:0:0:0:
64,192,74768,1,0,0:0:0:0:
320,192,74768,1,0,0:0:0:0:
192,192,74768,1,0,0:0:0:0:
448,192,74864,1,0,0:0:0:0:
64,192,74959,1,0,0:0:0:0:
320,192,74959,1,0,0:0:0:0:
192,192,75055,1,0,0:0:0:0:
64,192,75151,1,0,0:0:0:0:
448,192,75151,1,0,0:0:0:0:
320,192,75198,1,0,0:0:0:0:
192,192,75246,1,0,0:0:0:0:
64,192,75294,1,0,0:0:0:0:
448,192,75342,1,0,0:0:0:0:
192,192,75437,1,0,0:0:0:0:
64,192,75533,1,0,0:0:0:0:
320,192,75533,1,0,0:0:0:0:
448,192,75533,1,0,0:0:0:0:
192,192,75629,1,0,0:0:0:0:
320,192,75724,1,0,0:0:0:0:
448,192,75724,1,0,0:0:0:0:
192,192,75820,1,0,0:0:0:0:
64,192,75916,1,0,0:0:0:0:
448,192,75916,1,0,0:0:0:0:
320,192,75964,1,0,0:0:0:0:
192,192,76011,1,0,0:0:0:0:
64,192,76059,1,0,0:0:0:0:
448,192,76107,1,0,0:0:0:0:
64,192,76203,1,0,0:0:0:0:
192,192,76298,1,0,0:0:0:0:
320,192,76298,1,0,0:0:0:0:
448,192,76298,1,0,0:0:0:0:
64,192,76394,1,0,0:0:0:0:
320,192,76490,1,0,0:0:0:0:
448,192,76490,1,0,0:0:0:0:
192,192,76585,1,0,0:0:0:0:
64,192,76681,1,0,0:0:0:0:
320,192,76681,1,0,0:0:0:0:
192,192,76777,1,0,0:0:0:0:
448,192,76777,1,0,0:0:0:0:
64,192,76872,1,0,0:0:0:0:
320,192,76872,1,0,0:0:0:0:
192,192,76968,1,0,0:0:0:0:
448,192,76968,1,0,0:0:0:0:
64,192,77064,1,0,0:0:0:0:
320,192,77064,1,0,0:0:0:0:
448,192,77159,1,0,0:0:0:0:
64,192,77255,1,0,0:0:0:0:
192,192,77255,1,0,0:0:0:0:
320,192,77255,1,0,0:0:0:0:
448,192,77351,1,0,0:0:0:0:
64,192,77446,1,0,0:0:0:0:
320,192,77446,1,0,0:0:0:0:
192,192,77510,1,0,0:0:0:0:
448,192,77510,1,0,0:0:0:0:
320,192,77574,1,0,0:0:0:0:
64,192,77574,1,0,0:0:0:0:
192,192,77638,1,0,0:0:0:0:
448,192,77638,1,0,0:0:0:0:
64,192,77733,1,0,0:0:0:0:
320,192,77829,1,0,0:0:0:0:
448,192,77829,1,0,0:0:0:0:
192,192,77925,1,0,0:0:0:0:
64,192,78020,1,0,0:0:0:0:
320,192,78020,1,0,0:0:0:0:
448,192,78020,1,0,0:0:0:0:
192,192,78116,1,0,0:0:0:0:
64,192,78212,1,0,0:0:0:0:
448,192,78212,1,0,0:0:0:0:
192,192,78260,1,0,0:0:0:0:
320,192,78307,1,0,0:0:0:0:
448,192,78355,1,0,0:0:0:0:
64,192,78403,1,0,0:0:0:0:
320,192,78499,1,0,0:0:0:0:
192,192,78594,1,0,0:0:0:0:
64,192,78594,1,0,0:0:0:0:
448,192,78594,1,0,0:0:0:0:
320,192,78690,1,0,0:0:0:0:
192,192,78786,1,0,0:0:0:0:
64,192,78786,1,0,0:0:0:0:
448,192,78881,1,0,0:0:0:0:
64,192,78977,1,0,0:0:0:0:
192,192,78977,1,0,0:0:0:0:
320,192,79025,1,0,0:0:0:0:
448,192,79073,1,0,0:0:0:0:
64,192,79121,1,0,0:0:0:0:
192,192,79168,1,0,0:0:0:0:
448,192,79264,1,0,0:0:0:0:
64,192,79360,1,0,0:0:0:0:
192,192,79360,1,0,0:0:0:0:
320,192,79360,1,0,0:0:0:0:
448,192,79455,1,0,0:0:0:0:
64,192,79551,1,0,0:0:0:0:
320,192,79551,1,0,0:0:0:0:
448,192,79647,1,0,0:0:0:0:
192,192,79742,1,0,0:0:0:0:
64,192,79742,1,0,0:0:0:0:
320,192,79838,1,0,0:0:0:0:
448,192,79838,1,0,0:0:0:0:
64,192,79934,1,0,0:0:0:0:
192,192,79934,1,0,0:0:0:0:
320,192,80029,1,0,0:0:0:0:
448,192,80029,1,0,0:0:0:0:
192,192,80125,1,0,0:0:0:0:
64,192,80125,1,0,0:0:0:0:
320,192,80221,1,0,0:0:0:0:
192,192,80316,1,0,0:0:0:0:
448,192,80316,1,0,0:0:0:0:
320,192,80412,1,0,0:0:0:0:
64,192,80508,1,0,0:0:0:0:
192,192,80508,1,0,0:0:0:0:
448,192,80508,1,0,0:0:0:0:
320,192,80699,1,0,0:0:0:0:
192,192,80890,1,0,0:0:0:0:
64,192,80890,1,0,0:0:0:0:
448,192,81082,1,0,0:0:0:0:
64,192,81273,1,0,0:0:0:0:
192,192,81273,1,0,0:0:0:0:
320,192,81273,1,0,0:0:0:0:
448,192,81369,1,0,0:0:0:0:
192,192,81464,1,0,0:0:0:0:
64,192,81560,1,0,0:0:0:0:
192,192,81656,1,0,0:0:0:0:
320,192,81656,1,0,0:0:0:0:
448,192,81656,1,0,0:0:0:0:
64,192,81751,1,0,0:0:0:0:
448,192,81847,1,0,0:0:0:0:
320,192,81847,1,0,0:0:0:0:
192,192,81847,1,0,0:0:0:0:
64,192,81943,1,0,0:0:0:0:
192,192,82038,1,0,0:0:0:0:
320,192,82038,1,0,0:0:0:0:
448,192,82038,1,0,0:0:0:0:
64,192,82134,1,0,0:0:0:0:
192,192,82230,1,0,0:0:0:0:
320,192,82325,1,0,0:0:0:0:
192,192,82421,1,0,0:0:0:0:
64,192,82421,1,0,0:0:0:0:
448,192,82421,1,0,0:0:0:0:
320,192,82517,1,0,0:0:0:0:
448,192,82612,1,0,0:0:0:0:
192,192,82612,1,0,0:0:0:0:
64,192,82612,1,0,0:0:0:0:
320,192,82708,1,0,0:0:0:0:
448,192,82804,1,0,0:0:0:0:
192,192,82804,1,0,0:0:0:0:
64,192,82804,1,0,0:0:0:0:
320,192,82899,1,0,0:0:0:0:
64,192,82995,1,0,0:0:0:0:
448,192,82995,1,0,0:0:0:0:
192,192,83091,1,0,0:0:0:0:
320,192,83186,1,0,0:0:0:0:
448,192,83186,1,0,0:0:0:0:
192,192,83282,1,0,0:0:0:0:
64,192,83378,1,0,0:0:0:0:
320,192,83378,1,0,0:0:0:0:
448,192,83378,1,0,0:0:0:0:
192,192,83473,1,0,0:0:0:0:
64,192,83569,1,0,0:0:0:0:
448,192,83569,1,0,0:0:0:0:
320,192,83569,1,0,0:0:0:0:
192,192,83665,1,0,0:0:0:0:
64,192,83760,1,0,0:0:0:0:
448,192,83760,1,0,0:0:0:0:
320,192,83856,1,0,0:0:0:0:
192,192,83952,1,0,0:0:0:0:
64,192,83952,1,0,0:0:0:0:
448,192,83952,1,0,0:0:0:0:
320,192,84047,1,0,0:0:0:0:
448,192,84143,1,0,0:0:0:0:
192,192,84143,1,0,0:0:0:0:
64,192,84143,1,0,0:0:0:0:
320,192,84239,1,0,0:0:0:0:
64,192,84334,1,0,0:0:0:0:
192,192,84334,1,0,0:0:0:0:
448,192,84334,1,0,0:0:0:0:
320,192,84382,1,0,0:0:0:0:
192,192,84430,1,0,0:0:0:0:
64,192,84478,1,0,0:0:0:0:
448,192,84526,1,0,0:0:0:0:
320,192,84573,1,0,0:0:0:0:
192,192,84621,1,0,0:0:0:0:
64,192,84669,1,0,0:0:0:0:
320,192,84717,1,0,0:0:0:0:
448,192,84765,1,0,0:0:0:0:
64,192,84812,1,0,0:0:0:0:
192,192,84860,1,0,0:0:0:0:
320,192,84908,1,0,0:0:0:0:
448,192,84956,1,0,0:0:0:0:
64,192,85004,1,0,0:0:0:0:
192,192,85052,1,0,0:0:0:0:
320,192,85099,1,0,0:0:0:0:
448,192,85099,1,0,0:0:0:0:
64,192,85195,1,0,0:0:0:0:
192,192,85291,1,0,0:0:0:0:
448,192,85291,1,0,0:0:0:0:
320,192,85386,1,0,0:0:0:0:
192,192,85482,1,0,0:0:0:0:
64,192,85482,1,0,0:0:0:0:
448,192,85482,1,0,0:0:0:0:
320,192,85578,1,0,0:0:0:0:
64,192,85673,1,0,0:0:0:0:
448,192,85769,1,0,0:0:0:0:
64,192,85865,1,0,0:0:0:0:
192,192,85865,1,0,0:0:0:0:
320,192,85929,1,0,0:0:0:0:
64,192,85992,1,0,0:0:0:0:
448,192,86056,1,0,0:0:0:0:
192,192,86120,1,0,0:0:0:0:
320,192,86184,1,0,0:0:0:0:
192,192,86247,1,0,0:0:0:0:
64,192,86247,1,0,0:0:0:0:
448,192,86311,1,0,0:0:0:0:
64,192,86375,1,0,0:0:0:0:
320,192,86439,1,0,0:0:0:0:
192,192,86503,1,0,0:0:0:0:
448,192,86566,1,0,0:0:0:0:
192,192,86630,1,0,0:0:0:0:
64,192,86630,1,0,0:0:0:0:
320,192,86694,1,0,0:0:0:0:
64,192,86758,1,0,0:0:0:0:
448,192,86821,1,0,0:0:0:0:
192,192,86885,1,0,0:0:0:0:
448,192,86949,1,0,0:0:0:0:
192,192,87013,1,0,0:0:0:0:
64,192,87013,1,0,0:0:0:0:
320,192,87077,1,0,0:0:0:0:
64,192,87140,1,0,0:0:0:0:
320,192,87204,1,0,0:0:0:0:
192,192,87268,1,0,0:0:0:0:
448,192,87332,1,0,0:0:0:0:
320,192,87395,1,0,0:0:0:0:
64,192,87395,1,0,0:0:0:0:
192,192,87395,1,0,0:0:0:0:
448,192,87491,1,0,0:0:0:0:
64,192,87587,1,0,0:0:0:0:
448,192,87682,1,0,0:0:0:0:
320,192,87778,1,0,0:0:0:0:
192,192,87778,1,0,0:0:0:0:
64,192,87778,1,0,0:0:0:0:
448,192,87874,1,0,0:0:0:0:
320,192,87969,1,0,0:0:0:0:
192,192,87969,1,0,0:0:0:0:
64,192,87969,1,0,0:0:0:0:
448,192,88065,1,0,0:0:0:0:
320,192,88161,1,0,0:0:0:0:
64,192,88161,1,0,0:0:0:0:
192,192,88161,1,0,0:0:0:0:
448,192,88256,1,0,0:0:0:0:
64,192,88352,1,0,0:0:0:0:
320,192,88352,1,0,0:0:0:0:
192,192,88448,1,0,0:0:0:0:
320,192,88543,1,0,0:0:0:0:
448,192,88543,1,0,0:0:0:0:
64,192,88543,1,0,0:0:0:0:
192,192,88639,1,0,0:0:0:0:
64,192,88735,1,0,0:0:0:0:
320,192,88735,1,0,0:0:0:0:
448,192,88735,1,0,0:0:0:0:
192,192,88830,1,0,0:0:0:0:
64,192,88926,1,0,0:0:0:0:
320,192,88926,1,0,0:0:0:0:
448,192,88926,1,0,0:0:0:0:
192,192,89022,1,0,0:0:0:0:
64,192,89117,1,0,0:0:0:0:
448,192,89117,1,0,0:0:0:0:
192,192,89213,1,0,0:0:0:0:
320,192,89213,1,0,0:0:0:0:
64,192,89309,1,0,0:0:0:0:
448,192,89309,1,0,0:0:0:0:
320,192,89404,1,0,0:0:0:0:
192,192,89500,1,0,0:0:0:0:
64,192,89500,1,0,0:0:0:0:
448,192,89500,1,0,0:0:0:0:
320,192,89596,1,0,0:0:0:0:
64,192,89691,1,0,0:0:0:0:
192,192,89691,1,0,0:0:0:0:
448,192,89691,1,0,0:0:0:0:
320,192,89787,1,0,0:0:0:0:
192,192,89883,1,0,0:0:0:0:
448,192,89883,1,0,0:0:0:0:
64,192,89978,1,0,0:0:0:0:
192,192,90074,1,0,0:0:0:0:
320,192,90074,1,0,0:0:0:0:
448,192,90074,1,0,0:0:0:0:
64,192,90170,1,0,0:0:0:0:
192,192,90265,1,0,0:0:0:0:
320,192,90265,1,0,0:0:0:0:
448,192,90265,1,0,0:0:0:0:
64,192,90361,1,0,0:0:0:0:
192,192,90457,1,0,0:0:0:0:
448,192,90457,1,0,0:0:0:0:
320,192,90504,1,0,0:0:0:0:
192,192,90552,1,0,0:0:0:0:
64,192,90600,1,0,0:0:0:0:
448,192,90648,1,0,0:0:0:0:
320,192,90696,1,0,0:0:0:0:
192,192,90744,1,0,0:0:0:0:
448,192,90791,1,0,0:0:0:0:
64,192,90839,1,0,0:0:0:0:
192,192,90887,1,0,0:0:0:0:
320,192,90935,1,0,0:0:0:0:
448,192,90983,1,0,0:0:0:0:
192,192,91031,1,0,0:0:0:0:
64,192,91078,1,0,0:0:0:0:
320,192,91126,1,0,0:0:0:0:
448,192,91174,1,0,0:0:0:0:
64,192,91222,1,0,0:0:0:0:
192,192,91222,1,0,0:0:0:0:
320,192,91318,1,0,0:0:0:0:
192,192,91413,1,0,0:0:0:0:
448,192,91413,1,0,0:0:0:0:
320,192,91509,1,0,0:0:0:0:
192,192,91605,1,0,0:0:0:0:
64,192,91605,1,0,0:0:0:0:
448,192,91605,1,0,0:0:0:0:
320,192,91796,1,0,0:0:0:0:
192,192,91796,1,0,0:0:0:0:
64,192,91796,1,0,0:0:0:0:
448,192,91796,1,0,0:0:0:0:
192,192,91987,1,0,0:0:0:0:
320,192,91987,1,0,0:0:0:0:
448,192,91987,1,0,0:0:0:0:
448,192,92179,1,0,0:0:0:0:
320,192,92179,1,0,0:0:0:0:
192,192,92179,1,0,0:0:0:0:
64,192,92179,1,0,0:0:0:0:
64,192,92370,1,0,0:0:0:0:
320,192,92370,1,0,0:0:0:0:
448,192,92370,1,0,0:0:0:0:
192,192,92561,1,0,0:0:0:0:
64,192,92561,1,0,0:0:0:0:
320,192,92561,1,0,0:0:0:0:
448,192,92561,1,0,0:0:0:0:
64,192,92753,1,0,0:0:0:0:
192,192,92753,1,0,0:0:0:0:
320,192,92753,1,0,0:0:0:0:
448,192,92848,1,0,0:0:0:0:
192,192,92944,1,0,0:0:0:0:
448,192,93040,1,0,0:0:0:0:
64,192,93135,1,0,0:0:0:0:
320,192,93231,1,0,0:0:0:0:
192,192,93327,1,0,0:0:0:0:
448,192,93422,1,0,0:0:0:0:
192,192,93518,1,0,0:0:0:0:
64,192,93518,1,0,0:0:0:0:
320,192,93518,1,0,0:0:0:0:
64,192,93614,1,0,0:0:0:0:
192,192,93614,1,0,0:0:0:0:
448,192,93709,1,0,0:0:0:0:
320,192,93709,1,0,0:0:0:0:
64,192,93805,1,0,0:0:0:0:
192,192,93901,1,0,0:0:0:0:
448,192,93901,1,0,0:0:0:0:
320,192,93901,1,0,0:0:0:0:
64,192,93996,1,0,0:0:0:0:
192,192,94092,1,0,0:0:0:0:
448,192,94092,1,0,0:0:0:0:
320,192,94092,1,0,0:0:0:0:
64,192,94187,1,0,0:0:0:0:
192,192,94283,1,0,0:0:0:0:
320,192,94283,1,0,0:0:0:0:
448,192,94283,1,0,0:0:0:0:
64,192,94379,1,0,0:0:0:0:
320,192,94474,1,0,0:0:0:0:
192,192,94474,1,0,0:0:0:0:
448,192,94570,1,0,0:0:0:0:
64,192,94666,1,0,0:0:0:0:
192,192,94666,1,0,0:0:0:0:
320,192,94666,1,0,0:0:0:0:
448,192,94761,1,0,0:0:0:0:
64,192,94857,1,0,0:0:0:0:
192,192,94857,1,0,0:0:0:0:
320,192,94857,1,0,0:0:0:0:
448,192,94953,1,0,0:0:0:0:
64,192,95048,1,0,0:0:0:0:
192,192,95048,1,0,0:0:0:0:
320,192,95048,1,0,0:0:0:0:
192,192,95144,1,0,0:0:0:0:
64,192,95144,1,0,0:0:0:0:
448,192,95240,1,0,0:0:0:0:
320,192,95240,1,0,0:0:0:0:
64,192,95335,1,0,0:0:0:0:
192,192,95335,1,0,0:0:0:0:
448,192,95431,1,0,0:0:0:0:
320,192,95431,1,0,0:0:0:0:
64,192,95527,1,0,0:0:0:0:
192,192,95622,1,0,0:0:0:0:
448,192,95622,1,0,0:0:0:0:
320,192,95622,1,0,0:0:0:0:
64,192,95718,1,0,0:0:0:0:
448,192,95814,1,0,0:0:0:0:
320,192,95814,1,0,0:0:0:0:
64,192,95909,1,0,0:0:0:0:
192,192,95909,1,0,0:0:0:0:
448,192,96005,1,0,0:0:0:0:
320,192,96005,1,0,0:0:0:0:
192,192,96101,1,0,0:0:0:0:
64,192,96196,1,0,0:0:0:0:
320,192,96196,1,0,0:0:0:0:
192,192,96292,1,0,0:0:0:0:
448,192,96292,1,0,0:0:0:0:
64,192,96388,1,0,0:0:0:0:
320,192,96388,1,0,0:0:0:0:
448,192,96483,1,0,0:0:0:0:
64,192,96579,1,0,0:0:0:0:
192,192,96579,1,0,0:0:0:0:
320,192,96579,1,0,0:0:0:0:
448,192,96675,1,0,0:0:0:0:
320,192,96770,1,0,0:0:0:0:
192,192,96866,1,0,0:0:0:0:
64,192,96962,1,0,0:0:0:0:
320,192,96962,1,0,0:0:0:0:
448,192,96962,1,0,0:0:0:0:
192,192,97057,1,0,0:0:0:0:
320,192,97153,1,0,0:0:0:0:
64,192,97153,1,0,0:0:0:0:
448,192,97153,1,0,0:0:0:0:
192,192,97249,1,0,0:0:0:0:
64,192,97344,1,0,0:0:0:0:
448,192,97344,1,0,0:0:0:0:
320,192,97344,1,0,0:0:0:0:
192,192,97440,1,0,0:0:0:0:
448,192,97536,1,0,0:0:0:0:
320,192,97631,1,0,0:0:0:0:
448,192,97727,1,0,0:0:0:0:
64,192,97727,1,0,0:0:0:0:
192,192,97727,1,0,0:0:0:0:
320,192,97823,1,0,0:0:0:0:
64,192,97918,1,0,0:0:0:0:
448,192,97918,1,0,0:0:0:0:
192,192,97918,1,0,0:0:0:0:
320,192,98014,1,0,0:0:0:0:
64,192,98110,1,0,0:0:0:0:
448,192,98110,1,0,0:0:0:0:
192,192,98110,1,0,0:0:0:0:
320,192,98205,1,0,0:0:0:0:
448,192,98301,1,0,0:0:0:0:
64,192,98397,1,0,0:0:0:0:
448,192,98492,1,0,0:0:0:0:
192,192,98492,1,0,0:0:0:0:
320,192,98492,1,0,0:0:0:0:
64,192,98588,1,0,0:0:0:0:
448,192,98684,1,0,0:0:0:0:
320,192,98684,1,0,0:0:0:0:
192,192,98684,1,0,0:0:0:0:
64,192,98779,1,0,0:0:0:0:
320,192,98875,1,0,0:0:0:0:
448,192,98971,1,0,0:0:0:0:
64,192,99066,1,0,0:0:0:0:
320,192,99066,1,0,0:0:0:0:
192,192,99066,1,0,0:0:0:0:
448,192,99162,1,0,0:0:0:0:
64,192,99258,1,0,0:0:0:0:
320,192,99258,1,0,0:0:0:0:
192,192,99258,1,0,0:0:0:0:
448,192,99353,1,0,0:0:0:0:
320,192,99449,1,0,0:0:0:0:
64,192,99449,1,0,0:0:0:0:
192,192,99545,1,0,0:0:0:0:
64,192,99640,1,0,0:0:0:0:
448,192,99640,1,0,0:0:0:0:
320,192,99640,1,0,0:0:0:0:
320,192,99736,1,0,0:0:0:0:
448,192,99736,1,0,0:0:0:0:
192,192,99832,1,0,0:0:0:0:
64,192,99832,1,0,0:0:0:0:
448,192,99927,1,0,0:0:0:0:
192,192,100023,1,0,0:0:0:0:
64,192,100023,1,0,0:0:0:0:
320,192,100023,1,0,0:0:0:0:
448,192,100119,1,0,0:0:0:0:
320,192,100214,1,0,0:0:0:0:
192,192,100214,1,0,0:0:0:0:
64,192,100214,1,0,0:0:0:0:
448,192,100310,1,0,0:0:0:0:
192,192,100406,1,0,0:0:0:0:
320,192,100406,1,0,0:0:0:0:
64,192,100406,1,0,0:0:0:0:
448,192,100501,1,0,0:0:0:0:
320,192,100597,1,0,0:0:0:0:
192,192,100597,1,0,0:0:0:0:
64,192,100693,1,0,0:0:0:0:
448,192,100788,1,0,0:0:0:0:
320,192,100788,1,0,0:0:0:0:
192,192,100788,1,0,0:0:0:0:
64,192,100884,1,0,0:0:0:0:
192,192,100980,1,0,0:0:0:0:
448,192,100980,1,0,0:0:0:0:
320,192,100980,1,0,0:0:0:0:
64,192,101075,1,0,0:0:0:0:
448,192,101171,1,0,0:0:0:0:
192,192,101171,1,0,0:0:0:0:
320,192,101171,1,0,0:0:0:0:
448,192,101267,1,0,0:0:0:0:
320,192,101267,1,0,0:0:0:0:
64,192,101362,1,0,0:0:0:0:
192,192,101362,1,0,0:0:0:0:
448,192,101458,1,0,0:0:0:0:
320,192,101458,1,0,0:0:0:0:
192,192,101554,1,0,0:0:0:0:
64,192,101554,1,0,0:0:0:0:
448,192,101649,1,0,0:0:0:0:
320,192,101745,1,0,0:0:0:0:
192,192,101745,1,0,0:0:0:0:
64,192,101745,1,0,0:0:0:0:
448,192,101841,1,0,0:0:0:0:
64,192,101936,1,0,0:0:0:0:
320,192,101936,1,0,0:0:0:0:
192,192,102032,1,0,0:0:0:0:
448,192,102032,1,0,0:0:0:0:
320,192,102128,1,0,0:0:0:0:
64,192,102128,1,0,0:0:0:0:
448,192,102223,1,0,0:0:0:0:
192,192,102223,1,0,0:0:0:0:
320,192,102319,1,0,0:0:0:0:
64,192,102319,1,0,0:0:0:0:
448,192,102415,1,0,0:0:0:0:
192,192,102415,1,0,0:0:0:0:
64,192,102510,1,0,0:0:0:0:
320,192,102510,1,0,0:0:0:0:
448,192,102606,1,0,0:0:0:0:
192,192,102702,1,0,0:0:0:0:
64,192,102702,1,0,0:0:0:0:
320,192,102702,1,0,0:0:0:0:
448,192,102765,1,0,0:0:0:0:
320,192,102829,1,0,0:0:0:0:
192,192,102893,1,0,0:0:0:0:
64,192,102957,1,0,0:0:0:0:
448,192,103020,1,0,0:0:0:0:
192,192,103084,1,0,0:0:0:0:
64,192,103148,1,0,0:0:0:0:
448,192,103212,1,0,0:0:0:0:
192,192,103276,1,0,0:0:0:0:
64,192,103276,1,0,0:0:0:0:
448,192,103323,1,0,0:0:0:0:
320,192,103371,1,0,0:0:0:0:
64,192,103419,1,0,0:0:0:0:
320,192,103467,1,0,0:0:0:0:
448,192,103467,1,0,0:0:0:0:
192,192,103515,1,0,0:0:0:0:
320,192,103562,1,0,0:0:0:0:
448,192,103610,1,0,0:0:0:0:
64,192,103658,1,0,0:0:0:0:
192,192,103658,1,0,0:0:0:0:
320,192,103706,1,0,0:0:0:0:
192,192,103754,1,0,0:0:0:0:
64,192,103802,1,0,0:0:0:0:
320,192,103849,1,0,0:0:0:0:
448,192,103849,1,0,0:0:0:0:
192,192,103897,1,0,0:0:0:0:
64,192,103945,1,0,0:0:0:0:
448,192,103993,1,0,0:0:0:0:
320,192,104041,1,0,0:0:0:0:
192,192,104041,1,0,0:0:0:0:
64,192,104041,1,0,0:0:0:0:
448,192,104232,1,0,0:0:0:0:
320,192,104232,1,0,0:0:0:0:
64,192,104232,1,0,0:0:0:0:
320,192,104423,1,0,0:0:0:0:
448,192,104423,1,0,0:0:0:0:
192,192,104615,1,0,0:0:0:0:
320,192,104615,1,0,0:0:0:0:
448,192,104615,1,0,0:0:0:0:
448,192,104710,1,0,0:0:0:0:
320,192,104710,1,0,0:0:0:0:
64,192,104806,1,0,0:0:0:0:
192,192,104806,1,0,0:0:0:0:
320,192,104902,1,0,0:0:0:0:
448,192,104902,1,0,0:0:0:0:
192,192,104997,1,0,0:0:0:0:
64,192,104997,1,0,0:0:0:0:
320,192,105093,1,0,0:0:0:0:
448,192,105093,1,0,0:0:0:0:
64,192,105189,1,0,0:0:0:0:
192,192,105189,1,0,0:0:0:0:
320,192,105284,1,0,0:0:0:0:
448,192,105284,1,0,0:0:0:0:
448,192,105380,1,0,0:0:0:0:
64,192,105380,1,0,0:0:0:0:
192,192,105380,1,0,0:0:0:0:
64,192,105763,1,0,0:0:0:0:
320,192,105763,1,0,0:0:0:0:
448,192,105763,1,0,0:0:0:0:
448,192,106145,1,0,0:0:0:0:
320,192,106145,1,0,0:0:0:0:
64,192,106145,1,0,0:0:0:0:
64,192,106528,1,0,0:0:0:0:
320,192,106528,1,0,0:0:0:0:
448,192,106528,1,0,0:0:0:0:
448,192,106719,1,0,0:0:0:0:
320,192,106719,1,0,0:0:0:0:
64,192,106719,1,0,0:0:0:0:
64,192,106911,1,0,0:0:0:0:
320,192,106911,1,0,0:0:0:0:
448,192,106911,1,0,0:0:0:0:
64,192,107006,1,0,0:0:0:0:
320,192,107006,1,0,0:0:0:0:
448,192,107006,1,0,0:0:0:0:
64,192,107102,1,0,0:0:0:0:
320,192,107102,1,0,0:0:0:0:
448,192,107102,1,0,0:0:0:0:
64,192,107198,1,0,0:0:0:0:
320,192,107198,1,0,0:0:0:0:
448,192,107198,1,0,0:0:0:0:
64,192,107293,1,0,0:0:0:0:
320,192,107293,1,0,0:0:0:0:
448,192,107293,1,0,0:0:0:0:
192,192,107389,1,0,0:0:0:0:
448,192,107485,1,0,0:0:0:0:
192,192,107580,1,0,0:0:0:0:
64,192,107676,1,0,0:0:0:0:
320,192,107676,1,0,0:0:0:0:
448,192,107676,1,0,0:0:0:0:
192,192,107772,1,0,0:0:0:0:
448,192,107867,1,0,0:0:0:0:
320,192,107963,1,0,0:0:0:0:
64,192,108059,1,0,0:0:0:0:
448,192,108059,1,0,0:0:0:0:
192,192,108122,1,0,0:0:0:0:
320,192,108186,1,0,0:0:0:0:
64,192,108250,1,0,0:0:0:0:
448,192,108250,1,0,0:0:0:0:
192,192,108314,1,0,0:0:0:0:
64,192,108378,1,0,0:0:0:0:
448,192,108441,1,0,0:0:0:0:
320,192,108441,1,0,0:0:0:0:
192,192,108505,1,0,0:0:0:0:
64,192,108569,1,0,0:0:0:0:
192,192,108633,1,0,0:0:0:0:
320,192,108633,1,0,0:0:0:0:
448,192,108696,1,0,0:0:0:0:
320,192,108760,1,0,0:0:0:0:
64,192,108824,1,0,0:0:0:0:
192,192,108824,1,0,0:0:0:0:
448,192,108824,1,0,0:0:0:0:
320,192,108920,1,0,0:0:0:0:
64,192,109015,1,0,0:0:0:0:
320,192,109111,1,0,0:0:0:0:
192,192,109207,1,0,0:0:0:0:
64,192,109207,1,0,0:0:0:0:
448,192,109207,1,0,0:0:0:0:
320,192,109254,1,0,0:0:0:0:
192,192,109302,1,0,0:0:0:0:
64,192,109350,1,0,0:0:0:0:
448,192,109398,1,0,0:0:0:0:
320,192,109398,1,0,0:0:0:0:
192,192,109398,1,0,0:0:0:0:
64,192,109494,1,0,0:0:0:0:
192,192,109589,1,0,0:0:0:0:
320,192,109589,1,0,0:0:0:0:
448,192,109589,1,0,0:0:0:0:
64,192,109685,1,0,0:0:0:0:
192,192,109781,1,0,0:0:0:0:
448,192,109781,1,0,0:0:0:0:
320,192,109876,1,0,0:0:0:0:
192,192,109972,1,0,0:0:0:0:
64,192,109972,1,0,0:0:0:0:
448,192,109972,1,0,0:0:0:0:
320,192,110068,1,0,0:0:0:0:
64,192,110163,1,0,0:0:0:0:
448,192,110163,1,0,0:0:0:0:
192,192,110259,1,0,0:0:0:0:
64,192,110355,1,0,0:0:0:0:
320,192,110355,1,0,0:0:0:0:
448,192,110355,1,0,0:0:0:0:
192,192,110450,1,0,0:0:0:0:
448,192,110546,1,0,0:0:0:0:
192,192,110642,1,0,0:0:0:0:
320,192,110737,1,0,0:0:0:0:
448,192,110737,1,0,0:0:0:0:
64,192,110737,1,0,0:0:0:0:
192,192,110785,1,0,0:0:0:0:
320,192,110833,1,0,0:0:0:0:
448,192,110881,1,0,0:0:0:0:
64,192,110929,1,0,0:0:0:0:
192,192,110929,1,0,0:0:0:0:
320,192,110929,1,0,0:0:0:0:
448,192,111024,1,0,0:0:0:0:
64,192,111120,1,0,0:0:0:0:
320,192,111120,1,0,0:0:0:0:
192,192,111120,1,0,0:0:0:0:
448,192,111216,1,0,0:0:0:0:
64,192,111311,1,0,0:0:0:0:
320,192,111311,1,0,0:0:0:0:
192,192,111407,1,0,0:0:0:0:
64,192,111503,1,0,0:0:0:0:
320,192,111503,1,0,0:0:0:0:
448,192,111503,1,0,0:0:0:0:
192,192,111598,1,0,0:0:0:0:
448,192,111694,1,0,0:0:0:0:
320,192,111694,1,0,0:0:0:0:
64,192,111790,1,0,0:0:0:0:
320,192,111885,1,0,0:0:0:0:
192,192,111885,1,0,0:0:0:0:
448,192,111885,1,0,0:0:0:0:
64,192,111949,1,0,0:0:0:0:
448,192,112013,1,0,0:0:0:0:
64,192,112077,1,0,0:0:0:0:
448,192,112140,1,0,0:0:0:0:
64,192,112204,1,0,0:0:0:0:
320,192,112268,1,0,0:0:0:0:
448,192,112268,1,0,0:0:0:0:
64,192,112332,1,0,0:0:0:0:
320,192,112395,1,0,0:0:0:0:
64,192,112459,1,0,0:0:0:0:
320,192,112523,1,0,0:0:0:0:
64,192,112587,1,0,0:0:0:0:
192,192,112651,1,0,0:0:0:0:
320,192,112651,1,0,0:0:0:0:
448,192,112714,1,0,0:0:0:0:
192,192,112778,1,0,0:0:0:0:
448,192,112842,1,0,0:0:0:0:
192,192,112906,1,0,0:0:0:0:
448,192,112969,1,0,0:0:0:0:
64,192,113033,1,0,0:0:0:0:
192,192,113033,1,0,0:0:0:0:
320,192,113097,1,0,0:0:0:0:
192,192,113161,1,0,0:0:0:0:
320,192,113224,1,0,0:0:0:0:
192,192,113288,1,0,0:0:0:0:
320,192,113352,1,0,0:0:0:0:
192,192,113416,1,0,0:0:0:0:
64,192,113416,1,0,0:0:0:0:
448,192,113416,1,0,0:0:0:0:
320,192,113511,1,0,0:0:0:0:
192,192,113607,1,0,0:0:0:0:
448,192,113607,1,0,0:0:0:0:
320,192,113703,1,0,0:0:0:0:
192,192,113798,1,0,0:0:0:0:
64,192,113798,1,0,0:0:0:0:
448,192,113798,1,0,0:0:0:0:
320,192,113846,1,0,0:0:0:0:
192,192,113894,1,0,0:0:0:0:
64,192,113942,1,0,0:0:0:0:
320,192,113990,1,0,0:0:0:0:
448,192,113990,1,0,0:0:0:0:
192,192,114085,1,0,0:0:0:0:
64,192,114181,1,0,0:0:0:0:
448,192,114181,1,0,0:0:0:0:
192,192,114245,1,0,0:0:0:0:
448,192,114309,1,0,0:0:0:0:
192,192,114372,1,0,0:0:0:0:
320,192,114372,1,0,0:0:0:0:
64,192,114436,1,0,0:0:0:0:
320,192,114500,1,0,0:0:0:0:
192,192,114564,1,0,0:0:0:0:
448,192,114564,1,0,0:0:0:0:
64,192,114628,1,0,0:0:0:0:
448,192,114691,1,0,0:0:0:0:
192,192,114755,1,0,0:0:0:0:
64,192,114755,1,0,0:0:0:0:
320,192,114819,1,0,0:0:0:0:
448,192,114883,1,0,0:0:0:0:
192,192,114946,1,0,0:0:0:0:
320,192,114946,1,0,0:0:0:0:
64,192,114946,1,0,0:0:0:0:
448,192,115042,1,0,0:0:0:0:
192,192,115138,1,0,0:0:0:0:
448,192,115233,1,0,0:0:0:0:
320,192,115329,1,0,0:0:0:0:
64,192,115329,1,0,0:0:0:0:
192,192,115329,1,0,0:0:0:0:
448,192,115425,1,0,0:0:0:0:
192,192,115520,1,0,0:0:0:0:
64,192,115616,1,0,0:0:0:0:
192,192,115712,1,0,0:0:0:0:
448,192,115712,1,0,0:0:0:0:
320,192,115776,1,0,0:0:0:0:
64,192,115839,1,0,0:0:0:0:
320,192,115903,1,0,0:0:0:0:
448,192,115903,1,0,0:0:0:0:
192,192,115967,1,0,0:0:0:0:
64,192,116031,1,0,0:0:0:0:
192,192,116094,1,0,0:0:0:0:
320,192,116094,1,0,0:0:0:0:
448,192,116158,1,0,0:0:0:0:
64,192,116222,1,0,0:0:0:0:
192,192,116286,1,0,0:0:0:0:
448,192,116286,1,0,0:0:0:0:
320,192,116349,1,0,0:0:0:0:
64,192,116413,1,0,0:0:0:0:
192,192,116477,1,0,0:0:0:0:
320,192,116477,1,0,0:0:0:0:
448,192,116477,1,0,0:0:0:0:
64,192,116573,1,0,0:0:0:0:
320,192,116668,1,0,0:0:0:0:
448,192,116668,1,0,0:0:0:0:
192,192,116764,1,0,0:0:0:0:
448,192,116860,1,0,0:0:0:0:
64,192,116860,1,0,0:0:0:0:
320,192,116955,1,0,0:0:0:0:
192,192,116955,1,0,0:0:0:0:
64,192,117051,1,0,0:0:0:0:
448,192,117051,1,0,0:0:0:0:
192,192,117147,1,0,0:0:0:0:
448,192,117242,1,0,0:0:0:0:
320,192,117242,1,0,0:0:0:0:
64,192,117338,1,0,0:0:0:0:
192,192,117434,1,0,0:0:0:0:
320,192,117434,1,0,0:0:0:0:
448,192,117434,1,0,0:0:0:0:
64,192,117529,1,0,0:0:0:0:
448,192,117625,1,0,0:0:0:0:
320,192,117625,1,0,0:0:0:0:
192,192,117625,1,0,0:0:0:0:
64,192,117721,1,0,0:0:0:0:
192,192,117816,1,0,0:0:0:0:
448,192,117816,1,0,0:0:0:0:
320,192,117912,1,0,0:0:0:0:
192,192,118008,1,0,0:0:0:0:
64,192,118008,1,0,0:0:0:0:
448,192,118008,1,0,0:0:0:0:
320,192,118103,1,0,0:0:0:0:
192,192,118199,1,0,0:0:0:0:
64,192,118199,1,0,0:0:0:0:
448,192,118199,1,0,0:0:0:0:
320,192,118295,1,0,0:0:0:0:
192,192,118390,1,0,0:0:0:0:
64,192,118390,1,0,0:0:0:0:
448,192,118390,1,0,0:0:0:0:
320,192,118486,1,0,0:0:0:0:
192,192,118582,1,0,0:0:0:0:
64,192,118582,1,0,0:0:0:0:
320,192,118677,1,0,0:0:0:0:
448,192,118677,1,0,0:0:0:0:
64,192,118773,1,0,0:0:0:0:
192,192,118773,1,0,0:0:0:0:
320,192,118869,1,0,0:0:0:0:
192,192,118964,1,0,0:0:0:0:
448,192,118964,1,0,0:0:0:0:
64,192,119060,1,0,0:0:0:0:
320,192,119060,1,0,0:0:0:0:
192,192,119156,1,0,0:0:0:0:
448,192,119156,1,0,0:0:0:0:
320,192,119251,1,0,0:0:0:0:
64,192,119251,1,0,0:0:0:0:
448,192,119347,1,0,0:0:0:0:
192,192,119347,1,0,0:0:0:0:
64,192,119443,1,0,0:0:0:0:
192,192,119538,1,0,0:0:0:0:
320,192,119538,1,0,0:0:0:0:
448,192,119538,1,0,0:0:0:0:
64,192,119634,1,0,0:0:0:0:
320,192,119730,1,0,0:0:0:0:
448,192,119730,1,0,0:0:0:0:
192,192,119825,1,0,0:0:0:0:
64,192,119921,1,0,0:0:0:0:
448,192,119921,1,0,0:0:0:0:
320,192,119921,1,0,0:0:0:0:
192,192,120017,1,0,0:0:0:0:
448,192,120112,1,0,0:0:0:0:
64,192,120112,1,0,0:0:0:0:
320,192,120176,1,0,0:0:0:0:
64,192,120240,1,0,0:0:0:0:
320,192,120304,1,0,0:0:0:0:
448,192,120304,1,0,0:0:0:0:
192,192,120367,1,0,0:0:0:0:
64,192,120431,1,0,0:0:0:0:
192,192,120495,1,0,0:0:0:0:
448,192,120495,1,0,0:0:0:0:
320,192,120559,1,0,0:0:0:0:
64,192,120622,1,0,0:0:0:0:
320,192,120686,1,0,0:0:0:0:
448,192,120686,1,0,0:0:0:0:
192,192,120750,1,0,0:0:0:0:
64,192,120814,1,0,0:0:0:0:
192,192,120878,1,0,0:0:0:0:
320,192,120878,1,0,0:0:0:0:
448,192,120941,1,0,0:0:0:0:
64,192,121005,1,0,0:0:0:0:
192,192,121069,1,0,0:0:0:0:
320,192,121069,1,0,0:0:0:0:
448,192,121069,1,0,0:0:0:0:
64,192,121165,1,0,0:0:0:0:
192,192,121260,1,0,0:0:0:0:
448,192,121260,1,0,0:0:0:0:
320,192,121356,1,0,0:0:0:0:
64,192,121452,1,0,0:0:0:0:
448,192,121452,1,0,0:0:0:0:
192,192,121499,1,0,0:0:0:0:
320,192,121547,1,0,0:0:0:0:
448,192,121595,1,0,0:0:0:0:
64,192,121643,1,0,0:0:0:0:
192,192,121643,1,0,0:0:0:0:
320,192,121643,1,0,0:0:0:0:
448,192,121739,1,0,0:0:0:0:
320,192,121834,1,0,0:0:0:0:
192,192,121834,1,0,0:0:0:0:
64,192,121834,1,0,0:0:0:0:
448,192,121930,1,0,0:0:0:0:
64,192,122026,1,0,0:0:0:0:
320,192,122026,1,0,0:0:0:0:
192,192,122121,1,0,0:0:0:0:
64,192,122217,1,0,0:0:0:0:
448,192,122217,1,0,0:0:0:0:
320,192,122217,1,0,0:0:0:0:
192,192,122312,1,0,0:0:0:0:
64,192,122408,1,0,0:0:0:0:
320,192,122408,1,0,0:0:0:0:
448,192,122408,1,0,0:0:0:0:
192,192,122504,1,0,0:0:0:0:
64,192,122599,1,0,0:0:0:0:
320,192,122599,1,0,0:0:0:0:
448,192,122599,1,0,0:0:0:0:
192,192,122695,1,0,0:0:0:0:
64,192,122791,1,0,0:0:0:0:
320,192,122791,1,0,0:0:0:0:
192,192,122886,1,0,0:0:0:0:
64,192,122982,1,0,0:0:0:0:
448,192,122982,1,0,0:0:0:0:
320,192,123030,1,0,0:0:0:0:
192,192,123078,1,0,0:0:0:0:
64,192,123126,1,0,0:0:0:0:
448,192,123173,1,0,0:0:0:0:
192,192,123173,1,0,0:0:0:0:
320,192,123173,1,0,0:0:0:0:
64,192,123269,1,0,0:0:0:0:
192,192,123365,1,0,0:0:0:0:
320,192,123365,1,0,0:0:0:0:
448,192,123365,1,0,0:0:0:0:
64,192,123460,1,0,0:0:0:0:
192,192,123556,1,0,0:0:0:0:
448,192,123556,1,0,0:0:0:0:
320,192,123652,1,0,0:0:0:0:
448,192,123747,1,0,0:0:0:0:
192,192,123747,1,0,0:0:0:0:
64,192,123747,1,0,0:0:0:0:
320,192,123843,1,0,0:0:0:0:
448,192,123939,1,0,0:0:0:0:
64,192,123939,1,0,0:0:0:0:
192,192,123939,1,0,0:0:0:0:
320,192,124034,1,0,0:0:0:0:
192,192,124130,1,0,0:0:0:0:
64,192,124130,1,0,0:0:0:0:
448,192,124194,1,0,0:0:0:0:
192,192,124258,1,0,0:0:0:0:
448,192,124321,1,0,0:0:0:0:
192,192,124385,1,0,0:0:0:0:
448,192,124449,1,0,0:0:0:0:
64,192,124513,1,0,0:0:0:0:
192,192,124513,1,0,0:0:0:0:
320,192,124577,1,0,0:0:0:0:
192,192,124640,1,0,0:0:0:0:
320,192,124704,1,0,0:0:0:0:
192,192,124768,1,0,0:0:0:0:
320,192,124832,1,0,0:0:0:0:
64,192,124895,1,0,0:0:0:0:
192,192,124895,1,0,0:0:0:0:
448,192,124959,1,0,0:0:0:0:
64,192,125023,1,0,0:0:0:0:
448,192,125087,1,0,0:0:0:0:
64,192,125151,1,0,0:0:0:0:
448,192,125214,1,0,0:0:0:0:
192,192,125278,1,0,0:0:0:0:
320,192,125278,1,0,0:0:0:0:
448,192,125342,1,0,0:0:0:0:
192,192,125406,1,0,0:0:0:0:
448,192,125469,1,0,0:0:0:0:
192,192,125533,1,0,0:0:0:0:
448,192,125597,1,0,0:0:0:0:
64,192,125661,1,0,0:0:0:0:
192,192,125661,1,0,0:0:0:0:
320,192,125661,1,0,0:0:0:0:
448,192,125756,1,0,0:0:0:0:
192,192,125852,1,0,0:0:0:0:
320,192,125852,1,0,0:0:0:0:
64,192,125948,1,0,0:0:0:0:
192,192,126043,1,0,0:0:0:0:
448,192,126043,1,0,0:0:0:0:
320,192,126043,1,0,0:0:0:0:
64,192,126139,1,0,0:0:0:0:
320,192,126235,1,0,0:0:0:0:
448,192,126235,1,0,0:0:0:0:
192,192,126298,1,0,0:0:0:0:
64,192,126362,1,0,0:0:0:0:
192,192,126426,1,0,0:0:0:0:
448,192,126426,1,0,0:0:0:0:
320,192,126490,1,0,0:0:0:0:
448,192,126554,1,0,0:0:0:0:
64,192,126617,1,0,0:0:0:0:
192,192,126617,1,0,0:0:0:0:
320,192,126681,1,0,0:0:0:0:
448,192,126745,1,0,0:0:0:0:
64,192,126809,1,0,0:0:0:0:
320,192,126809,1,0,0:0:0:0:
192,192,126872,1,0,0:0:0:0:
448,192,126936,1,0,0:0:0:0:
64,192,127000,1,0,0:0:0:0:
192,192,127000,1,0,0:0:0:0:
320,192,127064,1,0,0:0:0:0:
448,192,127128,1,0,0:0:0:0:
64,192,127191,1,0,0:0:0:0:
192,192,127191,1,0,0:0:0:0:
320,192,127191,1,0,0:0:0:0:
448,192,127287,1,0,0:0:0:0:
64,192,127383,1,0,0:0:0:0:
192,192,127383,1,0,0:0:0:0:
320,192,127478,1,0,0:0:0:0:
64,192,127574,1,0,0:0:0:0:
448,192,127574,1,0,0:0:0:0:
192,192,127574,1,0,0:0:0:0:
320,192,127670,1,0,0:0:0:0:
64,192,127765,1,0,0:0:0:0:
448,192,127765,1,0,0:0:0:0:
192,192,127829,1,0,0:0:0:0:
320,192,127893,1,0,0:0:0:0:
64,192,127957,1,0,0:0:0:0:
192,192,127957,1,0,0:0:0:0:
448,192,128020,1,0,0:0:0:0:
320,192,128084,1,0,0:0:0:0:
192,192,128148,1,0,0:0:0:0:
64,192,128148,1,0,0:0:0:0:
448,192,128212,1,0,0:0:0:0:
192,192,128276,1,0,0:0:0:0:
64,192,128339,1,0,0:0:0:0:
320,192,128339,1,0,0:0:0:0:
448,192,128403,1,0,0:0:0:0:
64,192,128467,1,0,0:0:0:0:
192,192,128531,1,0,0:0:0:0:
320,192,128531,1,0,0:0:0:0:
448,192,128594,1,0,0:0:0:0:
64,192,128658,1,0,0:0:0:0:
192,192,128722,1,0,0:0:0:0:
320,192,128722,1,0,0:0:0:0:
448,192,128722,1,0,0:0:0:0:
64,192,128818,1,0,0:0:0:0:
192,192,128913,1,0,0:0:0:0:
448,192,128913,1,0,0:0:0:0:
320,192,129009,1,0,0:0:0:0:
64,192,129105,1,0,0:0:0:0:
448,192,129105,1,0,0:0:0:0:
320,192,129200,1,0,0:0:0:0:
192,192,129200,1,0,0:0:0:0:
64,192,129296,1,0,0:0:0:0:
448,192,129296,1,0,0:0:0:0:
320,192,129392,1,0,0:0:0:0:
192,192,129487,1,0,0:0:0:0:
64,192,129487,1,0,0:0:0:0:
320,192,129583,1,0,0:0:0:0:
192,192,129679,1,0,0:0:0:0:
64,192,129679,1,0,0:0:0:0:
448,192,129679,1,0,0:0:0:0:
320,192,129774,1,0,0:0:0:0:
192,192,129870,1,0,0:0:0:0:
64,192,129870,1,0,0:0:0:0:
448,192,129870,1,0,0:0:0:0:
320,192,129966,1,0,0:0:0:0:
192,192,130061,1,0,0:0:0:0:
448,192,130061,1,0,0:0:0:0:
64,192,130157,1,0,0:0:0:0:
192,192,130253,1,0,0:0:0:0:
320,192,130253,1,0,0:0:0:0:
448,192,130253,1,0,0:0:0:0:
192,192,130444,1,0,0:0:0:0:
320,192,130444,1,0,0:0:0:0:
448,192,130444,1,0,0:0:0:0:
192,192,130635,1,0,0:0:0:0:
448,192,130635,1,0,0:0:0:0:
320,192,130635,1,0,0:0:0:0:
64,192,131018,1,0,0:0:0:0:
320,192,131018,1,0,0:0:0:0:
448,192,131018,1,0,0:0:0:0:
64,192,131401,1,0,0:0:0:0:
192,192,131401,1,0,0:0:0:0:
320,192,131401,1,0,0:0:0:0:
448,192,131401,1,0,0:0:0:0:
64,192,131783,1,0,0:0:0:0:
320,192,131783,1,0,0:0:0:0:
