osu file format v14

[General]
AudioFilename: MEGATON BLAST (tpz Overcute Remix).mp3
AudioLeadIn: 0
PreviewTime: 47134
Countdown: 0
SampleSet: Soft
StackLeniency: 0.7
Mode: 3
LetterboxInBreaks: 0
SpecialStyle: 0
WidescreenStoryboard: 1

[Editor]
DistanceSpacing: 0.9
BeatDivisor: 4
GridSize: 8
TimelineZoom: 2.2

[Metadata]
Title:SSjoy Dan
TitleUnicode:SSjoy Dan
Artist:Various Artists
ArtistUnicode:Various Artists
Creator:qodtjr
Version:BlackY vs. Yooh - MEGATON BLAST (tpz Overcute Remix)
Source:
Tags:chordstream 뱅석 翡翠茶漬け Hino Isuka + Umeboshi Chazuke Bomb Bang Bound​!​!​! BlackY vs. Yooh MEGATON BLAST (tpz Overcute Remix) t+pazolite xi Aparajita Glorious Crown Camellia ANOMALY かめりあ ∀NØMALY Fastest Crash Longinus ああああ ☆をかけるアドベンチャー ~ we are forever friends! ~ [Long ver​.​] AAAA Hoshi o Kakeru Adventure ~ we are forever friends! ~
BeatmapID:3420372
BeatmapSetID:621216

[Difficulty]
HPDrainRate:8
CircleSize:7
OverallDifficulty:8
ApproachRate:5
SliderMultiplier:1.4
SliderTickRate:1

[Events]
//Background and Video events
0,0,"MEGATON.png",0,0
//Break Periods
//Storyboard Layer 0 (Background)
//Storyboard Layer 1 (Fail)
//Storyboard Layer 2 (Pass)
//Storyboard Layer 3 (Foreground)
//Storyboard Layer 4 (Overlay)
//Storyboard Sound Samples

[TimingPoints]
1410,285.714285714286,4,2,0,10,1,0

[HitObjects]
475,192,1410,128,0,1481:0:0:0:0:
182,192,1838,128,0,1910:0:0:0:0:
329,192,2267,128,0,3124:0:0:0:0:
182,192,3124,1,0,0:0:0:0:
36,192,3124,1,0,0:0:0:0:
109,192,3695,128,0,3767:0:0:0:0:
475,192,4124,128,0,4195:0:0:0:0:
109,192,4552,128,0,5267:0:0:0:0:
329,192,5410,1,0,0:0:0:0:
475,192,5410,1,0,0:0:0:0:
36,192,5410,1,0,0:0:0:0:
182,192,5552,1,0,0:0:0:0:
109,192,5624,1,0,0:0:0:0:
329,192,5624,1,0,0:0:0:0:
36,192,5695,1,0,0:0:0:0:
475,192,5695,1,0,0:0:0:0:
182,192,5838,1,0,0:0:0:0:
475,192,5838,1,0,0:0:0:0:
402,192,5838,1,0,0:0:0:0:
256,192,5981,1,0,0:0:0:0:
36,192,5981,1,0,0:0:0:0:
329,192,5981,1,0,0:0:0:0:
329,192,6124,1,0,0:0:0:0:
256,192,6267,1,0,0:0:0:0:
109,192,6267,1,0,0:0:0:0:
402,192,6267,1,0,0:0:0:0:
329,192,6410,1,0,0:0:0:0:
182,192,6410,1,0,0:0:0:0:
475,192,6481,1,0,0:0:0:0:
256,192,6552,1,0,0:0:0:0:
109,192,6552,1,0,0:0:0:0:
475,192,6624,1,0,0:0:0:0:
329,192,6695,1,0,0:0:0:0:
182,192,6695,1,0,0:0:0:0:
109,192,6767,1,0,0:0:0:0:
36,192,6838,1,0,0:0:0:0:
256,192,6838,1,0,0:0:0:0:
402,192,6838,1,0,0:0:0:0:
402,192,6981,1,0,0:0:0:0:
256,192,6981,1,0,0:0:0:0:
36,192,6981,1,0,0:0:0:0:
182,192,7052,1,0,0:0:0:0:
329,192,7052,1,0,0:0:0:0:
109,192,7124,1,0,0:0:0:0:
256,192,7124,1,0,0:0:0:0:
256,192,7267,1,0,0:0:0:0:
182,192,7410,1,0,0:0:0:0:
36,192,7410,1,0,0:0:0:0:
475,192,7410,1,0,0:0:0:0:
329,192,7552,1,0,0:0:0:0:
402,192,7552,1,0,0:0:0:0:
109,192,7624,1,0,0:0:0:0:
256,192,7695,1,0,0:0:0:0:
402,192,7695,1,0,0:0:0:0:
329,192,7767,1,0,0:0:0:0:
182,192,7767,1,0,0:0:0:0:
256,192,7838,1,0,0:0:0:0:
402,192,7838,1,0,0:0:0:0:
329,192,7910,1,0,0:0:0:0:
182,192,7910,1,0,0:0:0:0:
256,192,7981,1,0,0:0:0:0:
109,192,7981,1,0,0:0:0:0:
36,192,7981,1,0,0:0:0:0:
182,192,8124,1,0,0:0:0:0:
475,192,8124,1,0,0:0:0:0:
256,192,8195,1,0,0:0:0:0:
36,192,8195,1,0,0:0:0:0:
109,192,8267,1,0,0:0:0:0:
329,192,8267,1,0,0:0:0:0:
475,192,8267,1,0,0:0:0:0:
109,192,8410,1,0,0:0:0:0:
182,192,8552,1,0,0:0:0:0:
475,192,8552,1,0,0:0:0:0:
329,192,8552,1,0,0:0:0:0:
256,192,8695,1,0,0:0:0:0:
402,192,8695,1,0,0:0:0:0:
36,192,8767,1,0,0:0:0:0:
182,192,8838,1,0,0:0:0:0:
329,192,8838,1,0,0:0:0:0:
36,192,8910,1,0,0:0:0:0:
256,192,8981,1,0,0:0:0:0:
402,192,8981,1,0,0:0:0:0:
182,192,9052,1,0,0:0:0:0:
109,192,9124,1,0,0:0:0:0:
329,192,9124,1,0,0:0:0:0:
475,192,9124,1,0,0:0:0:0:
329,192,9267,1,0,0:0:0:0:
109,192,9267,1,0,0:0:0:0:
475,192,9267,1,0,0:0:0:0:
256,192,9338,1,0,0:0:0:0:
36,192,9338,1,0,0:0:0:0:
182,192,9410,1,0,0:0:0:0:
402,192,9410,1,0,0:0:0:0:
402,192,9552,1,0,0:0:0:0:
256,192,9695,1,0,0:0:0:0:
109,192,9695,1,0,0:0:0:0:
475,192,9695,1,0,0:0:0:0:
182,192,9838,1,0,0:0:0:0:
36,192,9838,1,0,0:0:0:0:
402,192,9910,1,0,0:0:0:0:
256,192,9981,1,0,0:0:0:0:
109,192,9981,1,0,0:0:0:0:
329,192,10052,1,0,0:0:0:0:
182,192,10124,1,0,0:0:0:0:
36,192,10124,1,0,0:0:0:0:
256,192,10195,1,0,0:0:0:0:
329,192,10267,1,0,0:0:0:0:
109,192,10267,1,0,0:0:0:0:
475,192,10267,1,0,0:0:0:0:
402,192,10267,1,0,0:0:0:0:
109,192,10552,128,0,10767:0:0:0:0:
36,192,10552,128,0,10767:0:0:0:0:
256,192,10552,128,0,10767:0:0:0:0:
329,192,10552,128,0,10767:0:0:0:0:
109,192,10838,1,0,0:0:0:0:
182,192,10838,1,0,0:0:0:0:
329,192,10838,1,0,0:0:0:0:
256,192,10981,128,0,11124:0:0:0:0:
182,192,10981,128,0,11124:0:0:0:0:
402,192,10981,128,0,11124:0:0:0:0:
475,192,10981,128,0,11124:0:0:0:0:
256,192,11267,1,0,0:0:0:0:
475,192,11267,1,0,0:0:0:0:
402,192,11267,1,0,0:0:0:0:
329,192,11410,1,0,0:0:0:0:
402,192,11410,1,0,0:0:0:0:
182,192,11410,1,0,0:0:0:0:
109,192,11552,128,0,11838:0:0:0:0:
256,192,11552,128,0,11838:0:0:0:0:
329,192,11552,128,0,11838:0:0:0:0:
402,192,11838,1,0,0:0:0:0:
475,192,11838,1,0,0:0:0:0:
182,192,11838,1,0,0:0:0:0:
36,192,11838,1,0,0:0:0:0:
256,192,11981,1,0,0:0:0:0:
109,192,11981,1,0,0:0:0:0:
402,192,11981,1,0,0:0:0:0:
182,192,11981,1,0,0:0:0:0:
256,192,12124,1,0,0:0:0:0:
329,192,12124,1,0,0:0:0:0:
182,192,12124,1,0,0:0:0:0:
475,192,12124,1,0,0:0:0:0:
256,192,12267,1,0,0:0:0:0:
402,192,12267,1,0,0:0:0:0:
109,192,12267,1,0,0:0:0:0:
36,192,12267,1,0,0:0:0:0:
182,192,12410,1,0,0:0:0:0:
36,192,12410,1,0,0:0:0:0:
329,192,12410,1,0,0:0:0:0:
475,192,12410,1,0,0:0:0:0:
256,192,12552,1,0,0:0:0:0:
475,192,12552,1,0,0:0:0:0:
182,192,12552,1,0,0:0:0:0:
109,192,12552,1,0,0:0:0:0:
329,192,12695,1,0,0:0:0:0:
256,192,12695,1,0,0:0:0:0:
109,192,12695,1,0,0:0:0:0:
402,192,12695,1,0,0:0:0:0:
36,192,12838,128,0,13052:0:0:0:0:
182,192,12838,128,0,13052:0:0:0:0:
475,192,12838,128,0,13052:0:0:0:0:
329,192,12838,128,0,13052:0:0:0:0:
182,192,13124,1,0,0:0:0:0:
329,192,13124,1,0,0:0:0:0:
402,192,13124,1,0,0:0:0:0:
109,192,13267,128,0,13410:0:0:0:0:
256,192,13267,128,0,13410:0:0:0:0:
36,192,13267,128,0,13410:0:0:0:0:
475,192,13267,128,0,13410:0:0:0:0:
182,192,13552,1,0,0:0:0:0:
109,192,13552,1,0,0:0:0:0:
402,192,13552,1,0,0:0:0:0:
256,192,13695,1,0,0:0:0:0:
182,192,13695,1,0,0:0:0:0:
475,192,13695,1,0,0:0:0:0:
36,192,13838,128,0,14124:0:0:0:0:
256,192,13838,128,0,14124:0:0:0:0:
402,192,13838,128,0,14124:0:0:0:0:
329,192,14124,1,0,0:0:0:0:
182,192,14124,1,0,0:0:0:0:
109,192,14124,1,0,0:0:0:0:
475,192,14124,1,0,0:0:0:0:
256,192,14267,1,0,0:0:0:0:
182,192,14267,1,0,0:0:0:0:
402,192,14267,1,0,0:0:0:0:
329,192,14267,1,0,0:0:0:0:
256,192,14410,1,0,0:0:0:0:
109,192,14410,1,0,0:0:0:0:
36,192,14410,1,0,0:0:0:0:
475,192,14410,1,0,0:0:0:0:
182,192,14552,1,0,0:0:0:0:
36,192,14552,1,0,0:0:0:0:
402,192,14552,1,0,0:0:0:0:
329,192,14552,1,0,0:0:0:0:
256,192,14695,1,0,0:0:0:0:
109,192,14695,1,0,0:0:0:0:
182,192,14695,1,0,0:0:0:0:
475,192,14695,1,0,0:0:0:0:
329,192,14838,1,0,0:0:0:0:
109,192,14838,1,0,0:0:0:0:
256,192,14838,1,0,0:0:0:0:
402,192,14838,1,0,0:0:0:0:
36,192,14981,1,0,0:0:0:0:
182,192,14981,1,0,0:0:0:0:
329,192,14981,1,0,0:0:0:0:
475,192,14981,1,0,0:0:0:0:
36,192,15124,128,0,15338:0:0:0:0:
109,192,15124,128,0,15338:0:0:0:0:
256,192,15124,128,0,15338:0:0:0:0:
402,192,15124,128,0,15338:0:0:0:0:
256,192,15410,1,0,0:0:0:0:
402,192,15410,1,0,0:0:0:0:
182,192,15410,1,0,0:0:0:0:
109,192,15552,128,0,15695:0:0:0:0:
256,192,15552,128,0,15695:0:0:0:0:
475,192,15552,128,0,15695:0:0:0:0:
329,192,15552,128,0,15695:0:0:0:0:
182,192,15838,1,0,0:0:0:0:
36,192,15838,1,0,0:0:0:0:
329,192,15838,1,0,0:0:0:0:
256,192,15981,1,0,0:0:0:0:
402,192,15981,1,0,0:0:0:0:
182,192,15981,1,0,0:0:0:0:
109,192,16124,128,0,16410:0:0:0:0:
475,192,16124,128,0,16410:0:0:0:0:
256,192,16124,128,0,16410:0:0:0:0:
402,192,16410,1,0,0:0:0:0:
36,192,16410,1,0,0:0:0:0:
329,192,16410,1,0,0:0:0:0:
182,192,16410,1,0,0:0:0:0:
256,192,16552,1,0,0:0:0:0:
402,192,16552,1,0,0:0:0:0:
475,192,16552,1,0,0:0:0:0:
109,192,16552,1,0,0:0:0:0:
182,192,16695,1,0,0:0:0:0:
36,192,16695,1,0,0:0:0:0:
109,192,16695,1,0,0:0:0:0:
329,192,16695,1,0,0:0:0:0:
256,192,16838,1,0,0:0:0:0:
182,192,16838,1,0,0:0:0:0:
36,192,16838,1,0,0:0:0:0:
402,192,16838,1,0,0:0:0:0:
475,192,16838,1,0,0:0:0:0:
475,192,16981,1,0,0:0:0:0:
329,192,16981,1,0,0:0:0:0:
109,192,16981,1,0,0:0:0:0:
256,192,16981,1,0,0:0:0:0:
182,192,17124,1,0,0:0:0:0:
36,192,17124,1,0,0:0:0:0:
329,192,17124,1,0,0:0:0:0:
256,192,17124,1,0,0:0:0:0:
109,192,17267,1,0,0:0:0:0:
182,192,17267,1,0,0:0:0:0:
402,192,17267,1,0,0:0:0:0:
475,192,17267,1,0,0:0:0:0:
36,192,17410,128,0,17624:0:0:0:0:
109,192,17410,128,0,17624:0:0:0:0:
256,192,17410,128,0,17624:0:0:0:0:
475,192,17410,128,0,17624:0:0:0:0:
182,192,17695,1,0,0:0:0:0:
109,192,17695,1,0,0:0:0:0:
402,192,17695,1,0,0:0:0:0:
36,192,17838,128,0,17981:0:0:0:0:
182,192,17838,128,0,17981:0:0:0:0:
329,192,17838,128,0,17981:0:0:0:0:
475,192,17838,128,0,17981:0:0:0:0:
256,192,18124,1,0,0:0:0:0:
109,192,18124,1,0,0:0:0:0:
475,192,18124,1,0,0:0:0:0:
182,192,18267,1,0,0:0:0:0:
329,192,18267,1,0,0:0:0:0:
475,192,18267,1,0,0:0:0:0:
36,192,18410,128,0,18695:0:0:0:0:
182,192,18410,128,0,18695:0:0:0:0:
402,192,18410,128,0,18695:0:0:0:0:
256,192,18695,1,0,0:0:0:0:
109,192,18695,1,0,0:0:0:0:
475,192,18695,1,0,0:0:0:0:
329,192,18695,1,0,0:0:0:0:
182,192,18838,1,0,0:0:0:0:
36,192,18838,1,0,0:0:0:0:
329,192,18838,1,0,0:0:0:0:
402,192,18838,1,0,0:0:0:0:
256,192,18981,1,0,0:0:0:0:
109,192,18981,1,0,0:0:0:0:
36,192,18981,1,0,0:0:0:0:
475,192,18981,1,0,0:0:0:0:
329,192,19124,1,0,0:0:0:0:
182,192,19124,1,0,0:0:0:0:
256,192,19124,1,0,0:0:0:0:
475,192,19124,1,0,0:0:0:0:
36,192,19124,1,0,0:0:0:0:
402,192,19267,1,0,0:0:0:0:
329,192,19267,1,0,0:0:0:0:
182,192,19267,1,0,0:0:0:0:
109,192,19267,1,0,0:0:0:0:
256,192,19410,1,0,0:0:0:0:
109,192,19410,1,0,0:0:0:0:
36,192,19410,1,0,0:0:0:0:
475,192,19410,1,0,0:0:0:0:
329,192,19552,1,0,0:0:0:0:
475,192,19552,1,0,0:0:0:0:
182,192,19552,1,0,0:0:0:0:
256,192,19552,1,0,0:0:0:0:
402,192,19695,1,0,0:0:0:0:
109,192,19695,1,0,0:0:0:0:
36,192,19695,1,0,0:0:0:0:
256,192,19695,128,0,20695:0:0:0:0:
475,192,19695,1,0,0:0:0:0:
109,192,19838,1,0,0:0:0:0:
402,192,19838,1,0,0:0:0:0:
109,192,19981,1,0,0:0:0:0:
402,192,19981,1,0,0:0:0:0:
109,192,20124,1,0,0:0:0:0:
402,192,20124,1,0,0:0:0:0:
109,192,20267,1,0,0:0:0:0:
402,192,20267,1,0,0:0:0:0:
109,192,20410,1,0,0:0:0:0:
402,192,20410,1,0,0:0:0:0:
109,192,20552,1,0,0:0:0:0:
402,192,20552,1,0,0:0:0:0:
109,192,20695,1,0,0:0:0:0:
402,192,20695,1,0,0:0:0:0:
329,192,20767,1,0,0:0:0:0:
182,192,20767,1,0,0:0:0:0:
256,192,20838,1,0,0:0:0:0:
36,192,20838,1,0,0:0:0:0:
475,192,20910,1,0,0:0:0:0:
182,192,20910,1,0,0:0:0:0:
402,192,20981,1,0,0:0:0:0:
109,192,20981,1,0,0:0:0:0:
329,192,21052,1,0,0:0:0:0:
182,192,21052,1,0,0:0:0:0:
256,192,21124,1,0,0:0:0:0:
36,192,21124,1,0,0:0:0:0:
182,192,21195,1,0,0:0:0:0:
475,192,21195,1,0,0:0:0:0:
402,192,21267,1,0,0:0:0:0:
109,192,21267,1,0,0:0:0:0:
182,192,21338,1,0,0:0:0:0:
475,192,21338,1,0,0:0:0:0:
256,192,21410,1,0,0:0:0:0:
36,192,21410,1,0,0:0:0:0:
329,192,21481,1,0,0:0:0:0:
109,192,21481,1,0,0:0:0:0:
182,192,21552,1,0,0:0:0:0:
475,192,21552,1,0,0:0:0:0:
402,192,21624,1,0,0:0:0:0:
256,192,21624,1,0,0:0:0:0:
109,192,21695,1,0,0:0:0:0:
329,192,21695,1,0,0:0:0:0:
256,192,21767,1,0,0:0:0:0:
36,192,21767,1,0,0:0:0:0:
182,192,21838,1,0,0:0:0:0:
475,192,21838,1,0,0:0:0:0:
402,192,21910,1,0,0:0:0:0:
36,192,21910,1,0,0:0:0:0:
109,192,21981,1,0,0:0:0:0:
256,192,21981,1,0,0:0:0:0:
329,192,22052,1,0,0:0:0:0:
475,192,22052,1,0,0:0:0:0:
182,192,22124,1,0,0:0:0:0:
36,192,22124,1,0,0:0:0:0:
256,192,22195,1,0,0:0:0:0:
109,192,22195,1,0,0:0:0:0:
182,192,22267,1,0,0:0:0:0:
402,192,22267,1,0,0:0:0:0:
329,192,22338,1,0,0:0:0:0:
109,192,22338,1,0,0:0:0:0:
256,192,22410,1,0,0:0:0:0:
475,192,22410,1,0,0:0:0:0:
182,192,22481,1,0,0:0:0:0:
36,192,22481,1,0,0:0:0:0:
329,192,22552,1,0,0:0:0:0:
475,192,22552,1,0,0:0:0:0:
256,192,22624,1,0,0:0:0:0:
109,192,22624,1,0,0:0:0:0:
182,192,22695,1,0,0:0:0:0:
329,192,22695,1,0,0:0:0:0:
256,192,22767,1,0,0:0:0:0:
475,192,22767,1,0,0:0:0:0:
329,192,22838,1,0,0:0:0:0:
109,192,22838,1,0,0:0:0:0:
182,192,22910,1,0,0:0:0:0:
36,192,22910,1,0,0:0:0:0:
256,192,22981,1,0,0:0:0:0:
475,192,22981,1,0,0:0:0:0:
402,192,23052,1,0,0:0:0:0:
182,192,23052,1,0,0:0:0:0:
329,192,23124,1,0,0:0:0:0:
109,192,23124,1,0,0:0:0:0:
256,192,23195,1,0,0:0:0:0:
36,192,23195,1,0,0:0:0:0:
182,192,23267,1,0,0:0:0:0:
402,192,23267,1,0,0:0:0:0:
36,192,23338,1,0,0:0:0:0:
256,192,23338,1,0,0:0:0:0:
329,192,23410,1,0,0:0:0:0:
475,192,23410,1,0,0:0:0:0:
182,192,23481,1,0,0:0:0:0:
109,192,23481,1,0,0:0:0:0:
256,192,23552,1,0,0:0:0:0:
475,192,23552,1,0,0:0:0:0:
109,192,23624,1,0,0:0:0:0:
36,192,23624,1,0,0:0:0:0:
182,192,23695,1,0,0:0:0:0:
402,192,23695,1,0,0:0:0:0:
329,192,23767,1,0,0:0:0:0:
109,192,23767,1,0,0:0:0:0:
256,192,23838,1,0,0:0:0:0:
36,192,23838,1,0,0:0:0:0:
475,192,23910,1,0,0:0:0:0:
182,192,23910,1,0,0:0:0:0:
329,192,23981,1,0,0:0:0:0:
36,192,23981,1,0,0:0:0:0:
109,192,24052,1,0,0:0:0:0:
256,192,24052,1,0,0:0:0:0:
182,192,24124,1,0,0:0:0:0:
329,192,24124,1,0,0:0:0:0:
256,192,24195,1,0,0:0:0:0:
402,192,24195,1,0,0:0:0:0:
329,192,24267,1,0,0:0:0:0:
475,192,24267,1,0,0:0:0:0:
109,192,24267,1,0,0:0:0:0:
182,192,24338,1,0,0:0:0:0:
256,192,24338,1,0,0:0:0:0:
109,192,24410,1,0,0:0:0:0:
36,192,24410,1,0,0:0:0:0:
402,192,24481,1,0,0:0:0:0:
329,192,24481,1,0,0:0:0:0:
256,192,24552,1,0,0:0:0:0:
182,192,24552,1,0,0:0:0:0:
109,192,24552,1,0,0:0:0:0:
402,192,24624,1,0,0:0:0:0:
475,192,24624,1,0,0:0:0:0:
182,192,24695,1,0,0:0:0:0:
36,192,24695,1,0,0:0:0:0:
329,192,24767,1,0,0:0:0:0:
402,192,24767,1,0,0:0:0:0:
256,192,24838,1,0,0:0:0:0:
182,192,24838,1,0,0:0:0:0:
109,192,24838,1,0,0:0:0:0:
402,192,24910,1,0,0:0:0:0:
475,192,24910,1,0,0:0:0:0:
109,192,24981,1,0,0:0:0:0:
36,192,24981,1,0,0:0:0:0:
182,192,24981,1,0,0:0:0:0:
256,192,25052,1,0,0:0:0:0:
329,192,25052,1,0,0:0:0:0:
402,192,25124,1,0,0:0:0:0:
475,192,25124,1,0,0:0:0:0:
109,192,25124,1,0,0:0:0:0:
182,192,25195,1,0,0:0:0:0:
256,192,25195,1,0,0:0:0:0:
475,192,25267,1,0,0:0:0:0:
329,192,25267,1,0,0:0:0:0:
182,192,25338,1,0,0:0:0:0:
109,192,25338,1,0,0:0:0:0:
256,192,25410,1,0,0:0:0:0:
402,192,25410,1,0,0:0:0:0:
329,192,25410,1,0,0:0:0:0:
109,192,25481,1,0,0:0:0:0:
36,192,25481,1,0,0:0:0:0:
475,192,25552,1,0,0:0:0:0:
182,192,25552,1,0,0:0:0:0:
256,192,25552,1,0,0:0:0:0:
402,192,25624,1,0,0:0:0:0:
329,192,25624,1,0,0:0:0:0:
256,192,25695,1,0,0:0:0:0:
109,192,25695,1,0,0:0:0:0:
36,192,25695,1,0,0:0:0:0:
402,192,25767,1,0,0:0:0:0:
475,192,25767,1,0,0:0:0:0:
182,192,25838,1,0,0:0:0:0:
109,192,25838,1,0,0:0:0:0:
256,192,25838,1,0,0:0:0:0:
475,192,25910,1,0,0:0:0:0:
329,192,25910,1,0,0:0:0:0:
182,192,25981,1,0,0:0:0:0:
36,192,25981,1,0,0:0:0:0:
256,192,26052,1,0,0:0:0:0:
402,192,26052,1,0,0:0:0:0:
182,192,26124,1,0,0:0:0:0:
109,192,26124,1,0,0:0:0:0:
36,192,26124,1,0,0:0:0:0:
329,192,26195,1,0,0:0:0:0:
475,192,26195,1,0,0:0:0:0:
256,192,26267,1,0,0:0:0:0:
182,192,26267,1,0,0:0:0:0:
36,192,26267,1,0,0:0:0:0:
402,192,26338,1,0,0:0:0:0:
475,192,26338,1,0,0:0:0:0:
109,192,26410,1,0,0:0:0:0:
182,192,26410,1,0,0:0:0:0:
329,192,26481,1,0,0:0:0:0:
402,192,26481,1,0,0:0:0:0:
256,192,26552,1,0,0:0:0:0:
109,192,26552,1,0,0:0:0:0:
36,192,26552,1,0,0:0:0:0:
402,192,26624,1,0,0:0:0:0:
475,192,26624,1,0,0:0:0:0:
182,192,26695,1,0,0:0:0:0:
109,192,26695,1,0,0:0:0:0:
329,192,26767,1,0,0:0:0:0:
402,192,26767,1,0,0:0:0:0:
256,192,26838,1,0,0:0:0:0:
182,192,26838,1,0,0:0:0:0:
36,192,26838,1,0,0:0:0:0:
402,192,26910,1,0,0:0:0:0:
475,192,26910,1,0,0:0:0:0:
109,192,26981,1,0,0:0:0:0:
36,192,26981,1,0,0:0:0:0:
256,192,27052,1,0,0:0:0:0:
182,192,27052,1,0,0:0:0:0:
402,192,27124,1,0,0:0:0:0:
329,192,27124,1,0,0:0:0:0:
475,192,27124,1,0,0:0:0:0:
182,192,27195,1,0,0:0:0:0:
109,192,27195,1,0,0:0:0:0:
256,192,27267,1,0,0:0:0:0:
329,192,27267,1,0,0:0:0:0:
475,192,27267,1,0,0:0:0:0:
109,192,27338,1,0,0:0:0:0:
36,192,27338,1,0,0:0:0:0:
256,192,27410,1,0,0:0:0:0:
182,192,27410,1,0,0:0:0:0:
402,192,27410,1,0,0:0:0:0:
109,192,27481,1,0,0:0:0:0:
36,192,27481,1,0,0:0:0:0:
329,192,27552,1,0,0:0:0:0:
475,192,27552,1,0,0:0:0:0:
256,192,27624,1,0,0:0:0:0:
182,192,27624,1,0,0:0:0:0:
402,192,27695,1,0,0:0:0:0:
109,192,27695,1,0,0:0:0:0:
475,192,27695,1,0,0:0:0:0:
36,192,27695,1,0,0:0:0:0:
182,192,27838,1,0,0:0:0:0:
329,192,27838,1,0,0:0:0:0:
109,192,27981,1,0,0:0:0:0:
36,192,27981,1,0,0:0:0:0:
402,192,27981,1,0,0:0:0:0:
475,192,27981,1,0,0:0:0:0:
256,192,27981,1,0,0:0:0:0:
329,192,28124,1,0,0:0:0:0:
182,192,28124,1,0,0:0:0:0:
256,192,28195,1,0,0:0:0:0:
109,192,28267,1,0,0:0:0:0:
36,192,28267,1,0,0:0:0:0:
402,192,28267,1,0,0:0:0:0:
475,192,28267,1,0,0:0:0:0:
256,192,28338,1,0,0:0:0:0:
402,192,28410,1,0,0:0:0:0:
109,192,28410,1,0,0:0:0:0:
329,192,28481,1,0,0:0:0:0:
182,192,28481,1,0,0:0:0:0:
256,192,28552,1,0,0:0:0:0:
36,192,28552,1,0,0:0:0:0:
475,192,28552,1,0,0:0:0:0:
256,192,28838,1,0,0:0:0:0:
109,192,28838,1,0,0:0:0:0:
36,192,28838,1,0,0:0:0:0:
182,192,28838,1,0,0:0:0:0:
475,192,28838,1,0,0:0:0:0:
329,192,28981,1,0,0:0:0:0:
475,192,28981,1,0,0:0:0:0:
182,192,28981,1,0,0:0:0:0:
36,192,28981,1,0,0:0:0:0:
109,192,29124,1,0,0:0:0:0:
36,192,29124,1,0,0:0:0:0:
475,192,29124,1,0,0:0:0:0:
402,192,29124,1,0,0:0:0:0:
329,192,29124,1,0,0:0:0:0:
182,192,29195,1,0,0:0:0:0:
256,192,29267,1,0,0:0:0:0:
36,192,29267,1,0,0:0:0:0:
109,192,29338,1,0,0:0:0:0:
329,192,29338,1,0,0:0:0:0:
475,192,29338,1,0,0:0:0:0:
182,192,29410,1,0,0:0:0:0:
402,192,29410,1,0,0:0:0:0:
36,192,29410,1,0,0:0:0:0:
256,192,29481,1,0,0:0:0:0:
329,192,29552,1,0,0:0:0:0:
36,192,29552,1,0,0:0:0:0:
109,192,29552,1,0,0:0:0:0:
182,192,29624,1,0,0:0:0:0:
256,192,29695,1,0,0:0:0:0:
36,192,29695,1,0,0:0:0:0:
475,192,29695,1,0,0:0:0:0:
402,192,29695,1,0,0:0:0:0:
182,192,29767,1,0,0:0:0:0:
329,192,29767,1,0,0:0:0:0:
109,192,29838,1,0,0:0:0:0:
256,192,29838,1,0,0:0:0:0:
475,192,29838,1,0,0:0:0:0:
402,192,29910,1,0,0:0:0:0:
182,192,29910,1,0,0:0:0:0:
256,192,29981,1,0,0:0:0:0:
36,192,29981,1,0,0:0:0:0:
109,192,29981,1,0,0:0:0:0:
475,192,29981,128,0,30267:0:0:0:0:
329,192,30052,1,0,0:0:0:0:
402,192,30124,1,0,0:0:0:0:
36,192,30124,1,0,0:0:0:0:
256,192,30195,1,0,0:0:0:0:
109,192,30195,1,0,0:0:0:0:
182,192,30195,1,0,0:0:0:0:
329,192,30267,1,0,0:0:0:0:
36,192,30267,128,0,30552:0:0:0:0:
402,192,30267,1,0,0:0:0:0:
256,192,30338,1,0,0:0:0:0:
182,192,30410,1,0,0:0:0:0:
402,192,30410,1,0,0:0:0:0:
109,192,30410,1,0,0:0:0:0:
329,192,30481,1,0,0:0:0:0:
475,192,30552,128,0,30838:0:0:0:0:
256,192,30552,1,0,0:0:0:0:
109,192,30552,1,0,0:0:0:0:
329,192,30624,1,0,0:0:0:0:
182,192,30624,1,0,0:0:0:0:
402,192,30695,1,0,0:0:0:0:
256,192,30695,1,0,0:0:0:0:
182,192,30767,1,0,0:0:0:0:
36,192,30838,128,0,31124:0:0:0:0:
109,192,30838,1,0,0:0:0:0:
329,192,30838,1,0,0:0:0:0:
402,192,30838,1,0,0:0:0:0:
256,192,30910,1,0,0:0:0:0:
182,192,30981,1,0,0:0:0:0:
402,192,30981,1,0,0:0:0:0:
475,192,30981,1,0,0:0:0:0:
329,192,31052,1,0,0:0:0:0:
256,192,31124,1,0,0:0:0:0:
109,192,31124,1,0,0:0:0:0:
475,192,31124,1,0,0:0:0:0:
182,192,31124,1,0,0:0:0:0:
182,192,31267,1,0,0:0:0:0:
36,192,31267,1,0,0:0:0:0:
329,192,31267,1,0,0:0:0:0:
402,192,31267,1,0,0:0:0:0:
256,192,31410,1,0,0:0:0:0:
109,192,31410,1,0,0:0:0:0:
36,192,31410,1,0,0:0:0:0:
475,192,31410,1,0,0:0:0:0:
182,192,31410,1,0,0:0:0:0:
402,192,31481,1,0,0:0:0:0:
329,192,31552,1,0,0:0:0:0:
109,192,31552,1,0,0:0:0:0:
256,192,31624,1,0,0:0:0:0:
36,192,31624,1,0,0:0:0:0:
182,192,31624,1,0,0:0:0:0:
402,192,31695,1,0,0:0:0:0:
475,192,31695,1,0,0:0:0:0:
182,192,31767,1,0,0:0:0:0:
256,192,31838,1,0,0:0:0:0:
36,192,31838,1,0,0:0:0:0:
402,192,31838,1,0,0:0:0:0:
109,192,31910,1,0,0:0:0:0:
182,192,31981,1,0,0:0:0:0:
36,192,31981,1,0,0:0:0:0:
329,192,31981,1,0,0:0:0:0:
475,192,31981,1,0,0:0:0:0:
256,192,32052,1,0,0:0:0:0:
109,192,32052,1,0,0:0:0:0:
182,192,32124,1,0,0:0:0:0:
475,192,32124,1,0,0:0:0:0:
402,192,32124,1,0,0:0:0:0:
329,192,32195,1,0,0:0:0:0:
109,192,32195,1,0,0:0:0:0:
36,192,32267,128,0,32552:0:0:0:0:
256,192,32267,1,0,0:0:0:0:
475,192,32267,1,0,0:0:0:0:
402,192,32267,1,0,0:0:0:0:
182,192,32338,1,0,0:0:0:0:
475,192,32410,1,0,0:0:0:0:
109,192,32410,1,0,0:0:0:0:
329,192,32481,1,0,0:0:0:0:
256,192,32481,1,0,0:0:0:0:
182,192,32481,1,0,0:0:0:0:
475,192,32552,128,0,32838:0:0:0:0:
402,192,32552,1,0,0:0:0:0:
109,192,32552,1,0,0:0:0:0:
256,192,32624,1,0,0:0:0:0:
329,192,32695,1,0,0:0:0:0:
109,192,32695,1,0,0:0:0:0:
402,192,32695,1,0,0:0:0:0:
182,192,32767,1,0,0:0:0:0:
36,192,32838,128,0,33124:0:0:0:0:
256,192,32838,1,0,0:0:0:0:
109,192,32838,1,0,0:0:0:0:
402,192,32910,1,0,0:0:0:0:
329,192,32910,1,0,0:0:0:0:
182,192,32981,1,0,0:0:0:0:
109,192,32981,1,0,0:0:0:0:
256,192,33052,1,0,0:0:0:0:
475,192,33124,128,0,33410:0:0:0:0:
329,192,33124,1,0,0:0:0:0:
109,192,33124,1,0,0:0:0:0:
402,192,33124,1,0,0:0:0:0:
182,192,33267,1,0,0:0:0:0:
36,192,33267,1,0,0:0:0:0:
329,192,33267,1,0,0:0:0:0:
109,192,33410,1,0,0:0:0:0:
256,192,33410,1,0,0:0:0:0:
36,192,33410,1,0,0:0:0:0:
402,192,33410,1,0,0:0:0:0:
182,192,33410,1,0,0:0:0:0:
256,192,33552,1,0,0:0:0:0:
109,192,33552,1,0,0:0:0:0:
402,192,33552,1,0,0:0:0:0:
475,192,33552,1,0,0:0:0:0:
182,192,33695,1,0,0:0:0:0:
36,192,33695,1,0,0:0:0:0:
109,192,33695,1,0,0:0:0:0:
402,192,33695,1,0,0:0:0:0:
475,192,33695,1,0,0:0:0:0:
256,192,33767,1,0,0:0:0:0:
329,192,33838,1,0,0:0:0:0:
109,192,33838,1,0,0:0:0:0:
182,192,33910,1,0,0:0:0:0:
402,192,33910,1,0,0:0:0:0:
475,192,33910,1,0,0:0:0:0:
256,192,33981,1,0,0:0:0:0:
36,192,33981,1,0,0:0:0:0:
109,192,33981,1,0,0:0:0:0:
182,192,34052,1,0,0:0:0:0:
109,192,34124,1,0,0:0:0:0:
329,192,34124,1,0,0:0:0:0:
475,192,34124,1,0,0:0:0:0:
256,192,34195,1,0,0:0:0:0:
182,192,34267,1,0,0:0:0:0:
36,192,34267,1,0,0:0:0:0:
402,192,34267,1,0,0:0:0:0:
475,192,34267,1,0,0:0:0:0:
329,192,34338,1,0,0:0:0:0:
109,192,34338,1,0,0:0:0:0:
256,192,34410,1,0,0:0:0:0:
36,192,34410,1,0,0:0:0:0:
475,192,34410,1,0,0:0:0:0:
182,192,34481,1,0,0:0:0:0:
402,192,34481,1,0,0:0:0:0:
329,192,34552,1,0,0:0:0:0:
109,192,34552,1,0,0:0:0:0:
475,192,34552,1,0,0:0:0:0:
256,192,34588,1,0,0:0:0:0:
182,192,34624,1,0,0:0:0:0:
109,192,34660,1,0,0:0:0:0:
36,192,34695,1,0,0:0:0:0:
329,192,34731,1,0,0:0:0:0:
402,192,34767,1,0,0:0:0:0:
475,192,34802,1,0,0:0:0:0:
109,192,34838,1,0,0:0:0:0:
36,192,34838,1,0,0:0:0:0:
182,192,34874,1,0,0:0:0:0:
329,192,34910,1,0,0:0:0:0:
402,192,34945,1,0,0:0:0:0:
256,192,34981,1,0,0:0:0:0:
182,192,35017,1,0,0:0:0:0:
109,192,35052,1,0,0:0:0:0:
36,192,35088,1,0,0:0:0:0:
402,192,35124,1,0,0:0:0:0:
475,192,35124,1,0,0:0:0:0:
329,192,35160,1,0,0:0:0:0:
182,192,35195,1,0,0:0:0:0:
36,192,35231,1,0,0:0:0:0:
256,192,35267,1,0,0:0:0:0:
329,192,35302,1,0,0:0:0:0:
402,192,35338,1,0,0:0:0:0:
475,192,35374,1,0,0:0:0:0:
109,192,35410,1,0,0:0:0:0:
36,192,35410,1,0,0:0:0:0:
256,192,35445,1,0,0:0:0:0:
402,192,35481,1,0,0:0:0:0:
475,192,35517,1,0,0:0:0:0:
329,192,35552,1,0,0:0:0:0:
182,192,35588,1,0,0:0:0:0:
109,192,35624,1,0,0:0:0:0:
36,192,35660,1,0,0:0:0:0:
475,192,35695,1,0,0:0:0:0:
402,192,35695,1,0,0:0:0:0:
256,192,35695,1,0,0:0:0:0:
329,192,35695,1,0,0:0:0:0:
182,192,35838,1,0,0:0:0:0:
36,192,35838,1,0,0:0:0:0:
329,192,35838,1,0,0:0:0:0:
475,192,35838,1,0,0:0:0:0:
256,192,35981,1,0,0:0:0:0:
109,192,35981,1,0,0:0:0:0:
36,192,35981,1,0,0:0:0:0:
475,192,35981,1,0,0:0:0:0:
402,192,35981,1,0,0:0:0:0:
329,192,36052,1,0,0:0:0:0:
402,192,36124,1,0,0:0:0:0:
182,192,36124,1,0,0:0:0:0:
256,192,36195,1,0,0:0:0:0:
36,192,36195,1,0,0:0:0:0:
109,192,36195,1,0,0:0:0:0:
329,192,36267,1,0,0:0:0:0:
475,192,36267,1,0,0:0:0:0:
182,192,36267,1,0,0:0:0:0:
256,192,36338,1,0,0:0:0:0:
182,192,36410,1,0,0:0:0:0:
109,192,36410,1,0,0:0:0:0:
402,192,36410,1,0,0:0:0:0:
329,192,36481,1,0,0:0:0:0:
256,192,36552,1,0,0:0:0:0:
109,192,36552,1,0,0:0:0:0:
36,192,36552,1,0,0:0:0:0:
475,192,36552,1,0,0:0:0:0:
402,192,36624,1,0,0:0:0:0:
182,192,36624,1,0,0:0:0:0:
329,192,36695,1,0,0:0:0:0:
109,192,36695,1,0,0:0:0:0:
475,192,36695,1,0,0:0:0:0:
256,192,36767,1,0,0:0:0:0:
402,192,36767,1,0,0:0:0:0:
36,192,36838,128,0,37052:0:0:0:0:
109,192,36838,128,0,37052:0:0:0:0:
182,192,36838,128,0,37052:0:0:0:0:
329,192,36838,128,0,37052:0:0:0:0:
475,192,36838,128,0,37052:0:0:0:0:
256,192,37124,128,0,37338:0:0:0:0:
329,192,37124,128,0,37338:0:0:0:0:
402,192,37124,128,0,37338:0:0:0:0:
475,192,37124,128,0,37338:0:0:0:0:
109,192,37124,128,0,37338:0:0:0:0:
109,192,37410,128,0,37695:0:0:0:0:
36,192,37410,128,0,37695:0:0:0:0:
182,192,37410,128,0,37695:0:0:0:0:
329,192,37410,128,0,37695:0:0:0:0:
475,192,37410,128,0,37695:0:0:0:0:
402,192,37695,1,0,0:0:0:0:
256,192,37743,1,0,0:0:0:0:
182,192,37790,1,0,0:0:0:0:
109,192,37838,1,0,0:0:0:0:
475,192,37886,1,0,0:0:0:0:
329,192,37933,1,0,0:0:0:0:
256,192,37981,5,0,0:0:0:0:
36,192,37981,1,0,0:0:0:0:
109,192,37981,1,0,0:0:0:0:
182,192,37981,1,0,0:0:0:0:
402,192,38124,1,0,0:0:0:0:
256,192,38124,1,0,0:0:0:0:
109,192,38124,1,0,0:0:0:0:
475,192,38124,1,0,0:0:0:0:
182,192,38124,1,0,0:0:0:0:
36,192,38267,1,0,0:0:0:0:
182,192,38267,1,0,0:0:0:0:
475,192,38267,1,0,0:0:0:0:
402,192,38267,1,0,0:0:0:0:
329,192,38267,1,0,0:0:0:0:
256,192,38338,1,0,0:0:0:0:
182,192,38410,1,0,0:0:0:0:
402,192,38410,1,0,0:0:0:0:
329,192,38481,1,0,0:0:0:0:
109,192,38481,1,0,0:0:0:0:
36,192,38481,1,0,0:0:0:0:
256,192,38552,1,0,0:0:0:0:
182,192,38552,1,0,0:0:0:0:
402,192,38552,1,0,0:0:0:0:
475,192,38552,1,0,0:0:0:0:
329,192,38624,1,0,0:0:0:0:
402,192,38695,1,0,0:0:0:0:
182,192,38695,1,0,0:0:0:0:
36,192,38695,1,0,0:0:0:0:
109,192,38767,1,0,0:0:0:0:
182,192,38838,1,0,0:0:0:0:
402,192,38838,1,0,0:0:0:0:
475,192,38838,1,0,0:0:0:0:
329,192,38838,1,0,0:0:0:0:
109,192,38910,1,0,0:0:0:0:
36,192,38910,1,0,0:0:0:0:
256,192,38981,1,0,0:0:0:0:
402,192,38981,1,0,0:0:0:0:
475,192,38981,1,0,0:0:0:0:
182,192,39052,1,0,0:0:0:0:
109,192,39052,1,0,0:0:0:0:
36,192,39124,1,0,0:0:0:0:
329,192,39124,1,0,0:0:0:0:
402,192,39124,1,0,0:0:0:0:
475,192,39124,128,0,40267:0:0:0:0:
256,192,39267,1,0,0:0:0:0:
182,192,39338,1,0,0:0:0:0:
329,192,39410,128,0,39552:0:0:0:0:
182,192,39552,1,0,0:0:0:0:
109,192,39624,1,0,0:0:0:0:
329,192,39695,128,0,39838:0:0:0:0:
109,192,39838,1,0,0:0:0:0:
36,192,39910,1,0,0:0:0:0:
329,192,39981,128,0,40124:0:0:0:0:
109,192,40124,1,0,0:0:0:0:
256,192,40195,1,0,0:0:0:0:
402,192,40267,1,0,0:0:0:0:
36,192,40267,1,0,0:0:0:0:
329,192,40267,1,0,0:0:0:0:
109,192,40267,1,0,0:0:0:0:
182,192,40267,1,0,0:0:0:0:
256,192,40410,1,0,0:0:0:0:
109,192,40410,1,0,0:0:0:0:
475,192,40410,1,0,0:0:0:0:
402,192,40410,1,0,0:0:0:0:
109,192,40552,1,0,0:0:0:0:
36,192,40552,1,0,0:0:0:0:
329,192,40552,1,0,0:0:0:0:
475,192,40552,1,0,0:0:0:0:
256,192,40552,1,0,0:0:0:0:
182,192,40624,1,0,0:0:0:0:
109,192,40695,1,0,0:0:0:0:
402,192,40695,1,0,0:0:0:0:
329,192,40767,1,0,0:0:0:0:
475,192,40767,1,0,0:0:0:0:
36,192,40767,1,0,0:0:0:0:
256,192,40838,1,0,0:0:0:0:
182,192,40838,1,0,0:0:0:0:
109,192,40838,1,0,0:0:0:0:
402,192,40838,1,0,0:0:0:0:
329,192,40910,1,0,0:0:0:0:
402,192,40981,1,0,0:0:0:0:
182,192,40981,1,0,0:0:0:0:
36,192,40981,1,0,0:0:0:0:
256,192,41052,1,0,0:0:0:0:
329,192,41124,1,0,0:0:0:0:
109,192,41124,1,0,0:0:0:0:
36,192,41124,1,0,0:0:0:0:
475,192,41124,1,0,0:0:0:0:
182,192,41195,1,0,0:0:0:0:
402,192,41195,1,0,0:0:0:0:
256,192,41267,1,0,0:0:0:0:
36,192,41267,1,0,0:0:0:0:
475,192,41267,1,0,0:0:0:0:
329,192,41338,1,0,0:0:0:0:
109,192,41338,1,0,0:0:0:0:
402,192,41410,1,0,0:0:0:0:
182,192,41410,1,0,0:0:0:0:
256,192,41410,1,0,0:0:0:0:
36,192,41410,128,0,41981:0:0:0:0:
329,192,41552,1,0,0:0:0:0:
475,192,41624,1,0,0:0:0:0:
182,192,41695,128,0,41838:0:0:0:0:
402,192,41695,1,0,0:0:0:0:
329,192,41695,1,0,0:0:0:0:
256,192,41838,1,0,0:0:0:0:
402,192,41910,1,0,0:0:0:0:
109,192,41981,1,0,0:0:0:0:
329,192,41981,1,0,0:0:0:0:
475,192,41981,128,0,42124:0:0:0:0:
256,192,41981,1,0,0:0:0:0:
182,192,42124,1,0,0:0:0:0:
329,192,42124,1,0,0:0:0:0:
402,192,42267,128,0,42338:0:0:0:0:
109,192,42267,1,0,0:0:0:0:
36,192,42267,1,0,0:0:0:0:
256,192,42267,128,0,42552:0:0:0:0:
182,192,42267,1,0,0:0:0:0:
329,192,42410,128,0,42481:0:0:0:0:
109,192,42552,1,0,0:0:0:0:
36,192,42552,1,0,0:0:0:0:
475,192,42552,1,0,0:0:0:0:
402,192,42552,1,0,0:0:0:0:
182,192,42695,1,0,0:0:0:0:
109,192,42695,1,0,0:0:0:0:
329,192,42695,1,0,0:0:0:0:
402,192,42695,1,0,0:0:0:0:
182,192,42838,1,0,0:0:0:0:
109,192,42838,1,0,0:0:0:0:
256,192,42838,1,0,0:0:0:0:
329,192,42838,1,0,0:0:0:0:
402,192,42838,1,0,0:0:0:0:
182,192,42981,1,0,0:0:0:0:
36,192,42981,1,0,0:0:0:0:
329,192,42981,1,0,0:0:0:0:
475,192,42981,1,0,0:0:0:0:
402,192,43052,1,0,0:0:0:0:
256,192,43052,1,0,0:0:0:0:
329,192,43124,1,0,0:0:0:0:
109,192,43124,1,0,0:0:0:0:
36,192,43124,1,0,0:0:0:0:
182,192,43124,1,0,0:0:0:0:
329,192,43267,1,0,0:0:0:0:
182,192,43267,1,0,0:0:0:0:
475,192,43267,1,0,0:0:0:0:
256,192,43267,1,0,0:0:0:0:
182,192,43410,1,0,0:0:0:0:
256,192,43410,1,0,0:0:0:0:
329,192,43410,1,0,0:0:0:0:
475,192,43410,1,0,0:0:0:0:
36,192,43410,1,0,0:0:0:0:
109,192,43552,1,0,0:0:0:0:
36,192,43552,1,0,0:0:0:0:
475,192,43552,1,0,0:0:0:0:
329,192,43552,1,0,0:0:0:0:
182,192,43624,1,0,0:0:0:0:
256,192,43624,1,0,0:0:0:0:
329,192,43695,1,0,0:0:0:0:
402,192,43695,1,0,0:0:0:0:
475,192,43695,1,0,0:0:0:0:
36,192,43695,1,0,0:0:0:0:
109,192,43838,1,0,0:0:0:0:
256,192,43838,1,0,0:0:0:0:
36,192,43838,1,0,0:0:0:0:
329,192,43838,1,0,0:0:0:0:
36,192,43981,1,0,0:0:0:0:
109,192,43981,1,0,0:0:0:0:
256,192,43981,1,0,0:0:0:0:
329,192,43981,1,0,0:0:0:0:
475,192,43981,1,0,0:0:0:0:
402,192,44124,1,0,0:0:0:0:
256,192,44124,1,0,0:0:0:0:
36,192,44124,1,0,0:0:0:0:
475,192,44124,1,0,0:0:0:0:
329,192,44195,1,0,0:0:0:0:
109,192,44195,1,0,0:0:0:0:
182,192,44267,1,0,0:0:0:0:
36,192,44267,1,0,0:0:0:0:
402,192,44267,1,0,0:0:0:0:
475,192,44267,1,0,0:0:0:0:
256,192,44410,1,0,0:0:0:0:
109,192,44410,1,0,0:0:0:0:
402,192,44410,1,0,0:0:0:0:
329,192,44410,1,0,0:0:0:0:
109,192,44552,1,0,0:0:0:0:
182,192,44552,1,0,0:0:0:0:
329,192,44552,1,0,0:0:0:0:
402,192,44552,1,0,0:0:0:0:
256,192,44552,1,0,0:0:0:0:
182,192,44695,1,0,0:0:0:0:
36,192,44695,1,0,0:0:0:0:
475,192,44695,1,0,0:0:0:0:
402,192,44695,1,0,0:0:0:0:
256,192,44767,1,0,0:0:0:0:
109,192,44767,1,0,0:0:0:0:
182,192,44838,1,0,0:0:0:0:
329,192,44838,1,0,0:0:0:0:
402,192,44838,1,0,0:0:0:0:
475,192,44838,1,0,0:0:0:0:
109,192,44910,1,0,0:0:0:0:
36,192,44981,1,0,0:0:0:0:
256,192,44981,1,0,0:0:0:0:
402,192,44981,1,0,0:0:0:0:
475,192,44981,1,0,0:0:0:0:
329,192,45052,1,0,0:0:0:0:
182,192,45052,1,0,0:0:0:0:
256,192,45124,1,0,0:0:0:0:
109,192,45124,1,0,0:0:0:0:
36,192,45124,1,0,0:0:0:0:
475,192,45124,1,0,0:0:0:0:
402,192,45195,1,0,0:0:0:0:
329,192,45267,1,0,0:0:0:0:
109,192,45267,1,0,0:0:0:0:
475,192,45267,1,0,0:0:0:0:
36,192,45267,1,0,0:0:0:0:
182,192,45338,1,0,0:0:0:0:
402,192,45338,1,0,0:0:0:0:
256,192,45410,1,0,0:0:0:0:
36,192,45410,1,0,0:0:0:0:
109,192,45410,1,0,0:0:0:0:
475,192,45410,1,0,0:0:0:0:
329,192,45481,1,0,0:0:0:0:
402,192,45552,1,0,0:0:0:0:
182,192,45552,1,0,0:0:0:0:
36,192,45552,1,0,0:0:0:0:
475,192,45552,1,0,0:0:0:0:
256,192,45624,1,0,0:0:0:0:
109,192,45624,1,0,0:0:0:0:
182,192,45695,1,0,0:0:0:0:
329,192,45695,1,0,0:0:0:0:
402,192,45695,1,0,0:0:0:0:
475,192,45695,1,0,0:0:0:0:
109,192,45767,1,0,0:0:0:0:
36,192,45838,1,0,0:0:0:0:
329,192,45838,1,0,0:0:0:0:
475,192,45838,1,0,0:0:0:0:
402,192,45838,1,0,0:0:0:0:
256,192,45910,1,0,0:0:0:0:
182,192,45910,1,0,0:0:0:0:
109,192,45981,1,0,0:0:0:0:
36,192,45981,1,0,0:0:0:0:
329,192,45981,1,0,0:0:0:0:
475,192,45981,1,0,0:0:0:0:
402,192,45981,128,0,46552:0:0:0:0:
109,192,46552,128,0,47124:0:0:0:0:
475,192,46695,128,0,47124:0:0:0:0:
402,192,46838,128,0,47124:0:0:0:0:
329,192,46981,128,0,47124:0:0:0:0:
256,192,47124,1,0,0:0:0:0:
182,192,47124,1,0,0:0:0:0:
36,192,47124,1,0,0:0:0:0:
329,192,47195,1,0,0:0:0:0:
402,192,47267,1,0,0:0:0:0:
182,192,47267,1,0,0:0:0:0:
109,192,47267,1,0,0:0:0:0:
256,192,47338,1,0,0:0:0:0:
329,192,47410,1,0,0:0:0:0:
109,192,47410,1,0,0:0:0:0:
402,192,47410,1,0,0:0:0:0:
475,192,47410,1,0,0:0:0:0:
36,192,47410,1,0,0:0:0:0:
256,192,47481,1,0,0:0:0:0:
182,192,47552,1,0,0:0:0:0:
475,192,47552,1,0,0:0:0:0:
402,192,47552,1,0,0:0:0:0:
109,192,47624,1,0,0:0:0:0:
36,192,47695,1,0,0:0:0:0:
475,192,47695,1,0,0:0:0:0:
329,192,47695,1,0,0:0:0:0:
402,192,47695,1,0,0:0:0:0:
256,192,47695,1,0,0:0:0:0:
182,192,47767,1,0,0:0:0:0:
109,192,47838,1,0,0:0:0:0:
36,192,47838,1,0,0:0:0:0:
475,192,47838,1,0,0:0:0:0:
402,192,47910,1,0,0:0:0:0:
329,192,47910,1,0,0:0:0:0:
256,192,47910,1,0,0:0:0:0:
182,192,47981,1,0,0:0:0:0:
109,192,47981,1,0,0:0:0:0:
36,192,47981,1,0,0:0:0:0:
256,192,48052,1,0,0:0:0:0:
329,192,48124,1,0,0:0:0:0:
475,192,48124,1,0,0:0:0:0:
109,192,48124,1,0,0:0:0:0:
402,192,48124,1,0,0:0:0:0:
182,192,48195,1,0,0:0:0:0:
256,192,48267,1,0,0:0:0:0:
402,192,48267,1,0,0:0:0:0:
36,192,48267,1,0,0:0:0:0:
475,192,48267,1,0,0:0:0:0:
329,192,48338,1,0,0:0:0:0:
109,192,48338,1,0,0:0:0:0:
182,192,48410,1,0,0:0:0:0:
36,192,48410,1,0,0:0:0:0:
475,192,48410,1,0,0:0:0:0:
402,192,48481,1,0,0:0:0:0:
256,192,48481,1,0,0:0:0:0:
329,192,48552,1,0,0:0:0:0:
475,192,48552,1,0,0:0:0:0:
109,192,48552,1,0,0:0:0:0:
256,192,48624,1,0,0:0:0:0:
36,192,48624,1,0,0:0:0:0:
182,192,48695,1,0,0:0:0:0:
475,192,48695,1,0,0:0:0:0:
402,192,48695,1,0,0:0:0:0:
329,192,48767,1,0,0:0:0:0:
36,192,48767,1,0,0:0:0:0:
109,192,48838,1,0,0:0:0:0:
256,192,48838,1,0,0:0:0:0:
475,192,48838,1,0,0:0:0:0:
329,192,48910,1,0,0:0:0:0:
182,192,48910,1,0,0:0:0:0:
256,192,48981,1,0,0:0:0:0:
402,192,48981,1,0,0:0:0:0:
36,192,48981,1,0,0:0:0:0:
109,192,49052,1,0,0:0:0:0:
329,192,49052,1,0,0:0:0:0:
182,192,49124,1,0,0:0:0:0:
36,192,49124,1,0,0:0:0:0:
475,192,49124,1,0,0:0:0:0:
402,192,49195,1,0,0:0:0:0:
256,192,49195,1,0,0:0:0:0:
329,192,49267,1,0,0:0:0:0:
475,192,49267,1,0,0:0:0:0:
109,192,49267,1,0,0:0:0:0:
256,192,49338,1,0,0:0:0:0:
36,192,49338,1,0,0:0:0:0:
402,192,49410,1,0,0:0:0:0:
182,192,49410,1,0,0:0:0:0:
475,192,49410,1,0,0:0:0:0:
109,192,49410,1,0,0:0:0:0:
329,192,49481,1,0,0:0:0:0:
256,192,49552,1,0,0:0:0:0:
36,192,49552,1,0,0:0:0:0:
402,192,49552,1,0,0:0:0:0:
182,192,49624,1,0,0:0:0:0:
109,192,49695,1,0,0:0:0:0:
475,192,49695,1,0,0:0:0:0:
329,192,49695,1,0,0:0:0:0:
402,192,49695,1,0,0:0:0:0:
36,192,49695,1,0,0:0:0:0:
256,192,49767,1,0,0:0:0:0:
182,192,49838,1,0,0:0:0:0:
36,192,49838,1,0,0:0:0:0:
475,192,49838,1,0,0:0:0:0:
256,192,49910,1,0,0:0:0:0:
329,192,49981,1,0,0:0:0:0:
109,192,49981,1,0,0:0:0:0:
475,192,49981,1,0,0:0:0:0:
402,192,49981,1,0,0:0:0:0:
36,192,49981,1,0,0:0:0:0:
182,192,50052,1,0,0:0:0:0:
256,192,50124,1,0,0:0:0:0:
36,192,50124,1,0,0:0:0:0:
402,192,50124,1,0,0:0:0:0:
109,192,50195,1,0,0:0:0:0:
329,192,50195,1,0,0:0:0:0:
475,192,50195,1,0,0:0:0:0:
402,192,50267,1,0,0:0:0:0:
182,192,50267,1,0,0:0:0:0:
36,192,50267,1,0,0:0:0:0:
256,192,50338,1,0,0:0:0:0:
329,192,50410,1,0,0:0:0:0:
109,192,50410,1,0,0:0:0:0:
475,192,50410,1,0,0:0:0:0:
402,192,50410,1,0,0:0:0:0:
256,192,50481,1,0,0:0:0:0:
182,192,50552,1,0,0:0:0:0:
36,192,50552,1,0,0:0:0:0:
475,192,50552,1,0,0:0:0:0:
109,192,50552,1,0,0:0:0:0:
402,192,50624,1,0,0:0:0:0:
329,192,50624,1,0,0:0:0:0:
256,192,50695,1,0,0:0:0:0:
36,192,50695,1,0,0:0:0:0:
109,192,50695,1,0,0:0:0:0:
182,192,50767,1,0,0:0:0:0:
329,192,50767,1,0,0:0:0:0:
256,192,50838,1,0,0:0:0:0:
402,192,50838,1,0,0:0:0:0:
36,192,50838,1,0,0:0:0:0:
109,192,50910,1,0,0:0:0:0:
329,192,50910,1,0,0:0:0:0:
182,192,50981,1,0,0:0:0:0:
36,192,50981,1,0,0:0:0:0:
475,192,50981,1,0,0:0:0:0:
402,192,51052,1,0,0:0:0:0:
256,192,51052,1,0,0:0:0:0:
329,192,51124,1,0,0:0:0:0:
475,192,51124,1,0,0:0:0:0:
109,192,51124,1,0,0:0:0:0:
256,192,51195,1,0,0:0:0:0:
36,192,51195,1,0,0:0:0:0:
182,192,51267,1,0,0:0:0:0:
402,192,51267,1,0,0:0:0:0:
475,192,51267,1,0,0:0:0:0:
329,192,51338,1,0,0:0:0:0:
109,192,51338,1,0,0:0:0:0:
256,192,51410,1,0,0:0:0:0:
36,192,51410,1,0,0:0:0:0:
402,192,51410,1,0,0:0:0:0:
182,192,51481,1,0,0:0:0:0:
329,192,51481,1,0,0:0:0:0:
256,192,51552,1,0,0:0:0:0:
402,192,51552,1,0,0:0:0:0:
36,192,51552,1,0,0:0:0:0:
109,192,51624,1,0,0:0:0:0:
329,192,51624,1,0,0:0:0:0:
182,192,51695,1,0,0:0:0:0:
36,192,51695,1,0,0:0:0:0:
402,192,51695,1,0,0:0:0:0:
475,192,51695,1,0,0:0:0:0:
256,192,51767,1,0,0:0:0:0:
329,192,51838,1,0,0:0:0:0:
109,192,51838,1,0,0:0:0:0:
475,192,51838,1,0,0:0:0:0:
182,192,51910,1,0,0:0:0:0:
256,192,51981,1,0,0:0:0:0:
36,192,51981,1,0,0:0:0:0:
402,192,51981,1,0,0:0:0:0:
475,192,51981,1,0,0:0:0:0:
109,192,51981,1,0,0:0:0:0:
329,192,52052,1,0,0:0:0:0:
402,192,52124,1,0,0:0:0:0:
182,192,52124,1,0,0:0:0:0:
109,192,52124,1,0,0:0:0:0:
256,192,52195,1,0,0:0:0:0:
329,192,52267,1,0,0:0:0:0:
109,192,52267,1,0,0:0:0:0:
475,192,52267,1,0,0:0:0:0:
402,192,52267,1,0,0:0:0:0:
36,192,52267,1,0,0:0:0:0:
256,192,52338,1,0,0:0:0:0:
182,192,52410,1,0,0:0:0:0:
402,192,52410,1,0,0:0:0:0:
36,192,52410,1,0,0:0:0:0:
329,192,52481,1,0,0:0:0:0:
109,192,52481,1,0,0:0:0:0:
475,192,52481,1,0,0:0:0:0:
256,192,52552,1,0,0:0:0:0:
36,192,52552,1,0,0:0:0:0:
402,192,52552,1,0,0:0:0:0:
182,192,52624,1,0,0:0:0:0:
329,192,52695,1,0,0:0:0:0:
109,192,52695,1,0,0:0:0:0:
475,192,52695,1,0,0:0:0:0:
402,192,52695,1,0,0:0:0:0:
256,192,52767,1,0,0:0:0:0:
182,192,52838,1,0,0:0:0:0:
36,192,52838,1,0,0:0:0:0:
475,192,52838,1,0,0:0:0:0:
402,192,52838,1,0,0:0:0:0:
329,192,52910,1,0,0:0:0:0:
109,192,52910,1,0,0:0:0:0:
256,192,52981,1,0,0:0:0:0:
36,192,52981,1,0,0:0:0:0:
475,192,52981,1,0,0:0:0:0:
402,192,53052,1,0,0:0:0:0:
182,192,53052,1,0,0:0:0:0:
329,192,53124,1,0,0:0:0:0:
475,192,53124,1,0,0:0:0:0:
36,192,53124,1,0,0:0:0:0:
109,192,53195,1,0,0:0:0:0:
256,192,53195,1,0,0:0:0:0:
182,192,53267,1,0,0:0:0:0:
402,192,53267,1,0,0:0:0:0:
475,192,53267,1,0,0:0:0:0:
256,192,53338,1,0,0:0:0:0:
36,192,53338,1,0,0:0:0:0:
109,192,53410,1,0,0:0:0:0:
402,192,53410,1,0,0:0:0:0:
329,192,53410,1,0,0:0:0:0:
182,192,53481,1,0,0:0:0:0:
475,192,53481,1,0,0:0:0:0:
256,192,53552,1,0,0:0:0:0:
36,192,53552,1,0,0:0:0:0:
402,192,53552,1,0,0:0:0:0:
329,192,53624,1,0,0:0:0:0:
182,192,53624,1,0,0:0:0:0:
256,192,53695,1,0,0:0:0:0:
109,192,53695,1,0,0:0:0:0:
475,192,53695,1,0,0:0:0:0:
182,192,53767,1,0,0:0:0:0:
36,192,53767,1,0,0:0:0:0:
109,192,53838,1,0,0:0:0:0:
402,192,53838,1,0,0:0:0:0:
475,192,53838,1,0,0:0:0:0:
329,192,53910,1,0,0:0:0:0:
256,192,53910,1,0,0:0:0:0:
182,192,53981,1,0,0:0:0:0:
36,192,53981,1,0,0:0:0:0:
109,192,53981,1,0,0:0:0:0:
475,192,53981,1,0,0:0:0:0:
402,192,54052,1,0,0:0:0:0:
329,192,54124,1,0,0:0:0:0:
475,192,54124,1,0,0:0:0:0:
109,192,54124,1,0,0:0:0:0:
256,192,54195,1,0,0:0:0:0:
182,192,54267,1,0,0:0:0:0:
36,192,54267,1,0,0:0:0:0:
475,192,54267,1,0,0:0:0:0:
402,192,54267,1,0,0:0:0:0:
109,192,54267,1,0,0:0:0:0:
329,192,54338,1,0,0:0:0:0:
256,192,54410,1,0,0:0:0:0:
36,192,54410,1,0,0:0:0:0:
402,192,54410,1,0,0:0:0:0:
109,192,54481,1,0,0:0:0:0:
182,192,54552,1,0,0:0:0:0:
36,192,54552,1,0,0:0:0:0:
329,192,54552,1,0,0:0:0:0:
475,192,54552,1,0,0:0:0:0:
402,192,54552,1,0,0:0:0:0:
256,192,54624,1,0,0:0:0:0:
329,192,54695,1,0,0:0:0:0:
109,192,54695,1,0,0:0:0:0:
402,192,54695,1,0,0:0:0:0:
182,192,54767,1,0,0:0:0:0:
475,192,54767,1,0,0:0:0:0:
36,192,54767,1,0,0:0:0:0:
256,192,54838,1,0,0:0:0:0:
402,192,54838,1,0,0:0:0:0:
109,192,54838,1,0,0:0:0:0:
329,192,54910,1,0,0:0:0:0:
402,192,54981,1,0,0:0:0:0:
182,192,54981,1,0,0:0:0:0:
36,192,54981,1,0,0:0:0:0:
109,192,54981,1,0,0:0:0:0:
256,192,55052,1,0,0:0:0:0:
329,192,55124,1,0,0:0:0:0:
402,192,55124,1,0,0:0:0:0:
475,192,55124,1,0,0:0:0:0:
109,192,55124,1,0,0:0:0:0:
36,192,55124,1,0,0:0:0:0:
256,192,55267,1,0,0:0:0:0:
182,192,55267,1,0,0:0:0:0:
402,192,55267,1,0,0:0:0:0:
329,192,55338,1,0,0:0:0:0:
109,192,55338,1,0,0:0:0:0:
36,192,55338,1,0,0:0:0:0:
256,192,55410,1,0,0:0:0:0:
182,192,55410,1,0,0:0:0:0:
402,192,55410,1,0,0:0:0:0:
475,192,55410,1,0,0:0:0:0:
256,192,55552,1,0,0:0:0:0:
182,192,55552,1,0,0:0:0:0:
402,192,55552,1,0,0:0:0:0:
329,192,55552,1,0,0:0:0:0:
475,192,55552,1,0,0:0:0:0:
182,192,55695,1,0,0:0:0:0:
109,192,55695,1,0,0:0:0:0:
36,192,55695,1,0,0:0:0:0:
329,192,55695,1,0,0:0:0:0:
475,192,55695,1,0,0:0:0:0:
256,192,55838,1,0,0:0:0:0:
182,192,55838,1,0,0:0:0:0:
402,192,55838,1,0,0:0:0:0:
109,192,55838,1,0,0:0:0:0:
329,192,55838,1,0,0:0:0:0:
109,192,55981,1,0,0:0:0:0:
36,192,55981,1,0,0:0:0:0:
402,192,55981,1,0,0:0:0:0:
475,192,55981,1,0,0:0:0:0:
256,192,55981,1,0,0:0:0:0:
182,192,56124,1,0,0:0:0:0:
109,192,56124,1,0,0:0:0:0:
329,192,56124,1,0,0:0:0:0:
402,192,56124,1,0,0:0:0:0:
256,192,56267,1,0,0:0:0:0:
109,192,56267,1,0,0:0:0:0:
36,192,56267,1,0,0:0:0:0:
475,192,56267,1,0,0:0:0:0:
182,192,56267,1,0,0:0:0:0:
329,192,56338,1,0,0:0:0:0:
402,192,56410,1,0,0:0:0:0:
182,192,56410,1,0,0:0:0:0:
36,192,56410,1,0,0:0:0:0:
256,192,56481,1,0,0:0:0:0:
329,192,56552,1,0,0:0:0:0:
109,192,56552,1,0,0:0:0:0:
36,192,56552,1,0,0:0:0:0:
402,192,56552,1,0,0:0:0:0:
475,192,56552,1,0,0:0:0:0:
256,192,56624,1,0,0:0:0:0:
182,192,56695,1,0,0:0:0:0:
36,192,56695,1,0,0:0:0:0:
402,192,56695,1,0,0:0:0:0:
329,192,56767,1,0,0:0:0:0:
256,192,56838,1,0,0:0:0:0:
109,192,56838,1,0,0:0:0:0:
36,192,56838,1,0,0:0:0:0:
475,192,56838,1,0,0:0:0:0:
182,192,56838,1,0,0:0:0:0:
402,192,56910,1,0,0:0:0:0:
329,192,56981,1,0,0:0:0:0:
109,192,56981,1,0,0:0:0:0:
475,192,56981,1,0,0:0:0:0:
256,192,57052,1,0,0:0:0:0:
36,192,57052,1,0,0:0:0:0:
402,192,57052,1,0,0:0:0:0:
182,192,57124,1,0,0:0:0:0:
329,192,57124,1,0,0:0:0:0:
475,192,57124,1,0,0:0:0:0:
109,192,57195,1,0,0:0:0:0:
36,192,57267,1,0,0:0:0:0:
256,192,57267,1,0,0:0:0:0:
402,192,57267,1,0,0:0:0:0:
182,192,57267,1,0,0:0:0:0:
329,192,57338,1,0,0:0:0:0:
402,192,57410,1,0,0:0:0:0:
182,192,57410,1,0,0:0:0:0:
475,192,57410,1,0,0:0:0:0:
36,192,57410,1,0,0:0:0:0:
256,192,57481,1,0,0:0:0:0:
109,192,57481,1,0,0:0:0:0:
182,192,57552,1,0,0:0:0:0:
402,192,57552,1,0,0:0:0:0:
475,192,57552,1,0,0:0:0:0:
329,192,57624,1,0,0:0:0:0:
36,192,57624,1,0,0:0:0:0:
256,192,57695,1,0,0:0:0:0:
475,192,57695,1,0,0:0:0:0:
109,192,57695,1,0,0:0:0:0:
182,192,57767,1,0,0:0:0:0:
402,192,57767,1,0,0:0:0:0:
329,192,57838,1,0,0:0:0:0:
109,192,57838,1,0,0:0:0:0:
475,192,57838,1,0,0:0:0:0:
256,192,57910,1,0,0:0:0:0:
36,192,57910,1,0,0:0:0:0:
182,192,57981,1,0,0:0:0:0:
402,192,57981,1,0,0:0:0:0:
475,192,57981,1,0,0:0:0:0:
329,192,58052,1,0,0:0:0:0:
36,192,58052,1,0,0:0:0:0:
256,192,58124,1,0,0:0:0:0:
109,192,58124,1,0,0:0:0:0:
475,192,58124,1,0,0:0:0:0:
329,192,58195,1,0,0:0:0:0:
182,192,58195,1,0,0:0:0:0:
256,192,58267,1,0,0:0:0:0:
402,192,58267,1,0,0:0:0:0:
36,192,58267,1,0,0:0:0:0:
109,192,58338,1,0,0:0:0:0:
329,192,58338,1,0,0:0:0:0:
182,192,58410,1,0,0:0:0:0:
36,192,58410,1,0,0:0:0:0:
475,192,58410,1,0,0:0:0:0:
402,192,58481,1,0,0:0:0:0:
256,192,58481,1,0,0:0:0:0:
475,192,58552,1,0,0:0:0:0:
329,192,58552,1,0,0:0:0:0:
182,192,58552,1,0,0:0:0:0:
36,192,58552,1,0,0:0:0:0:
109,192,58624,1,0,0:0:0:0:
36,192,58695,1,0,0:0:0:0:
256,192,58695,1,0,0:0:0:0:
475,192,58695,1,0,0:0:0:0:
402,192,58767,1,0,0:0:0:0:
329,192,58838,1,0,0:0:0:0:
182,192,58838,1,0,0:0:0:0:
36,192,58838,1,0,0:0:0:0:
475,192,58838,1,0,0:0:0:0:
109,192,58838,1,0,0:0:0:0:
256,192,58910,1,0,0:0:0:0:
329,192,58981,1,0,0:0:0:0:
109,192,58981,1,0,0:0:0:0:
402,192,58981,1,0,0:0:0:0:
182,192,59052,1,0,0:0:0:0:
256,192,59124,1,0,0:0:0:0:
36,192,59124,1,0,0:0:0:0:
475,192,59124,1,0,0:0:0:0:
329,192,59195,1,0,0:0:0:0:
402,192,59267,1,0,0:0:0:0:
109,192,59267,1,0,0:0:0:0:
36,192,59267,1,0,0:0:0:0:
182,192,59338,1,0,0:0:0:0:
475,192,59338,1,0,0:0:0:0:
329,192,59338,1,0,0:0:0:0:
256,192,59410,1,0,0:0:0:0:
109,192,59410,1,0,0:0:0:0:
36,192,59410,1,0,0:0:0:0:
182,192,59481,1,0,0:0:0:0:
109,192,59552,1,0,0:0:0:0:
402,192,59552,1,0,0:0:0:0:
475,192,59552,1,0,0:0:0:0:
329,192,59552,1,0,0:0:0:0:
256,192,59624,1,0,0:0:0:0:
182,192,59695,1,0,0:0:0:0:
36,192,59695,1,0,0:0:0:0:
109,192,59695,1,0,0:0:0:0:
475,192,59695,1,0,0:0:0:0:
402,192,59767,1,0,0:0:0:0:
329,192,59767,1,0,0:0:0:0:
256,192,59838,1,0,0:0:0:0:
36,192,59838,1,0,0:0:0:0:
475,192,59838,1,0,0:0:0:0:
329,192,59910,1,0,0:0:0:0:
109,192,59910,1,0,0:0:0:0:
182,192,59981,1,0,0:0:0:0:
36,192,59981,1,0,0:0:0:0:
475,192,59981,1,0,0:0:0:0:
256,192,60052,1,0,0:0:0:0:
109,192,60052,1,0,0:0:0:0:
182,192,60124,1,0,0:0:0:0:
329,192,60124,1,0,0:0:0:0:
475,192,60124,1,0,0:0:0:0:
256,192,60195,1,0,0:0:0:0:
402,192,60195,1,0,0:0:0:0:
329,192,60267,1,0,0:0:0:0:
475,192,60267,1,0,0:0:0:0:
109,192,60267,1,0,0:0:0:0:
256,192,60338,1,0,0:0:0:0:
36,192,60338,1,0,0:0:0:0:
182,192,60410,1,0,0:0:0:0:
475,192,60410,1,0,0:0:0:0:
402,192,60410,1,0,0:0:0:0:
329,192,60481,1,0,0:0:0:0:
109,192,60481,1,0,0:0:0:0:
36,192,60552,1,0,0:0:0:0:
256,192,60552,1,0,0:0:0:0:
475,192,60552,1,0,0:0:0:0:
402,192,60624,1,0,0:0:0:0:
182,192,60624,1,0,0:0:0:0:
109,192,60695,1,0,0:0:0:0:
329,192,60695,1,0,0:0:0:0:
36,192,60695,1,0,0:0:0:0:
256,192,60767,1,0,0:0:0:0:
475,192,60767,1,0,0:0:0:0:
329,192,60838,1,0,0:0:0:0:
402,192,60838,1,0,0:0:0:0:
182,192,60838,1,0,0:0:0:0:
36,192,60838,1,0,0:0:0:0:
256,192,60910,1,0,0:0:0:0:
109,192,60910,1,0,0:0:0:0:
182,192,60981,1,0,0:0:0:0:
475,192,60981,1,0,0:0:0:0:
329,192,60981,1,0,0:0:0:0:
402,192,61052,1,0,0:0:0:0:
256,192,61052,1,0,0:0:0:0:
329,192,61124,1,0,0:0:0:0:
475,192,61124,1,0,0:0:0:0:
109,192,61124,1,0,0:0:0:0:
36,192,61124,1,0,0:0:0:0:
256,192,61195,1,0,0:0:0:0:
182,192,61195,1,0,0:0:0:0:
36,192,61267,1,0,0:0:0:0:
329,192,61267,1,0,0:0:0:0:
475,192,61267,1,0,0:0:0:0:
256,192,61338,1,0,0:0:0:0:
109,192,61338,1,0,0:0:0:0:
182,192,61410,1,0,0:0:0:0:
402,192,61410,1,0,0:0:0:0:
475,192,61410,1,0,0:0:0:0:
36,192,61410,1,0,0:0:0:0:
329,192,61481,1,0,0:0:0:0:
109,192,61481,1,0,0:0:0:0:
256,192,61552,1,0,0:0:0:0:
36,192,61552,1,0,0:0:0:0:
475,192,61552,1,0,0:0:0:0:
182,192,61624,1,0,0:0:0:0:
402,192,61624,1,0,0:0:0:0:
329,192,61695,1,0,0:0:0:0:
475,192,61695,1,0,0:0:0:0:
109,192,61695,1,0,0:0:0:0:
36,192,61695,1,0,0:0:0:0:
256,192,61767,1,0,0:0:0:0:
402,192,61767,1,0,0:0:0:0:
329,192,61838,1,0,0:0:0:0:
182,192,61838,1,0,0:0:0:0:
36,192,61838,1,0,0:0:0:0:
109,192,61910,1,0,0:0:0:0:
256,192,61910,1,0,0:0:0:0:
182,192,61981,1,0,0:0:0:0:
475,192,61981,1,0,0:0:0:0:
402,192,61981,1,0,0:0:0:0:
329,192,61981,1,0,0:0:0:0:
256,192,62052,1,0,0:0:0:0:
36,192,62052,1,0,0:0:0:0:
182,192,62124,1,0,0:0:0:0:
475,192,62124,1,0,0:0:0:0:
402,192,62124,1,0,0:0:0:0:
329,192,62195,1,0,0:0:0:0:
109,192,62195,1,0,0:0:0:0:
256,192,62267,1,0,0:0:0:0:
36,192,62267,1,0,0:0:0:0:
475,192,62267,1,0,0:0:0:0:
402,192,62267,1,0,0:0:0:0:
182,192,62338,1,0,0:0:0:0:
329,192,62338,1,0,0:0:0:0:
256,192,62410,1,0,0:0:0:0:
402,192,62410,1,0,0:0:0:0:
36,192,62410,1,0,0:0:0:0:
109,192,62481,1,0,0:0:0:0:
329,192,62481,1,0,0:0:0:0:
182,192,62552,1,0,0:0:0:0:
36,192,62552,1,0,0:0:0:0:
402,192,62552,1,0,0:0:0:0:
475,192,62552,1,0,0:0:0:0:
256,192,62624,1,0,0:0:0:0:
109,192,62624,1,0,0:0:0:0:
182,192,62695,1,0,0:0:0:0:
329,192,62695,1,0,0:0:0:0:
475,192,62695,1,0,0:0:0:0:
402,192,62767,1,0,0:0:0:0:
256,192,62767,1,0,0:0:0:0:
329,192,62838,1,0,0:0:0:0:
475,192,62838,1,0,0:0:0:0:
109,192,62838,1,0,0:0:0:0:
36,192,62838,1,0,0:0:0:0:
256,192,62910,1,0,0:0:0:0:
182,192,62910,1,0,0:0:0:0:
109,192,62981,1,0,0:0:0:0:
475,192,62981,1,0,0:0:0:0:
402,192,62981,1,0,0:0:0:0:
329,192,63052,1,0,0:0:0:0:
36,192,63052,1,0,0:0:0:0:
256,192,63124,1,0,0:0:0:0:
475,192,63124,1,0,0:0:0:0:
402,192,63124,1,0,0:0:0:0:
182,192,63124,1,0,0:0:0:0:
109,192,63124,1,0,0:0:0:0:
329,192,63195,1,0,0:0:0:0:
402,192,63267,1,0,0:0:0:0:
182,192,63267,1,0,0:0:0:0:
109,192,63267,1,0,0:0:0:0:
36,192,63267,1,0,0:0:0:0:
256,192,63338,1,0,0:0:0:0:
329,192,63410,1,0,0:0:0:0:
475,192,63410,1,0,0:0:0:0:
402,192,63410,1,0,0:0:0:0:
182,192,63410,1,0,0:0:0:0:
36,192,63410,1,0,0:0:0:0:
109,192,63481,1,0,0:0:0:0:
182,192,63552,1,0,0:0:0:0:
402,192,63552,1,0,0:0:0:0:
475,192,63552,1,0,0:0:0:0:
329,192,63552,1,0,0:0:0:0:
256,192,63624,1,0,0:0:0:0:
182,192,63695,1,0,0:0:0:0:
109,192,63695,1,0,0:0:0:0:
36,192,63695,1,0,0:0:0:0:
475,192,63695,1,0,0:0:0:0:
402,192,63695,1,0,0:0:0:0:
329,192,63767,1,0,0:0:0:0:
256,192,63838,1,0,0:0:0:0:
182,192,63838,1,0,0:0:0:0:
109,192,63838,1,0,0:0:0:0:
475,192,63838,1,0,0:0:0:0:
402,192,63910,1,0,0:0:0:0:
329,192,63981,1,0,0:0:0:0:
475,192,63981,1,0,0:0:0:0:
109,192,63981,1,0,0:0:0:0:
36,192,63981,1,0,0:0:0:0:
256,192,63981,1,0,0:0:0:0:
182,192,64052,1,0,0:0:0:0:
256,192,64124,1,0,0:0:0:0:
36,192,64124,1,0,0:0:0:0:
402,192,64124,1,0,0:0:0:0:
475,192,64124,1,0,0:0:0:0:
109,192,64195,1,0,0:0:0:0:
182,192,64267,1,0,0:0:0:0:
329,192,64267,1,0,0:0:0:0:
475,192,64267,1,0,0:0:0:0:
36,192,64338,1,0,0:0:0:0:
256,192,64338,1,0,0:0:0:0:
402,192,64338,1,0,0:0:0:0:
329,192,64410,1,0,0:0:0:0:
475,192,64410,1,0,0:0:0:0:
109,192,64410,1,0,0:0:0:0:
182,192,64481,1,0,0:0:0:0:
36,192,64481,1,0,0:0:0:0:
402,192,64481,1,0,0:0:0:0:
256,192,64552,1,0,0:0:0:0:
109,192,64552,1,0,0:0:0:0:
475,192,64552,1,0,0:0:0:0:
329,192,64624,1,0,0:0:0:0:
182,192,64624,1,0,0:0:0:0:
402,192,64624,1,0,0:0:0:0:
256,192,64695,1,0,0:0:0:0:
109,192,64695,1,0,0:0:0:0:
36,192,64695,1,0,0:0:0:0:
182,192,64767,1,0,0:0:0:0:
475,192,64767,1,0,0:0:0:0:
402,192,64767,1,0,0:0:0:0:
329,192,64838,1,0,0:0:0:0:
109,192,64838,1,0,0:0:0:0:
36,192,64838,1,0,0:0:0:0:
256,192,64838,1,0,0:0:0:0:
402,192,64910,1,0,0:0:0:0:
475,192,64910,1,0,0:0:0:0:
256,192,64981,1,0,0:0:0:0:
182,192,64981,1,0,0:0:0:0:
329,192,65052,1,0,0:0:0:0:
402,192,65052,1,0,0:0:0:0:
182,192,65124,1,0,0:0:0:0:
109,192,65124,1,0,0:0:0:0:
256,192,65195,1,0,0:0:0:0:
329,192,65195,1,0,0:0:0:0:
109,192,65267,1,0,0:0:0:0:
36,192,65267,1,0,0:0:0:0:
182,192,65338,1,0,0:0:0:0:
256,192,65338,1,0,0:0:0:0:
329,192,65410,1,0,0:0:0:0:
402,192,65410,1,0,0:0:0:0:
475,192,65410,1,0,0:0:0:0:
256,192,65552,1,0,0:0:0:0:
182,192,65695,1,0,0:0:0:0:
109,192,65838,1,0,0:0:0:0:
329,192,65838,1,0,0:0:0:0:
475,192,65838,1,0,0:0:0:0:
182,192,66552,1,0,0:0:0:0:
36,192,66552,1,0,0:0:0:0:
256,192,66695,1,0,0:0:0:0:
329,192,66838,1,0,0:0:0:0:
109,192,66838,1,0,0:0:0:0:
402,192,66981,1,0,0:0:0:0:
182,192,66981,1,0,0:0:0:0:
36,192,66981,1,0,0:0:0:0:
329,192,67267,1,0,0:0:0:0:
109,192,67410,1,0,0:0:0:0:
329,192,67552,1,0,0:0:0:0:
475,192,67695,1,0,0:0:0:0:
329,192,67838,1,0,0:0:0:0:
256,192,67981,1,0,0:0:0:0:
109,192,68124,1,0,0:0:0:0:
402,192,68124,1,0,0:0:0:0:
182,192,68267,1,0,0:0:0:0:
256,192,68838,1,0,0:0:0:0:
36,192,68838,1,0,0:0:0:0:
329,192,68981,1,0,0:0:0:0:
402,192,69124,1,0,0:0:0:0:
182,192,69124,1,0,0:0:0:0:
475,192,69267,1,0,0:0:0:0:
109,192,69267,1,0,0:0:0:0:
256,192,69267,1,0,0:0:0:0:
329,192,69552,1,0,0:0:0:0:
182,192,69981,1,0,0:0:0:0:
475,192,69981,1,0,0:0:0:0:
109,192,70124,1,0,0:0:0:0:
36,192,70267,1,0,0:0:0:0:
329,192,70410,1,0,0:0:0:0:
182,192,70410,1,0,0:0:0:0:
402,192,70481,1,0,0:0:0:0:
475,192,70552,1,0,0:0:0:0:
109,192,70767,1,0,0:0:0:0:
329,192,70981,1,0,0:0:0:0:
36,192,71124,1,0,0:0:0:0:
256,192,71124,1,0,0:0:0:0:
329,192,71267,1,0,0:0:0:0:
109,192,71338,1,0,0:0:0:0:
475,192,71410,1,0,0:0:0:0:
182,192,71552,1,0,0:0:0:0:
329,192,71552,1,0,0:0:0:0:
36,192,71695,1,0,0:0:0:0:
475,192,71910,1,0,0:0:0:0:
256,192,72124,1,0,0:0:0:0:
36,192,72195,1,0,0:0:0:0:
475,192,72267,1,0,0:0:0:0:
329,192,72267,1,0,0:0:0:0:
256,192,72410,1,0,0:0:0:0:
182,192,72552,1,0,0:0:0:0:
109,192,72695,1,0,0:0:0:0:
402,192,72695,1,0,0:0:0:0:
256,192,73410,1,0,0:0:0:0:
109,192,73410,1,0,0:0:0:0:
329,192,73552,1,0,0:0:0:0:
36,192,73552,128,0,73695:0:0:0:0:
402,192,73695,1,0,0:0:0:0:
182,192,73695,1,0,0:0:0:0:
475,192,73838,1,0,0:0:0:0:
256,192,73838,128,0,73981:0:0:0:0:
109,192,73838,1,0,0:0:0:0:
329,192,73981,128,0,74124:0:0:0:0:
109,192,74195,128,0,74338:0:0:0:0:
475,192,74410,128,0,74552:0:0:0:0:
402,192,74552,1,0,0:0:0:0:
36,192,74552,128,0,75410:0:0:0:0:
329,192,74552,1,0,0:0:0:0:
329,192,74838,1,0,0:0:0:0:
402,192,74838,1,0,0:0:0:0:
329,192,75124,1,0,0:0:0:0:
256,192,75124,1,0,0:0:0:0:
475,192,75267,1,0,0:0:0:0:
109,192,75410,128,0,75552:0:0:0:0:
256,192,75410,1,0,0:0:0:0:
182,192,75410,1,0,0:0:0:0:
475,192,75552,128,0,75838:0:0:0:0:
329,192,75552,1,0,0:0:0:0:
182,192,75695,1,0,0:0:0:0:
36,192,75695,1,0,0:0:0:0:
256,192,75838,128,0,76124:0:0:0:0:
182,192,75981,1,0,0:0:0:0:
36,192,75981,1,0,0:0:0:0:
475,192,76124,128,0,76267:0:0:0:0:
329,192,76267,128,0,76410:0:0:0:0:
109,192,76267,1,0,0:0:0:0:
402,192,76410,128,0,76552:0:0:0:0:
475,192,76410,1,0,0:0:0:0:
182,192,76552,128,0,76695:0:0:0:0:
36,192,76552,1,0,0:0:0:0:
475,192,76695,1,0,0:0:0:0:
109,192,76695,1,0,0:0:0:0:
329,192,76767,1,0,0:0:0:0:
256,192,76838,128,0,77052:0:0:0:0:
182,192,76838,1,0,0:0:0:0:
36,192,76838,1,0,0:0:0:0:
109,192,77052,128,0,77267:0:0:0:0:
329,192,77124,1,0,0:0:0:0:
402,192,77124,1,0,0:0:0:0:
475,192,77267,1,0,0:0:0:0:
402,192,77338,1,0,0:0:0:0:
329,192,77410,128,0,77624:0:0:0:0:
182,192,77410,1,0,0:0:0:0:
36,192,77410,1,0,0:0:0:0:
475,192,77552,1,0,0:0:0:0:
36,192,77624,128,0,77838:0:0:0:0:
256,192,77695,1,0,0:0:0:0:
402,192,77695,1,0,0:0:0:0:
182,192,77838,1,0,0:0:0:0:
329,192,77838,1,0,0:0:0:0:
475,192,77910,1,0,0:0:0:0:
36,192,77981,1,0,0:0:0:0:
109,192,77981,128,0,78410:0:0:0:0:
256,192,77981,1,0,0:0:0:0:
182,192,78267,1,0,0:0:0:0:
475,192,78267,1,0,0:0:0:0:
329,192,78410,1,0,0:0:0:0:
475,192,78481,1,0,0:0:0:0:
182,192,78552,128,0,78767:0:0:0:0:
256,192,78552,1,0,0:0:0:0:
36,192,78552,1,0,0:0:0:0:
402,192,78767,128,0,78981:0:0:0:0:
109,192,78767,1,0,0:0:0:0:
475,192,78981,128,0,79124:0:0:0:0:
182,192,78981,1,0,0:0:0:0:
256,192,79124,1,0,0:0:0:0:
36,192,79124,1,0,0:0:0:0:
109,192,79124,128,0,79695:0:0:0:0:
329,192,79410,1,0,0:0:0:0:
182,192,79410,1,0,0:0:0:0:
402,192,79695,128,0,79910:0:0:0:0:
256,192,79695,1,0,0:0:0:0:
475,192,79695,1,0,0:0:0:0:
109,192,79910,128,0,80124:0:0:0:0:
36,192,79910,1,0,0:0:0:0:
182,192,79910,1,0,0:0:0:0:
402,192,80124,128,0,80267:0:0:0:0:
256,192,80124,1,0,0:0:0:0:
475,192,80124,1,0,0:0:0:0:
182,192,80267,128,0,80481:0:0:0:0:
36,192,80267,1,0,0:0:0:0:
329,192,80267,1,0,0:0:0:0:
475,192,80481,128,0,80695:0:0:0:0:
402,192,80481,1,0,0:0:0:0:
256,192,80481,1,0,0:0:0:0:
182,192,80695,128,0,80838:0:0:0:0:
36,192,80695,1,0,0:0:0:0:
329,192,80695,1,0,0:0:0:0:
402,192,80838,128,0,81052:0:0:0:0:
256,192,80838,1,0,0:0:0:0:
475,192,80838,1,0,0:0:0:0:
329,192,81052,128,0,81267:0:0:0:0:
182,192,81052,1,0,0:0:0:0:
36,192,81052,1,0,0:0:0:0:
109,192,81267,128,0,81410:0:0:0:0:
36,192,81267,1,0,0:0:0:0:
475,192,81267,1,0,0:0:0:0:
256,192,81410,128,0,82552:0:0:0:0:
329,192,81410,1,0,0:0:0:0:
182,192,81410,1,0,0:0:0:0:
402,192,81552,1,0,0:0:0:0:
475,192,81695,1,0,0:0:0:0:
109,192,81695,1,0,0:0:0:0:
182,192,81695,1,0,0:0:0:0:
36,192,81981,1,0,0:0:0:0:
329,192,81981,1,0,0:0:0:0:
475,192,82124,1,0,0:0:0:0:
402,192,82124,1,0,0:0:0:0:
109,192,82267,1,0,0:0:0:0:
36,192,82267,1,0,0:0:0:0:
329,192,82410,1,0,0:0:0:0:
402,192,82410,1,0,0:0:0:0:
182,192,82552,1,0,0:0:0:0:
36,192,82552,1,0,0:0:0:0:
475,192,82552,1,0,0:0:0:0:
402,192,82695,1,0,0:0:0:0:
256,192,82695,1,0,0:0:0:0:
329,192,82838,1,0,0:0:0:0:
109,192,82838,1,0,0:0:0:0:
36,192,82838,1,0,0:0:0:0:
256,192,82981,1,0,0:0:0:0:
475,192,82981,1,0,0:0:0:0:
36,192,83124,1,0,0:0:0:0:
329,192,83124,1,0,0:0:0:0:
109,192,83124,1,0,0:0:0:0:
402,192,83124,1,0,0:0:0:0:
182,192,83124,128,0,83695:0:0:0:0:
256,192,83695,1,0,0:0:0:0:
402,192,83695,1,0,0:0:0:0:
475,192,83695,1,0,0:0:0:0:
36,192,83695,1,0,0:0:0:0:
109,192,83695,1,0,0:0:0:0:
256,192,83838,1,0,0:0:0:0:
329,192,83838,1,0,0:0:0:0:
402,192,83838,1,0,0:0:0:0:
109,192,83838,1,0,0:0:0:0:
182,192,83981,1,0,0:0:0:0:
36,192,83981,1,0,0:0:0:0:
329,192,83981,1,0,0:0:0:0:
475,192,83981,1,0,0:0:0:0:
256,192,84124,1,0,0:0:0:0:
402,192,84124,1,0,0:0:0:0:
182,192,84124,1,0,0:0:0:0:
36,192,84267,128,0,84362:0:0:0:0:
109,192,84267,128,0,84362:0:0:0:0:
256,192,84267,1,0,0:0:0:0:
402,192,84362,1,0,0:0:0:0:
475,192,84362,1,0,0:0:0:0:
36,192,84505,128,0,84600:0:0:0:0:
109,192,84505,128,0,84600:0:0:0:0:
256,192,84505,1,0,0:0:0:0:
402,192,84600,1,0,0:0:0:0:
475,192,84600,1,0,0:0:0:0:
36,192,84695,128,0,84767:0:0:0:0:
109,192,84695,128,0,84767:0:0:0:0:
329,192,84695,1,0,0:0:0:0:
475,192,84838,128,0,84933:0:0:0:0:
402,192,84838,128,0,84933:0:0:0:0:
256,192,84838,1,0,0:0:0:0:
109,192,84981,1,0,0:0:0:0:
36,192,84981,1,0,0:0:0:0:
402,192,85076,128,0,85171:0:0:0:0:
475,192,85076,128,0,85171:0:0:0:0:
256,192,85076,1,0,0:0:0:0:
109,192,85171,1,0,0:0:0:0:
36,192,85171,1,0,0:0:0:0:
402,192,85267,128,0,85338:0:0:0:0:
475,192,85267,128,0,85338:0:0:0:0:
182,192,85267,1,0,0:0:0:0:
109,192,85410,128,0,85505:0:0:0:0:
36,192,85410,128,0,85505:0:0:0:0:
256,192,85410,1,0,0:0:0:0:
402,192,85505,1,0,0:0:0:0:
475,192,85505,1,0,0:0:0:0:
36,192,85648,128,0,85743:0:0:0:0:
109,192,85648,128,0,85743:0:0:0:0:
256,192,85648,1,0,0:0:0:0:
402,192,85743,1,0,0:0:0:0:
475,192,85743,1,0,0:0:0:0:
109,192,85838,128,0,85910:0:0:0:0:
36,192,85838,128,0,85910:0:0:0:0:
256,192,85838,1,0,0:0:0:0:
256,192,85981,1,0,0:0:0:0:
182,192,85981,1,0,0:0:0:0:
36,192,85981,1,0,0:0:0:0:
402,192,85981,1,0,0:0:0:0:
329,192,86124,1,0,0:0:0:0:
256,192,86124,1,0,0:0:0:0:
109,192,86124,1,0,0:0:0:0:
475,192,86124,1,0,0:0:0:0:
182,192,86267,1,0,0:0:0:0:
36,192,86267,1,0,0:0:0:0:
402,192,86267,1,0,0:0:0:0:
475,192,86267,1,0,0:0:0:0:
256,192,86410,1,0,0:0:0:0:
109,192,86410,1,0,0:0:0:0:
402,192,86410,1,0,0:0:0:0:
402,192,86552,128,0,86648:0:0:0:0:
329,192,86552,128,0,86648:0:0:0:0:
182,192,86552,1,0,0:0:0:0:
36,192,86648,1,0,0:0:0:0:
109,192,86648,1,0,0:0:0:0:
329,192,86790,128,0,86886:0:0:0:0:
402,192,86790,128,0,86886:0:0:0:0:
182,192,86790,1,0,0:0:0:0:
109,192,86886,1,0,0:0:0:0:
36,192,86886,1,0,0:0:0:0:
329,192,86981,128,0,87052:0:0:0:0:
402,192,86981,128,0,87052:0:0:0:0:
256,192,86981,1,0,0:0:0:0:
109,192,87124,128,0,87219:0:0:0:0:
182,192,87124,128,0,87219:0:0:0:0:
329,192,87124,1,0,0:0:0:0:
402,192,87219,1,0,0:0:0:0:
475,192,87219,1,0,0:0:0:0:
109,192,87362,128,0,87457:0:0:0:0:
182,192,87362,128,0,87457:0:0:0:0:
329,192,87362,1,0,0:0:0:0:
402,192,87457,1,0,0:0:0:0:
475,192,87457,1,0,0:0:0:0:
182,192,87552,128,0,87624:0:0:0:0:
109,192,87552,128,0,87624:0:0:0:0:
256,192,87552,1,0,0:0:0:0:
36,192,87695,128,0,87910:0:0:0:0:
109,192,87695,128,0,87910:0:0:0:0:
256,192,87695,128,0,87910:0:0:0:0:
402,192,87695,128,0,87910:0:0:0:0:
475,192,87695,128,0,87910:0:0:0:0:
182,192,87981,128,0,88195:0:0:0:0:
109,192,87981,128,0,88195:0:0:0:0:
329,192,87981,128,0,88195:0:0:0:0:
402,192,87981,128,0,88195:0:0:0:0:
36,192,87981,128,0,88195:0:0:0:0:
256,192,88267,1,0,0:0:0:0:
475,192,88267,1,0,0:0:0:0:
36,192,88267,1,0,0:0:0:0:
402,192,88267,1,0,0:0:0:0:
109,192,88338,1,0,0:0:0:0:
329,192,88338,1,0,0:0:0:0:
182,192,88410,1,0,0:0:0:0:
36,192,88410,1,0,0:0:0:0:
475,192,88410,1,0,0:0:0:0:
402,192,88481,1,0,0:0:0:0:
256,192,88481,1,0,0:0:0:0:
329,192,88552,1,0,0:0:0:0:
475,192,88552,1,0,0:0:0:0:
109,192,88552,1,0,0:0:0:0:
256,192,88624,1,0,0:0:0:0:
36,192,88624,1,0,0:0:0:0:
182,192,88695,1,0,0:0:0:0:
475,192,88695,1,0,0:0:0:0:
402,192,88695,1,0,0:0:0:0:
329,192,88767,1,0,0:0:0:0:
36,192,88767,1,0,0:0:0:0:
109,192,88838,1,0,0:0:0:0:
256,192,88838,1,0,0:0:0:0:
475,192,88838,1,0,0:0:0:0:
182,192,88910,1,0,0:0:0:0:
329,192,88910,1,0,0:0:0:0:
402,192,88981,1,0,0:0:0:0:
256,192,88981,1,0,0:0:0:0:
36,192,88981,1,0,0:0:0:0:
109,192,89052,1,0,0:0:0:0:
329,192,89052,1,0,0:0:0:0:
182,192,89124,1,0,0:0:0:0:
36,192,89124,1,0,0:0:0:0:
475,192,89124,1,0,0:0:0:0:
402,192,89195,1,0,0:0:0:0:
256,192,89195,1,0,0:0:0:0:
329,192,89267,1,0,0:0:0:0:
475,192,89267,1,0,0:0:0:0:
109,192,89267,1,0,0:0:0:0:
256,192,89338,1,0,0:0:0:0:
36,192,89338,1,0,0:0:0:0:
182,192,89410,1,0,0:0:0:0:
402,192,89410,1,0,0:0:0:0:
475,192,89410,1,0,0:0:0:0:
329,192,89481,1,0,0:0:0:0:
109,192,89481,1,0,0:0:0:0:
256,192,89552,1,0,0:0:0:0:
36,192,89552,1,0,0:0:0:0:
475,192,89552,1,0,0:0:0:0:
402,192,89624,1,0,0:0:0:0:
182,192,89624,1,0,0:0:0:0:
329,192,89695,1,0,0:0:0:0:
36,192,89695,1,0,0:0:0:0:
475,192,89695,1,0,0:0:0:0:
256,192,89767,1,0,0:0:0:0:
109,192,89767,1,0,0:0:0:0:
182,192,89838,1,0,0:0:0:0:
402,192,89838,1,0,0:0:0:0:
475,192,89838,1,0,0:0:0:0:
36,192,89910,1,0,0:0:0:0:
256,192,89910,1,0,0:0:0:0:
109,192,89981,1,0,0:0:0:0:
475,192,89981,1,0,0:0:0:0:
329,192,89981,1,0,0:0:0:0:
182,192,90052,1,0,0:0:0:0:
402,192,90052,1,0,0:0:0:0:
256,192,90124,1,0,0:0:0:0:
36,192,90124,1,0,0:0:0:0:
109,192,90124,1,0,0:0:0:0:
182,192,90195,1,0,0:0:0:0:
329,192,90195,1,0,0:0:0:0:
256,192,90267,1,0,0:0:0:0:
475,192,90267,1,0,0:0:0:0:
36,192,90267,1,0,0:0:0:0:
402,192,90338,1,0,0:0:0:0:
182,192,90338,1,0,0:0:0:0:
329,192,90410,1,0,0:0:0:0:
475,192,90410,1,0,0:0:0:0:
109,192,90410,1,0,0:0:0:0:
256,192,90481,1,0,0:0:0:0:
36,192,90481,1,0,0:0:0:0:
182,192,90552,1,0,0:0:0:0:
475,192,90552,1,0,0:0:0:0:
402,192,90552,1,0,0:0:0:0:
329,192,90624,1,0,0:0:0:0:
36,192,90624,1,0,0:0:0:0:
109,192,90695,1,0,0:0:0:0:
256,192,90695,1,0,0:0:0:0:
475,192,90695,1,0,0:0:0:0:
329,192,90767,1,0,0:0:0:0:
182,192,90767,1,0,0:0:0:0:
256,192,90838,1,0,0:0:0:0:
402,192,90838,1,0,0:0:0:0:
36,192,90838,1,0,0:0:0:0:
109,192,90910,1,0,0:0:0:0:
329,192,90910,1,0,0:0:0:0:
182,192,90981,1,0,0:0:0:0:
36,192,90981,1,0,0:0:0:0:
475,192,90981,1,0,0:0:0:0:
402,192,91052,1,0,0:0:0:0:
256,192,91052,1,0,0:0:0:0:
329,192,91124,1,0,0:0:0:0:
475,192,91124,1,0,0:0:0:0:
109,192,91124,1,0,0:0:0:0:
256,192,91195,1,0,0:0:0:0:
36,192,91195,1,0,0:0:0:0:
182,192,91267,1,0,0:0:0:0:
475,192,91267,1,0,0:0:0:0:
402,192,91267,1,0,0:0:0:0:
109,192,91338,1,0,0:0:0:0:
329,192,91338,1,0,0:0:0:0:
256,192,91410,1,0,0:0:0:0:
36,192,91410,1,0,0:0:0:0:
475,192,91410,1,0,0:0:0:0:
402,192,91481,1,0,0:0:0:0:
109,192,91481,1,0,0:0:0:0:
182,192,91552,1,0,0:0:0:0:
329,192,91552,1,0,0:0:0:0:
475,192,91552,1,0,0:0:0:0:
256,192,91624,1,0,0:0:0:0:
36,192,91624,1,0,0:0:0:0:
109,192,91695,1,0,0:0:0:0:
402,192,91695,1,0,0:0:0:0:
475,192,91695,1,0,0:0:0:0:
329,192,91695,1,0,0:0:0:0:
329,192,91838,1,0,0:0:0:0:
182,192,91838,1,0,0:0:0:0:
109,192,91838,1,0,0:0:0:0:
329,192,91981,1,0,0:0:0:0:
402,192,91981,1,0,0:0:0:0:
475,192,91981,1,0,0:0:0:0:
182,192,91981,1,0,0:0:0:0:
109,192,92124,1,0,0:0:0:0:
256,192,92195,1,0,0:0:0:0:
109,192,92267,1,0,0:0:0:0:
36,192,92267,1,0,0:0:0:0:
402,192,92267,1,0,0:0:0:0:
475,192,92267,1,0,0:0:0:0:
329,192,92338,1,0,0:0:0:0:
402,192,92410,1,0,0:0:0:0:
182,192,92410,1,0,0:0:0:0:
109,192,92410,1,0,0:0:0:0:
475,192,92410,1,0,0:0:0:0:
329,192,92481,1,0,0:0:0:0:
256,192,92552,1,0,0:0:0:0:
182,192,92552,1,0,0:0:0:0:
402,192,92552,1,0,0:0:0:0:
36,192,92552,1,0,0:0:0:0:
475,192,92552,1,0,0:0:0:0:
256,192,92838,1,0,0:0:0:0:
109,192,92838,1,0,0:0:0:0:
36,192,92838,1,0,0:0:0:0:
475,192,92838,1,0,0:0:0:0:
402,192,92838,1,0,0:0:0:0:
182,192,92910,1,0,0:0:0:0:
109,192,92981,1,0,0:0:0:0:
475,192,92981,1,0,0:0:0:0:
329,192,92981,1,0,0:0:0:0:
256,192,93052,1,0,0:0:0:0:
182,192,93124,1,0,0:0:0:0:
36,192,93124,1,0,0:0:0:0:
475,192,93124,1,0,0:0:0:0:
402,192,93124,1,0,0:0:0:0:
329,192,93195,1,0,0:0:0:0:
109,192,93195,1,0,0:0:0:0:
182,192,93267,1,0,0:0:0:0:
475,192,93267,1,0,0:0:0:0:
36,192,93267,1,0,0:0:0:0:
256,192,93338,1,0,0:0:0:0:
402,192,93338,1,0,0:0:0:0:
329,192,93410,1,0,0:0:0:0:
475,192,93410,1,0,0:0:0:0:
109,192,93410,1,0,0:0:0:0:
36,192,93410,1,0,0:0:0:0:
182,192,93481,1,0,0:0:0:0:
256,192,93552,1,0,0:0:0:0:
36,192,93552,1,0,0:0:0:0:
402,192,93552,1,0,0:0:0:0:
109,192,93624,1,0,0:0:0:0:
329,192,93624,1,0,0:0:0:0:
475,192,93624,1,0,0:0:0:0:
402,192,93695,1,0,0:0:0:0:
182,192,93695,1,0,0:0:0:0:
36,192,93695,1,0,0:0:0:0:
256,192,93767,1,0,0:0:0:0:
329,192,93838,1,0,0:0:0:0:
109,192,93838,1,0,0:0:0:0:
475,192,93838,1,0,0:0:0:0:
402,192,93910,1,0,0:0:0:0:
256,192,93910,1,0,0:0:0:0:
329,192,93981,1,0,0:0:0:0:
182,192,93981,1,0,0:0:0:0:
36,192,93981,1,0,0:0:0:0:
475,192,93981,1,0,0:0:0:0:
256,192,94052,1,0,0:0:0:0:
329,192,94124,1,0,0:0:0:0:
109,192,94124,1,0,0:0:0:0:
36,192,94124,1,0,0:0:0:0:
402,192,94124,1,0,0:0:0:0:
182,192,94195,1,0,0:0:0:0:
256,192,94267,1,0,0:0:0:0:
36,192,94267,1,0,0:0:0:0:
402,192,94267,1,0,0:0:0:0:
475,192,94267,1,0,0:0:0:0:
182,192,94338,1,0,0:0:0:0:
109,192,94410,1,0,0:0:0:0:
36,192,94410,1,0,0:0:0:0:
402,192,94410,1,0,0:0:0:0:
475,192,94410,1,0,0:0:0:0:
329,192,94481,1,0,0:0:0:0:
256,192,94481,1,0,0:0:0:0:
36,192,94552,1,0,0:0:0:0:
182,192,94552,1,0,0:0:0:0:
475,192,94552,1,0,0:0:0:0:
402,192,94624,1,0,0:0:0:0:
109,192,94624,1,0,0:0:0:0:
256,192,94624,1,0,0:0:0:0:
329,192,94695,1,0,0:0:0:0:
402,192,94767,1,0,0:0:0:0:
182,192,94767,1,0,0:0:0:0:
36,192,94767,1,0,0:0:0:0:
256,192,94838,1,0,0:0:0:0:
109,192,94838,1,0,0:0:0:0:
475,192,94838,1,0,0:0:0:0:
329,192,94910,1,0,0:0:0:0:
182,192,94910,1,0,0:0:0:0:
402,192,94981,1,0,0:0:0:0:
256,192,94981,1,0,0:0:0:0:
36,192,94981,1,0,0:0:0:0:
475,192,94981,1,0,0:0:0:0:
109,192,95052,1,0,0:0:0:0:
182,192,95124,1,0,0:0:0:0:
36,192,95124,1,0,0:0:0:0:
475,192,95124,1,0,0:0:0:0:
402,192,95124,1,0,0:0:0:0:
329,192,95195,1,0,0:0:0:0:
109,192,95195,1,0,0:0:0:0:
256,192,95267,1,0,0:0:0:0:
475,192,95267,1,0,0:0:0:0:
36,192,95267,1,0,0:0:0:0:
182,192,95338,1,0,0:0:0:0:
402,192,95338,1,0,0:0:0:0:
329,192,95410,1,0,0:0:0:0:
475,192,95410,1,0,0:0:0:0:
36,192,95410,1,0,0:0:0:0:
256,192,95410,1,0,0:0:0:0:
109,192,95481,1,0,0:0:0:0:
182,192,95552,1,0,0:0:0:0:
36,192,95552,1,0,0:0:0:0:
475,192,95552,1,0,0:0:0:0:
402,192,95552,1,0,0:0:0:0:
256,192,95624,1,0,0:0:0:0:
109,192,95624,1,0,0:0:0:0:
402,192,95695,1,0,0:0:0:0:
182,192,95695,1,0,0:0:0:0:
475,192,95695,1,0,0:0:0:0:
329,192,95767,1,0,0:0:0:0:
36,192,95767,1,0,0:0:0:0:
109,192,95838,1,0,0:0:0:0:
475,192,95838,1,0,0:0:0:0:
256,192,95838,1,0,0:0:0:0:
402,192,95838,1,0,0:0:0:0:
182,192,95910,1,0,0:0:0:0:
109,192,95981,1,0,0:0:0:0:
402,192,95981,1,0,0:0:0:0:
475,192,95981,1,0,0:0:0:0:
329,192,95981,1,0,0:0:0:0:
256,192,96052,1,0,0:0:0:0:
36,192,96052,1,0,0:0:0:0:
182,192,96124,1,0,0:0:0:0:
402,192,96124,1,0,0:0:0:0:
475,192,96124,1,0,0:0:0:0:
329,192,96195,1,0,0:0:0:0:
36,192,96195,1,0,0:0:0:0:
109,192,96267,1,0,0:0:0:0:
256,192,96267,1,0,0:0:0:0:
182,192,96267,1,0,0:0:0:0:
475,192,96267,128,0,96410:0:0:0:0:
402,192,96267,1,0,0:0:0:0:
182,192,96410,1,0,0:0:0:0:
36,192,96410,1,0,0:0:0:0:
329,192,96410,1,0,0:0:0:0:
402,192,96552,128,0,96695:0:0:0:0:
256,192,96552,1,0,0:0:0:0:
109,192,96552,1,0,0:0:0:0:
36,192,96552,1,0,0:0:0:0:
182,192,96552,1,0,0:0:0:0:
329,192,96695,1,0,0:0:0:0:
182,192,96695,1,0,0:0:0:0:
109,192,96695,1,0,0:0:0:0:
329,192,96838,128,0,96981:0:0:0:0:
256,192,96838,1,0,0:0:0:0:
475,192,96838,1,0,0:0:0:0:
36,192,96838,1,0,0:0:0:0:
402,192,96838,1,0,0:0:0:0:
182,192,96981,1,0,0:0:0:0:
36,192,96981,1,0,0:0:0:0:
402,192,96981,1,0,0:0:0:0:
256,192,97124,1,0,0:0:0:0:
475,192,97124,1,0,0:0:0:0:
109,192,97124,1,0,0:0:0:0:
36,192,97124,1,0,0:0:0:0:
182,192,97195,1,0,0:0:0:0:
329,192,97195,1,0,0:0:0:0:
256,192,97267,1,0,0:0:0:0:
402,192,97267,1,0,0:0:0:0:
36,192,97267,1,0,0:0:0:0:
109,192,97338,1,0,0:0:0:0:
329,192,97338,1,0,0:0:0:0:
182,192,97410,1,0,0:0:0:0:
36,192,97410,1,0,0:0:0:0:
475,192,97410,1,0,0:0:0:0:
402,192,97410,1,0,0:0:0:0:
256,192,97481,1,0,0:0:0:0:
329,192,97552,1,0,0:0:0:0:
109,192,97552,1,0,0:0:0:0:
36,192,97552,1,0,0:0:0:0:
182,192,97624,1,0,0:0:0:0:
475,192,97624,1,0,0:0:0:0:
402,192,97624,1,0,0:0:0:0:
36,192,97695,1,0,0:0:0:0:
256,192,97695,1,0,0:0:0:0:
329,192,97695,1,0,0:0:0:0:
109,192,97767,1,0,0:0:0:0:
182,192,97838,1,0,0:0:0:0:
402,192,97838,1,0,0:0:0:0:
475,192,97838,1,0,0:0:0:0:
36,192,97838,1,0,0:0:0:0:
329,192,97910,1,0,0:0:0:0:
256,192,97981,1,0,0:0:0:0:
109,192,97981,1,0,0:0:0:0:
475,192,97981,1,0,0:0:0:0:
182,192,98052,1,0,0:0:0:0:
36,192,98052,1,0,0:0:0:0:
402,192,98052,1,0,0:0:0:0:
329,192,98124,1,0,0:0:0:0:
109,192,98124,1,0,0:0:0:0:
475,192,98124,1,0,0:0:0:0:
256,192,98195,1,0,0:0:0:0:
182,192,98267,1,0,0:0:0:0:
36,192,98267,1,0,0:0:0:0:
475,192,98267,1,0,0:0:0:0:
402,192,98267,1,0,0:0:0:0:
256,192,98338,1,0,0:0:0:0:
109,192,98338,1,0,0:0:0:0:
182,192,98410,1,0,0:0:0:0:
475,192,98410,1,0,0:0:0:0:
402,192,98410,1,0,0:0:0:0:
329,192,98481,1,0,0:0:0:0:
36,192,98481,1,0,0:0:0:0:
256,192,98552,1,0,0:0:0:0:
475,192,98552,1,0,0:0:0:0:
109,192,98552,1,0,0:0:0:0:
182,192,98552,1,0,0:0:0:0:
402,192,98624,1,0,0:0:0:0:
329,192,98695,1,0,0:0:0:0:
182,192,98695,1,0,0:0:0:0:
36,192,98695,1,0,0:0:0:0:
475,192,98695,1,0,0:0:0:0:
256,192,98767,1,0,0:0:0:0:
109,192,98767,1,0,0:0:0:0:
329,192,98838,1,0,0:0:0:0:
182,192,98838,1,0,0:0:0:0:
475,192,98838,1,0,0:0:0:0:
256,192,98910,1,0,0:0:0:0:
36,192,98910,1,0,0:0:0:0:
329,192,98981,1,0,0:0:0:0:
109,192,98981,1,0,0:0:0:0:
475,192,98981,1,0,0:0:0:0:
402,192,98981,1,0,0:0:0:0:
182,192,99052,1,0,0:0:0:0:
256,192,99124,1,0,0:0:0:0:
36,192,99124,1,0,0:0:0:0:
475,192,99124,1,0,0:0:0:0:
402,192,99124,1,0,0:0:0:0:
182,192,99195,1,0,0:0:0:0:
109,192,99267,1,0,0:0:0:0:
36,192,99267,1,0,0:0:0:0:
329,192,99267,1,0,0:0:0:0:
475,192,99267,1,0,0:0:0:0:
256,192,99338,1,0,0:0:0:0:
402,192,99338,1,0,0:0:0:0:
182,192,99410,1,0,0:0:0:0:
36,192,99410,1,0,0:0:0:0:
329,192,99410,1,0,0:0:0:0:
256,192,99481,1,0,0:0:0:0:
475,192,99481,1,0,0:0:0:0:
329,192,99552,1,0,0:0:0:0:
109,192,99552,1,0,0:0:0:0:
36,192,99552,1,0,0:0:0:0:
402,192,99552,1,0,0:0:0:0:
182,192,99624,1,0,0:0:0:0:
256,192,99695,1,0,0:0:0:0:
36,192,99695,1,0,0:0:0:0:
475,192,99695,1,0,0:0:0:0:
402,192,99695,1,0,0:0:0:0:
109,192,99767,1,0,0:0:0:0:
182,192,99838,1,0,0:0:0:0:
329,192,99838,1,0,0:0:0:0:
475,192,99838,1,0,0:0:0:0:
256,192,99910,1,0,0:0:0:0:
109,192,99910,1,0,0:0:0:0:
182,192,99981,1,0,0:0:0:0:
36,192,99981,1,0,0:0:0:0:
475,192,99981,1,0,0:0:0:0:
402,192,100052,1,0,0:0:0:0:
256,192,100052,1,0,0:0:0:0:
109,192,100052,1,0,0:0:0:0:
182,192,100124,1,0,0:0:0:0:
329,192,100124,1,0,0:0:0:0:
475,192,100124,1,0,0:0:0:0:
256,192,100195,1,0,0:0:0:0:
109,192,100195,1,0,0:0:0:0:
36,192,100195,1,0,0:0:0:0:
182,192,100267,1,0,0:0:0:0:
402,192,100267,1,0,0:0:0:0:
475,192,100267,1,0,0:0:0:0:
329,192,100338,1,0,0:0:0:0:
109,192,100338,1,0,0:0:0:0:
36,192,100338,1,0,0:0:0:0:
256,192,100410,1,0,0:0:0:0:
475,192,100410,1,0,0:0:0:0:
402,192,100410,1,0,0:0:0:0:
329,192,100481,1,0,0:0:0:0:
182,192,100481,1,0,0:0:0:0:
36,192,100481,1,0,0:0:0:0:
109,192,100552,1,0,0:0:0:0:
256,192,100552,1,0,0:0:0:0:
475,192,100552,1,0,0:0:0:0:
329,192,100624,1,0,0:0:0:0:
182,192,100624,1,0,0:0:0:0:
402,192,100624,1,0,0:0:0:0:
256,192,100695,1,0,0:0:0:0:
109,192,100695,1,0,0:0:0:0:
36,192,100695,1,0,0:0:0:0:
329,192,100767,1,0,0:0:0:0:
475,192,100767,1,0,0:0:0:0:
402,192,100767,1,0,0:0:0:0:
36,192,100838,128,0,101052:0:0:0:0:
109,192,100838,128,0,101052:0:0:0:0:
182,192,100838,128,0,101052:0:0:0:0:
256,192,100838,128,0,101052:0:0:0:0:
109,192,101124,128,0,101338:0:0:0:0:
182,192,101124,128,0,101338:0:0:0:0:
256,192,101124,128,0,101338:0:0:0:0:
329,192,101124,128,0,101338:0:0:0:0:
402,192,101124,128,0,101338:0:0:0:0:
475,192,101124,128,0,101338:0:0:0:0:
36,192,101410,128,0,101624:0:0:0:0:
109,192,101410,128,0,101624:0:0:0:0:
182,192,101410,128,0,101624:0:0:0:0:
256,192,101410,128,0,101624:0:0:0:0:
329,192,101410,128,0,101624:0:0:0:0:
402,192,101410,128,0,101624:0:0:0:0:
182,192,101695,1,0,0:0:0:0:
475,192,101695,1,0,0:0:0:0:
402,192,101767,1,0,0:0:0:0:
109,192,101767,1,0,0:0:0:0:
329,192,101838,1,0,0:0:0:0:
36,192,101838,1,0,0:0:0:0:
256,192,101910,1,0,0:0:0:0:
475,192,101910,1,0,0:0:0:0:
402,192,101981,1,0,0:0:0:0:
36,192,101981,1,0,0:0:0:0:
329,192,101981,1,0,0:0:0:0:
109,192,101981,1,0,0:0:0:0:
182,192,101981,1,0,0:0:0:0:
256,192,102052,1,0,0:0:0:0:
329,192,102124,1,0,0:0:0:0:
109,192,102124,1,0,0:0:0:0:
36,192,102124,1,0,0:0:0:0:
182,192,102195,1,0,0:0:0:0:
256,192,102267,1,0,0:0:0:0:
402,192,102267,1,0,0:0:0:0:
475,192,102267,1,0,0:0:0:0:
36,192,102267,1,0,0:0:0:0:
329,192,102267,1,0,0:0:0:0:
182,192,102338,1,0,0:0:0:0:
109,192,102410,1,0,0:0:0:0:
36,192,102410,1,0,0:0:0:0:
402,192,102410,1,0,0:0:0:0:
475,192,102410,1,0,0:0:0:0:
329,192,102481,1,0,0:0:0:0:
256,192,102481,1,0,0:0:0:0:
109,192,102552,1,0,0:0:0:0:
182,192,102552,1,0,0:0:0:0:
36,192,102552,1,0,0:0:0:0:
475,192,102552,1,0,0:0:0:0:
402,192,102624,1,0,0:0:0:0:
329,192,102695,1,0,0:0:0:0:
182,192,102695,1,0,0:0:0:0:
36,192,102695,1,0,0:0:0:0:
256,192,102767,1,0,0:0:0:0:
475,192,102767,1,0,0:0:0:0:
402,192,102767,1,0,0:0:0:0:
109,192,102838,1,0,0:0:0:0:
36,192,102838,1,0,0:0:0:0:
182,192,102910,1,0,0:0:0:0:
329,192,102910,1,0,0:0:0:0:
475,192,102910,1,0,0:0:0:0:
402,192,102981,1,0,0:0:0:0:
256,192,102981,1,0,0:0:0:0:
36,192,102981,1,0,0:0:0:0:
109,192,103052,1,0,0:0:0:0:
182,192,103124,1,0,0:0:0:0:
36,192,103124,1,0,0:0:0:0:
475,192,103124,1,0,0:0:0:0:
329,192,103124,1,0,0:0:0:0:
402,192,103124,1,0,0:0:0:0:
256,192,103195,1,0,0:0:0:0:
329,192,103267,1,0,0:0:0:0:
109,192,103267,1,0,0:0:0:0:
36,192,103267,1,0,0:0:0:0:
182,192,103338,1,0,0:0:0:0:
475,192,103338,1,0,0:0:0:0:
402,192,103338,1,0,0:0:0:0:
329,192,103410,1,0,0:0:0:0:
36,192,103410,1,0,0:0:0:0:
109,192,103410,1,0,0:0:0:0:
256,192,103410,1,0,0:0:0:0:
182,192,103481,1,0,0:0:0:0:
109,192,103552,1,0,0:0:0:0:
329,192,103552,1,0,0:0:0:0:
475,192,103552,1,0,0:0:0:0:
36,192,103552,1,0,0:0:0:0:
402,192,103624,1,0,0:0:0:0:
256,192,103624,1,0,0:0:0:0:
329,192,103695,1,0,0:0:0:0:
182,192,103695,1,0,0:0:0:0:
36,192,103695,1,0,0:0:0:0:
475,192,103695,1,0,0:0:0:0:
256,192,103767,1,0,0:0:0:0:
109,192,103767,1,0,0:0:0:0:
182,192,103838,1,0,0:0:0:0:
402,192,103838,1,0,0:0:0:0:
475,192,103838,1,0,0:0:0:0:
329,192,103910,1,0,0:0:0:0:
36,192,103910,1,0,0:0:0:0:
256,192,103981,1,0,0:0:0:0:
475,192,103981,1,0,0:0:0:0:
109,192,103981,1,0,0:0:0:0:
402,192,103981,1,0,0:0:0:0:
329,192,104052,1,0,0:0:0:0:
182,192,104052,1,0,0:0:0:0:
256,192,104124,1,0,0:0:0:0:
402,192,104124,1,0,0:0:0:0:
36,192,104124,1,0,0:0:0:0:
109,192,104195,1,0,0:0:0:0:
329,192,104195,1,0,0:0:0:0:
182,192,104267,1,0,0:0:0:0:
36,192,104267,1,0,0:0:0:0:
475,192,104267,1,0,0:0:0:0:
402,192,104267,1,0,0:0:0:0:
256,192,104338,1,0,0:0:0:0:
329,192,104410,1,0,0:0:0:0:
109,192,104410,1,0,0:0:0:0:
475,192,104410,1,0,0:0:0:0:
182,192,104481,1,0,0:0:0:0:
256,192,104552,1,0,0:0:0:0:
36,192,104552,1,0,0:0:0:0:
402,192,104552,1,0,0:0:0:0:
475,192,104552,1,0,0:0:0:0:
329,192,104552,1,0,0:0:0:0:
182,192,104624,1,0,0:0:0:0:
109,192,104695,1,0,0:0:0:0:
36,192,104695,1,0,0:0:0:0:
329,192,104695,1,0,0:0:0:0:
475,192,104695,1,0,0:0:0:0:
256,192,104767,1,0,0:0:0:0:
402,192,104767,1,0,0:0:0:0:
329,192,104838,1,0,0:0:0:0:
182,192,104838,1,0,0:0:0:0:
36,192,104838,1,0,0:0:0:0:
475,192,104838,1,0,0:0:0:0:
256,192,104910,1,0,0:0:0:0:
329,192,104981,1,0,0:0:0:0:
109,192,104981,1,0,0:0:0:0:
36,192,104981,1,0,0:0:0:0:
182,192,105052,1,0,0:0:0:0:
402,192,105052,1,0,0:0:0:0:
475,192,105052,1,0,0:0:0:0:
256,192,105124,1,0,0:0:0:0:
36,192,105124,1,0,0:0:0:0:
109,192,105195,1,0,0:0:0:0:
475,192,105195,1,0,0:0:0:0:
329,192,105195,1,0,0:0:0:0:
402,192,105267,1,0,0:0:0:0:
256,192,105267,1,0,0:0:0:0:
182,192,105267,1,0,0:0:0:0:
109,192,105338,1,0,0:0:0:0:
36,192,105338,1,0,0:0:0:0:
329,192,105338,1,0,0:0:0:0:
475,192,105410,1,0,0:0:0:0:
182,192,105410,1,0,0:0:0:0:
402,192,105410,1,0,0:0:0:0:
256,192,105481,1,0,0:0:0:0:
329,192,105552,1,0,0:0:0:0:
109,192,105552,1,0,0:0:0:0:
36,192,105552,1,0,0:0:0:0:
182,192,105624,1,0,0:0:0:0:
475,192,105624,1,0,0:0:0:0:
402,192,105624,1,0,0:0:0:0:
256,192,105695,1,0,0:0:0:0:
36,192,105695,1,0,0:0:0:0:
182,192,105767,1,0,0:0:0:0:
475,192,105767,1,0,0:0:0:0:
329,192,105767,1,0,0:0:0:0:
402,192,105838,1,0,0:0:0:0:
256,192,105838,1,0,0:0:0:0:
36,192,105838,1,0,0:0:0:0:
109,192,105910,1,0,0:0:0:0:
329,192,105910,1,0,0:0:0:0:
182,192,105910,1,0,0:0:0:0:
256,192,105981,1,0,0:0:0:0:
402,192,105981,1,0,0:0:0:0:
475,192,105981,1,0,0:0:0:0:
36,192,105981,1,0,0:0:0:0:
182,192,106052,1,0,0:0:0:0:
329,192,106052,1,0,0:0:0:0:
256,192,106124,1,0,0:0:0:0:
109,192,106124,1,0,0:0:0:0:
36,192,106124,1,0,0:0:0:0:
475,192,106124,1,0,0:0:0:0:
402,192,106195,1,0,0:0:0:0:
182,192,106195,1,0,0:0:0:0:
475,192,106267,1,0,0:0:0:0:
36,192,106267,1,0,0:0:0:0:
329,192,106267,1,0,0:0:0:0:
256,192,106338,1,0,0:0:0:0:
109,192,106338,1,0,0:0:0:0:
182,192,106410,1,0,0:0:0:0:
475,192,106410,1,0,0:0:0:0:
402,192,106410,1,0,0:0:0:0:
329,192,106481,1,0,0:0:0:0:
36,192,106481,1,0,0:0:0:0:
109,192,106552,1,0,0:0:0:0:
256,192,106552,1,0,0:0:0:0:
475,192,106552,1,0,0:0:0:0:
182,192,106552,1,0,0:0:0:0:
402,192,106624,1,0,0:0:0:0:
329,192,106695,1,0,0:0:0:0:
109,192,106695,1,0,0:0:0:0:
36,192,106695,1,0,0:0:0:0:
475,192,106695,1,0,0:0:0:0:
256,192,106767,1,0,0:0:0:0:
182,192,106838,1,0,0:0:0:0:
109,192,106838,1,0,0:0:0:0:
36,192,106838,1,0,0:0:0:0:
402,192,106838,1,0,0:0:0:0:
475,192,106838,1,0,0:0:0:0:
329,192,106910,1,0,0:0:0:0:
256,192,106981,1,0,0:0:0:0:
36,192,106981,1,0,0:0:0:0:
402,192,106981,1,0,0:0:0:0:
109,192,107052,1,0,0:0:0:0:
329,192,107052,1,0,0:0:0:0:
182,192,107052,1,0,0:0:0:0:
256,192,107124,1,0,0:0:0:0:
475,192,107124,1,0,0:0:0:0:
36,192,107124,1,0,0:0:0:0:
402,192,107195,1,0,0:0:0:0:
329,192,107267,1,0,0:0:0:0:
475,192,107267,1,0,0:0:0:0:
36,192,107267,1,0,0:0:0:0:
109,192,107267,1,0,0:0:0:0:
256,192,107338,1,0,0:0:0:0:
182,192,107338,1,0,0:0:0:0:
109,192,107410,1,0,0:0:0:0:
36,192,107410,1,0,0:0:0:0:
475,192,107410,1,0,0:0:0:0:
402,192,107481,1,0,0:0:0:0:
329,192,107481,1,0,0:0:0:0:
256,192,107552,1,0,0:0:0:0:
109,192,107552,1,0,0:0:0:0:
36,192,107552,1,0,0:0:0:0:
475,192,107552,1,0,0:0:0:0:
329,192,107624,1,0,0:0:0:0:
182,192,107624,1,0,0:0:0:0:
256,192,107695,1,0,0:0:0:0:
402,192,107695,1,0,0:0:0:0:
36,192,107695,1,0,0:0:0:0:
475,192,107695,1,0,0:0:0:0:
329,192,107767,1,0,0:0:0:0:
182,192,107767,1,0,0:0:0:0:
109,192,107767,1,0,0:0:0:0:
256,192,107838,1,0,0:0:0:0:
475,192,107838,1,0,0:0:0:0:
402,192,107838,1,0,0:0:0:0:
329,192,107910,1,0,0:0:0:0:
182,192,107910,1,0,0:0:0:0:
36,192,107910,1,0,0:0:0:0:
109,192,107981,1,0,0:0:0:0:
256,192,107981,1,0,0:0:0:0:
475,192,107981,1,0,0:0:0:0:
402,192,108052,1,0,0:0:0:0:
329,192,108052,1,0,0:0:0:0:
182,192,108052,1,0,0:0:0:0:
256,192,108124,1,0,0:0:0:0:
109,192,108124,1,0,0:0:0:0:
36,192,108124,1,0,0:0:0:0:
402,192,108195,1,0,0:0:0:0:
475,192,108195,1,0,0:0:0:0:
182,192,108195,1,0,0:0:0:0:
329,192,108267,1,0,0:0:0:0:
256,192,108267,1,0,0:0:0:0:
36,192,108267,1,0,0:0:0:0:
109,192,108338,1,0,0:0:0:0:
475,192,108338,1,0,0:0:0:0:
182,192,108338,1,0,0:0:0:0:
256,192,108410,1,0,0:0:0:0:
329,192,108410,1,0,0:0:0:0:
402,192,108410,1,0,0:0:0:0:
182,192,108481,1,0,0:0:0:0:
109,192,108481,1,0,0:0:0:0:
36,192,108481,1,0,0:0:0:0:
256,192,108552,1,0,0:0:0:0:
402,192,108552,1,0,0:0:0:0:
475,192,108552,1,0,0:0:0:0:
329,192,108624,1,0,0:0:0:0:
182,192,108624,1,0,0:0:0:0:
109,192,108624,1,0,0:0:0:0:
256,192,108695,1,0,0:0:0:0:
36,192,108695,1,0,0:0:0:0:
475,192,108695,1,0,0:0:0:0:
329,192,108767,1,0,0:0:0:0:
182,192,108767,1,0,0:0:0:0:
109,192,108767,1,0,0:0:0:0:
475,192,108838,1,0,0:0:0:0:
256,192,108838,1,0,0:0:0:0:
36,192,108838,1,0,0:0:0:0:
402,192,108838,1,0,0:0:0:0:
329,192,108910,1,0,0:0:0:0:
109,192,108910,1,0,0:0:0:0:
475,192,108981,1,0,0:0:0:0:
402,192,108981,1,0,0:0:0:0:
36,192,108981,1,0,0:0:0:0:
182,192,108981,1,0,0:0:0:0:
109,192,109052,1,0,0:0:0:0:
256,192,109052,1,0,0:0:0:0:
182,192,109124,1,0,0:0:0:0:
36,192,109124,1,0,0:0:0:0:
475,192,109124,1,0,0:0:0:0:
402,192,109124,1,0,0:0:0:0:
329,192,109124,1,0,0:0:0:0:
109,192,109195,1,0,0:0:0:0:
256,192,109195,1,0,0:0:0:0:
36,192,109267,1,0,0:0:0:0:
475,192,109267,1,0,0:0:0:0:
182,192,109267,1,0,0:0:0:0:
329,192,109267,1,0,0:0:0:0:
256,192,109338,1,0,0:0:0:0:
402,192,109338,1,0,0:0:0:0:
109,192,109410,1,0,0:0:0:0:
36,192,109410,1,0,0:0:0:0:
475,192,109410,1,0,0:0:0:0:
329,192,109410,1,0,0:0:0:0:
182,192,109410,1,0,0:0:0:0:
402,192,109481,1,0,0:0:0:0:
256,192,109481,1,0,0:0:0:0:
109,192,109552,1,0,0:0:0:0:
36,192,109552,1,0,0:0:0:0:
475,192,109552,1,0,0:0:0:0:
329,192,109552,1,0,0:0:0:0:
402,192,109624,1,0,0:0:0:0:
256,192,109624,1,0,0:0:0:0:
36,192,109695,1,0,0:0:0:0:
182,192,109695,1,0,0:0:0:0:
329,192,109695,1,0,0:0:0:0:
475,192,109695,1,0,0:0:0:0:
256,192,109767,1,0,0:0:0:0:
109,192,109767,1,0,0:0:0:0:
402,192,109767,1,0,0:0:0:0:
329,192,109838,1,0,0:0:0:0:
182,192,109838,1,0,0:0:0:0:
36,192,109838,1,0,0:0:0:0:
475,192,109838,1,0,0:0:0:0:
402,192,109910,1,0,0:0:0:0:
256,192,109910,1,0,0:0:0:0:
109,192,109910,1,0,0:0:0:0:
182,192,109981,1,0,0:0:0:0:
36,192,109981,1,0,0:0:0:0:
329,192,109981,1,0,0:0:0:0:
475,192,109981,1,0,0:0:0:0:
256,192,110052,1,0,0:0:0:0:
109,192,110052,1,0,0:0:0:0:
329,192,110124,1,0,0:0:0:0:
475,192,110124,1,0,0:0:0:0:
182,192,110195,1,0,0:0:0:0:
36,192,110195,1,0,0:0:0:0:
402,192,110267,1,0,0:0:0:0:
475,192,110267,1,0,0:0:0:0:
256,192,110338,1,0,0:0:0:0:
182,192,110338,1,0,0:0:0:0:
109,192,110410,1,0,0:0:0:0:
36,192,110410,1,0,0:0:0:0:
329,192,110481,1,0,0:0:0:0:
402,192,110481,1,0,0:0:0:0:
256,192,110552,1,0,0:0:0:0:
109,192,110552,1,0,0:0:0:0:
329,192,110624,1,0,0:0:0:0:
475,192,110624,1,0,0:0:0:0:
182,192,110695,1,0,0:0:0:0:
36,192,110695,1,0,0:0:0:0:
256,192,110767,1,0,0:0:0:0:
402,192,110767,1,0,0:0:0:0:
329,192,110838,1,0,0:0:0:0:
109,192,110838,1,0,0:0:0:0:
36,192,110838,1,0,0:0:0:0:
256,192,110910,1,0,0:0:0:0:
475,192,110910,1,0,0:0:0:0:
402,192,110981,1,0,0:0:0:0:
182,192,110981,1,0,0:0:0:0:
109,192,111052,1,0,0:0:0:0:
329,192,111052,1,0,0:0:0:0:
256,192,111124,5,0,0:0:0:0:
36,192,111124,1,0,0:0:0:0:
475,192,111124,1,0,0:0:0:0:
402,192,111124,1,0,0:0:0:0:
182,192,111195,1,0,0:0:0:0:
109,192,111267,1,0,0:0:0:0:
402,192,111267,1,0,0:0:0:0:
329,192,111338,1,0,0:0:0:0:
36,192,111338,1,0,0:0:0:0:
182,192,111338,1,0,0:0:0:0:
475,192,111338,1,0,0:0:0:0:
256,192,111410,1,0,0:0:0:0:
329,192,111481,1,0,0:0:0:0:
182,192,111552,1,0,0:0:0:0:
109,192,111552,1,0,0:0:0:0:
36,192,111552,1,0,0:0:0:0:
475,192,111552,1,0,0:0:0:0:
402,192,111552,1,0,0:0:0:0:
256,192,111624,1,0,0:0:0:0:
329,192,111695,1,0,0:0:0:0:
109,192,111695,1,0,0:0:0:0:
36,192,111695,1,0,0:0:0:0:
475,192,111695,1,0,0:0:0:0:
402,192,111695,1,0,0:0:0:0:
182,192,111767,1,0,0:0:0:0:
256,192,111838,1,0,0:0:0:0:
36,192,111838,1,0,0:0:0:0:
329,192,111910,1,0,0:0:0:0:
109,192,111910,1,0,0:0:0:0:
475,192,111910,1,0,0:0:0:0:
182,192,111910,1,0,0:0:0:0:
256,192,111981,1,0,0:0:0:0:
182,192,112052,1,0,0:0:0:0:
402,192,112124,1,0,0:0:0:0:
36,192,112124,1,0,0:0:0:0:
109,192,112124,1,0,0:0:0:0:
329,192,112124,1,0,0:0:0:0:
475,192,112124,1,0,0:0:0:0:
256,192,112195,1,0,0:0:0:0:
182,192,112267,1,0,0:0:0:0:
109,192,112267,1,0,0:0:0:0:
36,192,112267,1,0,0:0:0:0:
475,192,112267,1,0,0:0:0:0:
402,192,112267,1,0,0:0:0:0:
329,192,112338,1,0,0:0:0:0:
36,192,112410,1,0,0:0:0:0:
256,192,112410,1,0,0:0:0:0:
182,192,112481,1,0,0:0:0:0:
402,192,112481,1,0,0:0:0:0:
475,192,112481,1,0,0:0:0:0:
329,192,112481,1,0,0:0:0:0:
36,192,112552,1,0,0:0:0:0:
109,192,112624,1,0,0:0:0:0:
182,192,112695,1,0,0:0:0:0:
402,192,112695,1,0,0:0:0:0:
475,192,112695,1,0,0:0:0:0:
36,192,112695,1,0,0:0:0:0:
329,192,112695,1,0,0:0:0:0:
256,192,112767,1,0,0:0:0:0:
329,192,112838,1,0,0:0:0:0:
109,192,112838,1,0,0:0:0:0:
36,192,112838,1,0,0:0:0:0:
475,192,112838,1,0,0:0:0:0:
402,192,112838,1,0,0:0:0:0:
182,192,112910,1,0,0:0:0:0:
256,192,112981,1,0,0:0:0:0:
36,192,112981,1,0,0:0:0:0:
109,192,113052,1,0,0:0:0:0:
475,192,113052,1,0,0:0:0:0:
402,192,113052,1,0,0:0:0:0:
182,192,113052,1,0,0:0:0:0:
329,192,113124,1,0,0:0:0:0:
36,192,113124,1,0,0:0:0:0:
256,192,113195,1,0,0:0:0:0:
182,192,113267,1,0,0:0:0:0:
36,192,113267,1,0,0:0:0:0:
402,192,113267,1,0,0:0:0:0:
475,192,113267,1,0,0:0:0:0:
109,192,113267,1,0,0:0:0:0:
329,192,113338,1,0,0:0:0:0:
256,192,113410,1,0,0:0:0:0:
36,192,113410,1,0,0:0:0:0:
475,192,113410,1,0,0:0:0:0:
109,192,113410,1,0,0:0:0:0:
402,192,113410,1,0,0:0:0:0:
182,192,113481,1,0,0:0:0:0:
109,192,113552,1,0,0:0:0:0:
329,192,113552,1,0,0:0:0:0:
256,192,113624,1,0,0:0:0:0:
36,192,113624,1,0,0:0:0:0:
402,192,113624,1,0,0:0:0:0:
475,192,113624,1,0,0:0:0:0:
182,192,113695,1,0,0:0:0:0:
329,192,113767,1,0,0:0:0:0:
256,192,113838,1,0,0:0:0:0:
36,192,113838,1,0,0:0:0:0:
475,192,113838,1,0,0:0:0:0:
109,192,113838,1,0,0:0:0:0:
402,192,113838,1,0,0:0:0:0:
182,192,113910,1,0,0:0:0:0:
256,192,113981,1,0,0:0:0:0:
36,192,113981,1,0,0:0:0:0:
475,192,113981,1,0,0:0:0:0:
329,192,113981,1,0,0:0:0:0:
402,192,113981,1,0,0:0:0:0:
109,192,114052,1,0,0:0:0:0:
182,192,114124,1,0,0:0:0:0:
36,192,114124,1,0,0:0:0:0:
256,192,114195,1,0,0:0:0:0:
475,192,114195,1,0,0:0:0:0:
402,192,114195,1,0,0:0:0:0:
109,192,114195,1,0,0:0:0:0:
329,192,114267,1,0,0:0:0:0:
402,192,114338,1,0,0:0:0:0:
182,192,114410,1,0,0:0:0:0:
36,192,114410,1,0,0:0:0:0:
475,192,114410,1,0,0:0:0:0:
109,192,114410,1,0,0:0:0:0:
256,192,114410,1,0,0:0:0:0:
329,192,114481,1,0,0:0:0:0:
402,192,114552,1,0,0:0:0:0:
182,192,114552,1,0,0:0:0:0:
475,192,114552,1,0,0:0:0:0:
256,192,114552,1,0,0:0:0:0:
36,192,114552,1,0,0:0:0:0:
109,192,114624,1,0,0:0:0:0:
182,192,114695,1,0,0:0:0:0:
402,192,114695,1,0,0:0:0:0:
329,192,114767,1,0,0:0:0:0:
475,192,114767,1,0,0:0:0:0:
109,192,114767,1,0,0:0:0:0:
36,192,114767,1,0,0:0:0:0:
256,192,114838,1,0,0:0:0:0:
182,192,114910,1,0,0:0:0:0:
109,192,114981,1,0,0:0:0:0:
329,192,114981,1,0,0:0:0:0:
475,192,114981,1,0,0:0:0:0:
402,192,114981,1,0,0:0:0:0:
36,192,114981,1,0,0:0:0:0:
256,192,115052,1,0,0:0:0:0:
182,192,115124,1,0,0:0:0:0:
109,192,115124,1,0,0:0:0:0:
36,192,115124,1,0,0:0:0:0:
475,192,115124,1,0,0:0:0:0:
402,192,115124,1,0,0:0:0:0:
329,192,115195,1,0,0:0:0:0:
256,192,115267,1,0,0:0:0:0:
36,192,115267,1,0,0:0:0:0:
475,192,115267,1,0,0:0:0:0:
109,192,115267,1,0,0:0:0:0:
402,192,115267,1,0,0:0:0:0:
182,192,115338,1,0,0:0:0:0:
109,192,115410,1,0,0:0:0:0:
36,192,115410,1,0,0:0:0:0:
329,192,115410,1,0,0:0:0:0:
475,192,115410,1,0,0:0:0:0:
402,192,115410,1,0,0:0:0:0:
256,192,115481,1,0,0:0:0:0:
182,192,115552,1,0,0:0:0:0:
36,192,115552,1,0,0:0:0:0:
402,192,115552,1,0,0:0:0:0:
475,192,115552,1,0,0:0:0:0:
329,192,115552,1,0,0:0:0:0:
109,192,115624,1,0,0:0:0:0:
182,192,115695,1,0,0:0:0:0:
36,192,115695,1,0,0:0:0:0:
256,192,115695,1,0,0:0:0:0:
475,192,115695,1,0,0:0:0:0:
402,192,115695,1,0,0:0:0:0:
329,192,115767,1,0,0:0:0:0:
402,192,115838,1,0,0:0:0:0:
109,192,115838,1,0,0:0:0:0:
182,192,115910,1,0,0:0:0:0:
36,192,115910,1,0,0:0:0:0:
475,192,115910,1,0,0:0:0:0:
256,192,115910,1,0,0:0:0:0:
329,192,115981,1,0,0:0:0:0:
402,192,116052,1,0,0:0:0:0:
109,192,116124,1,0,0:0:0:0:
36,192,116124,1,0,0:0:0:0:
182,192,116124,1,0,0:0:0:0:
475,192,116124,1,0,0:0:0:0:
256,192,116124,1,0,0:0:0:0:
329,192,116195,1,0,0:0:0:0:
402,192,116267,1,0,0:0:0:0:
182,192,116267,1,0,0:0:0:0:
36,192,116267,1,0,0:0:0:0:
475,192,116267,1,0,0:0:0:0:
256,192,116267,1,0,0:0:0:0:
109,192,116338,1,0,0:0:0:0:
36,192,116410,1,0,0:0:0:0:
329,192,116410,1,0,0:0:0:0:
256,192,116481,1,0,0:0:0:0:
475,192,116481,1,0,0:0:0:0:
402,192,116481,1,0,0:0:0:0:
109,192,116481,1,0,0:0:0:0:
182,192,116552,1,0,0:0:0:0:
256,192,116624,1,0,0:0:0:0:
329,192,116695,1,0,0:0:0:0:
109,192,116695,1,0,0:0:0:0:
36,192,116695,1,0,0:0:0:0:
475,192,116695,1,0,0:0:0:0:
402,192,116695,1,0,0:0:0:0:
182,192,116767,1,0,0:0:0:0:
256,192,116838,1,0,0:0:0:0:
109,192,116838,1,0,0:0:0:0:
36,192,116838,1,0,0:0:0:0:
475,192,116838,1,0,0:0:0:0:
329,192,116838,1,0,0:0:0:0:
402,192,116910,1,0,0:0:0:0:
329,192,116981,1,0,0:0:0:0:
475,192,116981,1,0,0:0:0:0:
256,192,117052,1,0,0:0:0:0:
36,192,117052,1,0,0:0:0:0:
109,192,117052,1,0,0:0:0:0:
402,192,117052,1,0,0:0:0:0:
182,192,117124,1,0,0:0:0:0:
109,192,117195,1,0,0:0:0:0:
36,192,117267,1,0,0:0:0:0:
329,192,117267,1,0,0:0:0:0:
402,192,117267,1,0,0:0:0:0:
475,192,117267,1,0,0:0:0:0:
182,192,117267,1,0,0:0:0:0:
256,192,117338,1,0,0:0:0:0:
329,192,117410,1,0,0:0:0:0:
109,192,117410,1,0,0:0:0:0:
36,192,117410,1,0,0:0:0:0:
402,192,117410,1,0,0:0:0:0:
475,192,117410,1,0,0:0:0:0:
182,192,117481,1,0,0:0:0:0:
256,192,117552,1,0,0:0:0:0:
36,192,117552,1,0,0:0:0:0:
329,192,117624,1,0,0:0:0:0:
475,192,117624,1,0,0:0:0:0:
402,192,117624,1,0,0:0:0:0:
109,192,117624,1,0,0:0:0:0:
256,192,117695,1,0,0:0:0:0:
36,192,117695,1,0,0:0:0:0:
182,192,117767,1,0,0:0:0:0:
109,192,117838,1,0,0:0:0:0:
36,192,117838,1,0,0:0:0:0:
475,192,117838,1,0,0:0:0:0:
402,192,117838,1,0,0:0:0:0:
329,192,117838,1,0,0:0:0:0:
256,192,117910,1,0,0:0:0:0:
182,192,117981,5,0,0:0:0:0:
36,192,117981,1,0,0:0:0:0:
475,192,117981,1,0,0:0:0:0:
402,192,117981,1,0,0:0:0:0:
329,192,117981,1,0,0:0:0:0:
109,192,117981,1,0,0:0:0:0:
256,192,118052,1,0,0:0:0:0:
329,192,118124,1,0,0:0:0:0:
109,192,118124,1,0,0:0:0:0:
182,192,118195,1,0,0:0:0:0:
36,192,118195,1,0,0:0:0:0:
475,192,118195,1,0,0:0:0:0:
402,192,118195,1,0,0:0:0:0:
256,192,118267,1,0,0:0:0:0:
329,192,118338,1,0,0:0:0:0:
182,192,118410,1,0,0:0:0:0:
475,192,118410,1,0,0:0:0:0:
109,192,118410,1,0,0:0:0:0:
36,192,118410,1,0,0:0:0:0:
402,192,118410,1,0,0:0:0:0:
256,192,118481,1,0,0:0:0:0:
36,192,118552,1,0,0:0:0:0:
182,192,118552,1,0,0:0:0:0:
329,192,118552,1,0,0:0:0:0:
475,192,118552,1,0,0:0:0:0:
109,192,118552,1,0,0:0:0:0:
402,192,118624,1,0,0:0:0:0:
256,192,118695,1,0,0:0:0:0:
36,192,118695,1,0,0:0:0:0:
109,192,118767,1,0,0:0:0:0:
182,192,118767,1,0,0:0:0:0:
475,192,118767,1,0,0:0:0:0:
402,192,118767,1,0,0:0:0:0:
329,192,118838,1,0,0:0:0:0:
256,192,118910,1,0,0:0:0:0:
36,192,118981,1,0,0:0:0:0:
402,192,118981,1,0,0:0:0:0:
475,192,118981,1,0,0:0:0:0:
329,192,118981,1,0,0:0:0:0:
182,192,118981,1,0,0:0:0:0:
109,192,119052,1,0,0:0:0:0:
256,192,119124,5,0,0:0:0:0:
402,192,119124,1,0,0:0:0:0:
182,192,119124,1,0,0:0:0:0:
329,192,119124,128,0,119267:0:0:0:0:
475,192,119124,128,0,119267:0:0:0:0:
109,192,119267,1,0,0:0:0:0:
256,192,119338,128,0,119481:0:0:0:0:
402,192,119338,128,0,119481:0:0:0:0:
329,192,119552,128,0,119695:0:0:0:0:
182,192,119552,128,0,119695:0:0:0:0:
109,192,119695,128,0,119838:0:0:0:0:
36,192,119695,128,0,120267:0:0:0:0:
475,192,119838,128,0,120267:0:0:0:0:
256,192,119838,1,0,0:0:0:0:
182,192,119910,128,0,120052:0:0:0:0:
402,192,119981,128,0,120267:0:0:0:0:
329,192,120124,128,0,120267:0:0:0:0:
256,192,120124,128,0,120267:0:0:0:0:
182,192,120267,1,0,0:0:0:0:
109,192,120267,1,0,0:0:0:0:
256,192,120338,1,0,0:0:0:0:
329,192,120410,1,0,0:0:0:0:
109,192,120410,1,0,0:0:0:0:
36,192,120410,1,0,0:0:0:0:
402,192,120410,1,0,0:0:0:0:
182,192,120481,1,0,0:0:0:0:
256,192,120552,1,0,0:0:0:0:
36,192,120552,1,0,0:0:0:0:
402,192,120552,1,0,0:0:0:0:
475,192,120552,1,0,0:0:0:0:
329,192,120552,1,0,0:0:0:0:
109,192,120624,1,0,0:0:0:0:
182,192,120695,1,0,0:0:0:0:
36,192,120695,1,0,0:0:0:0:
475,192,120695,1,0,0:0:0:0:
329,192,120695,1,0,0:0:0:0:
256,192,120767,1,0,0:0:0:0:
329,192,120838,1,0,0:0:0:0:
109,192,120838,1,0,0:0:0:0:
36,192,120838,1,0,0:0:0:0:
402,192,120838,1,0,0:0:0:0:
475,192,120838,1,0,0:0:0:0:
182,192,120910,1,0,0:0:0:0:
256,192,120981,1,0,0:0:0:0:
402,192,120981,1,0,0:0:0:0:
36,192,120981,1,0,0:0:0:0:
109,192,121052,1,0,0:0:0:0:
329,192,121052,1,0,0:0:0:0:
475,192,121052,1,0,0:0:0:0:
402,192,121124,1,0,0:0:0:0:
182,192,121124,1,0,0:0:0:0:
36,192,121124,1,0,0:0:0:0:
256,192,121124,1,0,0:0:0:0:
329,192,121195,1,0,0:0:0:0:
402,192,121267,1,0,0:0:0:0:
109,192,121267,1,0,0:0:0:0:
36,192,121267,1,0,0:0:0:0:
182,192,121267,1,0,0:0:0:0:
475,192,121267,1,0,0:0:0:0:
256,192,121338,1,0,0:0:0:0:
329,192,121410,1,0,0:0:0:0:
109,192,121410,1,0,0:0:0:0:
36,192,121410,1,0,0:0:0:0:
475,192,121410,1,0,0:0:0:0:
402,192,121481,1,0,0:0:0:0:
256,192,121481,1,0,0:0:0:0:
329,192,121552,1,0,0:0:0:0:
182,192,121552,1,0,0:0:0:0:
36,192,121552,1,0,0:0:0:0:
109,192,121624,1,0,0:0:0:0:
256,192,121624,1,0,0:0:0:0:
329,192,121624,1,0,0:0:0:0:
182,192,121695,1,0,0:0:0:0:
402,192,121695,1,0,0:0:0:0:
475,192,121695,1,0,0:0:0:0:
256,192,121767,1,0,0:0:0:0:
36,192,121767,1,0,0:0:0:0:
109,192,121838,1,0,0:0:0:0:
329,192,121838,1,0,0:0:0:0:
475,192,121838,1,0,0:0:0:0:
182,192,121910,1,0,0:0:0:0:
402,192,121910,1,0,0:0:0:0:
256,192,121981,1,0,0:0:0:0:
36,192,121981,1,0,0:0:0:0:
475,192,121981,1,0,0:0:0:0:
109,192,121981,1,0,0:0:0:0:
402,192,122052,1,0,0:0:0:0:
182,192,122052,1,0,0:0:0:0:
329,192,122124,1,0,0:0:0:0:
109,192,122124,1,0,0:0:0:0:
475,192,122124,1,0,0:0:0:0:
256,192,122195,1,0,0:0:0:0:
36,192,122195,1,0,0:0:0:0:
182,192,122267,1,0,0:0:0:0:
402,192,122267,1,0,0:0:0:0:
475,192,122267,1,0,0:0:0:0:
329,192,122267,1,0,0:0:0:0:
256,192,122338,1,0,0:0:0:0:
36,192,122338,1,0,0:0:0:0:
109,192,122410,1,0,0:0:0:0:
329,192,122410,1,0,0:0:0:0:
475,192,122410,1,0,0:0:0:0:
182,192,122481,1,0,0:0:0:0:
36,192,122481,1,0,0:0:0:0:
256,192,122552,1,0,0:0:0:0:
402,192,122552,1,0,0:0:0:0:
109,192,122552,1,0,0:0:0:0:
475,192,122552,1,0,0:0:0:0:
329,192,122552,1,0,0:0:0:0:
182,192,122624,1,0,0:0:0:0:
256,192,122695,1,0,0:0:0:0:
36,192,122695,1,0,0:0:0:0:
475,192,122695,1,0,0:0:0:0:
402,192,122695,1,0,0:0:0:0:
109,192,122767,1,0,0:0:0:0:
182,192,122838,1,0,0:0:0:0:
36,192,122838,1,0,0:0:0:0:
256,192,122838,1,0,0:0:0:0:
475,192,122838,1,0,0:0:0:0:
402,192,122838,1,0,0:0:0:0:
329,192,122910,1,0,0:0:0:0:
256,192,122981,1,0,0:0:0:0:
475,192,122981,1,0,0:0:0:0:
109,192,122981,1,0,0:0:0:0:
402,192,122981,1,0,0:0:0:0:
182,192,123052,1,0,0:0:0:0:
109,192,123124,1,0,0:0:0:0:
36,192,123124,1,0,0:0:0:0:
329,192,123124,1,0,0:0:0:0:
475,192,123124,1,0,0:0:0:0:
402,192,123124,1,0,0:0:0:0:
182,192,123195,1,0,0:0:0:0:
256,192,123267,1,0,0:0:0:0:
36,192,123267,1,0,0:0:0:0:
402,192,123267,1,0,0:0:0:0:
109,192,123338,1,0,0:0:0:0:
329,192,123338,1,0,0:0:0:0:
475,192,123338,1,0,0:0:0:0:
182,192,123410,1,0,0:0:0:0:
256,192,123410,1,0,0:0:0:0:
36,192,123410,1,0,0:0:0:0:
402,192,123410,1,0,0:0:0:0:
329,192,123481,1,0,0:0:0:0:
256,192,123552,1,0,0:0:0:0:
475,192,123552,1,0,0:0:0:0:
36,192,123552,1,0,0:0:0:0:
402,192,123552,1,0,0:0:0:0:
109,192,123552,1,0,0:0:0:0:
182,192,123624,1,0,0:0:0:0:
109,192,123695,5,0,0:0:0:0:
36,192,123695,1,0,0:0:0:0:
329,192,123695,1,0,0:0:0:0:
475,192,123695,1,0,0:0:0:0:
256,192,123767,1,0,0:0:0:0:
402,192,123767,1,0,0:0:0:0:
182,192,123838,1,0,0:0:0:0:
329,192,123838,1,0,0:0:0:0:
36,192,123838,1,0,0:0:0:0:
182,192,123910,1,0,0:0:0:0:
256,192,123910,1,0,0:0:0:0:
402,192,123910,1,0,0:0:0:0:
329,192,123981,1,0,0:0:0:0:
36,192,123981,1,0,0:0:0:0:
475,192,123981,1,0,0:0:0:0:
109,192,124052,1,0,0:0:0:0:
256,192,124052,1,0,0:0:0:0:
182,192,124124,1,0,0:0:0:0:
402,192,124124,1,0,0:0:0:0:
475,192,124124,1,0,0:0:0:0:
256,192,124195,1,0,0:0:0:0:
36,192,124195,1,0,0:0:0:0:
109,192,124267,1,0,0:0:0:0:
182,192,124267,1,0,0:0:0:0:
329,192,124267,1,0,0:0:0:0:
475,192,124267,1,0,0:0:0:0:
402,192,124338,1,0,0:0:0:0:
256,192,124338,1,0,0:0:0:0:
329,192,124410,1,0,0:0:0:0:
182,192,124410,1,0,0:0:0:0:
36,192,124410,1,0,0:0:0:0:
256,192,124481,1,0,0:0:0:0:
475,192,124481,1,0,0:0:0:0:
402,192,124552,1,0,0:0:0:0:
109,192,124552,1,0,0:0:0:0:
36,192,124552,1,0,0:0:0:0:
329,192,124552,1,0,0:0:0:0:
182,192,124624,1,0,0:0:0:0:
256,192,124624,1,0,0:0:0:0:
329,192,124695,1,0,0:0:0:0:
36,192,124695,1,0,0:0:0:0:
475,192,124695,1,0,0:0:0:0:
256,192,124767,1,0,0:0:0:0:
109,192,124767,1,0,0:0:0:0:
182,192,124838,1,0,0:0:0:0:
402,192,124838,1,0,0:0:0:0:
475,192,124838,1,0,0:0:0:0:
329,192,124838,1,0,0:0:0:0:
36,192,124838,1,0,0:0:0:0:
256,192,124910,1,0,0:0:0:0:
109,192,124910,1,0,0:0:0:0:
182,192,124981,1,0,0:0:0:0:
402,192,124981,1,0,0:0:0:0:
475,192,124981,1,0,0:0:0:0:
329,192,125052,1,0,0:0:0:0:
36,192,125052,1,0,0:0:0:0:
109,192,125124,1,0,0:0:0:0:
182,192,125124,1,0,0:0:0:0:
256,192,125124,1,0,0:0:0:0:
475,192,125124,1,0,0:0:0:0:
402,192,125195,1,0,0:0:0:0:
329,192,125195,1,0,0:0:0:0:
256,192,125267,1,0,0:0:0:0:
109,192,125267,1,0,0:0:0:0:
36,192,125267,1,0,0:0:0:0:
329,192,125338,1,0,0:0:0:0:
182,192,125338,1,0,0:0:0:0:
256,192,125410,1,0,0:0:0:0:
402,192,125410,1,0,0:0:0:0:
475,192,125410,1,0,0:0:0:0:
36,192,125410,1,0,0:0:0:0:
109,192,125481,1,0,0:0:0:0:
329,192,125481,1,0,0:0:0:0:
182,192,125552,1,0,0:0:0:0:
36,192,125552,1,0,0:0:0:0:
475,192,125552,1,0,0:0:0:0:
402,192,125624,1,0,0:0:0:0:
256,192,125624,1,0,0:0:0:0:
329,192,125695,1,0,0:0:0:0:
475,192,125695,1,0,0:0:0:0:
109,192,125695,1,0,0:0:0:0:
36,192,125695,1,0,0:0:0:0:
256,192,125767,1,0,0:0:0:0:
182,192,125838,1,0,0:0:0:0:
36,192,125838,1,0,0:0:0:0:
402,192,125838,1,0,0:0:0:0:
329,192,125910,1,0,0:0:0:0:
109,192,125910,1,0,0:0:0:0:
256,192,125981,1,0,0:0:0:0:
36,192,125981,1,0,0:0:0:0:
402,192,125981,1,0,0:0:0:0:
475,192,125981,1,0,0:0:0:0:
329,192,126052,1,0,0:0:0:0:
182,192,126052,1,0,0:0:0:0:
256,192,126124,1,0,0:0:0:0:
36,192,126124,1,0,0:0:0:0:
402,192,126124,1,0,0:0:0:0:
329,192,126195,1,0,0:0:0:0:
109,192,126195,1,0,0:0:0:0:
182,192,126267,1,0,0:0:0:0:
36,192,126267,1,0,0:0:0:0:
402,192,126267,1,0,0:0:0:0:
475,192,126267,1,0,0:0:0:0:
256,192,126338,1,0,0:0:0:0:
109,192,126338,1,0,0:0:0:0:
182,192,126410,1,0,0:0:0:0:
329,192,126410,1,0,0:0:0:0:
475,192,126410,1,0,0:0:0:0:
402,192,126481,1,0,0:0:0:0:
256,192,126481,1,0,0:0:0:0:
329,192,126552,1,0,0:0:0:0:
475,192,126552,1,0,0:0:0:0:
109,192,126552,1,0,0:0:0:0:
256,192,126624,1,0,0:0:0:0:
36,192,126624,1,0,0:0:0:0:
402,192,126624,1,0,0:0:0:0:
329,192,126695,1,0,0:0:0:0:
475,192,126695,1,0,0:0:0:0:
182,192,126695,1,0,0:0:0:0:
256,192,126767,1,0,0:0:0:0:
402,192,126767,1,0,0:0:0:0:
36,192,126767,1,0,0:0:0:0:
109,192,126838,1,0,0:0:0:0:
182,192,126838,1,0,0:0:0:0:
329,192,126838,1,0,0:0:0:0:
256,192,126910,1,0,0:0:0:0:
402,192,126910,1,0,0:0:0:0:
475,192,126910,1,0,0:0:0:0:
329,192,126981,1,0,0:0:0:0:
109,192,126981,1,0,0:0:0:0:
36,192,126981,1,0,0:0:0:0:
182,192,127052,1,0,0:0:0:0:
256,192,127052,1,0,0:0:0:0:
402,192,127052,1,0,0:0:0:0:
329,192,127124,1,0,0:0:0:0:
475,192,127124,1,0,0:0:0:0:
109,192,127124,1,0,0:0:0:0:
36,192,127124,1,0,0:0:0:0:
256,192,127195,1,0,0:0:0:0:
182,192,127195,1,0,0:0:0:0:
109,192,127267,1,0,0:0:0:0:
36,192,127267,1,0,0:0:0:0:
402,192,127267,1,0,0:0:0:0:
475,192,127267,1,0,0:0:0:0:
329,192,127338,1,0,0:0:0:0:
256,192,127338,1,0,0:0:0:0:
182,192,127410,1,0,0:0:0:0:
109,192,127410,1,0,0:0:0:0:
36,192,127410,1,0,0:0:0:0:
475,192,127410,1,0,0:0:0:0:
402,192,127481,1,0,0:0:0:0:
256,192,127481,1,0,0:0:0:0:
329,192,127552,1,0,0:0:0:0:
182,192,127552,1,0,0:0:0:0:
36,192,127552,1,0,0:0:0:0:
475,192,127552,1,0,0:0:0:0:
256,192,127624,1,0,0:0:0:0:
109,192,127624,1,0,0:0:0:0:
182,192,127695,1,0,0:0:0:0:
329,192,127695,1,0,0:0:0:0:
402,192,127695,1,0,0:0:0:0:
475,192,127695,1,0,0:0:0:0:
256,192,127767,1,0,0:0:0:0:
36,192,127767,1,0,0:0:0:0:
109,192,127838,1,0,0:0:0:0:
182,192,127838,1,0,0:0:0:0:
475,192,127838,1,0,0:0:0:0:
402,192,127838,1,0,0:0:0:0:
329,192,127910,1,0,0:0:0:0:
256,192,127910,1,0,0:0:0:0:
402,192,127981,1,0,0:0:0:0:
182,192,127981,1,0,0:0:0:0:
36,192,127981,1,0,0:0:0:0:
109,192,127981,1,0,0:0:0:0:
256,192,128052,1,0,0:0:0:0:
475,192,128052,1,0,0:0:0:0:
329,192,128124,1,0,0:0:0:0:
182,192,128124,1,0,0:0:0:0:
36,192,128124,1,0,0:0:0:0:
402,192,128124,1,0,0:0:0:0:
256,192,128195,1,0,0:0:0:0:
109,192,128195,1,0,0:0:0:0:
182,192,128267,1,0,0:0:0:0:
36,192,128267,1,0,0:0:0:0:
475,192,128267,1,0,0:0:0:0:
329,192,128267,1,0,0:0:0:0:
256,192,128338,1,0,0:0:0:0:
402,192,128338,1,0,0:0:0:0:
109,192,128338,1,0,0:0:0:0:
182,192,128410,1,0,0:0:0:0:
36,192,128410,1,0,0:0:0:0:
329,192,128410,1,0,0:0:0:0:
475,192,128410,1,0,0:0:0:0:
402,192,128481,1,0,0:0:0:0:
256,192,128481,1,0,0:0:0:0:
109,192,128481,1,0,0:0:0:0:
182,192,128552,1,0,0:0:0:0:
36,192,128552,1,0,0:0:0:0:
329,192,128552,1,0,0:0:0:0:
475,192,128552,1,0,0:0:0:0:
402,192,128624,1,0,0:0:0:0:
256,192,128624,1,0,0:0:0:0:
109,192,128624,1,0,0:0:0:0:
182,192,128695,1,0,0:0:0:0:
36,192,128695,1,0,0:0:0:0:
329,192,128695,1,0,0:0:0:0:
475,192,128695,1,0,0:0:0:0:
402,192,128767,1,0,0:0:0:0:
256,192,128767,1,0,0:0:0:0:
109,192,128767,1,0,0:0:0:0:
182,192,128838,1,0,0:0:0:0:
36,192,128838,1,0,0:0:0:0:
329,192,128838,1,0,0:0:0:0:
475,192,128838,1,0,0:0:0:0:
256,192,128910,1,0,0:0:0:0:
109,192,128910,1,0,0:0:0:0:
329,192,128981,1,0,0:0:0:0:
475,192,128981,1,0,0:0:0:0:
182,192,129052,1,0,0:0:0:0:
109,192,129052,1,0,0:0:0:0:
329,192,129124,1,0,0:0:0:0:
402,192,129124,1,0,0:0:0:0:
182,192,129195,1,0,0:0:0:0:
36,192,129195,1,0,0:0:0:0:
256,192,129267,1,0,0:0:0:0:
329,192,129267,1,0,0:0:0:0:
182,192,129338,1,0,0:0:0:0:
36,192,129338,1,0,0:0:0:0:
329,192,129410,1,0,0:0:0:0:
475,192,129410,1,0,0:0:0:0:
402,192,129410,1,0,0:0:0:0:
256,192,129410,1,0,0:0:0:0:
