osu file format v14

[General]
AudioFilename: audio.mp3
AudioLeadIn: 0
PreviewTime: 18439
Countdown: 0
SampleSet: None
StackLeniency: 0.7
Mode: 0
LetterboxInBreaks: 0
WidescreenStoryboard: 1

[Editor]
DistanceSpacing: 0.6
BeatDivisor: 4
GridSize: 8
TimelineZoom: 0.5999999

[Metadata]
Title:Russian TV Ad Compilation
TitleUnicode:Russian TV Ad Compilation
Artist:Various Artists
ArtistUnicode:Various Artists
Creator:ColdHat
Version:Hell
Source:
Tags:IOWA Burito Megafon Мегафон Александр Ревва Гиги за Шаги Beeline Билайн Николай Басков Золотая Чаша Unknown Домашние Деньги Реклама Benny Benassi Satisfaction flex cringe
BeatmapID:3291707
BeatmapSetID:924975

[Difficulty]
HPDrainRate:7
CircleSize:4
OverallDifficulty:7
ApproachRate:9
SliderMultiplier:2.5
SliderTickRate:1

[Events]
//Background and Video events
0,0,"gege za shage.jpg",0,0
//Break Periods
//Storyboard Layer 0 (Background)
//Storyboard Layer 1 (Fail)
//Storyboard Layer 2 (Pass)
//Storyboard Layer 3 (Foreground)
//Storyboard Layer 4 (Overlay)
//Storyboard Sound Samples

[TimingPoints]
2557,392.156862745098,4,1,0,100,1,0
11968,-1000,4,1,0,100,0,0
13537,-100,4,1,0,100,0,0
18615,461.538461538462,4,1,0,100,1,0
24153,-50,4,1,0,100,0,0
41050,335.195530726257,4,1,0,100,1,0
41050,-133.333333333333,4,1,0,100,0,0
50475,431.654676258993,4,1,0,100,1,0
50475,-33.3333333333333,4,1,0,100,0,0

[HitObjects]
256,192,204,12,0,2164,0:0:0:0:
45,89,2557,6,0,B|106:43|146:123|178:177|281:134,1,250
381,72,3145,1,0,0:0:0:0:
449,261,3341,6,0,L|474:124,1,125
313,228,3733,2,0,L|338:365,1,125
157,349,4125,5,0,0:0:0:0:
98,93,4321,1,0,0:0:0:0:
354,34,4517,1,0,0:0:0:0:
413,290,4713,1,0,0:0:0:0:
170,240,4909,6,0,P|96:224|35:235,1,125
338,166,5302,2,0,P|412:150|473:161,1,125
228,23,5694,6,0,B|202:88|234:136|281:205|210:298,1,250
294,76,6282,1,0,0:0:0:0:
142,218,6478,6,0,P|57:235|-1:229,1,125
370,166,6870,2,0,P|455:149|513:155,1,125
381,80,7262,5,0,0:0:0:0:
179,129,7458,1,0,0:0:0:0:
280,348,7655,1,0,0:0:0:0:
302,31,7851,1,0,0:0:0:0:
421,315,8047,6,0,P|353:286|293:292,1,125
63,156,8439,2,0,P|131:185|191:179,1,125
328,64,8831,6,0,P|299:136|413:93,1,250
428,115,9321,1,0,0:0:0:0:
428,115,9419,1,0,0:0:0:0:
406,266,9615,6,0,P|346:241|328:228,1,62.5
431,345,9811,2,0,P|500:344|518:330,1,62.5
264,334,10007,6,0,P|275:269|263:205,1,125
143,67,10400,6,0,P|75:56|116:177,1,250
119,183,10890,1,0,0:0:0:0:
119,183,10988,1,0,0:0:0:0:
51,308,11184,6,0,L|65:245,1,62.5
137,302,11380,2,0,L|123:365,1,62.5
221,251,11576,6,0,P|296:231|357:232,1,125
409,302,11968,6,0,P|433:267|436:233,1,75
452,78,13537,6,0,P|424:142|422:164,1,62.5
354,94,13733,2,0,P|341:162|352:192,1,62.5
175,195,13929,6,0,P|203:259|205:281,1,62.5
273,211,14125,2,0,P|286:279|275:309,1,62.5
461,288,14321,6,0,P|433:352|431:374,1,62.5
363,304,14517,2,0,P|350:372|361:402,1,62.5
258,334,14713,6,0,L|106:337,1,125
41,101,15106,6,0,L|207:96,1,125
180,64,15400,6,0,L|14:59,1,125
102,137,15694,1,0,0:0:0:0:
224,260,15890,2,0,B|316:216|324:195|324:195|334:218|466:280,1,250
471,283,16674,6,0,L|305:288,1,125
332,320,16968,6,0,L|498:325,1,125
410,247,17262,1,0,0:0:0:0:
288,124,17458,2,0,B|196:168|188:189|188:189|178:166|46:104,1,250
175,31,18243,5,0,0:0:0:0:
411,51,18615,5,0,0:0:0:0:
244,38,20230,5,0,0:0:0:0:
261,364,20691,1,0,0:0:0:0:
253,192,21845,5,0,0:0:0:0:
253,192,21961,1,0,0:0:0:0:
253,192,22076,1,0,0:0:0:0:
211,198,22307,5,0,0:0:0:0:
247,193,22422,1,0,0:0:0:0:
275,191,22538,1,0,0:0:0:0:
178,170,22768,5,0,0:0:0:0:
246,194,22884,1,0,0:0:0:0:
316,226,22999,1,0,0:0:0:0:
172,250,23230,5,0,0:0:0:0:
248,198,23345,1,0,0:0:0:0:
330,149,23461,1,0,0:0:0:0:
140,138,23691,5,0,0:0:0:0:
236,117,23807,1,0,0:0:0:0:
319,140,23922,1,0,0:0:0:0:
366,208,24038,1,0,0:0:0:0:
384,252,24153,6,0,B|405:121|388:91|389:90|465:431,1,375
361,351,24615,6,0,P|227:303|116:322,1,250
63,221,25076,1,0,0:0:0:0:
146,55,25538,5,0,0:0:0:0:
222,30,25653,1,0,0:0:0:0:
205,103,25768,1,0,0:0:0:0:
277,179,25999,6,0,P|422:166|373:336,1,375
367,236,26461,2,0,P|271:138|141:171,1,250
67,103,26922,6,0,L|52:361,1,250
445,103,27384,2,0,L|460:361,1,250
253,351,27845,6,0,B|215:166|262:175|305:184|246:-25,1,375
370,126,28307,2,0,P|267:171|129:104,1,250
78,65,28653,5,0,0:0:0:0:
78,65,28768,1,0,0:0:0:0:
321,282,29230,5,0,0:0:0:0:
341,177,29345,1,0,0:0:0:0:
366,80,29461,1,0,0:0:0:0:
230,216,29691,2,0,P|82:196|167:46,1,375
158,143,30153,2,0,P|121:257|171:383,1,250
415,349,30615,6,0,L|445:79,1,250
97,349,31076,2,0,L|67:79,1,250
264,27,31538,6,0,B|224:162|224:162|310:130|310:130|268:289,1,375
343,346,31999,6,0,B|241:346|241:346|310:346|310:346|202:344,1,250
147,316,32345,5,0,0:0:0:0:
147,316,32461,1,0,0:0:0:0:
348,213,32922,5,0,0:0:0:0:
423,262,33038,1,0,0:0:0:0:
468,358,33153,1,0,0:0:0:0:
496,225,33384,6,0,P|389:292|413:96,1,375
391,204,33845,2,0,P|250:280|131:229,1,250
30,196,34307,6,0,P|153:146|303:224,1,250
30,196,34538,2,0,P|211:157|316:220,1,250
30,196,34768,2,0,P|209:162|303:209,1,250
264,178,34999,1,0,0:0:0:0:
382,75,35230,6,0,P|308:203|490:294,1,375
411,214,35691,2,0,P|281:274|209:378,1,250
147,300,36038,1,0,0:0:0:0:
147,300,36153,1,0,0:0:0:0:
5,85,36384,6,0,B|123:112|6:190|84:241|182:217,1,250
267,132,36845,2,0,B|381:68|381:68|277:50|229:110|267:223|409:232|475:155,1,500
244,308,37422,1,0,0:0:0:0:
244,308,37538,1,0,0:0:0:0:
210,54,37768,1,0,0:0:0:0:
410,349,37999,6,0,P|431:208|366:118,1,250
374,124,38230,2,0,L|92:105,1,250
124,107,38461,2,0,B|260:220|260:220|156:132,1,250
203,172,38691,2,0,P|128:285|195:380,1,250
306,342,39268,5,0,0:0:0:0:
338,330,39384,1,0,0:0:0:0:
398,213,39615,5,0,0:0:0:0:
364,192,39730,1,0,0:0:0:0:
343,102,39845,1,0,0:0:0:0:
96,164,40307,5,0,0:0:0:0:
496,234,40768,1,0,0:0:0:0:
63,68,41385,6,0,L|54:126,1,46.8750017881394
136,78,41552,2,0,L|127:136,1,46.8750017881394
210,89,41720,2,0,L|201:147,1,46.8750017881394
286,99,41887,2,0,L|277:157,1,46.8750017881394
342,215,42055,6,0,L|351:273,1,46.8750017881394
269,225,42222,2,0,L|278:283,1,46.8750017881394
195,236,42390,2,0,L|204:294,1,46.8750017881394
131,333,42725,6,0,B|73:283|73:283|63:206|63:206|74:291|74:291|50:125,2,375.000014305115
38,276,43061,1,0,0:0:0:0:
101,228,43731,1,0,0:0:0:0:
212,283,44401,6,0,L|216:217,1,46.8750017881394
289,288,44569,2,0,L|293:233,1,46.8750017881394
368,301,44737,2,0,L|370:239,1,46.8750017881394
448,308,44904,2,0,L|451:252,1,46.8750017881394
406,372,45072,1,0,0:0:0:0:
363,149,45407,6,0,B|295:120|239:127|239:127|295:118|315:132|315:132|273:113|206:141,2,281.250010728836
293,94,45742,1,0,0:0:0:0:
311,172,46077,1,0,0:0:0:0:
119,187,46748,1,0,0:0:0:0:
204,100,47083,6,0,L|209:30,1,46.8750017881394
271,269,47251,2,0,L|276:206,1,46.8750017881394
193,359,47418,2,0,L|198:287,1,46.8750017881394
116,164,47586,2,0,L|108:237,1,46.8750017881394
265,154,47753,6,0,L|317:147,1,46.8750017881394
406,132,47921,2,0,L|458:126,1,46.8750017881394
401,203,48089,6,0,B|328:252|312:296|312:296|311:300|311:300|329:251|310:304|310:304|331:248|307:310|334:245|301:313|283:384|292:336|273:394|292:326|267:388|288:318|261:383|281:308|246:385|274:275,2,375.000014305115
343,316,48424,1,0,0:0:0:0:
298,248,49094,1,0,0:0:0:0:
301,104,49932,1,0,0:0:0:0:
24,208,50475,6,0,P|200:356|55:133,1,750.000028610231
155,218,51338,2,0,P|348:263|472:142,1,375.000014305115
336,130,51769,1,0,0:0:0:0:
91,115,52201,6,0,L|99:305,1,187.500007152558
91,115,52309,6,0,L|99:305,1,187.500007152558
91,115,52417,6,0,L|99:305,1,187.500007152558
91,115,52525,6,0,L|99:305,1,187.500007152558
215,338,52849,6,0,L|427:338,1,187.500007152558
215,338,52957,6,0,L|427:338,1,187.500007152558
279,117,53280,6,0,L|491:117,1,187.500007152558
279,117,53388,6,0,L|491:117,1,187.500007152558
169,357,53928,6,0,P|119:132|241:-1,1,375.000014305115
195,25,54144,2,0,P|244:240|169:376,1,375.000014305115
169,357,54359,2,0,P|366:308|549:384,1,375.000014305115
500,351,54575,2,0,P|376:181|115:196,1,375.000014305115
223,153,54791,2,0,P|88:261|-8:89,1,375.000014305115
0,128,55007,2,0,P|226:261|258:398,1,375.000014305115
256,355,55223,2,0,P|334:162|512:98,1,375.000014305115
472,95,55439,2,0,P|279:43|113:116,1,375.000014305115
124,134,55654,1,0,0:0:0:0:
346,328,56086,5,0,0:0:0:0:
273,352,56302,2,0,B|254:11|254:11|275:367|275:366|255:22,1,750.000028610231
