osu file format v14

[General]
AudioFilename: audio.mp3
AudioLeadIn: 0
PreviewTime: 18439
Countdown: 0
SampleSet: Normal
StackLeniency: 0.7
Mode: 0
LetterboxInBreaks: 0
WidescreenStoryboard: 1

[Editor]
DistanceSpacing: 0.6
BeatDivisor: 4
GridSize: 8
TimelineZoom: 0.5999999

[Metadata]
Title:Russian TV Ad Compilation
TitleUnicode:Russian TV Ad Compilation
Artist:Various Artists
ArtistUnicode:Various Artists
Creator:ColdHat
Version:Easy
Source:
Tags:IOWA Burito Megafon Мегафон Александр Ревва Гиги за Шаги Beeline Билайн Николай Басков Золотая Чаша Unknown Домашние Деньги Реклама Benny Benassi Satisfaction flex cringe
BeatmapID:1932175
BeatmapSetID:924975

[Difficulty]
HPDrainRate:3
CircleSize:2
OverallDifficulty:3
ApproachRate:3
SliderMultiplier:1.3
SliderTickRate:1

[Events]
//Background and Video events
0,0,"gege za shage.jpg",0,0
//Break Periods
//Storyboard Layer 0 (Background)
//Storyboard Layer 1 (Fail)
//Storyboard Layer 2 (Pass)
//Storyboard Layer 3 (Foreground)
//Storyboard Layer 4 (Overlay)
//Storyboard Sound Samples

[TimingPoints]
2557,392.156862745098,4,1,0,100,1,0
18615,461.538461538462,4,1,0,100,1,0
41050,335.195530726257,4,1,0,100,1,0
41050,-133.333333333333,4,1,0,100,0,0
50475,431.654676258993,4,1,0,100,1,0

[HitObjects]
47,85,2557,6,0,L|189:79,1,130
258,16,3341,2,0,P|278:89|259:162,1,130
223,224,4125,2,0,P|203:297|222:370,2,130
327,208,5302,5,0,0:0:0:0:
400,126,5694,2,0,P|334:99|263:108,1,130
207,170,6478,2,0,P|141:197|70:188,1,130
142,243,7262,6,0,P|176:305|171:381,2,130
211,164,8439,1,0,0:0:0:0:
286,231,8831,2,0,B|329:211|340:235|357:271|408:258,1,130
463,190,9615,2,0,L|470:116,1,65
446,95,10007,1,0,0:0:0:0:
340,58,10400,6,0,B|297:38|286:62|269:98|218:85,1,130
132,142,11184,2,0,L|139:216,1,65
115,237,11576,1,0,0:0:0:0:
162,333,11968,6,0,L|300:344,1,130
373,277,12753,2,0,L|442:271,2,65
301,216,13537,6,0,P|276:148|296:70,1,130
198,43,14321,2,0,L|123:48,1,65
106,73,14713,1,0,0:0:0:0:
95,209,15106,6,0,P|18:191|-12:193,2,97.5
103,234,15890,1,0,0:0:0:0:
178,180,16282,1,0,0:0:0:0:
236,254,16674,6,0,P|159:272|129:270,2,97.5
258,263,17458,1,0,0:0:0:0:
354,317,17851,1,0,0:0:0:0:
186,187,20230,6,0,L|330:206,1,130
256,192,20922,12,0,23230,0:0:0:0:
195,128,24153,6,0,P|101:170|100:266,2,195
296,133,25999,2,0,P|254:39|158:38,2,195
282,236,27845,2,0,P|376:194|377:98,2,195
188,224,29691,2,0,P|230:318|326:319,2,195
261,129,31538,6,0,B|323:101|351:153|383:214|457:183,2,195
277,181,33384,2,0,B|215:153|187:205|155:266|81:235,2,195
247,231,35230,2,0,B|309:203|337:255|369:316|443:285,2,195
268,279,37076,6,0,B|206:251|178:303|146:364|72:333,2,195
364,249,38922,6,0,B|382:265|395:289|395:289|421:128,2,195
470,344,40768,1,0,0:0:0:0:
430,327,41050,6,0,B|314:276|292:327|275:365|136:322,1,292.50001115799
62,206,42725,2,0,P|145:161|232:204,2,195.00000743866
143,70,44737,1,0,0:0:0:0:
269,48,45407,6,0,B|371:60|379:59|466:38,1,195.00000743866
450,135,46748,2,0,B|438:237|439:245|460:332,1,195.00000743866
354,302,48089,2,0,B|252:290|244:291|157:312,1,195.00000743866
57,274,49429,1,0,0:0:0:0:
158,177,50475,6,0,B|198:165|216:207|232:232|286:229,1,130
355,142,51338,2,0,L|345:78,2,65
467,301,52201,6,0,L|478:227,2,65
413,323,52849,6,0,P|374:317|341:320,1,65
295,340,53280,2,0,B|249:343|247:343|222:333,1,65
140,305,53928,6,0,L|126:162,2,130
37,225,55223,1,0,0:0:0:0:
77,89,55654,6,0,B|174:56|176:56|231:65,1,130
246,78,56302,1,0,0:0:0:0:
