osu file format v14

[General]
AudioFilename: audio.mp3
AudioLeadIn: 0
PreviewTime: 15011
Countdown: 1
SampleSet: None
StackLeniency: 0.7
Mode: 1
LetterboxInBreaks: 0
WidescreenStoryboard: 1

[Editor]
DistanceSpacing: 0.8
BeatDivisor: 8
GridSize: 32
TimelineZoom: 4.200004

[Metadata]
Title:Russia Ritual
TitleUnicode:Russia Ritual
Artist:Various Artists
ArtistUnicode:Various Artists
Creator:pavlukivan
Version:night's klyukva
Source:
Tags:nog aether ussr anthem vodka matryoshka balalaika bear cyka blyat hardbass night_flower malinalliylover
BeatmapID:2133837
BeatmapSetID:1019635

[Difficulty]
HPDrainRate:0
CircleSize:3.3
OverallDifficulty:10
ApproachRate:6.6
SliderMultiplier:1.4
SliderTickRate:1

[Events]
//Background and Video events
0,0,"putin.png",0,0
//Break Periods
//Storyboard Layer 0 (Background)
//Storyboard Layer 1 (Fail)
//Storyboard Layer 2 (Pass)
//Storyboard Layer 3 (Foreground)
//Storyboard Layer 4 (Overlay)
//Storyboard Sound Samples

[TimingPoints]
12,119.047619047619,4,1,0,25,1,0
12,-25,4,1,0,50,0,0
726,238.095238095238,4,1,0,25,1,0
726,-200,4,1,0,25,0,0
6678,-80,4,1,0,75,0,0
7631,-80,4,1,0,50,0,1
13345,-100,4,1,0,25,0,0
15011,-83.3333333333333,4,1,0,50,0,1
22630,-76.9230769230769,4,1,0,75,0,1
26440,-83.3333333333333,4,1,0,50,0,1
30487,-90.9090909090909,4,1,0,25,0,0
31202,-100,4,1,0,25,0,0

[HitObjects]
256,192,12,12,0,607,0:0:0:0:
256,192,726,5,0,0:0:0:0:
256,192,845,1,0,0:0:0:0:
256,192,964,1,8,0:0:0:0:
256,192,1678,1,0,0:0:0:0:
256,192,1916,1,8,0:0:0:0:
256,192,2631,1,0,0:0:0:0:
256,192,2750,1,0,0:0:0:0:
256,192,2869,1,0,0:0:0:0:
256,192,3226,1,0,0:0:0:0:
256,192,3583,1,0,0:0:0:0:
256,192,3821,1,8,0:0:0:0:
256,192,4535,1,0,0:0:0:0:
256,192,4654,1,0,0:0:0:0:
256,192,4773,1,8,0:0:0:0:
256,192,5488,1,0,0:0:0:0:
256,192,5726,1,8,0:0:0:0:
256,192,6440,1,0,0:0:0:0:
256,192,6559,1,0,0:0:0:0:
256,192,6678,1,12,0:0:0:0:
256,192,6916,1,12,0:0:0:0:
256,192,7154,1,12,0:0:0:0:
256,192,7273,1,0,0:0:0:0:
256,192,7392,1,12,0:0:0:0:
256,192,7631,1,8,0:0:0:0:
256,192,7660,1,8,0:0:0:0:
256,192,7750,1,0,0:0:0:0:
256,192,7779,1,0,0:0:0:0:
256,192,7869,1,8,0:0:0:0:
256,192,7898,1,8,0:0:0:0:
256,192,7988,1,0,0:0:0:0:
256,192,8017,1,0,0:0:0:0:
256,192,8107,1,0,0:0:0:0:
256,192,8136,1,0,0:0:0:0:
256,192,8226,1,0,0:0:0:0:
256,192,8256,1,0,0:0:0:0:
256,192,8345,1,8,0:0:0:0:
256,192,8385,1,8,0:0:0:0:
256,192,8424,1,8,0:0:0:0:
256,192,8464,1,8,0:0:0:0:
256,192,8504,1,8,0:0:0:0:
256,192,8543,1,8,0:0:0:0:
256,192,8583,1,0,0:0:0:0:
256,192,8702,1,0,0:0:0:0:
256,192,8732,1,0,0:0:0:0:
256,192,8821,1,8,0:0:0:0:
256,192,8851,1,8,0:0:0:0:
256,192,8940,1,0,0:0:0:0:
256,192,8970,1,0,0:0:0:0:
256,192,9059,1,8,0:0:0:0:
256,192,9089,1,8,0:0:0:0:
256,192,9178,1,0,0:0:0:0:
256,192,9208,1,0,0:0:0:0:
256,192,9297,1,8,0:0:0:0:
256,192,9337,1,8,0:0:0:0:
256,192,9376,1,8,0:0:0:0:
256,192,9416,1,8,0:0:0:0:
256,192,9456,1,8,0:0:0:0:
256,192,9495,1,8,0:0:0:0:
256,192,9535,1,0,0:0:0:0:
256,192,9654,1,0,0:0:0:0:
256,192,9684,1,0,0:0:0:0:
256,192,9773,1,8,0:0:0:0:
256,192,9803,1,8,0:0:0:0:
256,192,9892,1,0,0:0:0:0:
256,192,9922,1,0,0:0:0:0:
256,192,10011,1,0,0:0:0:0:
256,192,10041,1,0,0:0:0:0:
256,192,10130,1,8,0:0:0:0:
256,192,10160,1,8,0:0:0:0:
256,192,10249,1,8,0:0:0:0:
256,192,10289,1,8,0:0:0:0:
256,192,10329,1,8,0:0:0:0:
256,192,10369,1,8,0:0:0:0:
256,192,10408,1,8,0:0:0:0:
256,192,10448,1,8,0:0:0:0:
256,192,10488,1,0,0:0:0:0:
256,192,10606,1,0,0:0:0:0:
256,192,10636,1,0,0:0:0:0:
256,192,10725,1,8,0:0:0:0:
256,192,10755,1,8,0:0:0:0:
256,192,10845,1,0,0:0:0:0:
256,192,10874,1,0,0:0:0:0:
256,192,10964,1,0,0:0:0:0:
256,192,11003,1,0,0:0:0:0:
256,192,11043,1,0,0:0:0:0:
256,192,11083,1,0,0:0:0:0:
256,192,11122,1,0,0:0:0:0:
256,192,11162,1,0,0:0:0:0:
256,192,11202,1,8,0:0:0:0:
256,192,11241,1,8,0:0:0:0:
256,192,11281,1,8,0:0:0:0:
256,192,11321,1,8,0:0:0:0:
256,192,11360,1,8,0:0:0:0:
256,192,11400,1,8,0:0:0:0:
256,192,11440,1,0,0:0:0:0:
256,192,11559,1,0,0:0:0:0:
256,192,11589,1,0,0:0:0:0:
256,192,11678,1,8,0:0:0:0:
256,192,11708,1,8,0:0:0:0:
256,192,11797,1,0,0:0:0:0:
256,192,11827,1,0,0:0:0:0:
256,192,11916,1,0,0:0:0:0:
256,192,11946,1,0,0:0:0:0:
256,192,12035,1,0,0:0:0:0:
256,192,12065,1,0,0:0:0:0:
256,192,12154,1,8,0:0:0:0:
256,192,12194,1,8,0:0:0:0:
256,192,12233,1,8,0:0:0:0:
256,192,12273,1,8,0:0:0:0:
256,192,12313,1,8,0:0:0:0:
256,192,12352,1,8,0:0:0:0:
256,192,12392,1,0,0:0:0:0:
256,192,12511,1,8,0:0:0:0:
256,192,12541,1,8,0:0:0:0:
256,192,12630,1,8,0:0:0:0:
256,192,12660,1,8,0:0:0:0:
256,192,12749,1,8,0:0:0:0:
256,192,12779,1,8,0:0:0:0:
256,192,12868,1,0,0:0:0:0:
256,192,12898,1,0,0:0:0:0:
256,192,12987,1,0,0:0:0:0:
256,192,13017,1,0,0:0:0:0:
256,192,13106,1,8,0:0:0:0:
256,192,13146,1,8,0:0:0:0:
256,192,13186,1,8,0:0:0:0:
256,192,13225,1,8,0:0:0:0:
256,192,13265,1,8,0:0:0:0:
256,192,13305,1,8,0:0:0:0:
256,192,13345,1,0,0:0:0:0:
256,192,13464,1,0,0:0:0:0:
256,192,13583,1,0,0:0:0:0:
256,192,13702,1,0,0:0:0:0:
256,192,13821,1,0,0:0:0:0:
256,192,13940,1,0,0:0:0:0:
256,192,14059,1,0,0:0:0:0:
256,192,14178,1,0,0:0:0:0:
256,192,14297,1,0,0:0:0:0:
256,192,14416,1,0,0:0:0:0:
256,192,14535,1,0,0:0:0:0:
256,192,14654,1,0,0:0:0:0:
256,192,14773,1,0,0:0:0:0:
256,192,14892,1,0,0:0:0:0:
256,192,15011,1,8,0:0:0:0:
256,192,15041,1,8,0:0:0:0:
256,192,15130,1,0,0:0:0:0:
256,192,15160,1,0,0:0:0:0:
256,192,15249,1,8,0:0:0:0:
256,192,15279,1,8,0:0:0:0:
256,192,15368,1,0,0:0:0:0:
256,192,15398,1,0,0:0:0:0:
256,192,15487,1,8,0:0:0:0:
256,192,15517,1,8,0:0:0:0:
256,192,15606,1,0,0:0:0:0:
256,192,15636,1,0,0:0:0:0:
256,192,15725,1,8,0:0:0:0:
256,192,15755,1,8,0:0:0:0:
256,192,15845,1,0,0:0:0:0:
256,192,15874,1,0,0:0:0:0:
256,192,15964,1,8,0:0:0:0:
256,192,15994,1,8,0:0:0:0:
256,192,16083,1,0,0:0:0:0:
256,192,16113,1,0,0:0:0:0:
256,192,16202,1,8,0:0:0:0:
256,192,16232,1,8,0:0:0:0:
256,192,16321,1,0,0:0:0:0:
256,192,16351,1,0,0:0:0:0:
256,192,16440,1,8,0:0:0:0:
256,192,16470,1,8,0:0:0:0:
256,192,16559,1,0,0:0:0:0:
256,192,16589,1,0,0:0:0:0:
256,192,16678,1,8,0:0:0:0:
256,192,16708,1,8,0:0:0:0:
256,192,16798,1,0,0:0:0:0:
256,192,16827,1,0,0:0:0:0:
256,192,16916,1,8,0:0:0:0:
256,192,16946,1,8,0:0:0:0:
256,192,17035,1,0,0:0:0:0:
256,192,17065,1,0,0:0:0:0:
256,192,17154,1,8,0:0:0:0:
256,192,17184,1,8,0:0:0:0:
256,192,17273,1,0,0:0:0:0:
256,192,17303,1,0,0:0:0:0:
256,192,17392,1,8,0:0:0:0:
256,192,17422,1,8,0:0:0:0:
256,192,17511,1,0,0:0:0:0:
256,192,17541,1,0,0:0:0:0:
256,192,17630,1,8,0:0:0:0:
256,192,17660,1,8,0:0:0:0:
256,192,17750,1,0,0:0:0:0:
256,192,17779,1,0,0:0:0:0:
256,192,17869,1,8,0:0:0:0:
256,192,17899,1,8,0:0:0:0:
256,192,17988,1,0,0:0:0:0:
256,192,18018,1,0,0:0:0:0:
256,192,18107,1,8,0:0:0:0:
256,192,18137,1,8,0:0:0:0:
256,192,18226,1,0,0:0:0:0:
256,192,18256,1,0,0:0:0:0:
256,192,18345,1,8,0:0:0:0:
256,192,18375,1,8,0:0:0:0:
256,192,18464,1,0,0:0:0:0:
256,192,18494,1,0,0:0:0:0:
256,192,18583,1,8,0:0:0:0:
256,192,18613,1,8,0:0:0:0:
256,192,18703,1,0,0:0:0:0:
256,192,18732,1,0,0:0:0:0:
256,192,18821,1,8,0:0:0:0:
256,192,18851,1,8,0:0:0:0:
256,192,18940,1,0,0:0:0:0:
256,192,18970,1,0,0:0:0:0:
256,192,19059,1,8,0:0:0:0:
256,192,19089,1,8,0:0:0:0:
256,192,19178,1,0,0:0:0:0:
256,192,19208,1,0,0:0:0:0:
256,192,19297,1,8,0:0:0:0:
256,192,19327,1,8,0:0:0:0:
256,192,19416,1,0,0:0:0:0:
256,192,19446,1,0,0:0:0:0:
256,192,19535,1,8,0:0:0:0:
256,192,19565,1,8,0:0:0:0:
256,192,19655,1,0,0:0:0:0:
256,192,19684,1,0,0:0:0:0:
256,192,19774,1,8,0:0:0:0:
256,192,19804,1,8,0:0:0:0:
256,192,19893,1,0,0:0:0:0:
256,192,19923,1,0,0:0:0:0:
256,192,20012,1,8,0:0:0:0:
256,192,20042,1,8,0:0:0:0:
256,192,20131,1,0,0:0:0:0:
256,192,20161,1,0,0:0:0:0:
256,192,20250,1,8,0:0:0:0:
256,192,20280,1,8,0:0:0:0:
256,192,20369,1,0,0:0:0:0:
256,192,20399,1,0,0:0:0:0:
256,192,20488,1,8,0:0:0:0:
256,192,20518,1,8,0:0:0:0:
256,192,20608,1,0,0:0:0:0:
256,192,20637,1,0,0:0:0:0:
256,192,20725,1,8,0:0:0:0:
256,192,20755,1,8,0:0:0:0:
256,192,20844,1,0,0:0:0:0:
256,192,20874,1,0,0:0:0:0:
256,192,20963,1,8,0:0:0:0:
256,192,20993,1,8,0:0:0:0:
256,192,21082,1,0,0:0:0:0:
256,192,21112,1,0,0:0:0:0:
256,192,21201,1,8,0:0:0:0:
256,192,21231,1,8,0:0:0:0:
256,192,21320,1,0,0:0:0:0:
256,192,21350,1,0,0:0:0:0:
256,192,21439,1,8,0:0:0:0:
256,192,21469,1,8,0:0:0:0:
256,192,21559,1,0,0:0:0:0:
256,192,21588,1,0,0:0:0:0:
256,192,21678,1,8,0:0:0:0:
256,192,21708,1,8,0:0:0:0:
256,192,21797,1,0,0:0:0:0:
256,192,21827,1,0,0:0:0:0:
256,192,21916,1,8,0:0:0:0:
256,192,21946,1,8,0:0:0:0:
256,192,22035,1,0,0:0:0:0:
256,192,22065,1,0,0:0:0:0:
256,192,22154,1,8,0:0:0:0:
256,192,22184,1,8,0:0:0:0:
256,192,22273,1,0,0:0:0:0:
256,192,22303,1,0,0:0:0:0:
256,192,22392,1,8,0:0:0:0:
256,192,22422,1,8,0:0:0:0:
256,192,22512,1,0,0:0:0:0:
256,192,22541,1,0,0:0:0:0:
256,192,22630,5,8,0:0:0:0:
256,192,22670,1,8,0:0:0:0:
256,192,22710,1,0,0:0:0:0:
256,192,22749,1,0,0:0:0:0:
256,192,22789,1,8,0:0:0:0:
256,192,22829,1,8,0:0:0:0:
256,192,22868,1,0,0:0:0:0:
256,192,22908,1,0,0:0:0:0:
256,192,22948,1,8,0:0:0:0:
256,192,22987,1,8,0:0:0:0:
256,192,23027,1,0,0:0:0:0:
256,192,23067,1,0,0:0:0:0:
256,192,23106,1,8,0:0:0:0:
256,192,23146,1,8,0:0:0:0:
256,192,23186,1,0,0:0:0:0:
256,192,23225,1,0,0:0:0:0:
256,192,23265,1,8,0:0:0:0:
256,192,23305,1,8,0:0:0:0:
256,192,23344,1,0,0:0:0:0:
256,192,23384,1,0,0:0:0:0:
256,192,23424,1,8,0:0:0:0:
256,192,23464,1,8,0:0:0:0:
256,192,23503,1,0,0:0:0:0:
256,192,23543,1,0,0:0:0:0:
256,192,23582,1,8,0:0:0:0:
256,192,23622,1,8,0:0:0:0:
256,192,23662,1,0,0:0:0:0:
256,192,23701,1,0,0:0:0:0:
256,192,23741,1,8,0:0:0:0:
256,192,23781,1,8,0:0:0:0:
256,192,23820,1,0,0:0:0:0:
256,192,23860,1,0,0:0:0:0:
256,192,23900,1,8,0:0:0:0:
256,192,23939,1,8,0:0:0:0:
256,192,23979,1,0,0:0:0:0:
256,192,24019,1,0,0:0:0:0:
256,192,24058,1,8,0:0:0:0:
256,192,24098,1,8,0:0:0:0:
256,192,24138,1,0,0:0:0:0:
256,192,24177,1,0,0:0:0:0:
256,192,24217,1,8,0:0:0:0:
256,192,24257,1,8,0:0:0:0:
256,192,24296,1,0,0:0:0:0:
256,192,24336,1,0,0:0:0:0:
256,192,24376,1,8,0:0:0:0:
256,192,24416,1,8,0:0:0:0:
256,192,24455,1,0,0:0:0:0:
256,192,24495,1,0,0:0:0:0:
256,192,24534,1,8,0:0:0:0:
256,192,24574,1,8,0:0:0:0:
256,192,24614,1,0,0:0:0:0:
256,192,24653,1,0,0:0:0:0:
256,192,24693,1,8,0:0:0:0:
256,192,24733,1,8,0:0:0:0:
256,192,24772,1,0,0:0:0:0:
256,192,24812,1,0,0:0:0:0:
256,192,24852,1,8,0:0:0:0:
256,192,24891,1,8,0:0:0:0:
256,192,24931,1,0,0:0:0:0:
256,192,24971,1,0,0:0:0:0:
256,192,25010,1,8,0:0:0:0:
256,192,25050,1,8,0:0:0:0:
256,192,25090,1,0,0:0:0:0:
256,192,25129,1,0,0:0:0:0:
256,192,25169,1,8,0:0:0:0:
256,192,25209,1,8,0:0:0:0:
256,192,25248,1,0,0:0:0:0:
256,192,25288,1,0,0:0:0:0:
256,192,25328,1,8,0:0:0:0:
256,192,25368,1,8,0:0:0:0:
256,192,25407,1,0,0:0:0:0:
256,192,25447,1,0,0:0:0:0:
256,192,25487,5,8,0:0:0:0:
256,192,25527,1,8,0:0:0:0:
256,192,25567,1,0,0:0:0:0:
256,192,25606,1,0,0:0:0:0:
256,192,25646,1,8,0:0:0:0:
256,192,25686,1,8,0:0:0:0:
256,192,25725,1,0,0:0:0:0:
256,192,25765,1,0,0:0:0:0:
256,192,25805,1,8,0:0:0:0:
256,192,25844,1,8,0:0:0:0:
256,192,25884,1,0,0:0:0:0:
256,192,25924,1,0,0:0:0:0:
256,192,25963,1,8,0:0:0:0:
256,192,26003,1,8,0:0:0:0:
256,192,26043,1,0,0:0:0:0:
256,192,26082,1,0,0:0:0:0:
256,192,26122,1,8,0:0:0:0:
256,192,26162,1,8,0:0:0:0:
256,192,26201,1,0,0:0:0:0:
256,192,26241,1,0,0:0:0:0:
256,192,26281,1,8,0:0:0:0:
256,192,26321,1,8,0:0:0:0:
256,192,26360,1,0,0:0:0:0:
256,192,26400,1,0,0:0:0:0:
256,192,26440,1,8,0:0:0:0:
256,192,26470,1,8,0:0:0:0:
256,192,26559,1,0,0:0:0:0:
256,192,26589,1,0,0:0:0:0:
256,192,26678,1,8,0:0:0:0:
256,192,26708,1,8,0:0:0:0:
256,192,26797,1,0,0:0:0:0:
256,192,26827,1,0,0:0:0:0:
256,192,26916,1,8,0:0:0:0:
256,192,26946,1,8,0:0:0:0:
256,192,27035,1,0,0:0:0:0:
256,192,27065,1,0,0:0:0:0:
256,192,27154,1,8,0:0:0:0:
256,192,27184,1,8,0:0:0:0:
256,192,27274,1,0,0:0:0:0:
256,192,27303,1,0,0:0:0:0:
256,192,27393,1,8,0:0:0:0:
256,192,27423,1,8,0:0:0:0:
256,192,27512,1,0,0:0:0:0:
256,192,27542,1,0,0:0:0:0:
256,192,27631,1,8,0:0:0:0:
256,192,27661,1,8,0:0:0:0:
256,192,27750,1,0,0:0:0:0:
256,192,27780,1,0,0:0:0:0:
256,192,27869,1,8,0:0:0:0:
256,192,27899,1,8,0:0:0:0:
256,192,27988,1,0,0:0:0:0:
256,192,28018,1,0,0:0:0:0:
256,192,28107,1,8,0:0:0:0:
256,192,28137,1,8,0:0:0:0:
256,192,28227,1,0,0:0:0:0:
256,192,28256,1,0,0:0:0:0:
256,192,28345,1,8,0:0:0:0:
256,192,28375,1,8,0:0:0:0:
256,192,28464,1,0,0:0:0:0:
256,192,28494,1,0,0:0:0:0:
256,192,28583,1,8,0:0:0:0:
256,192,28613,1,8,0:0:0:0:
256,192,28702,1,0,0:0:0:0:
256,192,28732,1,0,0:0:0:0:
256,192,28821,1,8,0:0:0:0:
256,192,28851,1,8,0:0:0:0:
256,192,28940,1,0,0:0:0:0:
256,192,28970,1,0,0:0:0:0:
256,192,29059,1,8,0:0:0:0:
256,192,29089,1,8,0:0:0:0:
256,192,29179,1,0,0:0:0:0:
256,192,29208,1,0,0:0:0:0:
256,192,29298,1,8,0:0:0:0:
256,192,29328,1,8,0:0:0:0:
256,192,29417,1,0,0:0:0:0:
256,192,29447,1,0,0:0:0:0:
256,192,29536,1,8,0:0:0:0:
256,192,29566,1,8,0:0:0:0:
256,192,29655,1,0,0:0:0:0:
256,192,29685,1,0,0:0:0:0:
256,192,29774,1,8,0:0:0:0:
256,192,29804,1,8,0:0:0:0:
256,192,29893,1,0,0:0:0:0:
256,192,29923,1,0,0:0:0:0:
256,192,30011,1,8,0:0:0:0:
256,192,30041,1,8,0:0:0:0:
256,192,30130,1,0,0:0:0:0:
256,192,30160,1,0,0:0:0:0:
256,192,30249,1,8,0:0:0:0:
256,192,30279,1,8,0:0:0:0:
256,192,30368,1,0,0:0:0:0:
256,192,30398,1,0,0:0:0:0:
256,192,30487,1,12,0:0:0:0:
256,192,31202,1,0,0:0:0:0:
256,192,31440,1,12,0:0:0:0:
256,192,32154,1,0,0:0:0:0:
256,192,32392,1,12,0:0:0:0:
256,192,33106,1,0,0:0:0:0:
256,192,33225,1,0,0:0:0:0:
256,192,33345,1,12,0:0:0:0:
256,192,33702,1,0,0:0:0:0:
256,192,34059,1,0,0:0:0:0:
256,192,34297,1,12,0:0:0:0:
256,192,35011,1,0,0:0:0:0:
256,192,35249,1,12,0:0:0:0:
256,192,35964,1,0,0:0:0:0:
256,192,36202,1,12,0:0:0:0:
256,192,36916,1,0,0:0:0:0:
256,192,37154,1,0,0:0:0:0:
256,192,37511,1,0,0:0:0:0:
256,192,37868,1,0,0:0:0:0:
256,192,38106,1,12,0:0:0:0:
