osu file format v14

[General]
AudioFilename: audio.mp3
AudioLeadIn: 0
PreviewTime: 15011
Countdown: 1
SampleSet: None
StackLeniency: 0.7
Mode: 1
LetterboxInBreaks: 0
WidescreenStoryboard: 1

[Editor]
DistanceSpacing: 0.8
BeatDivisor: 8
GridSize: 32
TimelineZoom: 5.800001

[Metadata]
Title:Russia Ritual
TitleUnicode:Russia Ritual
Artist:Various Artists
ArtistUnicode:Various Artists
Creator:pavlukivan
Version:TwinT's Kantan
Source:
Tags:nog aether ussr anthem vodka matryoshka balalaika bear cyka blyat hardbass night_flower malinalliylover
BeatmapID:2480561
BeatmapSetID:1019635

[Difficulty]
HPDrainRate:0
CircleSize:3.3
OverallDifficulty:6
ApproachRate:6.6
SliderMultiplier:1.4
SliderTickRate:1

[Events]
//Background and Video events
0,0,"putin.png",0,0
//Break Periods
//Storyboard Layer 0 (Background)
//Storyboard Layer 1 (Fail)
//Storyboard Layer 2 (Pass)
//Storyboard Layer 3 (Foreground)
//Storyboard Layer 4 (Overlay)
//Storyboard Sound Samples

[TimingPoints]
12,238.095238095238,4,1,0,25,1,0
12,-100,4,1,0,50,0,0
726,238.095238095238,4,1,0,25,1,0
726,-200,4,1,0,25,0,0
1678,-25,4,1,0,25,0,0
1946,-100,4,1,0,25,0,0
3583,-25,4,1,0,25,0,0
3850,-100,4,1,0,25,0,0
5458,-25,4,1,0,25,0,0
5755,-100,4,1,0,25,0,0
6678,-80,4,1,0,75,0,0
7615,-10,4,1,0,75,0,0
7630,-125,4,1,0,75,0,0
7660,-100,4,1,0,75,0,0
7690,-10,4,1,0,50,0,1
7705,-100,4,1,0,50,0,1
7749,-125,4,1,0,50,0,1
7779,-100,4,1,0,50,0,1
7809,-10,4,1,0,50,0,1
7824,-100,4,1,0,50,0,1
7868,-133.333333333333,4,1,0,50,0,1
7898,-100,4,1,0,50,0,1
7928,-10,4,1,0,50,0,1
7943,-100,4,1,0,50,0,1
7987,-133.333333333333,4,1,0,50,0,1
8017,-100,4,1,0,50,0,1
8047,-10,4,1,0,50,0,1
8062,-100,4,1,0,50,0,1
8106,-100,4,1,0,50,0,1
8166,-10,4,1,0,50,0,1
8181,-100,4,1,0,50,0,1
8225,-133.333333333333,4,1,0,50,0,1
8255,-100,4,1,0,50,0,1
8345,44.868937832591,4,1,0,25,1,0
8345,-100,4,1,0,50,0,1
8347,238.095238095238,4,1,0,25,1,0
8585,-133.333333333333,4,1,0,25,0,0
8614,-100,4,1,0,25,0,0
8642,-10,4,1,0,50,0,1
8657,-100,4,1,0,50,0,1
8704,-133.333333333333,4,1,0,50,0,1
8733,-100,4,1,0,50,0,1
8761,-10,4,1,0,50,0,1
8776,-100,4,1,0,50,0,1
8823,-133.333333333333,4,1,0,50,0,1
8852,-100,4,1,0,50,0,1
8880,-10,4,1,0,50,0,1
8895,-100,4,1,0,50,0,1
8942,-133.333333333333,4,1,0,50,0,1
8972,-100,4,1,0,50,0,1
8999,-10,4,1,0,50,0,1
9014,-100,4,1,0,50,0,1
9061,-133.333333333333,4,1,0,50,0,1
9091,-100,4,1,0,50,0,1
9118,-10,4,1,0,50,0,1
9133,-100,4,1,0,50,0,1
9180,-133.333333333333,4,1,0,50,0,1
9210,-100,4,1,0,50,0,1
9299,90.00009000009,4,1,0,25,1,0
9299,-100,4,1,0,50,0,1
9304,238.095238095238,4,1,0,25,1,0
9542,-100,4,1,0,25,0,0
9571,-10,4,1,0,25,0,0
9601,-10,4,1,0,25,0,1
9616,-10,4,1,0,25,0,0
9661,-100,4,1,0,25,0,0
9690,-10,4,1,0,25,0,0
9720,-10,4,1,0,25,0,1
9735,-10,4,1,0,25,0,0
9780,-100,4,1,0,25,0,0
9809,-10,4,1,0,25,0,0
9839,-10,4,1,0,25,0,1
9854,-10,4,1,0,25,0,0
9899,-100,4,1,0,25,0,0
9929,-10,4,1,0,25,0,0
9958,-10,4,1,0,25,0,1
9973,-10,4,1,0,25,0,0
10018,-100,4,1,0,25,0,0
10048,-10,4,1,0,25,0,0
10077,-10,4,1,0,25,0,1
10092,-10,4,1,0,25,0,0
10137,-100,4,1,0,25,0,0
10167,-10,4,1,0,25,0,0
10196,-100,4,1,0,25,0,0
10256,77.2124255382671,4,1,0,100,1,0
10260,238.095238095238,4,1,0,100,1,0
10498,-100,4,1,0,100,0,0
10527,-10,4,1,0,100,0,0
10557,-10,4,1,0,100,0,1
10587,-10,4,1,0,100,0,0
10617,-100,4,1,0,100,0,0
10646,-10,4,1,0,100,0,0
10676,-10,4,1,0,100,0,1
10706,-10,4,1,0,100,0,0
10736,-100,4,1,0,100,0,0
10765,-10,4,1,0,100,0,0
10795,-10,4,1,0,100,0,1
10825,-10,4,1,0,100,0,0
10855,-100,4,1,0,100,0,0
10885,-10,4,1,0,100,0,0
10914,-10,4,1,0,100,0,1
10944,-10,4,1,0,100,0,0
10974,-100,4,1,0,100,0,0
11004,-10,4,1,0,100,0,0
11033,-10,4,1,0,100,0,1
11063,-10,4,1,0,100,0,0
11093,-100,4,1,0,100,0,0
11123,-10,4,1,0,100,0,0
11212,44.8765893792072,4,1,0,25,1,0
11214,238.095238095238,4,1,0,25,1,0
13345,-100,4,1,0,25,0,0
15023,-100,4,1,0,50,0,1
15083,-98.0392156862745,4,1,0,50,0,1
15142,-96.1538461538461,4,1,0,50,0,1
15202,-94.3396226415094,4,1,0,50,0,1
15261,-92.5925925925926,4,1,0,50,0,1
15321,-90.9090909090909,4,1,0,50,0,1
15380,-89.2857142857143,4,1,0,50,0,1
15440,-87.719298245614,4,1,0,50,0,1
15499,-86.2068965517241,4,1,0,50,0,1
15559,-84.7457627118644,4,1,0,50,0,1
15618,-83.3333333333333,4,1,0,50,0,1
15678,-81.9672131147541,4,1,0,50,0,1
15737,-80.6451612903226,4,1,0,50,0,1
15797,-79.3650793650794,4,1,0,50,0,1
15856,-78.125,4,1,0,50,0,1
15916,-76.9230769230769,4,1,0,50,0,1
15975,-75.7575757575758,4,1,0,50,0,1
16035,-74.6268656716418,4,1,0,50,0,1
16094,-73.5294117647059,4,1,0,50,0,1
16154,-72.463768115942,4,1,0,50,0,1
16213,-71.4285714285714,4,1,0,50,0,1
16273,-70.4225352112676,4,1,0,50,0,1
16333,-69.4444444444444,4,1,0,50,0,1
16392,-68.4931506849315,4,1,0,50,0,1
16452,-67.5675675675676,4,1,0,50,0,1
16511,-66.6666666666667,4,1,0,50,0,1
16571,-65.7894736842105,4,1,0,50,0,1
16630,-64.9350649350649,4,1,0,50,0,1
16690,-64.1025641025641,4,1,0,50,0,1
16749,-63.2911392405063,4,1,0,50,0,1
16809,-62.5,4,1,0,50,0,1
16868,-61.7283950617284,4,1,0,50,0,1
16928,-60.9756097560976,4,1,0,50,0,1
16987,-62.5,4,1,0,50,0,1
17047,-64.5161290322581,4,1,0,50,0,1
17106,-66.6666666666667,4,1,0,50,0,1
17166,-68.9655172413793,4,1,0,50,0,1
17225,-71.4285714285714,4,1,0,50,0,1
17285,-74.0740740740741,4,1,0,50,0,1
17344,-76.9230769230769,4,1,0,50,0,1
17404,-80,4,1,0,50,0,1
17463,-83.3333333333333,4,1,0,50,0,1
17523,-86.9565217391304,4,1,0,50,0,1
17583,-90.9090909090909,4,1,0,50,0,1
17642,-95.2380952380952,4,1,0,50,0,1
17702,-100,4,1,0,50,0,1
17761,-105.263157894737,4,1,0,50,0,1
17821,-111.111111111111,4,1,0,50,0,1
17880,-117.647058823529,4,1,0,50,0,1
17940,-125,4,1,0,50,0,1
17999,-133.333333333333,4,1,0,50,0,1
18059,-142.857142857143,4,1,0,50,0,1
18118,-153.846153846154,4,1,0,50,0,1
18178,-166.666666666667,4,1,0,50,0,1
18237,-181.818181818182,4,1,0,50,0,1
18297,-200,4,1,0,50,0,1
18356,-222.222222222222,4,1,0,50,0,1
18416,-250,4,1,0,50,0,1
18475,-285.714285714286,4,1,0,50,0,1
18535,-333.333333333333,4,1,0,50,0,1
18594,-400,4,1,0,50,0,1
18654,-500,4,1,0,50,0,1
18713,-333.333333333333,4,1,0,50,0,1
18773,-250,4,1,0,50,0,1
18833,-200,4,1,0,50,0,1
18892,-166.666666666667,4,1,0,50,0,1
18952,-142.857142857143,4,1,0,50,0,1
19011,-125,4,1,0,50,0,1
19071,-111.111111111111,4,1,0,50,0,1
19130,-100,4,1,0,50,0,1
19190,-90.9090909090909,4,1,0,50,0,1
19249,-83.3333333333333,4,1,0,50,0,1
19309,-76.9230769230769,4,1,0,50,0,1
19368,-71.4285714285714,4,1,0,50,0,1
19428,-66.6666666666667,4,1,0,50,0,1
19487,-62.5,4,1,0,50,0,1
19547,-58.8235294117647,4,1,0,50,0,1
19606,-55.5555555555556,4,1,0,50,0,1
19666,-52.6315789473684,4,1,0,50,0,1
19725,-50,4,1,0,50,0,1
19785,-47.6190476190476,4,1,0,50,0,1
19844,-45.4545454545455,4,1,0,50,0,1
19904,-43.4782608695652,4,1,0,50,0,1
19963,-41.6666666666667,4,1,0,50,0,1
20023,-40,4,1,0,50,0,1
20083,-38.4615384615385,4,1,0,50,0,1
20142,-37.037037037037,4,1,0,50,0,1
20202,-35.7142857142857,4,1,0,50,0,1
20261,-34.4827586206897,4,1,0,50,0,1
20321,-33.3333333333333,4,1,0,50,0,1
20380,-32.258064516129,4,1,0,50,0,1
20440,-31.25,4,1,0,50,0,1
20499,-30.3030303030303,4,1,0,50,0,1
20559,-29.4117647058824,4,1,0,50,0,1
20618,-28.5714285714286,4,1,0,50,0,1
20678,-27.7777777777778,4,1,0,50,0,1
20737,-27.027027027027,4,1,0,50,0,1
20797,-26.3157894736842,4,1,0,50,0,1
20856,-25.6410256410256,4,1,0,50,0,1
20916,-25,4,1,0,50,0,1
20975,-24.390243902439,4,1,0,50,0,1
21035,-23.8095238095238,4,1,0,50,0,1
21094,-23.2558139534884,4,1,0,50,0,1
21154,-22.7272727272727,4,1,0,50,0,1
21213,-22.2222222222222,4,1,0,50,0,1
21273,-100,4,1,0,50,0,1
21333,-111.111111111111,4,1,0,50,0,1
21392,-125,4,1,0,50,0,1
21452,-142.857142857143,4,1,0,50,0,1
21511,-166.666666666667,4,1,0,50,0,1
21571,-200,4,1,0,50,0,1
21630,-250,4,1,0,50,0,1
21690,-333.333333333333,4,1,0,50,0,1
21749,-500,4,1,0,50,0,1
21809,-1000,4,1,0,50,0,1
21868,-100,4,1,0,50,0,1
21928,-50,4,1,0,50,0,1
21987,-28.5714285714286,4,1,0,50,0,1
22047,-25,4,1,0,50,0,1
22106,-22.2222222222222,4,1,0,50,0,1
22166,-28.5714285714286,4,1,0,50,0,1
22225,-40,4,1,0,50,0,1
22285,-66.6666666666667,4,1,0,50,0,1
22344,-100,4,1,0,50,0,1
22630,-76.9230769230769,4,1,0,75,0,1
26440,-83.3333333333333,4,1,0,50,0,1
30487,-90.9090909090909,4,1,0,25,0,0
31202,-100,4,1,0,25,0,0

[HitObjects]
256,192,12,5,0,0:0:0:0:
256,192,488,1,8,0:0:0:0:
256,192,726,5,0,0:0:0:0:
256,192,845,1,8,0:0:0:0:
256,192,964,1,0,0:0:0:0:
256,192,1678,1,0,0:0:0:0:
256,192,1916,1,0,0:0:0:0:
256,192,2392,1,8,0:0:0:0:
256,192,2630,1,0,0:0:0:0:
256,192,2749,1,8,0:0:0:0:
256,192,2868,1,0,0:0:0:0:
256,192,3225,1,0,0:0:0:0:
256,192,3583,1,0,0:0:0:0:
256,192,3821,1,0,0:0:0:0:
256,192,4297,1,8,0:0:0:0:
256,192,4535,1,0,0:0:0:0:
256,192,4654,1,8,0:0:0:0:
256,192,4773,1,0,0:0:0:0:
256,192,5487,1,0,0:0:0:0:
256,192,5726,1,0,0:0:0:0:
249,186,6202,1,8,0:0:0:0:
256,192,6440,1,0,0:0:0:0:
256,192,6559,1,8,0:0:0:0:
256,192,6678,1,4,0:0:0:0:
256,192,6916,1,12,0:0:0:0:
256,192,7154,1,4,0:0:0:0:
256,192,7392,1,12,0:0:0:0:
256,192,7631,1,8,0:0:0:0:
256,192,7660,1,8,0:0:0:0:
266,121,7690,2,0,L|372:137,1,87.5
256,192,7750,1,8,0:0:0:0:
256,192,7779,1,8,0:0:0:0:
266,121,7809,2,0,L|372:137,1,87.5
256,192,7869,1,8,0:0:0:0:
256,192,7898,1,8,0:0:0:0:
266,121,7928,2,0,L|372:137,1,87.5
256,192,7988,1,8,0:0:0:0:
256,192,8017,1,8,0:0:0:0:
266,121,8047,2,0,L|372:137,1,87.5
256,192,8107,1,8,0:0:0:0:
256,192,8136,1,8,0:0:0:0:
266,121,8166,2,0,L|372:137,1,87.5
256,192,8226,1,8,0:0:0:0:
256,192,8256,1,8,0:0:0:0:
266,121,8347,6,0,L|372:137,1,87.5
256,192,8585,5,0,0:0:0:0:
256,192,8614,1,0,0:0:0:0:
266,121,8642,2,0,L|372:137,1,87.5
256,192,8704,1,0,0:0:0:0:
256,192,8733,1,0,0:0:0:0:
266,121,8761,2,0,L|372:137,1,87.5
256,192,8823,1,0,0:0:0:0:
256,192,8852,1,0,0:0:0:0:
266,121,8880,2,0,L|372:137,1,87.5
256,192,8942,1,0,0:0:0:0:
256,192,8972,1,0,0:0:0:0:
266,121,8999,2,0,L|372:137,1,87.5
256,192,9061,1,0,0:0:0:0:
256,192,9091,1,0,0:0:0:0:
266,121,9118,2,0,L|372:137,1,87.5
256,192,9180,1,0,0:0:0:0:
256,192,9210,1,0,0:0:0:0:
266,121,9299,6,0,L|372:137,1,87.5
256,192,9541,5,8,0:0:0:0:
256,192,9571,1,8,0:0:0:0:
256,192,9661,1,8,0:0:0:0:
256,192,9691,1,8,0:0:0:0:
256,192,9780,1,8,0:0:0:0:
256,192,9810,1,8,0:0:0:0:
256,192,9899,1,8,0:0:0:0:
256,192,9929,1,8,0:0:0:0:
256,192,10018,1,8,0:0:0:0:
256,192,10048,1,8,0:0:0:0:
256,192,10137,1,8,0:0:0:0:
256,192,10167,1,8,0:0:0:0:
256,192,10256,2,0,L|292:102,1,87.5
256,192,10498,5,0,0:0:0:0:
256,192,10527,1,0,0:0:0:0:
256,192,10617,1,0,0:0:0:0:
256,192,10646,1,0,0:0:0:0:
256,192,10736,1,0,0:0:0:0:
256,192,10765,1,0,0:0:0:0:
256,192,10855,1,0,0:0:0:0:
256,192,10885,1,0,0:0:0:0:
256,192,10974,1,0,0:0:0:0:
256,192,11004,1,0,0:0:0:0:
256,192,11093,1,0,0:0:0:0:
256,192,11123,1,0,0:0:0:0:
262,190,11212,2,0,L|283:106,1,87.5
256,192,11372,5,8,0:0:0:0:
256,192,11452,1,8,0:0:0:0:
256,192,11531,1,0,0:0:0:0:
256,192,11610,1,0,0:0:0:0:
256,192,11690,1,8,0:0:0:0:
256,192,11719,1,8,0:0:0:0:
256,192,11809,1,0,0:0:0:0:
256,192,11839,1,0,0:0:0:0:
256,192,11928,1,8,0:0:0:0:
256,192,11958,1,8,0:0:0:0:
256,192,12047,1,8,0:0:0:0:
256,192,12077,1,8,0:0:0:0:
256,192,12166,1,0,0:0:0:0:
256,192,12196,1,0,0:0:0:0:
256,192,12285,1,8,0:0:0:0:
256,192,12315,1,8,0:0:0:0:
256,192,12404,1,0,0:0:0:0:
256,192,12483,1,0,0:0:0:0:
256,192,12563,1,0,0:0:0:0:
256,192,12642,1,0,0:0:0:0:
256,192,12731,1,8,0:0:0:0:
256,192,12761,1,8,0:0:0:0:
256,192,12851,1,0,0:0:0:0:
256,192,12880,1,0,0:0:0:0:
256,192,12969,1,8,0:0:0:0:
256,192,12999,1,8,0:0:0:0:
256,192,13089,1,8,0:0:0:0:
256,192,13118,1,8,0:0:0:0:
256,192,13208,1,0,0:0:0:0:
256,192,13238,1,0,0:0:0:0:
256,192,13356,1,8,0:0:0:0:
256,192,13386,1,0,0:0:0:0:
256,192,13535,1,8,0:0:0:0:
256,192,13565,1,0,0:0:0:0:
256,192,13714,1,8,0:0:0:0:
256,192,13743,1,0,0:0:0:0:
256,192,13892,1,8,0:0:0:0:
256,192,13922,1,0,0:0:0:0:
256,192,14071,1,8,0:0:0:0:
256,192,14100,1,0,0:0:0:0:
250,187,14249,1,0,0:0:0:0:
256,192,14279,1,8,0:0:0:0:
251,187,14428,1,8,0:0:0:0:
256,192,14458,1,0,0:0:0:0:
256,192,14606,1,8,0:0:0:0:
256,192,14636,1,0,0:0:0:0:
256,192,14785,1,8,0:0:0:0:
256,192,14815,1,0,0:0:0:0:
250,187,15023,1,8,0:0:0:0:
255,193,15083,1,0,0:0:0:0:
251,187,15142,1,0,0:0:0:0:
257,192,15202,1,8,0:0:0:0:
256,192,15261,1,0,0:0:0:0:
250,187,15321,1,0,0:0:0:0:
255,193,15381,1,8,0:0:0:0:
251,187,15440,1,0,0:0:0:0:
257,192,15500,1,0,0:0:0:0:
256,192,15559,1,8,0:0:0:0:
250,187,15618,1,0,0:0:0:0:
255,193,15678,1,0,0:0:0:0:
251,187,15737,1,8,0:0:0:0:
257,192,15797,1,0,0:0:0:0:
256,192,15856,1,0,0:0:0:0:
250,187,15916,1,8,0:0:0:0:
255,193,15976,1,0,0:0:0:0:
251,187,16035,1,0,0:0:0:0:
257,192,16094,1,8,0:0:0:0:
256,192,16154,1,0,0:0:0:0:
250,187,16213,1,0,0:0:0:0:
255,193,16273,1,8,0:0:0:0:
251,187,16332,1,0,0:0:0:0:
257,192,16392,1,0,0:0:0:0:
256,192,16451,1,8,0:0:0:0:
250,187,16511,1,0,0:0:0:0:
255,193,16571,1,0,0:0:0:0:
251,187,16630,1,8,0:0:0:0:
257,192,16690,1,0,0:0:0:0:
256,192,16749,1,0,0:0:0:0:
250,187,16809,1,8,0:0:0:0:
255,193,16869,1,0,0:0:0:0:
251,187,16928,1,0,0:0:0:0:
257,192,16988,1,8,0:0:0:0:
256,192,17047,1,0,0:0:0:0:
250,187,17106,1,0,0:0:0:0:
255,193,17166,1,8,0:0:0:0:
251,187,17225,1,0,0:0:0:0:
257,192,17285,1,0,0:0:0:0:
256,192,17344,1,8,0:0:0:0:
250,187,17404,1,0,0:0:0:0:
255,193,17464,1,0,0:0:0:0:
251,187,17523,1,8,0:0:0:0:
257,192,17583,1,0,0:0:0:0:
256,192,17642,1,0,0:0:0:0:
250,187,17702,1,8,0:0:0:0:
255,193,17762,1,0,0:0:0:0:
251,187,17821,1,0,0:0:0:0:
257,192,17881,1,8,0:0:0:0:
256,192,17940,1,0,0:0:0:0:
250,187,17999,1,0,0:0:0:0:
255,193,18059,1,8,0:0:0:0:
251,187,18118,1,0,0:0:0:0:
257,192,18178,1,0,0:0:0:0:
256,192,18237,1,8,0:0:0:0:
252,193,18297,1,0,0:0:0:0:
250,187,18356,1,0,0:0:0:0:
255,193,18416,1,8,0:0:0:0:
251,187,18475,1,0,0:0:0:0:
257,192,18535,1,0,0:0:0:0:
256,192,18594,1,8,0:0:0:0:
250,187,18654,1,0,0:0:0:0:
255,193,18714,1,0,0:0:0:0:
251,187,18773,1,8,0:0:0:0:
257,192,18833,1,0,0:0:0:0:
256,192,18892,1,0,0:0:0:0:
250,187,18952,1,8,0:0:0:0:
255,193,19012,1,0,0:0:0:0:
251,187,19071,1,0,0:0:0:0:
257,192,19130,1,8,0:0:0:0:
256,192,19190,1,0,0:0:0:0:
250,187,19249,1,0,0:0:0:0:
255,193,19309,1,8,0:0:0:0:
251,187,19368,1,0,0:0:0:0:
257,192,19428,1,0,0:0:0:0:
256,192,19487,1,8,0:0:0:0:
250,187,19547,1,0,0:0:0:0:
255,193,19607,1,0,0:0:0:0:
251,187,19666,1,8,0:0:0:0:
257,192,19726,1,0,0:0:0:0:
256,192,19785,1,0,0:0:0:0:
250,187,19844,1,8,0:0:0:0:
255,193,19904,1,0,0:0:0:0:
251,187,19963,1,0,0:0:0:0:
257,192,20023,1,8,0:0:0:0:
256,192,20082,1,0,0:0:0:0:
250,187,20142,1,0,0:0:0:0:
255,193,20202,1,8,0:0:0:0:
251,187,20261,1,0,0:0:0:0:
257,192,20321,1,0,0:0:0:0:
256,192,20380,1,8,0:0:0:0:
250,187,20440,1,0,0:0:0:0:
255,193,20500,1,0,0:0:0:0:
251,187,20559,1,8,0:0:0:0:
257,192,20619,1,0,0:0:0:0:
256,192,20678,1,0,0:0:0:0:
250,187,20737,1,8,0:0:0:0:
255,193,20797,1,0,0:0:0:0:
251,187,20856,1,0,0:0:0:0:
257,192,20916,1,8,0:0:0:0:
256,192,20975,1,0,0:0:0:0:
250,187,21035,1,0,0:0:0:0:
255,193,21095,1,8,0:0:0:0:
251,187,21154,1,0,0:0:0:0:
257,192,21214,1,0,0:0:0:0:
256,192,21273,1,8,0:0:0:0:
250,187,21333,1,0,0:0:0:0:
255,193,21393,1,0,0:0:0:0:
251,187,21452,1,8,0:0:0:0:
257,192,21512,1,0,0:0:0:0:
256,192,21571,1,0,0:0:0:0:
250,187,21630,1,8,0:0:0:0:
255,193,21690,1,0,0:0:0:0:
251,187,21749,1,0,0:0:0:0:
257,192,21809,1,8,0:0:0:0:
256,192,21868,1,0,0:0:0:0:
250,187,21928,1,0,0:0:0:0:
255,193,21988,1,8,0:0:0:0:
251,187,22047,1,0,0:0:0:0:
257,192,22107,1,0,0:0:0:0:
256,192,22166,1,8,0:0:0:0:
250,187,22225,1,0,0:0:0:0:
255,193,22285,1,0,0:0:0:0:
251,187,22344,1,8,0:0:0:0:
257,192,22404,1,0,0:0:0:0:
256,192,22463,1,0,0:0:0:0:
251,187,22523,1,8,0:0:0:0:
262,188,22642,1,0,0:0:0:0:
248,193,22880,1,8,0:0:0:0:
256,192,22920,1,0,0:0:0:0:
256,192,22960,1,8,0:0:0:0:
250,187,22999,1,0,0:0:0:0:
255,193,23039,1,8,0:0:0:0:
255,193,23079,1,0,0:0:0:0:
251,187,23118,1,8,0:0:0:0:
257,192,23158,1,0,0:0:0:0:
257,192,23198,1,8,0:0:0:0:
256,192,23237,1,0,0:0:0:0:
251,187,23277,1,8,0:0:0:0:
248,193,23317,1,0,0:0:0:0:
256,192,23357,1,8,0:0:0:0:
256,192,23397,1,0,0:0:0:0:
250,187,23436,1,8,0:0:0:0:
255,193,23476,1,0,0:0:0:0:
255,193,23516,1,8,0:0:0:0:
251,187,23555,1,0,0:0:0:0:
257,192,23595,1,8,0:0:0:0:
257,192,23635,1,0,0:0:0:0:
256,192,23674,1,8,0:0:0:0:
251,187,23714,1,0,0:0:0:0:
248,193,23753,1,8,0:0:0:0:
256,192,23793,1,0,0:0:0:0:
256,192,23833,1,8,0:0:0:0:
250,187,23872,1,0,0:0:0:0:
255,193,23912,1,8,0:0:0:0:
255,193,23952,1,0,0:0:0:0:
251,187,23991,1,8,0:0:0:0:
257,192,24031,1,0,0:0:0:0:
257,192,24071,1,8,0:0:0:0:
256,192,24110,1,0,0:0:0:0:
251,187,24150,1,8,0:0:0:0:
248,193,24190,1,0,0:0:0:0:
256,192,24230,1,8,0:0:0:0:
256,192,24270,1,0,0:0:0:0:
250,187,24309,1,8,0:0:0:0:
255,193,24349,1,0,0:0:0:0:
255,193,24389,1,8,0:0:0:0:
251,187,24428,1,0,0:0:0:0:
257,192,24468,1,8,0:0:0:0:
257,192,24508,1,0,0:0:0:0:
256,192,24547,1,8,0:0:0:0:
251,187,24587,1,0,0:0:0:0:
248,193,24626,1,8,0:0:0:0:
256,192,24666,1,0,0:0:0:0:
256,192,24706,1,8,0:0:0:0:
250,187,24745,1,0,0:0:0:0:
255,193,24785,1,8,0:0:0:0:
255,193,24825,1,0,0:0:0:0:
251,187,24864,1,8,0:0:0:0:
257,192,24904,1,0,0:0:0:0:
257,192,24944,1,8,0:0:0:0:
256,192,24983,1,0,0:0:0:0:
251,187,25023,1,8,0:0:0:0:
248,193,25063,1,0,0:0:0:0:
256,192,25103,1,8,0:0:0:0:
256,192,25143,1,0,0:0:0:0:
250,187,25182,1,8,0:0:0:0:
255,193,25222,1,0,0:0:0:0:
255,193,25262,1,8,0:0:0:0:
251,187,25301,1,0,0:0:0:0:
257,192,25341,1,8,0:0:0:0:
257,192,25381,1,0,0:0:0:0:
256,192,25420,1,8,0:0:0:0:
251,187,25460,1,0,0:0:0:0:
248,193,25499,1,8,0:0:0:0:
256,192,25539,1,0,0:0:0:0:
256,192,25579,1,8,0:0:0:0:
250,187,25618,1,0,0:0:0:0:
255,193,25658,1,8,0:0:0:0:
255,193,25698,1,0,0:0:0:0:
251,187,25737,1,8,0:0:0:0:
257,192,25777,1,0,0:0:0:0:
257,192,25817,1,8,0:0:0:0:
256,192,25856,1,0,0:0:0:0:
251,187,25896,1,8,0:0:0:0:
248,193,25936,1,0,0:0:0:0:
256,192,25976,1,8,0:0:0:0:
256,192,26016,1,0,0:0:0:0:
250,187,26055,1,8,0:0:0:0:
255,193,26095,1,0,0:0:0:0:
255,193,26135,1,8,0:0:0:0:
251,187,26174,1,0,0:0:0:0:
257,192,26214,1,8,0:0:0:0:
257,192,26254,1,0,0:0:0:0:
256,192,26293,1,8,0:0:0:0:
251,187,26333,1,0,0:0:0:0:
255,193,26452,1,8,0:0:0:0:
255,193,26481,1,8,0:0:0:0:
255,193,26541,1,0,0:0:0:0:
255,193,26570,1,0,0:0:0:0:
255,193,26630,1,8,0:0:0:0:
255,193,26659,1,8,0:0:0:0:
255,193,26719,1,0,0:0:0:0:
255,193,26748,1,0,0:0:0:0:
255,193,26809,1,8,0:0:0:0:
255,193,26838,1,8,0:0:0:0:
255,193,26898,1,0,0:0:0:0:
255,193,26927,1,0,0:0:0:0:
255,193,26987,1,8,0:0:0:0:
255,193,27016,1,8,0:0:0:0:
255,193,27077,1,0,0:0:0:0:
255,193,27106,1,0,0:0:0:0:
255,193,27166,1,8,0:0:0:0:
255,193,27196,1,8,0:0:0:0:
255,193,27404,1,0,0:0:0:0:
255,193,27463,1,0,0:0:0:0:
255,193,27523,1,0,0:0:0:0:
255,193,27583,1,0,0:0:0:0:
255,193,27642,1,0,0:0:0:0:
255,193,27702,1,0,0:0:0:0:
255,193,27761,1,0,0:0:0:0:
255,193,27821,1,0,0:0:0:0:
255,193,27880,1,0,0:0:0:0:
255,193,27940,1,0,0:0:0:0:
255,193,27999,1,0,0:0:0:0:
255,193,28059,1,0,0:0:0:0:
255,193,28118,1,0,0:0:0:0:
255,193,28356,1,8,0:0:0:0:
255,193,28396,1,0,0:0:0:0:
255,193,28436,1,0,0:0:0:0:
255,193,28475,1,8,0:0:0:0:
255,193,28594,1,0,0:0:0:0:
255,193,28634,1,8,0:0:0:0:
255,193,28674,1,8,0:0:0:0:
255,193,28713,1,0,0:0:0:0:
262,191,28833,1,8,0:0:0:0:
262,193,28872,1,0,0:0:0:0:
262,194,28912,1,0,0:0:0:0:
262,194,28952,1,8,0:0:0:0:
262,194,29071,1,0,0:0:0:0:
262,194,29110,1,8,0:0:0:0:
262,195,29150,1,8,0:0:0:0:
262,195,29190,1,0,0:0:0:0:
255,193,29309,1,8,0:0:0:0:
255,193,29349,1,0,0:0:0:0:
255,193,29389,1,0,0:0:0:0:
255,193,29428,1,0,0:0:0:0:
255,193,29547,1,0,0:0:0:0:
255,193,29587,1,0,0:0:0:0:
255,193,29627,1,0,0:0:0:0:
255,193,29666,1,8,0:0:0:0:
262,191,29786,1,8,0:0:0:0:
262,193,29825,1,0,0:0:0:0:
262,194,29865,1,0,0:0:0:0:
262,194,29905,1,0,0:0:0:0:
262,194,30024,1,8,0:0:0:0:
262,194,30063,1,8,0:0:0:0:
262,195,30103,1,0,0:0:0:0:
262,195,30143,1,0,0:0:0:0:
255,193,30261,1,0,0:0:0:0:
255,193,30301,1,0,0:0:0:0:
255,193,30340,1,8,0:0:0:0:
255,193,30380,1,8,0:0:0:0:
261,192,30440,1,0,0:0:0:0:
262,191,30499,1,0,0:0:0:0:
262,191,30559,1,0,0:0:0:0:
261,192,30618,1,8,0:0:0:0:
262,191,30677,1,0,0:0:0:0:
262,191,30737,1,0,0:0:0:0:
261,192,30797,1,0,0:0:0:0:
262,191,30856,1,8,0:0:0:0:
262,191,30916,1,0,0:0:0:0:
261,192,30975,1,0,0:0:0:0:
262,191,31034,1,0,0:0:0:0:
262,191,31094,1,8,0:0:0:0:
261,192,31154,1,0,0:0:0:0:
262,191,31213,1,0,0:0:0:0:
262,191,31273,1,0,0:0:0:0:
261,192,31333,1,8,0:0:0:0:
262,191,31392,1,0,0:0:0:0:
262,191,31452,1,0,0:0:0:0:
261,192,31511,1,0,0:0:0:0:
262,191,31570,1,8,0:0:0:0:
262,191,31630,1,0,0:0:0:0:
261,192,31690,1,0,0:0:0:0:
262,191,31749,1,0,0:0:0:0:
262,191,31809,1,8,0:0:0:0:
261,192,31868,1,0,0:0:0:0:
262,191,31927,1,0,0:0:0:0:
262,191,31987,1,0,0:0:0:0:
261,192,32047,1,8,0:0:0:0:
262,191,32106,1,0,0:0:0:0:
262,191,32166,1,0,0:0:0:0:
261,192,32225,1,0,0:0:0:0:
262,191,32284,1,8,0:0:0:0:
262,191,32344,1,0,0:0:0:0:
261,192,32404,1,0,0:0:0:0:
262,191,32463,1,0,0:0:0:0:
262,191,32523,1,8,0:0:0:0:
261,192,32583,1,0,0:0:0:0:
262,191,32642,1,0,0:0:0:0:
262,191,32702,1,0,0:0:0:0:
261,192,32761,1,8,0:0:0:0:
262,191,32820,1,0,0:0:0:0:
262,191,32880,1,0,0:0:0:0:
261,192,32940,1,0,0:0:0:0:
262,191,32999,1,8,0:0:0:0:
262,191,33059,1,0,0:0:0:0:
261,192,33118,1,0,0:0:0:0:
262,191,33177,1,0,0:0:0:0:
262,191,33237,1,8,0:0:0:0:
261,192,33297,1,0,0:0:0:0:
262,191,33356,1,0,0:0:0:0:
262,191,33416,1,0,0:0:0:0:
261,192,33475,1,8,0:0:0:0:
262,191,33534,1,0,0:0:0:0:
262,191,33594,1,0,0:0:0:0:
262,191,33654,1,0,0:0:0:0:
261,192,33713,1,8,0:0:0:0:
262,191,33833,1,4,0:0:0:0:
262,191,33952,1,4,0:0:0:0:
261,192,34071,1,4,0:0:0:0:
262,191,34309,1,0,0:0:0:0:
262,191,34368,1,0,0:0:0:0:
254,191,34428,1,8,0:0:0:0:
261,192,34487,1,8,0:0:0:0:
262,191,34547,1,0,0:0:0:0:
262,191,34606,1,0,0:0:0:0:
254,191,34666,1,8,0:0:0:0:
261,192,34725,1,8,0:0:0:0:
262,191,34785,1,0,0:0:0:0:
262,191,34844,1,0,0:0:0:0:
254,191,34904,1,8,0:0:0:0:
261,192,34963,1,8,0:0:0:0:
262,191,35023,1,0,0:0:0:0:
262,191,35082,1,0,0:0:0:0:
254,191,35142,1,8,0:0:0:0:
261,192,35201,1,8,0:0:0:0:
262,191,35261,1,0,0:0:0:0:
262,191,35320,1,0,0:0:0:0:
254,191,35380,1,8,0:0:0:0:
261,192,35439,1,8,0:0:0:0:
262,191,35499,1,0,0:0:0:0:
262,191,35558,1,0,0:0:0:0:
254,191,35618,1,8,0:0:0:0:
261,192,35677,1,8,0:0:0:0:
262,191,35737,1,0,0:0:0:0:
262,191,35796,1,0,0:0:0:0:
254,191,35856,1,8,0:0:0:0:
261,192,35915,1,8,0:0:0:0:
262,191,35975,1,0,0:0:0:0:
262,191,36034,1,0,0:0:0:0:
254,191,36094,1,8,0:0:0:0:
261,192,36153,1,8,0:0:0:0:
262,191,36213,1,0,0:0:0:0:
262,191,36272,1,0,0:0:0:0:
254,191,36332,1,8,0:0:0:0:
261,192,36391,1,8,0:0:0:0:
262,191,36452,1,0,0:0:0:0:
262,191,36511,1,0,0:0:0:0:
254,191,36571,1,8,0:0:0:0:
261,192,36630,1,8,0:0:0:0:
262,191,36690,1,0,0:0:0:0:
262,191,36749,1,0,0:0:0:0:
254,191,36809,1,8,0:0:0:0:
261,192,36868,1,8,0:0:0:0:
262,191,36928,1,0,0:0:0:0:
262,191,36987,1,0,0:0:0:0:
254,191,37047,1,8,0:0:0:0:
261,192,37106,1,8,0:0:0:0:
262,191,37166,1,0,0:0:0:0:
262,191,37225,1,0,0:0:0:0:
254,191,37285,1,8,0:0:0:0:
261,192,37344,1,8,0:0:0:0:
262,191,37404,1,0,0:0:0:0:
262,191,37463,1,0,0:0:0:0:
254,191,37523,1,8,0:0:0:0:
261,192,37582,1,8,0:0:0:0:
253,190,37642,1,4,0:0:0:0:
253,190,37880,1,4,0:0:0:0:
253,190,38118,1,12,0:0:0:0:
