osu file format v14

[General]
AudioFilename: audio.mp3
AudioLeadIn: 0
PreviewTime: 15011
Countdown: 1
SampleSet: Normal
StackLeniency: 0.7
Mode: 1
LetterboxInBreaks: 0
WidescreenStoryboard: 0

[Editor]
DistanceSpacing: 0.8
BeatDivisor: 4
GridSize: 8
TimelineZoom: 4.500003

[Metadata]
Title:Russia Ritual
TitleUnicode:Russia Ritual
Artist:Various Artists
ArtistUnicode:Various Artists
Creator:pavlukivan
Version:Russian Oni
Source:
Tags:nog aether ussr anthem vodka matryoshka balalaika bear cyka blyat hardbass night_flower malinalliylover
BeatmapID:2133569
BeatmapSetID:1019635

[Difficulty]
HPDrainRate:0
CircleSize:3.3
OverallDifficulty:10
ApproachRate:6.6
SliderMultiplier:1.4
SliderTickRate:1

[Events]
//Background and Video events
0,0,"putin.png",0,0
//Break Periods
//Storyboard Layer 0 (Background)
//Storyboard Layer 1 (Fail)
//Storyboard Layer 2 (Pass)
//Storyboard Layer 3 (Foreground)
//Storyboard Layer 4 (Overlay)
//Storyboard Sound Samples

[TimingPoints]
12,238.095238095238,4,1,0,25,1,0

[HitObjects]
256,192,12,5,8,0:0:0:0:
178,110,488,1,0,0:0:0:0:
178,110,726,1,8,0:0:0:0:
178,110,845,1,8,0:0:0:0:
178,110,964,1,0,0:0:0:0:
178,110,1321,1,0,0:0:0:0:
178,110,1440,1,0,0:0:0:0:
178,110,1678,1,8,0:0:0:0:
178,110,1797,1,0,0:0:0:0:
178,110,1916,1,8,0:0:0:0:
178,110,2273,1,0,0:0:0:0:
178,110,2392,1,0,0:0:0:0:
178,110,2631,1,8,0:0:0:0:
178,110,2750,1,8,0:0:0:0:
178,110,2869,1,8,0:0:0:0:
178,110,2988,1,0,0:0:0:0:
178,110,3226,1,8,0:0:0:0:
178,110,3464,1,0,0:0:0:0:
178,110,3583,1,0,0:0:0:0:
178,110,3702,1,0,0:0:0:0:
256,192,3821,1,8,0:0:0:0:
178,110,3940,1,8,0:0:0:0:
178,110,4178,1,0,0:0:0:0:
178,110,4297,1,0,0:0:0:0:
178,110,4535,1,8,0:0:0:0:
178,110,4654,1,8,0:0:0:0:
178,110,4773,1,0,0:0:0:0:
178,110,4892,1,0,0:0:0:0:
178,110,5131,1,0,0:0:0:0:
178,110,5249,1,8,0:0:0:0:
178,110,5369,1,8,0:0:0:0:
178,110,5488,1,0,0:0:0:0:
178,110,5607,1,0,0:0:0:0:
178,110,5725,1,8,0:0:0:0:
178,110,5964,1,0,0:0:0:0:
178,110,6083,1,0,0:0:0:0:
178,110,6201,1,8,0:0:0:0:
178,110,6440,1,8,0:0:0:0:
178,110,6559,1,0,0:0:0:0:
178,110,6678,1,8,0:0:0:0:
178,110,6758,1,0,0:0:0:0:
178,110,6837,1,0,0:0:0:0:
178,110,6916,1,8,0:0:0:0:
178,110,6996,1,0,0:0:0:0:
178,110,7075,1,0,0:0:0:0:
178,110,7154,1,8,0:0:0:0:
178,110,7234,1,0,0:0:0:0:
178,110,7313,1,0,0:0:0:0:
178,110,7392,1,8,0:0:0:0:
178,110,7472,1,0,0:0:0:0:
178,110,7551,1,0,0:0:0:0:
178,110,7631,1,8,0:0:0:0:
178,110,7660,1,8,0:0:0:0:
178,110,7750,1,8,0:0:0:0:
178,110,7779,1,8,0:0:0:0:
178,110,7869,1,8,0:0:0:0:
178,110,7898,1,8,0:0:0:0:
178,110,7988,1,0,0:0:0:0:
178,110,8017,1,0,0:0:0:0:
178,110,8107,1,8,0:0:0:0:
178,110,8136,1,8,0:0:0:0:
178,110,8226,1,0,0:0:0:0:
178,110,8256,1,0,0:0:0:0:
178,110,8346,1,8,0:0:0:0:
178,110,8465,1,0,0:0:0:0:
178,110,8583,1,8,0:0:0:0:
178,110,8613,1,8,0:0:0:0:
178,110,8702,1,8,0:0:0:0:
178,110,8732,1,0,0:0:0:0:
178,110,8821,1,8,0:0:0:0:
178,110,8851,1,8,0:0:0:0:
178,110,8940,1,0,0:0:0:0:
178,110,9000,1,0,0:0:0:0:
178,110,9059,1,8,0:0:0:0:
178,110,9089,1,8,0:0:0:0:
178,110,9178,1,8,0:0:0:0:
178,110,9208,1,8,0:0:0:0:
178,110,9297,1,8,0:0:0:0:
178,110,9327,1,8,0:0:0:0:
178,110,9416,1,0,0:0:0:0:
178,110,9476,1,8,0:0:0:0:
178,110,9535,1,8,0:0:0:0:
178,110,9565,1,8,0:0:0:0:
178,110,9654,1,0,0:0:0:0:
178,110,9684,1,0,0:0:0:0:
178,110,9773,1,8,0:0:0:0:
178,110,9803,1,8,0:0:0:0:
178,110,9892,1,0,0:0:0:0:
178,110,9922,1,0,0:0:0:0:
178,110,10011,1,8,0:0:0:0:
178,110,10041,1,8,0:0:0:0:
178,110,10130,1,0,0:0:0:0:
178,110,10160,1,0,0:0:0:0:
178,110,10250,1,0,0:0:0:0:
178,110,10369,1,0,0:0:0:0:
178,110,10398,1,8,0:0:0:0:
178,110,10488,1,8,0:0:0:0:
178,110,10517,1,8,0:0:0:0:
178,110,10607,1,8,0:0:0:0:
178,110,10636,1,8,0:0:0:0:
178,110,10726,1,8,0:0:0:0:
178,110,10756,1,8,0:0:0:0:
178,110,10845,1,0,0:0:0:0:
178,110,10904,1,0,0:0:0:0:
178,110,10964,1,8,0:0:0:0:
178,110,10994,1,8,0:0:0:0:
178,110,11083,1,8,0:0:0:0:
178,110,11113,1,8,0:0:0:0:
178,110,11202,1,8,0:0:0:0:
178,110,11321,1,0,0:0:0:0:
178,110,11351,1,8,0:0:0:0:
178,110,11440,1,8,0:0:0:0:
178,110,11470,1,8,0:0:0:0:
178,110,11559,1,8,0:0:0:0:
178,110,11589,1,0,0:0:0:0:
178,110,11678,1,8,0:0:0:0:
178,110,11708,1,8,0:0:0:0:
178,110,11798,1,8,0:0:0:0:
178,110,11827,1,0,0:0:0:0:
178,110,11917,1,8,0:0:0:0:
178,110,11946,1,8,0:0:0:0:
178,110,12036,1,0,0:0:0:0:
178,110,12065,1,0,0:0:0:0:
178,110,12155,1,8,0:0:0:0:
178,110,12184,1,8,0:0:0:0:
178,110,12274,1,0,0:0:0:0:
178,110,12333,1,8,0:0:0:0:
178,110,12392,1,8,0:0:0:0:
178,110,12422,1,8,0:0:0:0:
178,110,12511,1,0,0:0:0:0:
178,110,12541,1,0,0:0:0:0:
178,110,12630,1,8,0:0:0:0:
178,110,12660,1,8,0:0:0:0:
178,110,12750,1,0,0:0:0:0:
178,110,12809,1,0,0:0:0:0:
178,110,12869,1,8,0:0:0:0:
178,110,12898,1,8,0:0:0:0:
178,110,12988,1,8,0:0:0:0:
178,110,13017,1,0,0:0:0:0:
178,110,13107,1,8,0:0:0:0:
178,110,13136,1,8,0:0:0:0:
178,110,13226,1,0,0:0:0:0:
178,110,13285,1,8,0:0:0:0:
178,110,13345,1,8,0:0:0:0:
178,110,13375,1,8,0:0:0:0:
178,110,13464,1,8,0:0:0:0:
178,110,13494,1,0,0:0:0:0:
178,110,13583,1,0,0:0:0:0:
178,110,13613,1,8,0:0:0:0:
178,110,13702,1,0,0:0:0:0:
178,110,13732,1,0,0:0:0:0:
178,110,13821,1,8,0:0:0:0:
178,110,13851,1,0,0:0:0:0:
178,110,13940,1,0,0:0:0:0:
178,110,13970,1,8,0:0:0:0:
178,110,14059,1,8,0:0:0:0:
178,110,14089,1,8,0:0:0:0:
178,110,14178,1,0,0:0:0:0:
178,110,14297,1,8,0:0:0:0:
178,110,14416,1,8,0:0:0:0:
178,110,14476,1,0,0:0:0:0:
178,110,14535,1,8,0:0:0:0:
178,110,14654,1,8,0:0:0:0:
178,110,14714,1,0,0:0:0:0:
178,110,14773,1,8,0:0:0:0:
178,110,14892,1,8,0:0:0:0:
178,110,14952,1,0,0:0:0:0:
178,110,15011,1,8,0:0:0:0:
178,110,15131,1,0,0:0:0:0:
178,110,15250,1,8,0:0:0:0:
178,110,15309,1,8,0:0:0:0:
178,110,15369,1,8,0:0:0:0:
178,110,15428,1,8,0:0:0:0:
178,110,15488,1,8,0:0:0:0:
178,110,15547,1,8,0:0:0:0:
178,110,15607,1,0,0:0:0:0:
178,110,15666,1,0,0:0:0:0:
178,110,15726,1,8,0:0:0:0:
178,110,15805,1,0,0:0:0:0:
178,110,15885,1,0,0:0:0:0:
178,110,15964,1,0,0:0:0:0:
178,110,16023,1,0,0:0:0:0:
178,110,16083,1,8,0:0:0:0:
178,110,16123,1,0,0:0:0:0:
178,110,16162,1,0,0:0:0:0:
178,110,16202,1,8,0:0:0:0:
178,110,16261,1,0,0:0:0:0:
178,110,16321,1,0,0:0:0:0:
178,110,16381,1,0,0:0:0:0:
178,110,16441,1,8,0:0:0:0:
178,110,16559,1,8,0:0:0:0:
178,110,16619,1,0,0:0:0:0:
178,110,16678,1,8,0:0:0:0:
178,110,16797,1,0,0:0:0:0:
178,110,16916,1,8,0:0:0:0:
178,110,16956,1,0,0:0:0:0:
178,110,16996,1,0,0:0:0:0:
178,110,17035,1,8,0:0:0:0:
178,110,17075,1,0,0:0:0:0:
178,110,17115,1,0,0:0:0:0:
178,110,17154,1,8,0:0:0:0:
178,110,17214,1,0,0:0:0:0:
178,110,17273,1,0,0:0:0:0:
178,110,17333,1,0,0:0:0:0:
178,110,17392,1,0,0:0:0:0:
178,110,17452,1,0,0:0:0:0:
178,110,17511,1,0,0:0:0:0:
178,110,17571,1,0,0:0:0:0:
178,110,17631,1,8,0:0:0:0:
178,110,17670,1,8,0:0:0:0:
178,110,17710,1,8,0:0:0:0:
178,110,17750,1,0,0:0:0:0:
178,110,17809,1,0,0:0:0:0:
178,110,17869,1,8,0:0:0:0:
178,110,17908,1,0,0:0:0:0:
178,110,17948,1,0,0:0:0:0:
178,110,17988,1,8,0:0:0:0:
178,110,18047,1,0,0:0:0:0:
178,110,18107,1,8,0:0:0:0:
178,110,18146,1,8,0:0:0:0:
178,110,18186,1,8,0:0:0:0:
178,110,18226,1,0,0:0:0:0:
178,110,18345,1,0,0:0:0:0:
178,110,18464,1,0,0:0:0:0:
178,110,18583,1,8,0:0:0:0:
178,110,18623,1,8,0:0:0:0:
178,110,18662,1,8,0:0:0:0:
178,110,18702,1,0,0:0:0:0:
178,110,18761,1,0,0:0:0:0:
178,110,18821,1,8,0:0:0:0:
178,110,18861,1,0,0:0:0:0:
178,110,18900,1,0,0:0:0:0:
178,110,18940,1,8,0:0:0:0:
178,110,19000,1,0,0:0:0:0:
178,110,19059,1,8,0:0:0:0:
178,110,19099,1,8,0:0:0:0:
178,110,19138,1,8,0:0:0:0:
178,110,19178,1,0,0:0:0:0:
178,110,19238,1,0,0:0:0:0:
178,110,19297,1,8,0:0:0:0:
178,110,19357,1,0,0:0:0:0:
178,110,19416,1,8,0:0:0:0:
178,110,19476,1,8,0:0:0:0:
178,110,19535,1,0,0:0:0:0:
178,110,19575,1,8,0:0:0:0:
178,110,19615,1,8,0:0:0:0:
178,110,19654,1,0,0:0:0:0:
178,110,19714,1,0,0:0:0:0:
178,110,19773,1,8,0:0:0:0:
178,110,19813,1,0,0:0:0:0:
178,110,19853,1,0,0:0:0:0:
178,110,19892,1,8,0:0:0:0:
178,110,19952,1,0,0:0:0:0:
178,110,20011,1,8,0:0:0:0:
178,110,20051,1,8,0:0:0:0:
178,110,20091,1,8,0:0:0:0:
178,110,20130,1,0,0:0:0:0:
178,110,20190,1,0,0:0:0:0:
178,110,20250,1,0,0:0:0:0:
178,110,20309,1,8,0:0:0:0:
178,110,20369,1,0,0:0:0:0:
178,110,20488,1,8,0:0:0:0:
178,110,20527,1,8,0:0:0:0:
178,110,20567,1,8,0:0:0:0:
178,110,20607,1,0,0:0:0:0:
178,110,20666,1,0,0:0:0:0:
178,110,20726,1,8,0:0:0:0:
178,110,20765,1,0,0:0:0:0:
178,110,20805,1,0,0:0:0:0:
178,110,20845,1,8,0:0:0:0:
178,110,20904,1,0,0:0:0:0:
178,110,20964,1,8,0:0:0:0:
178,110,21004,1,8,0:0:0:0:
178,110,21043,1,8,0:0:0:0:
178,110,21083,1,0,0:0:0:0:
178,110,21142,1,0,0:0:0:0:
178,110,21202,1,8,0:0:0:0:
178,110,21261,1,0,0:0:0:0:
178,110,21321,1,8,0:0:0:0:
178,110,21440,1,8,0:0:0:0:
178,110,21480,1,8,0:0:0:0:
178,110,21519,1,8,0:0:0:0:
178,110,21559,1,0,0:0:0:0:
178,110,21619,1,0,0:0:0:0:
178,110,21678,1,8,0:0:0:0:
178,110,21718,1,0,0:0:0:0:
178,110,21758,1,0,0:0:0:0:
178,110,21797,1,8,0:0:0:0:
178,110,21857,1,0,0:0:0:0:
178,110,21916,1,8,0:0:0:0:
178,110,21956,1,8,0:0:0:0:
178,110,21996,1,8,0:0:0:0:
178,110,22035,1,0,0:0:0:0:
178,110,22095,1,0,0:0:0:0:
178,110,22154,1,8,0:0:0:0:
178,110,22214,1,8,0:0:0:0:
178,110,22273,1,0,0:0:0:0:
178,110,22392,1,8,0:0:0:0:
178,110,22452,1,8,0:0:0:0:
178,110,22511,1,0,0:0:0:0:
178,110,22571,1,0,0:0:0:0:
178,110,22631,1,8,0:0:0:0:
178,110,22670,1,0,0:0:0:0:
178,110,22710,1,0,0:0:0:0:
178,110,22750,1,8,0:0:0:0:
178,110,22809,1,0,0:0:0:0:
178,110,22869,1,8,0:0:0:0:
178,110,22908,1,8,0:0:0:0:
178,110,22948,1,8,0:0:0:0:
178,110,22988,1,0,0:0:0:0:
178,110,23027,1,0,0:0:0:0:
178,110,23067,1,0,0:0:0:0:
178,110,23107,1,8,0:0:0:0:
178,110,23146,1,8,0:0:0:0:
178,110,23186,1,8,0:0:0:0:
178,110,23226,1,0,0:0:0:0:
178,110,23285,1,0,0:0:0:0:
178,110,23345,1,8,0:0:0:0:
178,110,23385,1,8,0:0:0:0:
178,110,23424,1,0,0:0:0:0:
178,110,23464,1,0,0:0:0:0:
178,110,23504,1,8,0:0:0:0:
178,110,23543,1,8,0:0:0:0:
178,110,23583,1,0,0:0:0:0:
178,110,23623,1,0,0:0:0:0:
178,110,23662,1,8,0:0:0:0:
178,110,23702,1,8,0:0:0:0:
178,110,23761,1,0,0:0:0:0:
178,110,23821,1,8,0:0:0:0:
178,110,23861,1,8,0:0:0:0:
178,110,23900,1,8,0:0:0:0:
178,110,23940,1,0,0:0:0:0:
178,110,23980,1,0,0:0:0:0:
178,110,24019,1,0,0:0:0:0:
178,110,24059,1,8,0:0:0:0:
178,110,24099,1,8,0:0:0:0:
178,110,24138,1,8,0:0:0:0:
178,110,24178,1,0,0:0:0:0:
178,110,24238,1,0,0:0:0:0:
178,110,24297,1,8,0:0:0:0:
178,110,24337,1,0,0:0:0:0:
178,110,24377,1,0,0:0:0:0:
178,110,24416,1,0,0:0:0:0:
178,110,24456,1,8,0:0:0:0:
178,110,24496,1,0,0:0:0:0:
178,110,24535,1,0,0:0:0:0:
178,110,24575,1,0,0:0:0:0:
178,110,24615,1,8,0:0:0:0:
178,110,24654,1,8,0:0:0:0:
178,110,24714,1,0,0:0:0:0:
178,110,24773,1,8,0:0:0:0:
178,110,24813,1,0,0:0:0:0:
178,110,24853,1,0,0:0:0:0:
178,110,24892,1,8,0:0:0:0:
178,110,24932,1,0,0:0:0:0:
178,110,24972,1,0,0:0:0:0:
178,110,25011,1,8,0:0:0:0:
178,110,25051,1,0,0:0:0:0:
178,110,25091,1,0,0:0:0:0:
178,110,25131,1,8,0:0:0:0:
178,110,25190,1,0,0:0:0:0:
178,110,25250,1,8,0:0:0:0:
178,110,25289,1,0,0:0:0:0:
178,110,25329,1,0,0:0:0:0:
178,110,25369,1,8,0:0:0:0:
178,110,25408,1,8,0:0:0:0:
178,110,25448,1,8,0:0:0:0:
178,110,25488,1,8,0:0:0:0:
178,110,25527,1,8,0:0:0:0:
178,110,25567,1,0,0:0:0:0:
178,110,25607,1,8,0:0:0:0:
178,110,25666,1,0,0:0:0:0:
178,110,25726,1,8,0:0:0:0:
178,110,25765,1,8,0:0:0:0:
178,110,25805,1,8,0:0:0:0:
178,110,25845,1,0,0:0:0:0:
178,110,25885,1,0,0:0:0:0:
178,110,25924,1,0,0:0:0:0:
178,110,25964,1,8,0:0:0:0:
178,110,26004,1,8,0:0:0:0:
178,110,26043,1,8,0:0:0:0:
178,110,26083,1,0,0:0:0:0:
178,110,26142,1,0,0:0:0:0:
178,110,26202,1,8,0:0:0:0:
178,110,26242,1,8,0:0:0:0:
178,110,26281,1,0,0:0:0:0:
178,110,26321,1,8,0:0:0:0:
178,110,26361,1,8,0:0:0:0:
178,110,26400,1,0,0:0:0:0:
178,110,26440,1,8,0:0:0:0:
178,110,26480,1,8,0:0:0:0:
178,110,26519,1,0,0:0:0:0:
178,110,26559,1,8,0:0:0:0:
178,110,26619,1,0,0:0:0:0:
178,110,26678,1,8,0:0:0:0:
178,110,26718,1,0,0:0:0:0:
178,110,26758,1,0,0:0:0:0:
178,110,26797,1,8,0:0:0:0:
178,110,26837,1,8,0:0:0:0:
178,110,26877,1,8,0:0:0:0:
178,110,26916,1,0,0:0:0:0:
178,110,26956,1,0,0:0:0:0:
178,110,26996,1,0,0:0:0:0:
178,110,27035,1,8,0:0:0:0:
178,110,27095,1,0,0:0:0:0:
178,110,27154,1,8,0:0:0:0:
178,110,27194,1,8,0:0:0:0:
178,110,27234,1,0,0:0:0:0:
178,110,27273,1,0,0:0:0:0:
178,110,27313,1,0,0:0:0:0:
178,110,27353,1,0,0:0:0:0:
178,110,27393,1,8,0:0:0:0:
178,110,27432,1,8,0:0:0:0:
178,110,27472,1,8,0:0:0:0:
178,110,27511,1,0,0:0:0:0:
178,110,27571,1,0,0:0:0:0:
178,110,27631,1,8,0:0:0:0:
178,110,27670,1,8,0:0:0:0:
178,110,27710,1,8,0:0:0:0:
178,110,27750,1,0,0:0:0:0:
178,110,27789,1,8,0:0:0:0:
178,110,27829,1,8,0:0:0:0:
178,110,27869,1,8,0:0:0:0:
178,110,27908,1,0,0:0:0:0:
178,110,27948,1,8,0:0:0:0:
178,110,27988,1,8,0:0:0:0:
178,110,28047,1,0,0:0:0:0:
178,110,28107,1,8,0:0:0:0:
178,110,28146,1,8,0:0:0:0:
178,110,28186,1,8,0:0:0:0:
178,110,28226,1,8,0:0:0:0:
178,110,28265,1,8,0:0:0:0:
178,110,28305,1,8,0:0:0:0:
178,110,28345,1,0,0:0:0:0:
178,110,28385,1,0,0:0:0:0:
178,110,28424,1,0,0:0:0:0:
178,110,28465,1,0,0:0:0:0:
178,110,28523,1,0,0:0:0:0:
178,110,28583,1,8,0:0:0:0:
178,110,28623,1,8,0:0:0:0:
178,110,28662,1,8,0:0:0:0:
178,110,28702,1,8,0:0:0:0:
178,110,28742,1,0,0:0:0:0:
178,110,28781,1,8,0:0:0:0:
178,110,28821,1,8,0:0:0:0:
178,110,28861,1,8,0:0:0:0:
178,110,28900,1,8,0:0:0:0:
178,110,28941,1,0,0:0:0:0:
178,110,29000,1,0,0:0:0:0:
178,110,29059,1,8,0:0:0:0:
178,110,29099,1,8,0:0:0:0:
178,110,29138,1,0,0:0:0:0:
178,110,29178,1,0,0:0:0:0:
178,110,29218,1,8,0:0:0:0:
178,110,29258,1,8,0:0:0:0:
178,110,29297,1,0,0:0:0:0:
178,110,29337,1,0,0:0:0:0:
178,110,29377,1,8,0:0:0:0:
178,110,29416,1,8,0:0:0:0:
178,110,29476,1,0,0:0:0:0:
178,110,29535,1,8,0:0:0:0:
178,110,29575,1,8,0:0:0:0:
178,110,29615,1,8,0:0:0:0:
178,110,29654,1,8,0:0:0:0:
178,110,29694,1,8,0:0:0:0:
178,110,29734,1,8,0:0:0:0:
178,110,29773,1,8,0:0:0:0:
178,110,29813,1,8,0:0:0:0:
178,110,29853,1,8,0:0:0:0:
178,110,29892,1,0,0:0:0:0:
178,110,29952,1,0,0:0:0:0:
178,110,30011,1,8,0:0:0:0:
178,110,30051,1,8,0:0:0:0:
178,110,30091,1,8,0:0:0:0:
178,110,30131,1,8,0:0:0:0:
178,110,30170,1,8,0:0:0:0:
178,110,30210,1,8,0:0:0:0:
178,110,30250,1,8,0:0:0:0:
178,110,30289,1,8,0:0:0:0:
178,110,30329,1,8,0:0:0:0:
178,110,30369,1,0,0:0:0:0:
178,110,30428,1,0,0:0:0:0:
178,110,30488,1,8,0:0:0:0:
178,110,30503,1,0,0:0:0:0:
178,110,30547,1,8,0:0:0:0:
178,110,30562,1,0,0:0:0:0:
178,110,30607,1,8,0:0:0:0:
178,110,30622,1,0,0:0:0:0:
178,110,30666,1,8,0:0:0:0:
178,110,30681,1,0,0:0:0:0:
178,110,30726,1,8,0:0:0:0:
178,110,30741,1,0,0:0:0:0:
178,110,30785,1,8,0:0:0:0:
178,110,30800,1,0,0:0:0:0:
178,110,30845,1,8,0:0:0:0:
178,110,30860,1,0,0:0:0:0:
178,110,30904,1,8,0:0:0:0:
178,110,30919,1,0,0:0:0:0:
178,110,30964,1,8,0:0:0:0:
178,110,30979,1,0,0:0:0:0:
178,110,31023,1,8,0:0:0:0:
178,110,31038,1,0,0:0:0:0:
178,110,31083,1,8,0:0:0:0:
178,110,31098,1,0,0:0:0:0:
178,110,31142,1,8,0:0:0:0:
178,110,31157,1,0,0:0:0:0:
178,110,31202,1,0,0:0:0:0:
178,110,31261,1,0,0:0:0:0:
178,110,31321,1,0,0:0:0:0:
178,110,31381,1,0,0:0:0:0:
178,110,31440,1,8,0:0:0:0:
178,110,31455,1,0,0:0:0:0:
178,110,31499,1,8,0:0:0:0:
178,110,31514,1,0,0:0:0:0:
178,110,31559,1,8,0:0:0:0:
178,110,31574,1,0,0:0:0:0:
178,110,31618,1,8,0:0:0:0:
178,110,31633,1,0,0:0:0:0:
178,110,31678,1,0,0:0:0:0:
178,110,31738,1,0,0:0:0:0:
178,110,31797,1,0,0:0:0:0:
178,110,31857,1,0,0:0:0:0:
178,110,31916,1,8,0:0:0:0:
178,110,31931,1,0,0:0:0:0:
178,110,31975,1,8,0:0:0:0:
178,110,31990,1,0,0:0:0:0:
178,110,32035,1,8,0:0:0:0:
178,110,32050,1,0,0:0:0:0:
178,110,32094,1,8,0:0:0:0:
178,110,32110,1,0,0:0:0:0:
178,110,32153,1,8,0:0:0:0:
178,110,32169,1,0,0:0:0:0:
178,110,32214,1,0,0:0:0:0:
178,110,32259,1,0,0:0:0:0:
178,110,32303,1,0,0:0:0:0:
178,110,32363,1,8,0:0:0:0:
178,110,32378,1,0,0:0:0:0:
178,110,32422,1,8,0:0:0:0:
178,110,32437,1,0,0:0:0:0:
178,110,32482,1,8,0:0:0:0:
178,110,32497,1,0,0:0:0:0:
178,110,32541,1,8,0:0:0:0:
178,110,32556,1,0,0:0:0:0:
178,110,32602,1,0,0:0:0:0:
178,110,32661,1,0,0:0:0:0:
178,110,32721,1,8,0:0:0:0:
178,110,32736,1,0,0:0:0:0:
178,110,32780,1,8,0:0:0:0:
178,110,32795,1,0,0:0:0:0:
178,110,32840,1,8,0:0:0:0:
178,110,32855,1,0,0:0:0:0:
178,110,32899,1,8,0:0:0:0:
178,110,32914,1,0,0:0:0:0:
178,110,32959,1,0,0:0:0:0:
178,110,33017,1,0,0:0:0:0:
178,110,33077,1,8,0:0:0:0:
178,110,33136,1,8,0:0:0:0:
178,110,33196,1,8,0:0:0:0:
178,110,33256,1,8,0:0:0:0:
178,110,33315,1,8,0:0:0:0:
178,110,33375,1,0,0:0:0:0:
178,110,33434,1,0,0:0:0:0:
178,110,33494,1,0,0:0:0:0:
178,110,33553,1,8,0:0:0:0:
178,110,33612,1,8,0:0:0:0:
178,110,33672,1,8,0:0:0:0:
178,110,33731,1,0,0:0:0:0:
178,110,33791,1,8,0:0:0:0:
178,110,33850,1,8,0:0:0:0:
178,110,33910,1,8,0:0:0:0:
178,110,33970,1,0,0:0:0:0:
178,110,34029,1,8,0:0:0:0:
178,110,34088,1,8,0:0:0:0:
178,110,34148,1,8,0:0:0:0:
178,110,34208,1,0,0:0:0:0:
178,110,34267,1,8,0:0:0:0:
178,110,34282,1,0,0:0:0:0:
178,110,34327,1,8,0:0:0:0:
178,110,34342,1,0,0:0:0:0:
178,110,34386,1,8,0:0:0:0:
178,110,34401,1,0,0:0:0:0:
178,110,34446,1,8,0:0:0:0:
178,110,34461,1,0,0:0:0:0:
178,110,34506,1,8,0:0:0:0:
178,110,34521,1,0,0:0:0:0:
178,110,34566,1,8,0:0:0:0:
178,110,34581,1,0,0:0:0:0:
178,110,34625,1,8,0:0:0:0:
178,110,34640,1,0,0:0:0:0:
178,110,34685,1,8,0:0:0:0:
178,110,34700,1,0,0:0:0:0:
178,110,34744,1,8,0:0:0:0:
178,110,34759,1,0,0:0:0:0:
178,110,34803,1,0,0:0:0:0:
178,110,34863,1,0,0:0:0:0:
178,110,34922,1,0,0:0:0:0:
178,110,34982,1,8,0:0:0:0:
178,110,34997,1,0,0:0:0:0:
178,110,35041,1,0,0:0:0:0:
178,110,35101,1,0,0:0:0:0:
178,110,35160,1,0,0:0:0:0:
178,110,35220,1,8,0:0:0:0:
178,110,35235,1,0,0:0:0:0:
178,110,35279,1,8,0:0:0:0:
178,110,35294,1,0,0:0:0:0:
178,110,35339,1,8,0:0:0:0:
178,110,35354,1,0,0:0:0:0:
178,110,35398,1,8,0:0:0:0:
178,110,35413,1,0,0:0:0:0:
178,110,35458,1,8,0:0:0:0:
178,110,35473,1,0,0:0:0:0:
178,110,35517,1,0,0:0:0:0:
178,110,35577,1,0,0:0:0:0:
178,110,35636,1,0,0:0:0:0:
178,110,35697,1,8,0:0:0:0:
178,110,35712,1,0,0:0:0:0:
178,110,35756,1,8,0:0:0:0:
178,110,35771,1,0,0:0:0:0:
178,110,35815,1,8,0:0:0:0:
178,110,35830,1,0,0:0:0:0:
178,110,35875,1,8,0:0:0:0:
178,110,35890,1,0,0:0:0:0:
178,110,35934,1,8,0:0:0:0:
178,110,35949,1,0,0:0:0:0:
178,110,35993,1,0,0:0:0:0:
178,110,36053,1,8,0:0:0:0:
178,110,36112,1,8,0:0:0:0:
178,110,36172,1,8,0:0:0:0:
178,110,36187,1,0,0:0:0:0:
178,110,36232,1,8,0:0:0:0:
178,110,36247,1,0,0:0:0:0:
178,110,36292,1,8,0:0:0:0:
178,110,36307,1,0,0:0:0:0:
178,110,36351,1,8,0:0:0:0:
178,110,36366,1,0,0:0:0:0:
178,110,36411,1,8,0:0:0:0:
178,110,36426,1,0,0:0:0:0:
178,110,36471,1,8,0:0:0:0:
178,110,36486,1,0,0:0:0:0:
178,110,36531,1,8,0:0:0:0:
178,110,36546,1,0,0:0:0:0:
178,110,36590,1,8,0:0:0:0:
178,110,36605,1,0,0:0:0:0:
178,110,36650,1,8,0:0:0:0:
178,110,36665,1,0,0:0:0:0:
178,110,36709,1,8,0:0:0:0:
178,110,36724,1,0,0:0:0:0:
178,110,36767,1,8,0:0:0:0:
178,110,36782,1,0,0:0:0:0:
178,110,36827,1,8,0:0:0:0:
178,110,36842,1,0,0:0:0:0:
178,110,36886,1,8,0:0:0:0:
178,110,36901,1,0,0:0:0:0:
178,110,36946,1,0,0:0:0:0:
178,110,37006,1,0,0:0:0:0:
178,110,37065,1,0,0:0:0:0:
178,110,37125,1,8,0:0:0:0:
178,110,37140,1,0,0:0:0:0:
178,110,37185,1,0,0:0:0:0:
178,110,37244,1,8,0:0:0:0:
178,110,37259,1,0,0:0:0:0:
178,110,37303,1,8,0:0:0:0:
178,110,37318,1,0,0:0:0:0:
178,110,37362,1,8,0:0:0:0:
178,110,37377,1,0,0:0:0:0:
178,110,37422,1,0,0:0:0:0:
178,110,37481,1,8,0:0:0:0:
178,110,37496,1,0,0:0:0:0:
178,110,37541,1,0,0:0:0:0:
178,110,37600,1,8,0:0:0:0:
178,110,37615,1,0,0:0:0:0:
178,110,37660,1,0,0:0:0:0:
178,110,37719,1,8,0:0:0:0:
178,110,37734,1,0,0:0:0:0:
178,110,37779,1,0,0:0:0:0:
178,110,37838,1,8,0:0:0:0:
178,110,37853,1,0,0:0:0:0:
178,110,37898,1,0,0:0:0:0:
178,110,37958,1,8,0:0:0:0:
178,110,37973,1,0,0:0:0:0:
178,110,38018,1,0,0:0:0:0:
178,110,38107,1,12,0:0:0:0:
