osu file format v14

[General]
AudioFilename: audio.mp3
AudioLeadIn: 0
PreviewTime: 15011
Countdown: 1
SampleSet: None
StackLeniency: 0.7
Mode: 1
LetterboxInBreaks: 0
WidescreenStoryboard: 1

[Editor]
DistanceSpacing: 0.8
BeatDivisor: 8
GridSize: 8
TimelineZoom: 3.500004

[Metadata]
Title:Russia Ritual
TitleUnicode:Russia Ritual
Artist:Various Artists
ArtistUnicode:Various Artists
Creator:pavlukivan
Version:Rog Kantan
Source:
Tags:nog aether ussr anthem vodka matryoshka balalaika bear cyka blyat hardbass night_flower malinalliylover
BeatmapID:2133893
BeatmapSetID:1019635

[Difficulty]
HPDrainRate:4
CircleSize:4
OverallDifficulty:5
ApproachRate:9
SliderMultiplier:1.4
SliderTickRate:1

[Events]
//Background and Video events
0,0,"putin.png",0,0
//Break Periods
//Storyboard Layer 0 (Background)
//Storyboard Layer 1 (Fail)
//Storyboard Layer 2 (Pass)
//Storyboard Layer 3 (Foreground)
//Storyboard Layer 4 (Overlay)
//Storyboard Sound Samples

[TimingPoints]
12,238.095238095238,4,1,0,25,1,0

[HitObjects]
256,192,12,5,4,0:0:0:0:
256,192,726,1,0,0:0:0:0:
256,192,785,1,0,0:0:0:0:
256,192,964,1,0,0:0:0:0:
256,192,1023,1,0,0:0:0:0:
256,192,1678,1,0,0:0:0:0:
256,192,1738,1,0,0:0:0:0:
256,192,1916,1,0,0:0:0:0:
256,192,1976,1,0,0:0:0:0:
256,192,2631,1,0,0:0:0:0:
256,192,2690,1,0,0:0:0:0:
256,192,2869,1,0,0:0:0:0:
256,192,2928,1,0,0:0:0:0:
256,192,3226,1,0,0:0:0:0:
256,192,3285,1,0,0:0:0:0:
256,192,3583,1,0,0:0:0:0:
256,192,3642,1,0,0:0:0:0:
256,192,3821,1,4,0:0:0:0:
256,192,3881,1,0,0:0:0:0:
256,192,4535,1,0,0:0:0:0:
256,192,4595,1,0,0:0:0:0:
256,192,4773,1,0,0:0:0:0:
256,192,4833,1,0,0:0:0:0:
256,192,5488,1,0,0:0:0:0:
256,192,5547,1,0,0:0:0:0:
256,192,5726,1,0,0:0:0:0:
256,192,5785,1,0,0:0:0:0:
256,192,6440,1,0,0:0:0:0:
256,192,6500,1,0,0:0:0:0:
256,192,6678,1,4,0:0:0:0:
256,192,6738,1,0,0:0:0:0:
256,192,7154,1,4,0:0:0:0:
256,192,7214,1,0,0:0:0:0:
256,192,7392,1,4,0:0:0:0:
256,192,7452,1,0,0:0:0:0:
256,192,7631,1,4,0:0:0:0:
256,192,7691,1,0,0:0:0:0:
256,192,8107,1,0,0:0:0:0:
256,192,8166,1,0,0:0:0:0:
256,192,8583,1,0,0:0:0:0:
256,192,8642,1,0,0:0:0:0:
256,192,9297,1,0,0:0:0:0:
256,192,9357,1,0,0:0:0:0:
256,192,9535,1,0,0:0:0:0:
256,192,9595,1,0,0:0:0:0:
256,192,10250,1,0,0:0:0:0:
256,192,10309,1,0,0:0:0:0:
256,192,10488,1,0,0:0:0:0:
256,192,10547,1,0,0:0:0:0:
256,192,10964,1,0,0:0:0:0:
256,192,11023,1,0,0:0:0:0:
256,192,11202,1,0,0:0:0:0:
256,192,11261,1,0,0:0:0:0:
256,192,11410,1,0,0:0:0:0:
256,192,11470,1,0,0:0:0:0:
256,192,11916,1,0,0:0:0:0:
256,192,11976,1,0,0:0:0:0:
256,192,12154,1,0,0:0:0:0:
256,192,12214,1,0,0:0:0:0:
256,192,12631,1,0,0:0:0:0:
256,192,12690,1,0,0:0:0:0:
256,192,12869,1,0,0:0:0:0:
256,192,12928,1,0,0:0:0:0:
256,192,13107,1,0,0:0:0:0:
256,192,13166,1,0,0:0:0:0:
256,192,13583,1,0,0:0:0:0:
256,192,13642,1,0,0:0:0:0:
256,192,14059,1,0,0:0:0:0:
256,192,14119,1,0,0:0:0:0:
256,192,14297,1,0,0:0:0:0:
256,192,14357,1,0,0:0:0:0:
256,192,14773,1,0,0:0:0:0:
256,192,14833,1,0,0:0:0:0:
256,192,15011,1,4,0:0:0:0:
256,192,15071,1,0,0:0:0:0:
256,192,15250,1,4,0:0:0:0:
256,192,15309,1,0,0:0:0:0:
256,192,15726,1,4,0:0:0:0:
256,192,15785,1,0,0:0:0:0:
256,192,16202,1,0,0:0:0:0:
256,192,16261,1,0,0:0:0:0:
256,192,16678,1,0,0:0:0:0:
256,192,16738,1,0,0:0:0:0:
256,192,16916,1,0,0:0:0:0:
256,192,16976,1,0,0:0:0:0:
256,192,17154,1,4,0:0:0:0:
256,192,17214,1,0,0:0:0:0:
256,192,17631,1,0,0:0:0:0:
256,192,17690,1,0,0:0:0:0:
256,192,17869,1,0,0:0:0:0:
256,192,17928,1,0,0:0:0:0:
256,192,18107,1,4,0:0:0:0:
256,192,18166,1,0,0:0:0:0:
256,192,18464,1,0,0:0:0:0:
256,192,18523,1,0,0:0:0:0:
256,192,18821,1,0,0:0:0:0:
256,192,18881,1,0,0:0:0:0:
256,192,19059,1,4,0:0:0:0:
256,192,19119,1,0,0:0:0:0:
256,192,19535,1,4,0:0:0:0:
256,192,19595,1,0,0:0:0:0:
256,192,20011,1,4,0:0:0:0:
256,192,20071,1,0,0:0:0:0:
256,192,20488,1,4,0:0:0:0:
256,192,20547,1,0,0:0:0:0:
256,192,20726,1,4,0:0:0:0:
256,192,20785,1,0,0:0:0:0:
256,192,20964,1,4,0:0:0:0:
256,192,21023,1,0,0:0:0:0:
256,192,21440,1,4,0:0:0:0:
256,192,21500,1,0,0:0:0:0:
256,192,21916,1,4,0:0:0:0:
256,192,21976,1,0,0:0:0:0:
256,192,22392,1,0,0:0:0:0:
256,192,22452,1,0,0:0:0:0:
256,192,22631,1,0,0:0:0:0:
256,192,22690,1,0,0:0:0:0:
256,192,22869,1,4,0:0:0:0:
256,192,22928,1,0,0:0:0:0:
256,192,23345,1,0,0:0:0:0:
256,192,23404,1,0,0:0:0:0:
256,192,23583,1,0,0:0:0:0:
256,192,23642,1,0,0:0:0:0:
256,192,23821,1,4,0:0:0:0:
256,192,23881,1,0,0:0:0:0:
256,192,24059,1,0,0:0:0:0:
256,192,24119,1,0,0:0:0:0:
256,192,24297,1,0,0:0:0:0:
256,192,24357,1,0,0:0:0:0:
256,192,24535,1,0,0:0:0:0:
256,192,24595,1,0,0:0:0:0:
256,192,24773,1,4,0:0:0:0:
256,192,24833,1,0,0:0:0:0:
256,192,25250,1,0,0:0:0:0:
256,192,25309,1,0,0:0:0:0:
256,192,25488,1,0,0:0:0:0:
256,192,25547,1,0,0:0:0:0:
256,192,25726,1,4,0:0:0:0:
256,192,25785,1,0,0:0:0:0:
256,192,26202,1,0,0:0:0:0:
256,192,26261,1,0,0:0:0:0:
256,192,26440,1,0,0:0:0:0:
256,192,26500,1,0,0:0:0:0:
256,192,26678,1,4,0:0:0:0:
256,192,26738,1,0,0:0:0:0:
256,192,27154,1,0,0:0:0:0:
256,192,27214,1,0,0:0:0:0:
256,192,27392,1,0,0:0:0:0:
256,192,27452,1,0,0:0:0:0:
256,192,27631,1,4,0:0:0:0:
256,192,27690,1,0,0:0:0:0:
256,192,28107,1,0,0:0:0:0:
256,192,28166,1,0,0:0:0:0:
256,192,28345,1,0,0:0:0:0:
256,192,28404,1,0,0:0:0:0:
256,192,28583,1,4,0:0:0:0:
256,192,28642,1,0,0:0:0:0:
256,192,29059,1,0,0:0:0:0:
256,192,29119,1,0,0:0:0:0:
256,192,29297,1,0,0:0:0:0:
256,192,29357,1,0,0:0:0:0:
256,192,29535,1,0,0:0:0:0:
256,192,30011,1,0,0:0:0:0:
256,192,30071,1,0,0:0:0:0:
256,192,30250,1,0,0:0:0:0:
256,192,30309,1,0,0:0:0:0:
256,192,30488,1,4,0:0:0:0:
256,192,30547,1,0,0:0:0:0:
256,192,30964,1,0,0:0:0:0:
256,192,31023,1,0,0:0:0:0:
256,192,31202,1,0,0:0:0:0:
256,192,31261,1,0,0:0:0:0:
256,192,31440,1,4,0:0:0:0:
256,192,31500,1,0,0:0:0:0:
256,192,32154,1,0,0:0:0:0:
256,192,32214,1,0,0:0:0:0:
256,192,32392,1,4,0:0:0:0:
256,192,32452,1,0,0:0:0:0:
256,192,32869,1,0,0:0:0:0:
256,192,32928,1,0,0:0:0:0:
256,192,33107,1,0,0:0:0:0:
256,192,33166,1,0,0:0:0:0:
256,192,33345,1,4,0:0:0:0:
256,192,33404,1,0,0:0:0:0:
256,192,33702,1,0,0:0:0:0:
256,192,33761,1,0,0:0:0:0:
256,192,34059,1,0,0:0:0:0:
256,192,34119,1,0,0:0:0:0:
256,192,34297,1,4,0:0:0:0:
256,192,34357,1,0,0:0:0:0:
256,192,34773,1,0,0:0:0:0:
256,192,34833,1,0,0:0:0:0:
256,192,35011,1,0,0:0:0:0:
256,192,35071,1,0,0:0:0:0:
256,192,35250,1,4,0:0:0:0:
256,192,35309,1,0,0:0:0:0:
256,192,35726,1,0,0:0:0:0:
256,192,35785,1,0,0:0:0:0:
256,192,35964,1,0,0:0:0:0:
256,192,36023,1,0,0:0:0:0:
256,192,36202,1,4,0:0:0:0:
256,192,36261,1,0,0:0:0:0:
256,192,36916,1,0,0:0:0:0:
256,192,36976,1,0,0:0:0:0:
256,192,37154,1,4,0:0:0:0:
256,192,37214,1,0,0:0:0:0:
256,192,37511,1,0,0:0:0:0:
256,192,37571,1,0,0:0:0:0:
256,192,37869,1,0,0:0:0:0:
256,192,37928,1,0,0:0:0:0:
256,192,38107,1,0,0:0:0:0:
256,192,38166,1,0,0:0:0:0:
