osu file format v14

[General]
AudioFilename: audio.mp3
AudioLeadIn: 0
PreviewTime: 15011
Countdown: 1
SampleSet: Normal
StackLeniency: 0.7
Mode: 1
LetterboxInBreaks: 0
WidescreenStoryboard: 1

[Editor]
DistanceSpacing: 0.8
BeatDivisor: 8
GridSize: 8
TimelineZoom: 3.500004

[Metadata]
Title:Russia Ritual
TitleUnicode:Russia Ritual
Artist:Various Artists
ArtistUnicode:Various Artists
Creator:pavlukivan
Version:Oni
Source:
Tags:nog aether ussr anthem vodka matryoshka balalaika bear cyka blyat hardbass night_flower malinalliylover
BeatmapID:2133682
BeatmapSetID:1019635

[Difficulty]
HPDrainRate:5
CircleSize:6
OverallDifficulty:8
ApproachRate:7
SliderMultiplier:1.4
SliderTickRate:1

[Events]
//Background and Video events
0,0,"putin.png",0,0
//Break Periods
//Storyboard Layer 0 (Background)
//Storyboard Layer 1 (Fail)
//Storyboard Layer 2 (Pass)
//Storyboard Layer 3 (Foreground)
//Storyboard Layer 4 (Overlay)
//Storyboard Sound Samples

[TimingPoints]
12,238.095238095238,4,1,0,25,1,0

[HitObjects]
272,152,12,5,12,0:0:0:0:
217,186,726,1,8,0:0:0:0:
211,149,964,1,0,0:0:0:0:
257,127,1678,1,0,0:0:0:0:
244,115,1916,1,8,0:0:0:0:
244,115,2154,1,8,0:0:0:0:
324,235,2392,1,0,0:0:0:0:
267,158,2631,1,8,0:0:0:0:
178,110,2750,1,8,0:0:0:0:
324,235,2869,1,0,0:0:0:0:
324,235,3226,1,0,0:0:0:0:
324,235,3583,1,0,0:0:0:0:
324,235,3821,1,12,0:0:0:0:
324,235,4297,1,0,0:0:0:0:
324,235,4535,1,8,0:0:0:0:
324,235,4773,1,0,0:0:0:0:
324,235,5250,1,0,0:0:0:0:
324,235,5369,1,0,0:0:0:0:
324,235,5488,1,0,0:0:0:0:
324,235,5726,1,0,0:0:0:0:
324,235,6202,1,0,0:0:0:0:
324,235,6321,1,0,0:0:0:0:
324,235,6440,1,8,0:0:0:0:
324,235,6559,1,0,0:0:0:0:
324,235,6678,1,8,0:0:0:0:
324,235,6708,1,8,0:0:0:0:
324,235,6797,1,0,0:0:0:0:
324,235,6916,1,8,0:0:0:0:
324,235,6946,1,8,0:0:0:0:
324,235,7035,1,0,0:0:0:0:
324,235,7154,1,8,0:0:0:0:
324,235,7184,1,8,0:0:0:0:
324,235,7273,1,0,0:0:0:0:
324,235,7392,1,8,0:0:0:0:
324,235,7422,1,8,0:0:0:0:
324,235,7511,1,0,0:0:0:0:
324,235,7631,1,8,0:0:0:0:
324,235,7750,1,8,0:0:0:0:
324,235,7809,1,0,0:0:0:0:
324,235,7869,1,8,0:0:0:0:
324,235,7988,1,0,0:0:0:0:
324,235,8107,1,8,0:0:0:0:
324,235,8136,1,8,0:0:0:0:
324,235,8226,1,0,0:0:0:0:
324,235,8256,1,0,0:0:0:0:
324,235,8345,1,8,0:0:0:0:
324,235,8464,1,0,0:0:0:0:
324,235,8583,1,8,0:0:0:0:
324,235,8612,1,8,0:0:0:0:
324,235,8702,1,8,0:0:0:0:
324,235,8731,1,8,0:0:0:0:
324,235,8821,1,8,0:0:0:0:
324,235,8850,1,8,0:0:0:0:
324,235,8940,1,0,0:0:0:0:
324,235,9059,1,8,0:0:0:0:
324,235,9088,1,8,0:0:0:0:
324,235,9178,1,0,0:0:0:0:
324,235,9297,1,8,0:0:0:0:
324,235,9326,1,8,0:0:0:0:
324,235,9535,1,0,0:0:0:0:
324,235,9565,1,0,0:0:0:0:
324,235,9654,1,8,0:0:0:0:
324,235,9773,1,8,0:0:0:0:
324,235,9802,1,8,0:0:0:0:
324,235,9892,1,0,0:0:0:0:
324,235,10011,1,8,0:0:0:0:
324,235,10040,1,8,0:0:0:0:
324,235,10131,1,0,0:0:0:0:
324,235,10250,1,8,0:0:0:0:
324,235,10279,1,8,0:0:0:0:
324,235,10398,1,0,0:0:0:0:
324,235,10488,1,8,0:0:0:0:
324,235,10517,1,8,0:0:0:0:
324,235,10607,1,8,0:0:0:0:
324,235,10666,1,8,0:0:0:0:
324,235,10726,1,8,0:0:0:0:
324,235,10845,1,0,0:0:0:0:
324,235,10964,1,8,0:0:0:0:
324,235,11083,1,8,0:0:0:0:
324,235,11142,1,0,0:0:0:0:
324,235,11202,1,8,0:0:0:0:
324,235,11440,1,0,0:0:0:0:
324,235,11559,1,0,0:0:0:0:
324,235,11678,1,12,0:0:0:0:
324,235,11797,1,8,0:0:0:0:
324,235,11827,1,8,0:0:0:0:
324,235,11916,1,0,0:0:0:0:
324,235,12035,1,8,0:0:0:0:
324,235,12065,1,8,0:0:0:0:
324,235,12154,1,0,0:0:0:0:
324,235,12392,1,0,0:0:0:0:
324,235,12511,1,8,0:0:0:0:
324,235,12541,1,8,0:0:0:0:
324,235,12631,1,8,0:0:0:0:
324,235,12661,1,8,0:0:0:0:
324,235,12809,1,0,0:0:0:0:
324,235,12869,1,0,0:0:0:0:
324,235,12988,1,8,0:0:0:0:
324,235,13018,1,8,0:0:0:0:
324,235,13108,1,8,0:0:0:0:
178,110,13285,1,8,0:0:0:0:
324,235,13345,1,0,0:0:0:0:
324,235,13464,1,8,0:0:0:0:
324,235,13583,1,0,0:0:0:0:
324,235,13702,1,8,0:0:0:0:
324,235,13821,1,0,0:0:0:0:
324,235,13940,1,8,0:0:0:0:
324,235,14059,1,8,0:0:0:0:
178,110,14238,1,0,0:0:0:0:
324,235,14297,1,8,0:0:0:0:
324,235,14416,1,8,0:0:0:0:
324,235,14476,1,0,0:0:0:0:
324,235,14535,1,8,0:0:0:0:
324,235,14654,1,8,0:0:0:0:
324,235,14714,1,0,0:0:0:0:
324,235,14773,1,8,0:0:0:0:
324,235,14892,1,8,0:0:0:0:
324,235,14952,1,0,0:0:0:0:
324,235,15011,1,8,0:0:0:0:
178,110,15071,1,8,0:0:0:0:
324,235,15131,1,0,0:0:0:0:
324,235,15190,1,0,0:0:0:0:
324,235,15250,1,8,0:0:0:0:
324,235,15369,1,0,0:0:0:0:
324,235,15488,1,0,0:0:0:0:
324,235,15607,1,0,0:0:0:0:
324,235,15666,1,0,0:0:0:0:
324,235,15726,1,8,0:0:0:0:
324,235,15785,1,0,0:0:0:0:
324,235,15844,1,0,0:0:0:0:
324,235,15904,1,0,0:0:0:0:
324,235,15964,1,8,0:0:0:0:
324,235,16024,1,0,0:0:0:0:
324,235,16083,1,0,0:0:0:0:
324,235,16143,1,0,0:0:0:0:
324,235,16203,1,8,0:0:0:0:
324,235,16281,1,0,0:0:0:0:
324,235,16361,1,0,0:0:0:0:
324,235,16440,1,8,0:0:0:0:
324,235,16519,1,0,0:0:0:0:
324,235,16599,1,0,0:0:0:0:
324,235,16678,1,8,0:0:0:0:
324,235,16738,1,8,0:0:0:0:
324,235,16797,1,0,0:0:0:0:
324,235,16857,1,0,0:0:0:0:
324,235,16916,1,8,0:0:0:0:
324,235,17035,1,0,0:0:0:0:
324,235,17154,1,8,0:0:0:0:
324,235,17184,1,8,0:0:0:0:
324,235,17273,1,8,0:0:0:0:
324,235,17303,1,8,0:0:0:0:
324,235,17392,1,8,0:0:0:0:
324,235,17422,1,8,0:0:0:0:
324,235,17511,1,0,0:0:0:0:
324,235,17630,1,8,0:0:0:0:
324,235,17660,1,8,0:0:0:0:
324,235,17749,1,8,0:0:0:0:
324,235,17779,1,8,0:0:0:0:
324,235,17868,1,0,0:0:0:0:
324,235,17898,1,0,0:0:0:0:
324,235,17988,1,0,0:0:0:0:
178,110,18047,1,0,0:0:0:0:
324,235,18107,1,8,0:0:0:0:
324,235,18166,1,8,0:0:0:0:
324,235,18226,1,8,0:0:0:0:
324,235,18285,1,8,0:0:0:0:
324,235,18345,1,0,0:0:0:0:
324,235,18464,1,0,0:0:0:0:
324,235,18583,1,8,0:0:0:0:
324,235,18642,1,0,0:0:0:0:
324,235,18702,1,0,0:0:0:0:
324,235,18761,1,0,0:0:0:0:
324,235,18821,1,8,0:0:0:0:
324,235,18940,1,0,0:0:0:0:
324,235,19059,1,8,0:0:0:0:
324,235,19089,1,8,0:0:0:0:
324,235,19178,1,8,0:0:0:0:
324,235,19208,1,8,0:0:0:0:
324,235,19297,1,0,0:0:0:0:
324,235,19327,1,0,0:0:0:0:
324,235,19416,1,0,0:0:0:0:
324,235,19446,1,0,0:0:0:0:
324,235,19535,1,8,0:0:0:0:
324,235,19595,1,0,0:0:0:0:
324,235,19654,1,0,0:0:0:0:
324,235,19714,1,0,0:0:0:0:
324,235,19773,1,8,0:0:0:0:
324,235,19833,1,8,0:0:0:0:
324,235,19892,1,8,0:0:0:0:
324,235,19952,1,0,0:0:0:0:
324,235,20011,1,8,0:0:0:0:
324,235,20071,1,0,0:0:0:0:
324,235,20131,1,0,0:0:0:0:
324,235,20190,1,0,0:0:0:0:
324,235,20250,1,8,0:0:0:0:
324,235,20309,1,8,0:0:0:0:
324,235,20369,1,8,0:0:0:0:
324,235,20428,1,8,0:0:0:0:
324,235,20488,1,8,0:0:0:0:
324,235,20547,1,0,0:0:0:0:
324,235,20607,1,8,0:0:0:0:
324,235,20666,1,8,0:0:0:0:
324,235,20726,1,8,0:0:0:0:
324,235,20785,1,0,0:0:0:0:
324,235,20845,1,8,0:0:0:0:
324,235,20904,1,8,0:0:0:0:
324,235,20964,1,8,0:0:0:0:
324,235,21023,1,0,0:0:0:0:
324,235,21083,1,0,0:0:0:0:
324,235,21142,1,0,0:0:0:0:
324,235,21202,1,8,0:0:0:0:
324,235,21261,1,0,0:0:0:0:
324,235,21321,1,0,0:0:0:0:
324,235,21381,1,0,0:0:0:0:
324,235,21440,1,8,0:0:0:0:
324,235,21519,1,0,0:0:0:0:
324,235,21599,1,0,0:0:0:0:
324,235,21678,1,8,0:0:0:0:
324,235,21758,1,0,0:0:0:0:
324,235,21837,1,0,0:0:0:0:
324,235,21916,1,8,0:0:0:0:
324,235,22035,1,0,0:0:0:0:
324,235,22095,1,0,0:0:0:0:
324,235,22154,1,8,0:0:0:0:
324,235,22273,1,8,0:0:0:0:
324,235,22333,1,0,0:0:0:0:
324,235,22392,1,8,0:0:0:0:
324,235,22511,1,0,0:0:0:0:
324,235,22541,1,0,0:0:0:0:
324,235,22631,1,8,0:0:0:0:
324,235,22710,1,0,0:0:0:0:
324,235,22789,1,0,0:0:0:0:
324,235,22869,1,8,0:0:0:0:
324,235,22928,1,0,0:0:0:0:
324,235,22988,1,0,0:0:0:0:
324,235,23047,1,0,0:0:0:0:
324,235,23107,1,8,0:0:0:0:
324,235,23226,1,0,0:0:0:0:
324,235,23345,1,8,0:0:0:0:
324,235,23404,1,0,0:0:0:0:
324,235,23464,1,0,0:0:0:0:
324,235,23523,1,8,0:0:0:0:
324,235,23583,1,8,0:0:0:0:
324,235,23702,1,8,0:0:0:0:
324,235,23821,1,8,0:0:0:0:
324,235,23881,1,0,0:0:0:0:
324,235,23940,1,8,0:0:0:0:
324,235,24000,1,8,0:0:0:0:
324,235,24059,1,8,0:0:0:0:
324,235,24178,1,0,0:0:0:0:
324,235,24297,1,0,0:0:0:0:
324,235,24327,1,0,0:0:0:0:
324,235,24416,1,0,0:0:0:0:
324,235,24446,1,0,0:0:0:0:
324,235,24535,1,8,0:0:0:0:
324,235,24595,1,0,0:0:0:0:
324,235,24654,1,0,0:0:0:0:
324,235,24714,1,0,0:0:0:0:
324,235,24773,1,8,0:0:0:0:
324,235,24892,1,0,0:0:0:0:
324,235,24922,1,0,0:0:0:0:
324,235,25011,1,8,0:0:0:0:
324,235,25131,1,0,0:0:0:0:
324,235,25160,1,0,0:0:0:0:
324,235,25250,1,8,0:0:0:0:
324,235,25309,1,0,0:0:0:0:
324,235,25369,1,0,0:0:0:0:
324,235,25488,1,8,0:0:0:0:
324,235,25547,1,0,0:0:0:0:
324,235,25607,1,0,0:0:0:0:
324,235,25666,1,0,0:0:0:0:
324,235,25726,1,8,0:0:0:0:
324,235,25845,1,8,0:0:0:0:
324,235,25904,1,0,0:0:0:0:
324,235,25964,1,8,0:0:0:0:
324,235,26083,1,8,0:0:0:0:
324,235,26142,1,0,0:0:0:0:
324,235,26202,1,8,0:0:0:0:
324,235,26321,1,0,0:0:0:0:
324,235,26361,1,0,0:0:0:0:
324,235,26400,1,0,0:0:0:0:
324,235,26440,1,8,0:0:0:0:
324,235,26559,1,8,0:0:0:0:
324,235,26599,1,0,0:0:0:0:
324,235,26638,1,0,0:0:0:0:
324,235,26678,1,8,0:0:0:0:
324,235,26797,1,8,0:0:0:0:
324,235,26837,1,8,0:0:0:0:
324,235,26876,1,8,0:0:0:0:
324,235,26916,1,0,0:0:0:0:
324,235,27035,1,0,0:0:0:0:
324,235,27075,1,0,0:0:0:0:
324,235,27114,1,0,0:0:0:0:
324,235,27154,1,8,0:0:0:0:
324,235,27273,1,0,0:0:0:0:
324,235,27392,1,8,0:0:0:0:
324,235,27511,1,0,0:0:0:0:
324,235,27631,1,8,0:0:0:0:
324,235,27690,1,0,0:0:0:0:
324,235,27750,1,8,0:0:0:0:
324,235,27809,1,8,0:0:0:0:
324,235,27869,1,0,0:0:0:0:
324,235,27928,1,8,0:0:0:0:
324,235,27988,1,0,0:0:0:0:
324,235,28047,1,8,0:0:0:0:
324,235,28107,1,0,0:0:0:0:
324,235,28166,1,0,0:0:0:0:
324,235,28226,1,0,0:0:0:0:
324,235,28285,1,8,0:0:0:0:
324,235,28345,1,8,0:0:0:0:
324,235,28404,1,8,0:0:0:0:
324,235,28464,1,0,0:0:0:0:
324,235,28523,1,8,0:0:0:0:
324,235,28583,1,8,0:0:0:0:
324,235,28662,1,0,0:0:0:0:
324,235,28742,1,0,0:0:0:0:
324,235,28821,1,0,0:0:0:0:
324,235,28900,1,0,0:0:0:0:
324,235,28980,1,0,0:0:0:0:
324,235,29059,1,8,0:0:0:0:
324,235,29138,1,0,0:0:0:0:
324,235,29218,1,0,0:0:0:0:
324,235,29297,1,8,0:0:0:0:
324,235,29327,1,8,0:0:0:0:
324,235,29416,1,0,0:0:0:0:
324,235,29476,1,0,0:0:0:0:
324,235,29535,1,0,0:0:0:0:
324,235,29654,1,0,0:0:0:0:
324,235,29773,1,8,0:0:0:0:
324,235,29892,1,0,0:0:0:0:
324,235,30011,1,0,0:0:0:0:
324,235,30131,1,0,0:0:0:0:
324,235,30250,1,8,0:0:0:0:
178,110,30369,1,0,0:0:0:0:
324,235,30488,1,12,0:0:0:0:
324,235,30607,1,0,0:0:0:0:
324,235,30636,1,0,0:0:0:0:
324,235,30726,1,8,0:0:0:0:
324,235,30845,1,0,0:0:0:0:
324,235,30875,1,0,0:0:0:0:
324,235,30964,1,8,0:0:0:0:
324,235,31083,1,0,0:0:0:0:
324,235,31202,1,8,0:0:0:0:
324,235,31261,1,0,0:0:0:0:
324,235,31321,1,0,0:0:0:0:
324,235,31440,1,8,0:0:0:0:
324,235,31499,1,0,0:0:0:0:
324,235,31559,1,0,0:0:0:0:
324,235,31678,1,8,0:0:0:0:
324,235,31737,1,0,0:0:0:0:
324,235,31797,1,0,0:0:0:0:
324,235,31916,1,0,0:0:0:0:
324,235,32035,1,0,0:0:0:0:
324,235,32154,1,12,0:0:0:0:
178,110,32214,1,0,0:0:0:0:
324,235,32273,1,4,0:0:0:0:
324,235,32392,1,8,0:0:0:0:
324,235,32452,1,8,0:0:0:0:
324,235,32511,1,0,0:0:0:0:
324,235,32631,1,0,0:0:0:0:
324,235,32750,1,0,0:0:0:0:
324,235,32869,1,8,0:0:0:0:
324,235,32929,1,8,0:0:0:0:
324,235,32988,1,8,0:0:0:0:
324,235,33107,1,8,0:0:0:0:
324,235,33226,1,8,0:0:0:0:
324,235,33285,1,8,0:0:0:0:
324,235,33345,1,0,0:0:0:0:
324,235,33405,1,0,0:0:0:0:
324,235,33464,1,0,0:0:0:0:
324,235,33584,1,0,0:0:0:0:
324,235,33703,1,0,0:0:0:0:
324,235,33822,1,8,0:0:0:0:
324,235,33882,1,8,0:0:0:0:
324,235,33941,1,8,0:0:0:0:
178,110,34000,1,0,0:0:0:0:
324,235,34060,1,8,0:0:0:0:
324,235,34179,1,0,0:0:0:0:
324,235,34297,1,8,0:0:0:0:
324,235,34357,1,0,0:0:0:0:
324,235,34416,1,8,0:0:0:0:
324,235,34476,1,8,0:0:0:0:
324,235,34535,1,0,0:0:0:0:
324,235,34654,1,0,0:0:0:0:
324,235,34773,1,8,0:0:0:0:
324,235,34892,1,0,0:0:0:0:
324,235,34952,1,0,0:0:0:0:
324,235,35011,1,8,0:0:0:0:
324,235,35131,1,8,0:0:0:0:
324,235,35250,1,8,0:0:0:0:
324,235,35309,1,0,0:0:0:0:
324,235,35369,1,8,0:0:0:0:
324,235,35488,1,8,0:0:0:0:
324,235,35607,1,0,0:0:0:0:
324,235,35726,1,0,0:0:0:0:
324,235,35845,1,0,0:0:0:0:
324,235,35964,1,0,0:0:0:0:
324,235,36083,1,0,0:0:0:0:
324,235,36202,1,8,0:0:0:0:
324,235,36916,1,8,0:0:0:0:
324,235,37154,1,0,0:0:0:0:
324,235,37511,1,0,0:0:0:0:
324,235,37869,1,0,0:0:0:0:
324,235,38107,1,12,0:0:0:0:
