osu file format v14

[General]
AudioFilename: audio.mp3
AudioLeadIn: 0
PreviewTime: 15011
Countdown: 1
SampleSet: Normal
StackLeniency: 0.7
Mode: 1
LetterboxInBreaks: 0
WidescreenStoryboard: 1

[Editor]
DistanceSpacing: 0.8
BeatDivisor: 16
GridSize: 8
TimelineZoom: 3.500004

[Metadata]
Title:Russia Ritual
TitleUnicode:Russia Ritual
Artist:Various Artists
ArtistUnicode:Various Artists
Creator:pavlukivan
Version:Nozdormu's Inner Oni
Source:
Tags:nog aether ussr anthem vodka matryoshka balalaika bear cyka blyat hardbass night_flower malinalliylover
BeatmapID:2133641
BeatmapSetID:1019635

[Difficulty]
HPDrainRate:4
CircleSize:7
OverallDifficulty:9
ApproachRate:8
SliderMultiplier:1.4
SliderTickRate:1

[Events]
//Background and Video events
0,0,"putin.png",0,0
//Break Periods
//Storyboard Layer 0 (Background)
//Storyboard Layer 1 (Fail)
//Storyboard Layer 2 (Pass)
//Storyboard Layer 3 (Foreground)
//Storyboard Layer 4 (Overlay)
//Storyboard Sound Samples

[TimingPoints]
12,238.095238095238,4,1,0,25,1,0
12,-125,4,1,0,100,0,0
476,-125,4,1,0,30,0,0
6666,-125,4,1,0,100,0,0
6904,-111.111111111111,4,1,0,100,0,0
7142,-100,4,1,0,100,0,0
7380,-90.9090909090909,4,1,0,100,0,0
7619,-100,4,1,0,50,0,0
15119,-100,4,1,0,70,0,0
38095,-100,4,1,0,100,0,0

[HitObjects]
256,192,12,5,4,0:0:0:0:
256,192,488,5,0,0:0:0:0:
256,192,726,1,0,0:0:0:0:
256,192,845,1,2,0:0:0:0:
256,192,964,1,0,0:0:0:0:
256,192,1678,1,0,0:0:0:0:
256,192,1916,1,0,0:0:0:0:
256,192,2392,1,0,0:0:0:0:
256,192,2631,1,0,0:0:0:0:
256,192,2750,1,2,0:0:0:0:
256,192,2869,1,0,0:0:0:0:
256,192,3226,1,0,0:0:0:0:
256,192,3583,1,0,0:0:0:0:
256,192,3821,1,0,0:0:0:0:
256,192,4297,1,0,0:0:0:0:
256,192,4535,1,0,0:0:0:0:
256,192,4654,1,2,0:0:0:0:
256,192,4773,1,0,0:0:0:0:
256,192,5488,1,0,0:0:0:0:
256,192,5607,1,2,0:0:0:0:
256,192,5726,1,0,0:0:0:0:
256,192,6440,1,0,0:0:0:0:
256,192,6559,1,2,0:0:0:0:
256,192,6678,1,4,0:0:0:0:
256,192,6916,1,4,0:0:0:0:
256,192,7154,1,4,0:0:0:0:
256,192,7392,1,4,0:0:0:0:
256,192,7631,1,0,0:0:0:0:
256,192,7690,1,2,0:0:0:0:
256,192,7750,1,0,0:0:0:0:
256,192,7809,1,2,0:0:0:0:
256,192,7869,1,0,0:0:0:0:
256,192,7898,1,0,0:0:0:0:
256,192,7988,1,0,0:0:0:0:
256,192,8017,1,0,0:0:0:0:
256,192,8107,1,2,0:0:0:0:
256,192,8136,1,2,0:0:0:0:
256,192,8226,1,0,0:0:0:0:
256,192,8256,1,0,0:0:0:0:
256,192,8345,1,0,0:0:0:0:
256,192,8375,1,0,0:0:0:0:
256,192,8583,1,0,0:0:0:0:
256,192,8642,1,0,0:0:0:0:
256,192,8702,1,2,0:0:0:0:
256,192,8761,1,2,0:0:0:0:
256,192,8821,1,0,0:0:0:0:
256,192,8851,1,0,0:0:0:0:
256,192,8940,1,0,0:0:0:0:
256,192,8970,1,0,0:0:0:0:
256,192,9059,1,2,0:0:0:0:
256,192,9089,1,2,0:0:0:0:
256,192,9178,1,2,0:0:0:0:
256,192,9208,1,2,0:0:0:0:
256,192,9297,1,0,0:0:0:0:
256,192,9327,1,0,0:0:0:0:
256,192,9535,1,0,0:0:0:0:
256,192,9595,1,2,0:0:0:0:
256,192,9654,1,2,0:0:0:0:
256,192,9714,1,2,0:0:0:0:
256,192,9773,1,0,0:0:0:0:
256,192,9803,1,0,0:0:0:0:
256,192,9892,1,2,0:0:0:0:
256,192,9922,1,2,0:0:0:0:
256,192,10011,1,0,0:0:0:0:
256,192,10041,1,0,0:0:0:0:
256,192,10131,1,2,0:0:0:0:
256,192,10160,1,2,0:0:0:0:
256,192,10250,1,0,0:0:0:0:
256,192,10279,1,0,0:0:0:0:
256,192,10488,1,0,0:0:0:0:
256,192,10517,1,2,0:0:0:0:
256,192,10607,1,0,0:0:0:0:
256,192,10636,1,2,0:0:0:0:
256,192,10726,1,0,0:0:0:0:
256,192,10756,1,2,0:0:0:0:
256,192,10845,1,0,0:0:0:0:
256,192,10875,1,0,0:0:0:0:
256,192,10964,1,2,0:0:0:0:
256,192,10994,1,2,0:0:0:0:
256,192,11083,1,2,0:0:0:0:
256,192,11113,1,2,0:0:0:0:
256,192,11202,1,0,0:0:0:0:
256,192,11232,1,0,0:0:0:0:
256,192,11440,1,0,0:0:0:0:
256,192,11480,1,0,0:0:0:0:
256,192,11519,1,0,0:0:0:0:
256,192,11559,1,2,0:0:0:0:
256,192,11619,1,2,0:0:0:0:
256,192,11678,1,0,0:0:0:0:
256,192,11708,1,0,0:0:0:0:
256,192,11916,1,6,0:0:0:0:
256,192,12035,1,2,0:0:0:0:
256,192,12154,1,4,0:0:0:0:
256,192,12392,1,0,0:0:0:0:
256,192,12422,1,0,0:0:0:0:
256,192,12511,1,2,0:0:0:0:
256,192,12541,1,2,0:0:0:0:
256,192,12631,1,2,0:0:0:0:
256,192,12660,1,2,0:0:0:0:
256,192,12750,1,0,0:0:0:0:
256,192,12779,1,0,0:0:0:0:
256,192,12869,1,0,0:0:0:0:
256,192,12898,1,0,0:0:0:0:
256,192,12988,1,2,0:0:0:0:
256,192,13017,1,2,0:0:0:0:
256,192,13107,1,0,0:0:0:0:
256,192,13136,1,0,0:0:0:0:
256,192,13345,1,0,0:0:0:0:
256,192,13424,1,2,0:0:0:0:
256,192,13504,1,2,0:0:0:0:
256,192,13583,1,0,0:0:0:0:
256,192,13613,1,0,0:0:0:0:
256,192,13702,1,2,0:0:0:0:
256,192,13732,1,2,0:0:0:0:
256,192,13821,1,2,0:0:0:0:
256,192,13851,1,2,0:0:0:0:
256,192,13940,1,2,0:0:0:0:
256,192,13970,1,2,0:0:0:0:
256,192,14059,1,0,0:0:0:0:
256,192,14089,1,0,0:0:0:0:
256,192,14297,1,0,0:0:0:0:
256,192,14357,1,2,0:0:0:0:
256,192,14416,1,0,0:0:0:0:
256,192,14476,1,2,0:0:0:0:
256,192,14535,1,2,0:0:0:0:
256,192,14595,1,0,0:0:0:0:
256,192,14654,1,2,0:0:0:0:
256,192,14714,1,0,0:0:0:0:
256,192,14773,1,0,0:0:0:0:
256,192,14833,1,2,0:0:0:0:
256,192,14892,1,0,0:0:0:0:
256,192,14952,1,2,0:0:0:0:
256,192,15011,1,0,0:0:0:0:
256,192,15131,1,0,0:0:0:0:
256,192,15250,1,2,0:0:0:0:
256,192,15289,1,2,0:0:0:0:
256,192,15329,1,2,0:0:0:0:
256,192,15369,1,0,0:0:0:0:
256,192,15428,1,0,0:0:0:0:
256,192,15488,1,2,0:0:0:0:
256,192,15547,1,2,0:0:0:0:
256,192,15607,1,0,0:0:0:0:
256,192,15666,1,0,0:0:0:0:
256,192,15726,1,0,0:0:0:0:
256,192,15785,1,2,0:0:0:0:
256,192,15845,1,0,0:0:0:0:
256,192,15904,1,2,0:0:0:0:
256,192,15964,1,0,0:0:0:0:
256,192,16023,1,0,0:0:0:0:
256,192,16083,1,2,0:0:0:0:
256,192,16142,1,2,0:0:0:0:
256,192,16202,1,0,0:0:0:0:
256,192,16242,1,0,0:0:0:0:
256,192,16281,1,0,0:0:0:0:
256,192,16321,1,2,0:0:0:0:
256,192,16381,1,2,0:0:0:0:
256,192,16440,1,0,0:0:0:0:
256,192,16500,1,2,0:0:0:0:
256,192,16559,1,0,0:0:0:0:
256,192,16619,1,2,0:0:0:0:
256,192,16678,1,2,0:0:0:0:
256,192,16738,1,2,0:0:0:0:
256,192,16797,1,0,0:0:0:0:
256,192,16857,1,2,0:0:0:0:
256,192,16916,1,2,0:0:0:0:
256,192,16976,1,2,0:0:0:0:
256,192,17035,1,0,0:0:0:0:
256,192,17095,1,2,0:0:0:0:
256,192,17154,1,0,0:0:0:0:
256,192,17194,1,2,0:0:0:0:
256,192,17234,1,2,0:0:0:0:
256,192,17273,1,0,0:0:0:0:
256,192,17313,1,2,0:0:0:0:
256,192,17353,1,2,0:0:0:0:
256,192,17392,1,0,0:0:0:0:
256,192,17452,1,2,0:0:0:0:
256,192,17511,1,2,0:0:0:0:
256,192,17571,1,2,0:0:0:0:
256,192,17631,1,2,0:0:0:0:
256,192,17690,1,0,0:0:0:0:
256,192,17750,1,2,0:0:0:0:
256,192,17809,1,2,0:0:0:0:
256,192,17869,1,0,0:0:0:0:
256,192,17928,1,2,0:0:0:0:
256,192,17988,1,2,0:0:0:0:
256,192,18047,1,2,0:0:0:0:
256,192,18107,1,0,0:0:0:0:
256,192,18166,1,0,0:0:0:0:
256,192,18226,1,0,0:0:0:0:
256,192,18285,1,0,0:0:0:0:
256,192,18345,1,0,0:0:0:0:
256,192,18404,1,0,0:0:0:0:
256,192,18464,1,0,0:0:0:0:
256,192,18523,1,0,0:0:0:0:
256,192,18583,1,2,0:0:0:0:
256,192,18821,1,0,0:0:0:0:
256,192,19059,1,2,0:0:0:0:
256,192,19099,1,2,0:0:0:0:
256,192,19138,1,2,0:0:0:0:
256,192,19178,1,0,0:0:0:0:
256,192,19238,1,0,0:0:0:0:
256,192,19297,1,2,0:0:0:0:
256,192,19357,1,2,0:0:0:0:
256,192,19416,1,0,0:0:0:0:
256,192,19476,1,2,0:0:0:0:
256,192,19535,1,2,0:0:0:0:
256,192,19595,1,2,0:0:0:0:
256,192,19654,1,0,0:0:0:0:
256,192,19714,1,2,0:0:0:0:
256,192,19773,1,0,0:0:0:0:
256,192,19833,1,2,0:0:0:0:
256,192,19892,1,0,0:0:0:0:
256,192,19952,1,0,0:0:0:0:
256,192,20011,1,2,0:0:0:0:
256,192,20051,1,0,0:0:0:0:
256,192,20091,1,0,0:0:0:0:
256,192,20131,1,2,0:0:0:0:
256,192,20190,1,2,0:0:0:0:
256,192,20250,1,0,0:0:0:0:
256,192,20309,1,0,0:0:0:0:
256,192,20369,1,0,0:0:0:0:
256,192,20428,1,0,0:0:0:0:
256,192,20488,1,2,0:0:0:0:
256,192,20547,1,2,0:0:0:0:
256,192,20607,1,0,0:0:0:0:
256,192,20666,1,0,0:0:0:0:
256,192,20726,1,0,0:0:0:0:
256,192,20785,1,0,0:0:0:0:
256,192,20845,1,2,0:0:0:0:
256,192,20904,1,2,0:0:0:0:
256,192,20964,1,0,0:0:0:0:
256,192,21004,1,0,0:0:0:0:
256,192,21043,1,0,0:0:0:0:
256,192,21083,1,0,0:0:0:0:
256,192,21142,1,2,0:0:0:0:
256,192,21202,1,2,0:0:0:0:
256,192,21261,1,2,0:0:0:0:
256,192,21321,1,2,0:0:0:0:
256,192,21381,1,0,0:0:0:0:
256,192,21440,1,0,0:0:0:0:
256,192,21500,1,0,0:0:0:0:
256,192,21559,1,0,0:0:0:0:
256,192,21619,1,2,0:0:0:0:
256,192,21678,1,2,0:0:0:0:
256,192,21738,1,2,0:0:0:0:
256,192,21797,1,2,0:0:0:0:
256,192,21857,1,2,0:0:0:0:
256,192,21916,1,0,0:0:0:0:
256,192,21956,1,0,0:0:0:0:
256,192,21996,1,0,0:0:0:0:
256,192,22035,1,0,0:0:0:0:
256,192,22075,1,0,0:0:0:0:
256,192,22115,1,0,0:0:0:0:
256,192,22154,1,0,0:0:0:0:
256,192,22194,1,0,0:0:0:0:
256,192,22234,1,0,0:0:0:0:
256,192,22273,1,0,0:0:0:0:
256,192,22313,1,0,0:0:0:0:
256,192,22353,1,0,0:0:0:0:
256,192,22392,1,2,0:0:0:0:
256,192,22631,1,0,0:0:0:0:
256,192,22869,1,2,0:0:0:0:
256,192,22908,1,2,0:0:0:0:
256,192,22948,1,2,0:0:0:0:
256,192,22988,1,0,0:0:0:0:
256,192,23047,1,0,0:0:0:0:
256,192,23107,1,2,0:0:0:0:
256,192,23166,1,0,0:0:0:0:
256,192,23226,1,2,0:0:0:0:
256,192,23285,1,0,0:0:0:0:
256,192,23345,1,2,0:0:0:0:
256,192,23404,1,2,0:0:0:0:
256,192,23464,1,2,0:0:0:0:
256,192,23523,1,2,0:0:0:0:
256,192,23583,1,0,0:0:0:0:
256,192,23642,1,2,0:0:0:0:
256,192,23702,1,2,0:0:0:0:
256,192,23761,1,2,0:0:0:0:
256,192,23821,1,0,0:0:0:0:
256,192,23861,1,0,0:0:0:0:
256,192,23900,1,0,0:0:0:0:
256,192,23940,1,2,0:0:0:0:
256,192,24000,1,2,0:0:0:0:
256,192,24059,1,0,0:0:0:0:
256,192,24119,1,0,0:0:0:0:
256,192,24178,1,0,0:0:0:0:
256,192,24238,1,0,0:0:0:0:
256,192,24297,1,0,0:0:0:0:
256,192,24357,1,0,0:0:0:0:
256,192,24416,1,2,0:0:0:0:
256,192,24476,1,2,0:0:0:0:
256,192,24535,1,0,0:0:0:0:
256,192,24595,1,0,0:0:0:0:
256,192,24654,1,2,0:0:0:0:
256,192,24714,1,2,0:0:0:0:
256,192,24773,1,0,0:0:0:0:
256,192,24813,1,2,0:0:0:0:
256,192,24853,1,2,0:0:0:0:
256,192,24892,1,0,0:0:0:0:
256,192,24952,1,0,0:0:0:0:
256,192,25011,1,2,0:0:0:0:
256,192,25071,1,0,0:0:0:0:
256,192,25131,1,2,0:0:0:0:
256,192,25190,1,2,0:0:0:0:
256,192,25250,1,0,0:0:0:0:
256,192,25309,1,2,0:0:0:0:
256,192,25369,1,0,0:0:0:0:
256,192,25428,1,0,0:0:0:0:
256,192,25488,1,2,0:0:0:0:
256,192,25547,1,0,0:0:0:0:
256,192,25607,1,2,0:0:0:0:
256,192,25666,1,2,0:0:0:0:
256,192,25726,1,0,0:0:0:0:
256,192,25765,1,0,0:0:0:0:
256,192,25805,1,0,0:0:0:0:
256,192,25845,1,2,0:0:0:0:
256,192,25904,1,2,0:0:0:0:
256,192,25964,1,0,0:0:0:0:
256,192,26023,1,0,0:0:0:0:
256,192,26083,1,2,0:0:0:0:
256,192,26142,1,2,0:0:0:0:
256,192,26202,1,0,0:0:0:0:
256,192,26440,1,0,0:0:0:0:
256,192,26678,1,2,0:0:0:0:
256,192,26718,1,2,0:0:0:0:
256,192,26758,1,2,0:0:0:0:
256,192,26797,1,0,0:0:0:0:
256,192,26857,1,0,0:0:0:0:
256,192,26916,1,0,0:0:0:0:
256,192,26976,1,0,0:0:0:0:
256,192,27035,1,2,0:0:0:0:
256,192,27095,1,0,0:0:0:0:
256,192,27154,1,0,0:0:0:0:
256,192,27214,1,2,0:0:0:0:
256,192,27273,1,0,0:0:0:0:
256,192,27333,1,0,0:0:0:0:
256,192,27392,1,0,0:0:0:0:
256,192,27452,1,0,0:0:0:0:
256,192,27511,1,2,0:0:0:0:
256,192,27571,1,2,0:0:0:0:
256,192,27631,1,0,0:0:0:0:
256,192,27670,1,0,0:0:0:0:
256,192,27710,1,0,0:0:0:0:
256,192,27750,1,2,0:0:0:0:
256,192,27809,1,2,0:0:0:0:
256,192,27869,1,0,0:0:0:0:
256,192,27928,1,0,0:0:0:0:
256,192,27988,1,0,0:0:0:0:
256,192,28047,1,0,0:0:0:0:
256,192,28107,1,2,0:0:0:0:
256,192,28166,1,0,0:0:0:0:
256,192,28226,1,0,0:0:0:0:
256,192,28285,1,0,0:0:0:0:
256,192,28345,1,2,0:0:0:0:
256,192,28404,1,0,0:0:0:0:
256,192,28464,1,0,0:0:0:0:
256,192,28523,1,0,0:0:0:0:
256,192,28583,1,2,0:0:0:0:
256,192,28623,1,2,0:0:0:0:
256,192,28662,1,2,0:0:0:0:
256,192,28702,1,2,0:0:0:0:
256,192,28742,1,2,0:0:0:0:
256,192,28781,1,2,0:0:0:0:
256,192,28821,1,2,0:0:0:0:
256,192,28881,1,0,0:0:0:0:
256,192,28940,1,2,0:0:0:0:
256,192,29000,1,0,0:0:0:0:
256,192,29059,1,0,0:0:0:0:
256,192,29119,1,2,0:0:0:0:
256,192,29178,1,2,0:0:0:0:
256,192,29238,1,0,0:0:0:0:
256,192,29297,1,2,0:0:0:0:
256,192,29357,1,0,0:0:0:0:
256,192,29416,1,0,0:0:0:0:
256,192,29476,1,2,0:0:0:0:
256,192,29535,1,0,0:0:0:0:
256,192,29575,1,0,0:0:0:0:
256,192,29615,1,0,0:0:0:0:
256,192,29654,1,2,0:0:0:0:
256,192,29714,1,2,0:0:0:0:
256,192,29773,1,0,0:0:0:0:
256,192,29813,1,0,0:0:0:0:
256,192,29853,1,0,0:0:0:0:
256,192,29892,1,2,0:0:0:0:
256,192,29952,1,2,0:0:0:0:
256,192,30011,1,0,0:0:0:0:
256,192,30051,1,0,0:0:0:0:
256,192,30091,1,0,0:0:0:0:
256,192,30131,1,2,0:0:0:0:
256,192,30190,1,2,0:0:0:0:
256,192,30250,1,0,0:0:0:0:
256,192,30289,1,0,0:0:0:0:
256,192,30329,1,0,0:0:0:0:
256,192,30369,1,2,0:0:0:0:
256,192,30488,1,0,0:0:0:0:
256,192,30547,1,0,0:0:0:0:
256,192,30607,1,2,0:0:0:0:
256,192,30666,1,2,0:0:0:0:
256,192,30726,1,0,0:0:0:0:
256,192,30785,1,0,0:0:0:0:
256,192,30845,1,2,0:0:0:0:
256,192,30904,1,2,0:0:0:0:
256,192,30964,1,0,0:0:0:0:
256,192,31023,1,0,0:0:0:0:
256,192,31083,1,0,0:0:0:0:
256,192,31142,1,0,0:0:0:0:
256,192,31202,1,2,0:0:0:0:
256,192,31261,1,2,0:0:0:0:
256,192,31321,1,2,0:0:0:0:
256,192,31381,1,2,0:0:0:0:
256,192,31440,1,0,0:0:0:0:
256,192,31678,1,0,0:0:0:0:
256,192,31916,1,0,0:0:0:0:
256,192,32154,1,0,0:0:0:0:
256,192,32392,1,0,0:0:0:0:
256,192,32452,1,2,0:0:0:0:
256,192,32511,1,2,0:0:0:0:
256,192,32571,1,2,0:0:0:0:
256,192,32631,1,0,0:0:0:0:
256,192,32690,1,2,0:0:0:0:
256,192,32750,1,2,0:0:0:0:
256,192,32809,1,2,0:0:0:0:
256,192,32869,1,0,0:0:0:0:
256,192,32928,1,2,0:0:0:0:
256,192,32988,1,2,0:0:0:0:
256,192,33047,1,2,0:0:0:0:
256,192,33107,1,0,0:0:0:0:
256,192,33166,1,2,0:0:0:0:
256,192,33226,1,2,0:0:0:0:
256,192,33285,1,2,0:0:0:0:
256,192,33345,1,0,0:0:0:0:
256,192,33583,1,0,0:0:0:0:
256,192,33821,1,0,0:0:0:0:
256,192,34059,1,0,0:0:0:0:
256,192,34297,1,0,0:0:0:0:
256,192,34357,1,2,0:0:0:0:
256,192,34416,1,0,0:0:0:0:
256,192,34476,1,2,0:0:0:0:
256,192,34535,1,0,0:0:0:0:
256,192,34595,1,0,0:0:0:0:
256,192,34654,1,2,0:0:0:0:
256,192,34714,1,0,0:0:0:0:
256,192,34773,1,2,0:0:0:0:
256,192,34833,1,0,0:0:0:0:
256,192,34892,1,2,0:0:0:0:
256,192,34952,1,2,0:0:0:0:
256,192,35011,1,0,0:0:0:0:
256,192,35071,1,2,0:0:0:0:
256,192,35131,1,0,0:0:0:0:
256,192,35190,1,2,0:0:0:0:
256,192,35250,1,0,0:0:0:0:
256,192,35488,1,0,0:0:0:0:
256,192,35726,1,0,0:0:0:0:
256,192,35964,1,0,0:0:0:0:
256,192,36202,1,0,0:0:0:0:
256,192,36261,1,0,0:0:0:0:
256,192,36321,1,0,0:0:0:0:
256,192,36381,1,0,0:0:0:0:
256,192,36440,1,2,0:0:0:0:
256,192,36500,1,2,0:0:0:0:
256,192,36559,1,2,0:0:0:0:
256,192,36619,1,2,0:0:0:0:
256,192,36678,1,0,0:0:0:0:
256,192,36738,1,0,0:0:0:0:
256,192,36797,1,0,0:0:0:0:
256,192,36857,1,0,0:0:0:0:
256,192,36916,1,2,0:0:0:0:
256,192,36976,1,2,0:0:0:0:
256,192,37035,1,2,0:0:0:0:
256,192,37095,1,2,0:0:0:0:
256,192,37154,1,0,0:0:0:0:
256,192,37392,1,0,0:0:0:0:
256,192,37631,1,0,0:0:0:0:
256,192,37869,1,0,0:0:0:0:
256,192,38107,1,4,0:0:0:0:
