osu file format v14

[General]
AudioFilename: audio.mp3
AudioLeadIn: 0
PreviewTime: 15011
Countdown: 1
SampleSet: Normal
StackLeniency: 0.7
Mode: 1
LetterboxInBreaks: 0
WidescreenStoryboard: 1

[Editor]
DistanceSpacing: 0.8
BeatDivisor: 8
GridSize: 8
TimelineZoom: 3.500004

[Metadata]
Title:Russia Ritual
TitleUnicode:Russia Ritual
Artist:Various Artists
ArtistUnicode:Various Artists
Creator:pavlukivan
Version:Muzukashii
Source:
Tags:nog aether ussr anthem vodka matryoshka balalaika bear cyka blyat hardbass night_flower malinalliylover
BeatmapID:2133708
BeatmapSetID:1019635

[Difficulty]
HPDrainRate:5
CircleSize:7
OverallDifficulty:7
ApproachRate:8
SliderMultiplier:1.4
SliderTickRate:1

[Events]
//Background and Video events
0,0,"putin.png",0,0
//Break Periods
//Storyboard Layer 0 (Background)
//Storyboard Layer 1 (Fail)
//Storyboard Layer 2 (Pass)
//Storyboard Layer 3 (Foreground)
//Storyboard Layer 4 (Overlay)
//Storyboard Sound Samples

[TimingPoints]
12,238.095238095238,4,1,0,25,1,0

[HitObjects]
256,192,12,5,4,0:0:0:0:
256,192,488,5,0,0:0:0:0:
256,192,726,1,0,0:0:0:0:
256,192,964,1,8,0:0:0:0:
256,192,1678,1,0,0:0:0:0:
256,192,1916,1,0,0:0:0:0:
256,192,2392,1,0,0:0:0:0:
256,192,2631,1,0,0:0:0:0:
256,192,2869,1,8,0:0:0:0:
256,192,3226,1,8,0:0:0:0:
256,192,3583,1,0,0:0:0:0:
256,192,3821,1,8,0:0:0:0:
256,192,4297,1,0,0:0:0:0:
256,192,4535,1,8,0:0:0:0:
256,192,4773,1,0,0:0:0:0:
256,192,5488,1,0,0:0:0:0:
256,192,5726,1,8,0:0:0:0:
256,192,6440,1,8,0:0:0:0:
256,192,6678,1,8,0:0:0:0:
256,192,6708,1,8,0:0:0:0:
256,192,6916,1,8,0:0:0:0:
256,192,6946,1,8,0:0:0:0:
256,192,7154,1,0,0:0:0:0:
256,192,7184,1,0,0:0:0:0:
256,192,7392,1,0,0:0:0:0:
256,192,7422,1,0,0:0:0:0:
256,192,7631,1,8,0:0:0:0:
256,192,7660,1,8,0:0:0:0:
256,192,7750,1,0,0:0:0:0:
256,192,7869,1,8,0:0:0:0:
256,192,7988,1,0,0:0:0:0:
256,192,8107,1,8,0:0:0:0:
256,192,8136,1,8,0:0:0:0:
256,192,8226,1,8,0:0:0:0:
256,192,8345,1,0,0:0:0:0:
256,192,8583,1,8,0:0:0:0:
256,192,8613,1,8,0:0:0:0:
256,192,8702,1,0,0:0:0:0:
256,192,8821,1,0,0:0:0:0:
256,192,8940,1,8,0:0:0:0:
256,192,9059,1,8,0:0:0:0:
256,192,9178,1,0,0:0:0:0:
256,192,9297,1,8,0:0:0:0:
256,192,9535,1,0,0:0:0:0:
256,192,9565,1,0,0:0:0:0:
256,192,9654,1,0,0:0:0:0:
256,192,9773,1,8,0:0:0:0:
256,192,9892,1,0,0:0:0:0:
256,192,10011,1,0,0:0:0:0:
256,192,10131,1,8,0:0:0:0:
256,192,10250,1,8,0:0:0:0:
256,192,10488,1,8,0:0:0:0:
256,192,10517,1,8,0:0:0:0:
256,192,10607,1,0,0:0:0:0:
256,192,10726,1,0,0:0:0:0:
256,192,10756,1,0,0:0:0:0:
256,192,10845,1,0,0:0:0:0:
256,192,10964,1,8,0:0:0:0:
256,192,10994,1,8,0:0:0:0:
256,192,11083,1,8,0:0:0:0:
256,192,11202,1,0,0:0:0:0:
256,192,11410,1,8,0:0:0:0:
256,192,11440,1,8,0:0:0:0:
256,192,11559,1,0,0:0:0:0:
256,192,11678,1,8,0:0:0:0:
256,192,11916,1,0,0:0:0:0:
256,192,12035,1,8,0:0:0:0:
256,192,12065,1,8,0:0:0:0:
256,192,12154,1,8,0:0:0:0:
256,192,12392,1,8,0:0:0:0:
256,192,12511,1,0,0:0:0:0:
256,192,12631,1,8,0:0:0:0:
256,192,12750,1,8,0:0:0:0:
256,192,12779,1,8,0:0:0:0:
256,192,12869,1,8,0:0:0:0:
256,192,12988,1,0,0:0:0:0:
256,192,13017,1,0,0:0:0:0:
256,192,13107,1,0,0:0:0:0:
256,192,13345,1,8,0:0:0:0:
256,192,13375,1,8,0:0:0:0:
256,192,13464,1,0,0:0:0:0:
256,192,13583,1,8,0:0:0:0:
256,192,13702,1,0,0:0:0:0:
256,192,13821,1,8,0:0:0:0:
256,192,13940,1,0,0:0:0:0:
256,192,14059,1,8,0:0:0:0:
256,192,14297,1,8,0:0:0:0:
256,192,14327,1,8,0:0:0:0:
256,192,14416,1,8,0:0:0:0:
256,192,14446,1,8,0:0:0:0:
256,192,14535,1,8,0:0:0:0:
256,192,14654,1,8,0:0:0:0:
256,192,14684,1,8,0:0:0:0:
256,192,14773,1,8,0:0:0:0:
256,192,14892,1,8,0:0:0:0:
256,192,14922,1,8,0:0:0:0:
256,192,15011,1,8,0:0:0:0:
256,192,15131,1,0,0:0:0:0:
256,192,15250,1,8,0:0:0:0:
256,192,15279,1,8,0:0:0:0:
256,192,15369,1,8,0:0:0:0:
256,192,15488,1,0,0:0:0:0:
256,192,15607,1,0,0:0:0:0:
256,192,15726,1,8,0:0:0:0:
256,192,15756,1,8,0:0:0:0:
256,192,15845,1,8,0:0:0:0:
256,192,15964,1,0,0:0:0:0:
256,192,16083,1,0,0:0:0:0:
256,192,16202,1,0,0:0:0:0:
256,192,16232,1,0,0:0:0:0:
256,192,16321,1,0,0:0:0:0:
256,192,16440,1,0,0:0:0:0:
256,192,16559,1,0,0:0:0:0:
256,192,16678,1,8,0:0:0:0:
256,192,16708,1,8,0:0:0:0:
256,192,16797,1,8,0:0:0:0:
256,192,16916,1,0,0:0:0:0:
256,192,17035,1,0,0:0:0:0:
256,192,17154,1,8,0:0:0:0:
256,192,17184,1,8,0:0:0:0:
256,192,17273,1,0,0:0:0:0:
256,192,17392,1,0,0:0:0:0:
256,192,17511,1,0,0:0:0:0:
256,192,17631,1,8,0:0:0:0:
256,192,17660,1,8,0:0:0:0:
256,192,17750,1,8,0:0:0:0:
256,192,17869,1,0,0:0:0:0:
256,192,17988,1,8,0:0:0:0:
256,192,18018,1,8,0:0:0:0:
256,192,18107,1,8,0:0:0:0:
256,192,18137,1,8,0:0:0:0:
256,192,18226,1,0,0:0:0:0:
256,192,18345,1,0,0:0:0:0:
256,192,18464,1,0,0:0:0:0:
256,192,18583,1,8,0:0:0:0:
256,192,18702,1,0,0:0:0:0:
256,192,18732,1,0,0:0:0:0:
256,192,18821,1,0,0:0:0:0:
256,192,18940,1,0,0:0:0:0:
256,192,19059,1,8,0:0:0:0:
256,192,19089,1,8,0:0:0:0:
256,192,19178,1,8,0:0:0:0:
256,192,19297,1,8,0:0:0:0:
256,192,19416,1,8,0:0:0:0:
256,192,19535,1,8,0:0:0:0:
256,192,19565,1,8,0:0:0:0:
256,192,19654,1,0,0:0:0:0:
256,192,19773,1,0,0:0:0:0:
256,192,19892,1,0,0:0:0:0:
256,192,20011,1,8,0:0:0:0:
256,192,20041,1,8,0:0:0:0:
256,192,20131,1,0,0:0:0:0:
256,192,20250,1,8,0:0:0:0:
256,192,20369,1,8,0:0:0:0:
256,192,20488,1,8,0:0:0:0:
256,192,20518,1,8,0:0:0:0:
256,192,20607,1,0,0:0:0:0:
256,192,20726,1,8,0:0:0:0:
256,192,20845,1,8,0:0:0:0:
256,192,20875,1,8,0:0:0:0:
256,192,20964,1,8,0:0:0:0:
256,192,21083,1,0,0:0:0:0:
256,192,21202,1,8,0:0:0:0:
256,192,21321,1,0,0:0:0:0:
256,192,21440,1,8,0:0:0:0:
256,192,21559,1,0,0:0:0:0:
256,192,21589,1,0,0:0:0:0:
256,192,21678,1,0,0:0:0:0:
256,192,21797,1,8,0:0:0:0:
256,192,21916,1,8,0:0:0:0:
256,192,22035,1,0,0:0:0:0:
256,192,22154,1,0,0:0:0:0:
256,192,22273,1,0,0:0:0:0:
256,192,22392,1,8,0:0:0:0:
256,192,22422,1,8,0:0:0:0:
256,192,22511,1,8,0:0:0:0:
256,192,22631,1,8,0:0:0:0:
256,192,22750,1,8,0:0:0:0:
256,192,22869,1,8,0:0:0:0:
256,192,22898,1,8,0:0:0:0:
256,192,22988,1,8,0:0:0:0:
256,192,23107,1,8,0:0:0:0:
256,192,23136,1,8,0:0:0:0:
256,192,23226,1,8,0:0:0:0:
256,192,23345,1,0,0:0:0:0:
256,192,23374,1,0,0:0:0:0:
256,192,23464,1,0,0:0:0:0:
256,192,23583,1,8,0:0:0:0:
256,192,23613,1,8,0:0:0:0:
256,192,23702,1,8,0:0:0:0:
256,192,23821,1,8,0:0:0:0:
256,192,23850,1,8,0:0:0:0:
256,192,23940,1,8,0:0:0:0:
256,192,24059,1,0,0:0:0:0:
256,192,24088,1,0,0:0:0:0:
256,192,24178,1,0,0:0:0:0:
256,192,24297,1,8,0:0:0:0:
256,192,24326,1,8,0:0:0:0:
256,192,24416,1,8,0:0:0:0:
256,192,24535,1,8,0:0:0:0:
256,192,24564,1,8,0:0:0:0:
256,192,24654,1,8,0:0:0:0:
256,192,24773,1,8,0:0:0:0:
256,192,24802,1,8,0:0:0:0:
256,192,24892,1,8,0:0:0:0:
256,192,25011,1,0,0:0:0:0:
256,192,25040,1,0,0:0:0:0:
256,192,25131,1,0,0:0:0:0:
256,192,25250,1,8,0:0:0:0:
256,192,25279,1,8,0:0:0:0:
256,192,25369,1,8,0:0:0:0:
256,192,25488,1,0,0:0:0:0:
256,192,25517,1,0,0:0:0:0:
256,192,25607,1,0,0:0:0:0:
256,192,25726,1,8,0:0:0:0:
256,192,25755,1,8,0:0:0:0:
256,192,25845,1,8,0:0:0:0:
256,192,25964,1,8,0:0:0:0:
256,192,25993,1,8,0:0:0:0:
256,192,26083,1,8,0:0:0:0:
256,192,26202,1,0,0:0:0:0:
256,192,26231,1,0,0:0:0:0:
256,192,26321,1,0,0:0:0:0:
256,192,26440,1,0,0:0:0:0:
256,192,26469,1,0,0:0:0:0:
256,192,26559,1,0,0:0:0:0:
256,192,26678,1,8,0:0:0:0:
256,192,26707,1,8,0:0:0:0:
256,192,26797,1,8,0:0:0:0:
256,192,26916,1,0,0:0:0:0:
256,192,26945,1,0,0:0:0:0:
256,192,27035,1,0,0:0:0:0:
256,192,27154,1,8,0:0:0:0:
256,192,27183,1,8,0:0:0:0:
256,192,27273,1,8,0:0:0:0:
256,192,27392,1,0,0:0:0:0:
256,192,27421,1,0,0:0:0:0:
256,192,27511,1,0,0:0:0:0:
256,192,27631,1,8,0:0:0:0:
256,192,27660,1,8,0:0:0:0:
256,192,27750,1,8,0:0:0:0:
256,192,27869,1,0,0:0:0:0:
256,192,27988,1,0,0:0:0:0:
256,192,28107,1,0,0:0:0:0:
256,192,28136,1,0,0:0:0:0:
256,192,28226,1,0,0:0:0:0:
256,192,28345,1,0,0:0:0:0:
256,192,28374,1,0,0:0:0:0:
256,192,28464,1,0,0:0:0:0:
256,192,28583,1,8,0:0:0:0:
256,192,28612,1,8,0:0:0:0:
256,192,28702,1,8,0:0:0:0:
256,192,28821,1,8,0:0:0:0:
256,192,28940,1,0,0:0:0:0:
256,192,29059,1,8,0:0:0:0:
256,192,29088,1,8,0:0:0:0:
256,192,29178,1,8,0:0:0:0:
256,192,29297,1,0,0:0:0:0:
256,192,29326,1,0,0:0:0:0:
256,192,29416,1,0,0:0:0:0:
256,192,29535,1,0,0:0:0:0:
256,192,29564,1,0,0:0:0:0:
256,192,29773,1,0,0:0:0:0:
256,192,29802,1,0,0:0:0:0:
256,192,30011,1,0,0:0:0:0:
256,192,30040,1,0,0:0:0:0:
256,192,30250,1,0,0:0:0:0:
256,192,30279,1,0,0:0:0:0:
256,192,30488,1,8,0:0:0:0:
256,192,30517,1,8,0:0:0:0:
256,192,30726,1,0,0:0:0:0:
256,192,30964,1,0,0:0:0:0:
256,192,31202,1,8,0:0:0:0:
256,192,31440,1,8,0:0:0:0:
256,192,31470,1,8,0:0:0:0:
256,192,31678,1,0,0:0:0:0:
256,192,31797,1,0,0:0:0:0:
256,192,31916,1,0,0:0:0:0:
256,192,32154,1,0,0:0:0:0:
256,192,32392,1,8,0:0:0:0:
256,192,32422,1,8,0:0:0:0:
256,192,32869,1,0,0:0:0:0:
256,192,33107,1,0,0:0:0:0:
256,192,33136,1,0,0:0:0:0:
256,192,33345,1,0,0:0:0:0:
256,192,33702,1,0,0:0:0:0:
256,192,33731,1,0,0:0:0:0:
256,192,33821,1,0,0:0:0:0:
256,192,33850,1,0,0:0:0:0:
256,192,34059,1,0,0:0:0:0:
256,192,34297,1,8,0:0:0:0:
256,192,34327,1,8,0:0:0:0:
256,192,34535,1,0,0:0:0:0:
256,192,34654,1,0,0:0:0:0:
256,192,34773,1,0,0:0:0:0:
256,192,35011,1,0,0:0:0:0:
256,192,35250,1,8,0:0:0:0:
256,192,35279,1,8,0:0:0:0:
256,192,35488,1,0,0:0:0:0:
256,192,35547,1,0,0:0:0:0:
256,192,35607,1,0,0:0:0:0:
256,192,35726,1,0,0:0:0:0:
256,192,35964,1,8,0:0:0:0:
256,192,35993,1,8,0:0:0:0:
256,192,36202,1,8,0:0:0:0:
256,192,36231,1,8,0:0:0:0:
256,192,36321,1,0,0:0:0:0:
256,192,36440,1,0,0:0:0:0:
256,192,36559,1,0,0:0:0:0:
256,192,36678,1,0,0:0:0:0:
256,192,36916,1,0,0:0:0:0:
256,192,37154,1,0,0:0:0:0:
256,192,37511,1,0,0:0:0:0:
256,192,37631,1,0,0:0:0:0:
256,192,37869,1,0,0:0:0:0:
256,192,38107,1,12,0:0:0:0:
