osu file format v14

[General]
AudioFilename: audio.mp3
AudioLeadIn: 0
PreviewTime: 180862
Countdown: 0
SampleSet: Soft
StackLeniency: 0.7
Mode: 0
LetterboxInBreaks: 0
WidescreenStoryboard: 0

[Editor]
Bookmarks: 13448,33140,42986,52832,62678,72524,82371,102063,111909,121755,131617,141463,151324,171016,180862,190708,209016,215170
DistanceSpacing: 1.6
BeatDivisor: 8
GridSize: 4
TimelineZoom: 1.4

[Metadata]
Title:Rolling Girl
TitleUnicode:ローリンガール
Artist:Various Artists
ArtistUnicode:Various Artists
Creator:Shidoni
Version:Sincerity in your voice
Source:
Tags:wowaka vocaloid hatsune miku rock japanese cover mashup G-san Gさん vipTenchou vip店長 Kanipan. かにぱん。 Limone-Sensei リモーネ先生 Korosuke 転少女 Yuge 湯毛 Gom ゴム yonji Rumdarjun らむだーじゃん Tightson タイツォン Mijinko ミジンコ Nodoame のど飴 Yamadan やまだん niconico douga Nico Chorus メビウス Moebius アンデルセン Andersen ピストン Piston チョリス Choris 金☆ヨンス Kin*Yonsu Band Arrange Arrangement バンドアレンジ dtm9 nowa dtm9_nowa kkipalt
BeatmapID:2021287
BeatmapSetID:965620

[Difficulty]
HPDrainRate:5
CircleSize:4.5
OverallDifficulty:9
ApproachRate:9.6
SliderMultiplier:1.8
SliderTickRate:1

[Events]
//Background and Video events
0,0,"wa.jpg",0,0
Video,98,"video.mp4"
//Break Periods
//Storyboard Layer 0 (Background)
//Storyboard Layer 1 (Fail)
//Storyboard Layer 2 (Pass)
//Storyboard Layer 3 (Foreground)
//Storyboard Layer 4 (Overlay)
//Storyboard Sound Samples

[TimingPoints]
2335,314.136125654451,4,2,4,50,1,0
2335,-200,4,2,4,50,0,0
3591,307.692307692308,4,2,4,50,1,0
3898,-100,4,2,4,50,0,0
6052,312.5,4,2,4,50,1,0
8395,304.568527918782,4,2,4,50,1,0
8496,312.5,4,2,4,50,1,0
10605,-100,4,2,4,5,0,0
10996,304.568527918782,4,2,4,50,1,0
12214,295.566502463054,4,2,4,50,1,0
12805,307.692307692308,4,2,4,50,1,0
13035,-100,4,2,4,65,0,0
13343,-100,4,2,4,5,0,0
13420,312.5,4,2,4,50,1,0
13448,-100,4,2,4,65,0,0
13654,-100,4,2,4,5,0,0
13732,-95.2380952380952,4,2,4,65,0,0
13966,-95.2380952380952,4,2,4,5,0,0
14045,-95.2380952380952,4,2,4,65,0,0
14201,-95.2380952380952,4,2,4,65,0,0
14513,309.278350515464,4,2,4,65,1,0
14744,-100,4,2,4,5,0,0
14822,-100,4,2,4,65,0,0
14976,-95.2380952380952,4,2,4,65,0,0
15750,304.568527918782,4,2,4,65,1,0
15978,-100,4,2,4,5,0,0
16054,-100,4,2,4,65,0,0
16206,-95.2380952380952,4,2,4,65,0,0
16435,-95.2380952380952,4,2,4,5,0,0
16511,-95.2380952380952,4,2,4,65,0,0
16968,309.278350515464,5,2,4,65,1,0
17199,-100,5,2,4,5,0,0
17277,-100,5,2,4,65,0,0
17586,-95.2380952380952,5,2,4,65,0,0
18359,310.880829015544,4,2,4,65,1,0
19370,-100,4,2,4,5,0,0
19447,307.692307692308,4,2,4,65,1,0
19677,-100,4,2,4,5,0,0
19754,-100,4,2,4,65,0,0
19908,-95.2380952380952,4,2,4,65,0,0
20677,312.5,4,2,4,65,1,0
20911,-100,4,2,4,5,0,0
20989,-95.2380952380952,4,2,4,65,0,0
21927,303.030303030303,4,2,4,65,1,0
21927,-80,4,2,4,65,0,0
22154,-80,4,2,4,5,0,0
22230,-83.3333333333333,4,2,4,65,0,0
22457,-83.3333333333333,4,2,4,5,0,0
22533,306.122448979592,4,2,4,65,1,0
22533,-86.9565217391304,4,2,4,65,0,0
22990,-90.9090909090909,4,2,4,65,0,0
23296,307.692307692308,4,2,4,65,1,0
23526,-100,4,2,4,5,0,0
23603,-95.2380952380952,4,2,4,65,0,0
24372,306.122448979592,4,2,4,65,1,0
24601,-100,4,2,4,5,0,0
24678,-100,4,2,4,65,0,0
24831,-95.2380952380952,4,2,4,65,0,0
25596,307.692307692308,4,2,4,65,1,0
25826,-100,4,2,4,5,0,0
25903,-100,4,2,4,65,0,0
26057,-95.2380952380952,4,2,4,65,0,0
26826,303.030303030303,4,2,4,65,1,0
27053,-100,4,2,4,5,0,0
27129,-95.2380952380952,4,2,4,65,0,0
27583,312.5,4,2,4,65,1,0
28208,312.5,4,2,4,65,1,0
28520,-95.2380952380952,4,2,4,65,0,0
28833,-95.2380952380952,4,2,4,67,0,0
29458,303.030303030303,4,2,4,65,1,0
30064,-100,4,2,4,71,0,0
30367,-95.2380952380952,4,2,4,71,0,0
30821,-95.2380952380952,4,2,4,73,0,0
31427,-95.2380952380952,4,2,4,75,0,0
31730,307.692307692308,4,2,4,75,1,0
32806,320.855614973262,4,2,4,45,1,0
33126,320.855614973262,4,2,4,45,1,0
33126,-133.333333333334,4,2,4,40,0,0
33607,-133.333333333334,4,2,4,5,0,0
33767,307.692307692308,4,2,4,40,1,0
33767,-125,4,2,4,40,0,0
34228,-125,4,2,4,5,0,0
34382,319.148936170213,4,2,4,40,1,0
34382,-222.222222222223,4,2,4,40,0,0
35179,-222.222222222223,4,2,4,5,0,0
35259,-153.846153846154,4,2,4,40,0,0
35658,312.5,4,2,4,40,1,0
35658,-153.846153846154,4,2,4,40,0,0
36283,306.122448979592,4,2,4,40,1,0
36283,-153.846153846154,4,2,4,40,0,0
36742,303.030303030303,4,2,4,40,1,0
36742,-181.818181818182,4,2,4,40,0,0
37423,-181.818181818182,4,2,4,5,0,0
37802,306.122448979592,4,2,4,40,1,0
37802,-142.857142857143,4,2,4,40,0,0
38108,-153.846153846154,4,2,4,40,0,0
38720,310.880829015544,4,2,4,40,1,0
38720,-153.846153846154,4,2,4,40,0,0
39108,-153.846153846154,4,2,4,5,0,0
39341,307.692307692308,4,2,4,55,1,0
39341,-166.666666666667,4,2,4,40,0,0
41493,267.857142857143,4,2,4,55,1,0
41494,-100,4,2,4,55,0,0
41760,300,4,2,4,55,1,0
41760,-133.333333333333,4,2,4,50,0,0
42360,309.278350515463,4,2,4,55,1,0
42978,314.136125654449,4,2,4,55,1,0
43135,-100,4,2,4,65,0,0
43527,-100,4,2,4,5,0,0
43606,-100,4,2,4,65,0,0
43841,-100,4,2,4,5,0,0
43920,-100,4,2,4,65,0,0
44077,306.122448979591,5,2,4,65,1,0
44306,-100,5,2,4,5,0,0
44383,-100,5,2,4,65,0,0
45454,307.692307692307,4,2,4,65,1,0
46530,306.122448979591,5,2,4,65,1,0
46759,-100,5,2,4,5,0,0
46836,-100,5,2,4,65,0,0
47065,-100,5,2,4,5,0,0
47142,-100,5,2,4,65,0,0
47907,303.030303030302,4,2,4,65,1,0
48437,-100,4,2,4,5,0,0
48513,-100,4,2,4,65,0,0
48967,312.499999999999,5,2,4,65,1,0
49201,-100,5,2,4,5,0,0
49279,-100,5,2,4,65,0,0
50373,310.880829015543,4,2,4,65,1,0
50606,-100,4,2,4,5,0,0
50683,-100,4,2,4,65,0,0
50917,-100,4,2,4,5,0,0
50994,-100,4,2,4,65,0,0
51616,306.122448979591,4,2,4,65,1,0
52840,304.568527918781,4,2,4,65,1,0
53068,-100,4,2,4,5,0,0
53144,-95.2380952380952,4,2,4,70,0,0
53372,-95.2380952380952,4,2,4,5,0,0
53449,-95.2380952380952,4,2,4,70,0,0
53905,309.278350515463,4,2,4,70,1,0
54136,-100,4,2,4,5,0,0
54214,-100,4,2,4,70,0,0
54678,-95.2380952380952,4,2,4,70,0,0
55142,307.692307692307,4,2,4,70,1,0
55372,-100,4,2,4,5,0,0
55449,-100,4,2,4,70,0,0
55603,-95.2380952380952,4,2,4,70,0,0
56372,306.122448979591,4,2,4,70,1,0
56601,-100,4,2,4,5,0,0
56678,-100,4,2,4,70,0,0
56831,-95.2380952380952,4,2,4,70,0,0
56984,312.499999999999,4,2,4,70,1,0
57762,307.692307692307,4,2,4,70,1,0
59531,-100,4,2,4,5,0,0
59608,-100,4,2,4,70,0,0
60069,301.507537688441,4,2,4,75,1,0
60219,-71.4285714285714,4,2,4,70,0,0
60521,-80,4,2,4,70,0,0
60822,304.56852791878,4,2,4,70,1,0
60822,-71.4285714285714,4,2,4,70,0,0
61278,307.692307692306,4,2,4,70,1,0
61278,-54.054054054054,4,2,4,70,0,0
62047,312.499999999998,4,2,4,70,1,0
62672,314.136125654448,4,2,4,70,1,0
62678,-100,4,2,4,70,0,0
62907,-100,4,2,4,5,0,0
62986,-100,4,2,4,70,0,0
63928,307.692307692306,4,2,4,65,1,0
66235,304.56852791878,5,2,4,65,1,0
67605,309.278350515462,4,2,4,65,1,0
68842,307.692307692306,4,2,4,65,1,0
69765,304.56852791878,5,2,4,65,1,0
71135,312.499999999998,4,2,4,65,1,0
71916,303.030303030301,4,2,4,65,1,0
72522,310.880829015542,4,2,4,65,1,0
73143,-95.2380952380952,4,2,4,70,0,0
73610,309.278350515462,4,2,4,70,1,0
74847,306.12244897959,4,2,4,70,1,0
76071,309.278350515462,5,2,4,70,1,0
77385,-100,5,2,4,5,0,0
77462,306.12244897959,4,2,4,70,1,0
77462,-95.2380952380952,4,2,4,70,0,0
77691,-95.2380952380952,4,2,4,5,0,0
77768,-95.2380952380952,4,2,4,70,0,0
77997,-95.2380952380952,4,2,4,5,0,0
78074,-95.2380952380952,4,2,4,70,0,0
78686,309.278350515462,4,2,4,70,1,0
79923,307.692307692306,4,2,4,70,1,0
81153,304.56852791878,4,2,4,65,1,0
81457,-100,4,2,4,80,0,0
82371,307.692307692306,4,2,4,75,1,0
82371,-86.9565217391304,4,2,4,80,0,1
82601,-86.9565217391304,4,2,4,5,0,1
82678,-86.9565217391304,4,2,4,80,0,1
82909,-86.9565217391304,4,2,4,5,0,1
82986,-86.9565217391304,4,2,4,80,0,1
83678,-86.9565217391304,4,2,4,5,0,1
83755,-86.9565217391304,4,2,4,80,0,1
84677,306.12244897959,4,2,4,80,1,1
84678,-86.9565217391304,4,2,4,80,0,1
84907,-86.9565217391304,4,2,4,5,0,1
84983,-86.9565217391304,4,2,4,80,0,1
85901,310.880829015542,5,2,4,80,1,1
85901,-86.9565217391304,5,2,4,80,0,1
86134,-86.9565217391304,5,2,4,5,0,1
86211,-86.9565217391304,5,2,4,80,0,1
87299,306.12244897959,4,2,4,80,1,1
87299,-86.9565217391304,4,2,4,80,0,1
87528,-86.9565217391304,4,2,4,5,0,1
87605,-86.9565217391304,4,2,4,80,0,1
87834,-86.9565217391304,4,2,4,5,0,1
87911,-86.9565217391304,4,2,4,80,0,1
88370,310.880829015542,4,2,4,80,1,1
88370,-86.9565217391304,4,2,4,80,0,1
88603,-86.9565217391304,4,2,4,5,0,1
88680,-86.9565217391304,4,2,4,80,0,1
89069,-86.9565217391304,4,2,4,5,0,1
89147,-86.9565217391304,4,2,4,80,0,1
89613,306.12244897959,4,2,4,80,1,1
89613,-86.9565217391304,4,2,4,80,0,1
89842,-86.9565217391304,4,2,4,5,0,1
89919,-86.9565217391304,4,2,4,80,0,1
90837,304.56852791878,4,2,4,80,1,1
90837,-86.9565217391304,4,2,4,80,0,1
91065,-86.9565217391304,4,2,4,5,0,1
91141,-86.9565217391304,4,2,4,80,0,1
91598,310.880829015542,4,2,4,80,1,1
91598,-80,4,2,4,80,0,1
92219,309.278350515462,4,2,4,80,1,1
92219,-86.9565217391304,4,2,4,80,0,1
92450,-86.9565217391304,4,2,4,5,0,1
92528,-86.9565217391304,4,2,4,80,0,1
92760,-86.9565217391304,4,2,4,5,0,1
92837,-86.9565217391304,4,2,4,80,0,1
93301,307.692307692306,4,2,4,80,1,1
93531,-100,4,2,4,5,0,1
93608,-100,4,2,4,80,0,1
93762,-86.9565217391304,4,2,4,80,0,1
94531,309.278350515462,4,2,4,80,1,1
94531,-86.9565217391304,4,2,4,80,0,1
94762,-86.9565217391304,4,2,4,5,0,1
94840,-86.9565217391304,4,2,4,80,0,1
95768,307.692307692306,4,2,4,80,1,1
95768,-86.9565217391304,4,2,4,80,0,1
95998,-86.9565217391304,4,2,4,5,0,1
96075,-86.9565217391304,4,2,4,80,0,1
96537,314.136125654449,4,2,4,80,1,1
96537,-86.9565217391304,4,2,4,80,0,1
97165,309.278350515463,4,2,4,80,1,1
97783,-100,4,2,4,82,0,1
98092,-86.9565217391304,4,2,4,82,0,1
98402,306.122448979591,4,2,4,80,1,1
99014,-100,4,2,4,84,0,1
99320,-86.9565217391304,4,2,4,84,0,1
99626,-86.9565217391304,4,2,4,85,0,1
100238,-86.9565217391304,4,2,4,90,0,1
100697,312.499999999999,4,2,4,80,1,0
100697,-86.9565217391304,4,2,4,90,0,1
101478,306.122448979591,4,2,4,80,1,0
102090,307.692307692307,4,2,4,65,1,0
102090,-95.2380952380952,4,2,4,65,0,0
102320,-95.2380952380952,4,2,4,5,0,0
102397,-95.2380952380952,4,2,4,65,0,0
102628,-95.2380952380952,4,2,4,5,0,0
102705,-95.2380952380952,4,2,4,65,0,0
103397,-95.2380952380952,4,2,4,5,0,0
103474,-95.2380952380952,4,2,4,65,0,0
104396,306.122448979591,4,2,4,65,1,0
104396,-95.2380952380952,4,2,4,65,0,0
104625,-95.2380952380952,4,2,4,5,0,0
104702,-95.2380952380952,4,2,4,65,0,0
105620,309.278350515463,5,2,4,65,1,0
105620,-95.2380952380952,5,2,4,65,0,0
105851,-95.2380952380952,5,2,4,5,0,0
105929,-95.2380952380952,5,2,4,65,0,0
107011,304.568527918781,4,2,4,65,1,0
107011,-95.2380952380952,4,2,4,65,0,0
107239,-95.2380952380952,4,2,4,5,0,0
107315,-95.2380952380952,4,2,4,65,0,0
107543,-95.2380952380952,4,2,4,5,0,0
107620,-95.2380952380952,4,2,4,65,0,0
108076,309.278350515463,4,2,4,65,1,0
108076,-95.2380952380952,4,2,4,65,0,0
108307,-95.2380952380952,4,2,4,5,0,0
108385,-95.2380952380952,4,2,4,65,0,0
109313,303.030303030302,4,2,4,65,1,0
109540,-100,4,2,4,5,0,0
109616,-100,4,2,4,65,0,0
109767,-95.2380952380952,4,2,4,65,0,0
110525,314.136125654449,4,2,4,50,1,0
110525,-95.2380952380952,4,2,4,65,0,0
110760,-95.2380952380952,4,2,4,5,0,0
110839,-117.647058823529,4,2,4,50,0,0
111310,315.789473684209,4,2,4,60,1,0
111625,-117.647058823529,4,2,4,60,0,0
111941,307.692307692306,4,2,4,60,1,0
112094,-105.263157894737,4,2,4,60,0,0
113017,303.030303030301,5,2,4,60,1,0
113017,-105.263157894737,5,2,4,60,0,0
114380,309.278350515462,4,2,4,60,1,0
114998,-105.263157894737,4,2,4,60,0,0
116854,303.030303030301,4,2,4,60,1,0
117005,-105.263157894737,4,2,4,60,0,0
117914,312.499999999998,5,2,4,60,1,0
117914,-105.263157894737,5,2,4,60,0,0
119320,306.12244897959,4,2,4,60,1,0
120391,312.499999999998,4,2,4,60,1,0
121328,297.029702970295,4,2,4,60,1,0
121476,307.692307692306,4,2,4,60,1,0
121783,307.692307692306,4,2,4,75,1,0
122629,-100,4,2,4,5,0,0
122706,-100,4,2,4,65,0,0
122859,304.56852791878,4,2,4,75,1,0
123087,-100,4,2,4,5,0,0
123163,-100,4,2,4,65,0,0
123848,-100,4,2,4,5,0,0
123924,-100,4,2,4,65,0,0
124077,303.030303030301,5,2,4,75,1,0
125440,319.148936170211,4,2,4,75,1,0
126557,306.12244897959,4,2,4,75,1,0
126786,-100,4,2,4,5,0,0
126863,-100,4,2,4,65,0,0
127781,306.12244897959,5,2,4,75,1,0
128010,-100,5,2,4,5,0,0
128087,-100,5,2,4,65,0,0
129081,-100,5,2,4,5,0,0
129158,310.880829015542,4,2,4,75,1,0
130401,303.030303030301,4,2,4,75,1,0
130779,-100,4,2,4,5,0,0
130855,-100,4,2,4,65,0,0
131007,306.12244897959,4,2,4,75,1,0
131007,-100,4,2,4,75,0,0
131619,307.692307692306,4,2,4,75,1,0
131849,-100,4,2,4,5,0,0
131926,-100,4,2,4,70,0,0
132849,310.880829015542,4,2,4,75,1,0
133937,304.56852791878,4,2,4,75,1,0
135155,309.278350515462,5,2,4,75,1,0
136546,306.12244897959,4,2,4,75,1,0
136775,-100,4,2,4,5,0,0
136852,-100,4,2,4,70,0,0
137081,-100,4,2,4,5,0,0
137158,-100,4,2,4,70,0,0
137770,312.499999999998,4,2,4,75,1,0
138707,304.56852791878,5,2,4,75,1,0
138935,-100,5,2,4,5,0,0
139011,-100,5,2,4,70,0,0
139239,-100,5,2,4,5,0,0
139316,-100,5,2,4,70,0,0
139544,-100,5,2,4,5,0,0
139620,-100,5,2,4,70,0,0
140077,307.692307692306,5,2,4,75,1,0
141461,304.56852791878,4,2,4,75,1,0
141689,-100,4,2,4,5,0,0
141765,-100,4,2,4,70,0,0
141993,-100,4,2,4,5,0,0
142070,-100,4,2,4,70,0,0
142526,312.499999999998,4,2,4,75,1,0
142760,-100,4,2,4,5,0,0
142838,-100,4,2,4,70,0,0
143776,309.278350515462,4,2,4,75,1,0
144007,-100,4,2,4,5,0,0
144085,-100,4,2,4,70,0,0
145013,306.12244897959,5,2,4,75,1,0
145242,-100,5,2,4,5,0,0
145319,-100,5,2,4,70,0,0
146390,309.278350515462,4,2,4,75,1,0
146621,-100,4,2,4,5,0,0
146699,-100,4,2,4,70,0,0
146931,-100,4,2,4,5,0,0
147008,-100,4,2,4,70,0,0
147627,310.880829015542,4,2,4,75,1,0
147860,-100,4,2,4,5,0,0
147937,-100,4,2,4,70,0,0
148171,-100,4,2,4,5,0,0
148248,-100,4,2,4,70,0,0
150113,303.030303030301,4,2,4,75,1,0
150719,-100,4,2,4,85,0,0
151022,-142.857142857143,4,2,4,30,0,0
151325,307.692307692306,4,2,4,80,1,0
151325,-83.3333333333333,4,2,4,80,0,1
151555,-83.3333333333333,4,2,4,5,0,1
151632,-83.3333333333333,4,2,4,80,0,1
151863,-83.3333333333333,4,2,4,5,0,1
151940,-83.3333333333333,4,2,4,80,0,1
152401,310.880829015542,4,2,4,80,1,1
152401,-83.3333333333333,4,2,4,80,0,1
152634,-83.3333333333333,4,2,4,5,0,1
152711,-83.3333333333333,4,2,4,80,0,1
153100,-83.3333333333333,4,2,4,5,0,1
153178,-83.3333333333333,4,2,4,80,0,1
153644,304.56852791878,4,2,4,80,1,1
153644,-83.3333333333333,4,2,4,80,0,1
153872,-83.3333333333333,4,2,4,5,0,1
153948,-83.3333333333333,4,2,4,80,0,1
154862,310.880829015542,5,2,4,80,1,1
154862,-83.3333333333333,5,2,4,80,0,1
155095,-83.3333333333333,5,2,4,5,0,1
155172,-83.3333333333333,5,2,4,80,0,1
155561,-83.3333333333333,5,2,4,5,0,1
155639,-83.3333333333333,5,2,4,80,0,1
156260,304.56852791878,4,2,4,80,1,1
156260,-83.3333333333333,4,2,4,80,0,1
156488,-83.3333333333333,4,2,4,5,0,1
156564,-83.3333333333333,4,2,4,80,0,1
157325,306.12244897959,4,2,4,80,1,1
157325,-83.3333333333333,4,2,4,80,0,1
157554,-83.3333333333333,4,2,4,5,0,1
157631,-83.3333333333333,4,2,4,80,0,1
158013,-83.3333333333333,4,2,4,5,0,1
158090,-83.3333333333333,4,2,4,80,0,1
158549,304.56852791878,4,2,4,80,1,1
158549,-83.3333333333333,4,2,4,80,0,1
158777,-83.3333333333333,4,2,4,5,0,1
158853,-83.3333333333333,4,2,4,80,0,1
159767,307.692307692306,4,2,4,80,1,1
159767,-83.3333333333333,4,2,4,80,0,1
159997,-83.3333333333333,4,2,4,5,0,1
160074,-83.3333333333333,4,2,4,80,0,1
160536,312.499999999998,4,2,4,80,1,1
160536,-83.3333333333333,4,2,4,80,0,1
161161,312.499999999998,4,2,4,80,1,1
161161,-83.3333333333333,4,2,4,80,0,1
161395,-83.3333333333333,4,2,4,5,0,1
161473,-83.3333333333333,4,2,4,80,0,1
161707,-83.3333333333333,4,2,4,5,0,1
161786,-83.3333333333333,4,2,4,80,0,1
162254,309.278350515462,4,2,4,80,1,1
162254,-83.3333333333333,4,2,4,80,0,1
162485,-83.3333333333333,4,2,4,5,0,1
162563,-83.3333333333333,4,2,4,80,0,1
163491,304.56852791878,4,2,4,80,1,1
163491,-83.3333333333333,4,2,4,80,0,1
163719,-83.3333333333333,4,2,4,5,0,1
163795,-83.3333333333333,4,2,4,80,0,1
164709,301.50753768844,4,2,4,80,1,1
164709,-83.3333333333333,4,2,4,80,0,1
164935,-83.3333333333333,4,2,4,5,0,1
165010,-83.3333333333333,4,2,4,80,0,1
165462,307.692307692306,4,2,4,80,1,1
166077,312.499999999998,4,2,4,80,1,1
166077,-83.3333333333333,4,2,4,80,0,1
166311,-83.3333333333333,4,2,4,5,0,1
166389,-83.3333333333333,4,2,4,80,0,1
166623,-83.3333333333333,4,2,4,5,0,1
166702,-83.3333333333333,4,2,4,80,0,1
167327,304.56852791878,4,2,4,80,1,1
167327,-83.3333333333333,4,2,4,80,0,1
167859,-83.3333333333333,4,2,4,5,0,1
167936,-83.3333333333333,4,2,4,80,0,1
169078,-83.3333333333333,4,2,4,5,0,1
169154,-83.3333333333333,4,2,4,80,0,1
169610,312.499999999998,4,2,4,80,1,1
169766,-83.3333333333333,4,2,4,80,0,1
170391,309.278350515462,4,2,4,80,1,0
170545,-83.3333333333333,4,2,4,80,0,0
171009,312.499999999998,4,2,4,65,1,0
171009,-111.111111111111,4,2,4,65,0,0
172102,307.692307692306,4,2,4,65,1,0
172102,-111.111111111111,4,2,4,65,0,0
173332,306.12244897959,4,2,4,65,1,0
173332,-111.111111111111,4,2,4,65,0,0
174556,304.56852791878,5,2,4,65,1,0
175926,314.136125654448,4,2,4,65,1,0
175926,-111.111111111111,4,2,4,65,0,0
177025,307.692307692306,4,2,4,65,1,0
177025,-111.111111111111,4,2,4,65,0,0
178255,312.499999999998,4,2,4,65,1,0
178255,-111.111111111111,4,2,4,65,0,0
179505,299.999999999998,4,2,4,65,1,0
180255,306.12244897959,4,2,4,65,1,0
180867,291.262135922328,4,2,4,65,1,0
181158,309.278350515462,4,2,4,65,1,0
181158,-83.3333333333333,4,2,4,65,0,1
181389,-83.3333333333333,4,2,4,5,0,1
181467,-83.3333333333333,4,2,4,80,0,1
181931,307.692307692306,4,2,4,80,1,1
181931,-83.3333333333333,4,2,4,80,0,1
182161,-83.3333333333333,4,2,4,5,0,1
182238,-83.3333333333333,4,2,4,80,0,1
183161,306.12244897959,4,2,4,80,1,1
183161,-83.3333333333333,4,2,4,80,0,1
183390,-83.3333333333333,4,2,4,5,0,1
183467,-83.3333333333333,4,2,4,80,0,1
184385,314.136125654449,4,2,4,80,1,1
184385,-83.3333333333333,4,2,4,80,0,1
184620,-83.3333333333333,4,2,4,5,0,1
184699,-83.3333333333333,4,2,4,80,0,1
185170,317.460317460316,4,2,4,80,1,1
185727,-100,4,2,4,5,0,1
185804,306.12244897959,4,2,4,80,1,1
186416,-100,4,2,4,82,0,1
186722,-83.3333333333333,4,2,4,82,0,1
187028,307.692307692306,4,2,4,85,1,1
187643,-100,4,2,4,84,0,1
187951,-83.3333333333333,4,2,4,84,0,1
188258,306.12244897959,4,2,4,85,1,1
188870,-100,4,2,4,90,0,1
189329,309.278350515462,4,2,4,85,1,1
189329,-76.9230769230769,4,2,4,90,0,1
190023,-76.9230769230769,4,2,4,5,0,1
190102,310.880829015542,4,2,4,85,1,0
190723,309.278350515462,4,2,4,65,1,0
190954,-100,4,2,4,5,0,0
191032,-95.2380952380952,4,2,4,65,0,0
191264,-95.2380952380952,4,2,4,5,0,0
191341,-95.2380952380952,4,2,4,65,0,0
191805,306.12244897959,4,2,4,65,1,0
192034,-100,4,2,4,5,0,0
192111,-100,4,2,4,65,0,0
192264,-95.2380952380952,4,2,4,65,0,0
193029,307.692307692306,4,2,4,65,1,0
193259,-100,4,2,4,5,0,0
193336,-100,4,2,4,65,0,0
193490,-95.2380952380952,4,2,4,65,0,0
193721,-95.2380952380952,4,2,4,5,0,0
193798,-95.2380952380952,4,2,4,65,0,0
194259,309.278350515462,5,2,4,65,1,0
194490,-100,5,2,4,5,0,0
194568,-100,5,2,4,65,0,0
194722,-95.2380952380952,5,2,4,65,0,0
195650,310.880829015542,4,2,4,65,1,0
196738,306.12244897959,4,2,4,65,1,0
196967,-100,4,2,4,5,0,0
197044,-100,4,2,4,65,0,0
197197,-95.2380952380952,4,2,4,65,0,0
198192,-95.2380952380952,4,2,4,5,0,0
198268,-95.2380952380952,4,2,4,65,0,0
199186,304.56852791878,5,2,4,65,1,0
199414,-100,5,2,4,5,0,0
199490,-86.9565217391304,5,2,4,65,0,0
199718,-86.9565217391304,5,2,4,5,0,0
199795,-90.9090909090909,5,2,4,65,0,0
200023,-90.9090909090909,5,2,4,5,0,0
200099,-90.9090909090909,5,2,4,65,0,0
200556,309.278350515462,4,2,4,65,1,0
200787,-100,4,2,4,5,0,0
200865,-95.2380952380952,4,2,4,65,0,0
201097,-95.2380952380952,4,2,4,5,0,0
201174,-95.2380952380952,4,2,4,65,0,0
201638,306.12244897959,4,2,4,65,1,0
201867,-100,4,2,4,5,0,0
201944,-100,4,2,4,65,0,0
202097,-95.2380952380952,4,2,4,65,0,0
202862,309.278350515462,4,2,4,65,1,0
203093,-100,4,2,4,5,0,0
203171,-100,4,2,4,65,0,0
203325,-95.2380952380952,4,2,4,65,0,0
204099,307.692307692306,4,2,4,65,1,0
204868,315.789473684209,4,2,4,65,1,0
205400,-100,4,2,4,5,0,0
205499,307.692307692306,4,2,4,65,1,0
206114,-100,4,2,4,69,0,0
206422,-95.2380952380952,4,2,4,69,0,0
206729,303.030303030301,4,2,4,65,1,0
207335,-100,4,2,4,73,0,0
207638,-95.2380952380952,4,2,4,73,0,0
207941,306.12244897959,4,2,4,65,1,0
208553,-100,4,2,4,80,0,0
209012,309.278350515462,4,2,4,65,1,0
210249,-100,4,2,4,55,0,0
211176,-100,4,2,4,50,0,0
212104,-100,4,2,4,45,0,0
213032,-100,4,2,4,35,0,0
213960,-100,4,2,4,25,0,0
214579,-100,4,2,4,20,0,0
214888,-100,4,2,4,15,0,0
215042,-100,4,2,4,10,0,0
215197,-100,4,2,4,5,0,0

[Colours]
Combo1 : 222,56,126
Combo2 : 185,208,197
Combo3 : 206,203,176
Combo4 : 164,160,197

[HitObjects]
137,155,2335,6,0,P|128:122|120:104,1,45,2|0,0:0|0:0,0:0:0:0:
31,222,2649,2,0,P|40:189|51:174,1,45,2|0,0:0|0:0,0:0:0:0:
146,242,2963,2,0,P|137:275|126:290,1,45,2|0,0:0|0:0,0:0:0:0:
40,309,3277,2,0,P|49:342|60:357,1,45,2|0,0:0|0:0,0:0:0:0:
31,222,3591,6,0,L|42:126,1,90,6|0,0:0|0:0,0:0:0:0:
271,357,3898,2,0,L|264:277,2,45,6|0|0,0:0|0:0|0:0,0:0:0:0:
456,111,6052,6,0,L|356:122,1,90,6|0,0:0|0:0,0:0:0:0:
160,22,6364,2,0,L|236:28,2,45,6|0|0,0:0|0:0|0:0,0:0:0:0:
171,232,8395,5,2,0:0:0:0:
296,171,8496,1,14,0:0:0:0:
256,192,8574,12,0,10839,0:0:0:0:
321,354,10996,6,0,L|325:237,1,90,6|0,0:0|0:0,0:0:0:0:
237,98,11300,2,0,L|244:174,2,45,6|0|0,0:0|0:0|0:0,0:0:0:0:
184,198,12214,5,10,0:0:0:0:
118,32,12435,1,10,0:0:0:0:
268,69,12657,1,10,0:0:0:0:
41,108,12805,2,0,P|30:171|61:212,1,112.5,8|0,0:0|0:0,0:0:0:0:
87,251,13112,2,0,P|43:234|26:164,1,90,4|0,0:0|0:0,0:0:0:0:
6,47,13420,6,0,B|81:13|80:81|162:41,1,135,14|0,0:1|0:0,0:0:0:0:
218,12,13732,2,0,P|181:20|148:65,1,94.499997116089,10|0,0:0|0:0,0:0:0:0:
171,197,14045,1,10,0:1:0:0:
370,101,14201,2,0,L|481:88,1,94.499997116089,8|10,0:1|0:0,0:0:0:0:
349,217,14513,6,0,B|294:225|294:225|265:251|265:251|184:264,1,135,14|0,0:1|0:0,0:0:0:0:
190,286,14822,1,10,0:1:0:0:
391,295,14976,2,0,P|430:254|430:209,1,94.499997116089,10|0,0:0|0:0,0:0:0:0:
228,180,15286,1,10,0:1:0:0:
171,362,15440,2,0,L|68:376,1,94.499997116089,10|8,0:1|0:0,0:0:0:0:
55,158,15750,6,0,P|120:183|119:268,1,135,14|0,0:1|0:0,0:0:0:0:
105,277,16054,1,10,0:1:0:0:
184,112,16206,2,0,B|220:91|220:91|320:123,1,141.749995674133,10|0,0:0|0:0,0:0:0:0:
333,165,16511,1,14,0:1:0:0:
436,0,16663,2,0,L|427:113,1,94.499997116089,10|8,0:1|0:0,0:0:0:0:
342,260,16968,6,0,B|427:217|406:296|495:249,1,135,14|0,0:1|0:0,0:0:0:0:
483,216,17277,1,8,0:1:0:0:
381,332,17431,1,8,0:0:0:0:
428,94,17586,2,0,P|459:129|454:183,1,94.499997116089,10|0,0:1|0:0,0:0:0:0:
226,121,17895,1,10,0:0:0:0:
249,316,18050,1,8,0:1:0:0:
299,170,18205,1,10,0:0:0:0:
299,170,18282,1,8,0:0:0:0:
299,170,18359,6,0,L|400:155,1,90,14|10,0:1|0:1,0:0:0:0:
164,207,18669,2,0,P|116:155|124:97,1,90,10|0,0:0|0:0,0:0:0:0:
224,21,18980,1,10,0:1:0:0:
160,222,19136,2,0,P|101:161|99:121,1,90,10|8,0:1|0:0,0:0:0:0:
276,119,19447,6,0,B|269:177|269:177|280:213|280:213|271:285,1,135,14|0,0:1|0:0,0:0:0:0:
250,289,19754,1,10,0:1:0:0:
365,153,19908,2,0,P|369:96|342:49,1,94.499997116089,10|0,0:0|0:0,0:0:0:0:
214,23,20216,1,10,0:1:0:0:
308,217,20370,2,0,B|352:234|352:234|416:223,1,94.499997116089,8|10,0:1|0:0,0:0:0:0:
495,75,20677,6,0,P|468:40|355:57,1,135,14|0,0:1|0:0,0:0:0:0:
346,64,20989,1,10,0:1:0:0:
469,223,21145,1,10,0:0:0:0:
270,213,21302,1,10,0:1:0:0:
468,222,21458,1,2,0:0:0:0:
270,213,21614,2,0,P|246:258|260:308,1,94.499997116089,8|8,0:1|0:0,0:0:0:0:
258,108,21927,6,0,L|86:91,1,168.75,14|0,0:0|0:0,0:0:0:0:
0,202,22230,2,0,L|172:187,1,161.999995056153,14|0,0:0|0:0,0:0:0:0:
303,182,22533,2,0,B|332:153|332:153|318:27,1,155.250002961159,14|0,0:1|0:0,0:0:0:0:
196,103,22839,1,10,0:0:0:0:
196,103,22915,1,8,0:0:0:0:
196,103,22992,2,0,P|169:101|147:108,1,49.5000015106202,8|0,0:0|0:0,0:0:0:0:
39,277,23145,1,8,0:0:0:0:
29,303,23221,1,8,0:0:0:0:
29,330,23296,6,0,B|116:314|81:375|167:358,1,135,14|0,0:1|0:0,0:0:0:0:
195,274,23603,2,0,P|167:296|173:362,1,94.499997116089,10|0,0:0|0:0,0:0:0:0:
320,265,23911,1,10,0:1:0:0:
268,94,24065,2,0,L|259:-11,1,94.499997116089,10|8,0:1|0:0,0:0:0:0:
416,146,24372,6,0,B|410:208|410:208|422:243|422:243|421:300,1,135,14|0,0:1|0:0,0:0:0:0:
397,317,24678,1,10,0:1:0:0:
496,154,24831,2,0,P|492:98|439:63,1,94.499997116089,10|0,0:0|0:0,0:0:0:0:
292,69,25137,1,10,0:1:0:0:
401,227,25290,2,0,L|500:240,1,94.499997116089,10|8,0:1|0:0,0:0:0:0:
311,329,25596,6,0,L|158:351,1,135,14|0,0:1|0:0,0:0:0:0:
143,377,25903,1,10,0:1:0:0:
171,171,26057,2,0,P|187:230|179:272,1,94.499997116089,10|0,0:0|0:0,0:0:0:0:
5,243,26365,1,14,0:1:0:0:
109,74,26519,2,0,B|152:43|152:43|226:41,1,94.499997116089,10|8,0:1|0:0,0:0:0:0:
309,121,26826,6,0,B|344:137|344:137|233:132,1,135,14|0,0:1|0:0,0:0:0:0:
209,112,27129,1,8,0:0:0:0:
221,281,27280,1,8,0:0:0:0:
57,311,27432,2,0,P|18:284|14:232,1,94.499997116089,8|12,0:1|0:0,0:0:0:0:
128,365,27739,1,2,0:0:0:0:
61,152,27895,2,0,L|190:141,1,90,14|0,0:0|0:0,0:0:0:0:
331,114,28208,5,14,0:0:0:0:
195,258,28364,1,8,0:0:0:0:
259,140,28520,1,0,0:0:0:0:
281,220,28676,1,0,0:0:0:0:
132,72,28833,5,10,0:0:0:0:
331,114,28989,1,8,0:0:0:0:
227,55,29145,1,0,0:0:0:0:
259,140,29301,1,0,0:0:0:0:
439,24,29458,5,10,0:0:0:0:
432,235,29609,1,8,0:0:0:0:
491,99,29761,1,0,0:0:0:0:
403,155,29912,1,0,0:0:0:0:
505,345,30064,5,10,0:0:0:0:
284,325,30215,1,8,0:0:0:0:
422,298,30367,1,0,0:0:0:0:
355,384,30518,1,0,0:0:0:0:
271,176,30670,5,10,0:0:0:0:
137,371,30821,1,8,0:0:0:0:
201,232,30973,1,0,0:0:0:0:
284,325,31124,1,0,0:0:0:0:
75,208,31276,5,10,0:0:0:0:
313,230,31427,1,10,0:0:0:0:
94,90,31579,1,10,0:0:0:0:
306,92,31730,2,0,B|403:67|373:142|478:118|478:118|433:160|422:240|446:270|446:270|452:242|469:225,1,360,10|0,0:0|0:0,0:0:0:0:
419,230,33126,6,0,B|443:272|418:330|418:330|343:308|328:269,1,202.500007724762,6|0,0:0|0:0,0:0:0:0:
336,76,33767,2,0,B|360:34|423:27|423:27|441:102|411:137,1,216,2|0,0:0|0:0,0:0:0:0:
249,209,34382,2,0,B|210:208|180:168|180:168|225:125|261:132,1,161.999995056153,2|0,0:0|0:0,0:0:0:0:
335,185,35339,2,0,P|340:229|325:263,1,58.4999973220826,2|2,0:0|0:0,0:0:0:0:
253,319,35658,6,0,B|201:297|193:349|137:323,2,116.999994644165,2|2|2,0:0|0:0|0:0,0:0:0:0:
76,291,36436,1,2,0:0:0:0:
76,291,36742,2,0,B|52:219|86:155|173:148|194:191|187:245|144:255,1,247.500007553101,2|0,0:0|0:0,0:0:0:0:
88,54,37802,2,0,L|93:131,1,62.9999980773926,2|0,0:0|0:0,0:0:0:0:
159,248,38108,6,0,L|167:128,1,116.999994644165,2|0,0:0|0:0,0:0:0:0:
311,0,38720,2,0,P|348:-1|401:127,1,175.499991966248,2|0,0:0|0:0,0:0:0:0:
264,172,39341,2,0,P|314:102|379:227,1,269.999991760254,2|0,0:0|0:0,0:0:0:0:
335,168,40264,1,2,0:0:0:0:
467,257,40417,6,0,B|312:200|305:368|150:292,1,323.999990112305,2|0,0:0|0:0,0:0:0:0:
161,297,41494,1,2,0:0:0:0:
297,176,41626,1,2,0:0:0:0:
255,250,41760,6,0,P|227:224|221:184,1,67.5000025749208,10|0,0:1|0:0,0:0:0:0:
345,110,42060,2,0,P|378:154|370:187,1,67.5000025749208,10|8,0:1|0:1,0:0:0:0:
359,239,42285,1,8,0:1:0:0:
359,239,42360,1,10,0:0:0:0:
273,73,42514,1,0,0:0:0:0:
407,289,42669,2,0,P|364:312|299:275,1,90,10|0,0:0|0:0,0:0:0:0:
211,142,42978,5,14,0:1:0:0:
286,321,43135,1,0,0:0:0:0:
109,278,43292,2,0,L|94:127,1,135,8|0,0:0|0:0,0:0:0:0:
118,72,43606,2,0,P|186:87|209:147,1,135,8|0,0:1|0:0,0:0:0:0:
181,208,43920,1,10,0:0:0:0:
301,78,44077,6,0,B|356:75|356:75|386:53|386:53|450:51,1,135,10|0,0:1|0:0,0:0:0:0:
499,32,44383,1,8,0:1:0:0:
402,244,44536,2,0,P|386:191|402:139,1,90,8|0,0:0|0:0,0:0:0:0:
369,344,44842,1,2,0:0:0:0:
476,191,44995,1,8,0:1:0:0:
281,209,45148,2,0,L|180:221,1,90,10|0,0:0|0:0,0:0:0:0:
48,273,45454,5,10,0:1:0:0:
175,129,45607,1,0,0:0:0:0:
124,360,45761,2,0,P|143:309|132:232,1,90,10|0,0:0|0:0,0:0:0:0:
43,76,46069,2,0,P|24:127|35:204,1,90,10|0,0:1|0:0,0:0:0:0:
126,13,46377,1,10,0:0:0:0:
19,192,46530,6,0,B|52:186|79:217|79:217|111:199|145:213,1,135,10|0,0:1|0:0,0:0:0:0:
181,317,46836,2,0,P|135:276|177:204,1,135,8|0,0:0|0:0,0:0:0:0:
220,182,47142,1,10,0:1:0:0:
337,307,47295,2,0,P|385:288|410:247,1,90,10|0,0:0|0:0,0:0:0:0:
405,29,47601,2,0,P|360:44|335:85,1,90,10|0,0:0|0:0,0:0:0:0:
475,247,47907,5,10,0:1:0:0:
408,102,48058,1,0,0:0:0:0:
217,229,48210,2,0,B|291:267|279:193|361:237,1,135,8|0,0:0|0:0,0:0:0:0:
406,257,48513,1,8,0:1:0:0:
185,326,48664,2,0,P|136:302|118:254,1,90,2|10,0:0|0:0,0:0:0:0:
248,74,48967,6,0,B|227:47|227:47|104:33,1,135,10|0,0:1|0:0,0:0:0:0:
59,59,49279,1,8,0:1:0:0:
174,220,49435,2,0,L|181:128,1,90,8|0,0:0|0:0,0:0:0:0:
104,297,49748,1,2,0:0:0:0:
275,187,49904,1,8,0:1:0:0:
76,149,50060,2,0,P|22:169|5:212,1,90,10|0,0:0|0:0,0:0:0:0:
54,367,50373,6,0,B|122:371|122:371|148:359|148:359|222:366,1,135,10|0,0:1|0:0,0:0:0:0:
229,302,50683,2,0,P|292:268|345:302,1,135,8|0,0:0|0:0,0:0:0:0:
365,368,50994,1,8,0:1:0:0:
423,234,51150,1,2,0:0:0:0:
193,288,51305,2,0,P|176:241|181:217,1,45,10|0,0:0|0:0,0:0:0:0:
326,123,51461,2,0,P|343:170|338:194,1,45,2|0,0:0|0:0,0:0:0:0:
168,19,51616,5,14,0:0:0:0:
122,201,51769,1,0,0:0:0:0:
275,49,51922,1,8,0:0:0:0:
318,35,51998,1,8,0:0:0:0:
362,43,52075,1,8,0:0:0:0:
397,70,52151,1,8,0:0:0:0:
415,111,52228,6,0,P|387:121|358:117,3,45,10|8|8|8,0:0|0:0|0:0|0:0,0:0:0:0:
256,207,52534,6,0,P|284:217|313:213,3,45,10|8|10|8,0:0|0:0|0:0|0:0,0:0:0:0:
391,344,52840,6,0,B|331:371|331:371|236:357,1,135,14|0,0:0|0:0,0:0:0:0:
192,327,53144,2,0,P|176:259|257:193,1,141.749995674133,10|0,0:0|0:0,0:0:0:0:
256,207,53449,1,10,0:1:0:0:
32,177,53601,2,0,L|150:166,1,94.499997116089,10|8,0:1|0:0,0:0:0:0:
233,0,53905,6,0,P|142:23|137:84,1,135,6|0,0:0|0:0,0:0:0:0:
173,115,54214,1,10,0:1:0:0:
68,3,54368,1,10,0:0:0:0:
32,177,54523,1,0,0:0:0:0:
58,26,54678,1,10,0:1:0:0:
190,131,54832,1,10,0:0:0:0:
190,131,54910,1,8,0:0:0:0:
190,131,54987,2,0,L|183:194,1,47.2499985580445,10|0,0:0|0:0,0:0:0:0:
173,341,55142,6,0,P|112:320|136:232,1,135,6|0,0:0|0:0,0:0:0:0:
164,204,55449,1,8,0:1:0:0:
300,371,55603,2,0,L|419:348,1,94.499997116089,8|0,0:0|0:0,0:0:0:0:
497,268,55911,1,6,0:0:0:0:
453,373,56065,1,2,0:0:0:0:
391,240,56218,1,10,0:0:0:0:
297,384,56372,6,0,B|261:343|261:343|266:240,1,135,6|0,0:0|0:0,0:0:0:0:
295,198,56678,1,10,0:1:0:0:
169,267,56831,1,10,0:0:0:0:
316,122,56984,2,0,P|295:63|234:40,1,90,2|0,0:0|0:0,0:0:0:0:
111,161,57296,1,10,0:1:0:0:
186,9,57452,1,10,0:0:0:0:
234,173,57609,1,8,0:0:0:0:
234,173,57687,1,8,0:0:0:0:
234,173,57762,5,6,0:0:0:0:
255,162,57838,1,2,0:0:0:0:
278,156,57915,1,2,0:0:0:0:
306,159,57992,1,2,0:0:0:0:
330,172,58069,1,10,0:0:0:0:
356,192,58146,1,2,0:0:0:0:
391,204,58223,1,2,0:0:0:0:
428,202,58300,1,2,0:0:0:0:
461,184,58377,1,2,0:0:0:0:
486,149,58454,1,2,0:0:0:0:
492,107,58531,1,2,0:0:0:0:
473,68,58608,1,2,0:0:0:0:
440,40,58685,6,0,P|396:23|368:31,1,45,10|0,0:0|0:0,0:0:0:0:
234,172,58838,2,0,P|190:189|162:181,1,45,6|0,0:0|0:0,0:0:0:0:
396,113,58992,1,2,0:0:0:0:
421,154,59069,1,2,0:0:0:0:
428,202,59146,1,2,0:0:0:0:
424,250,59223,1,2,0:0:0:0:
407,295,59300,6,0,B|394:336|347:359|347:359|327:332|291:325,1,135,10|2,0:0|0:0,0:0:0:0:
131,308,59608,2,0,L|253:288,1,90,2|0,0:0|0:0,0:0:0:0:
317,253,59838,2,0,L|255:247,1,45,2|10,0:0|0:0,0:0:0:0:
130,132,60069,2,0,L|203:126,1,45,6|0,0:0|0:0,0:0:0:0:
366,40,60219,6,0,P|360:120|311:141,1,125.999996154785,6|0,0:0|0:0,0:0:0:0:
157,54,60521,2,0,B|191:66|223:42|223:42|262:46|287:76,1,112.5,8|2,0:0|0:0,0:0:0:0:
370,323,60822,2,0,B|324:333|324:333|286:320|286:320|202:340,1,125.999996154785,6|0,0:0|0:0,0:0:0:0:
56,376,61126,1,8,0:0:0:0:
183,178,61278,2,0,B|196:130|231:114|231:114|191:74|151:74|115:79|103:142|81:156|56:160|16:159|-24:122,1,332.999998729706,6|0,0:0|0:0,0:0:0:0:
267,194,61739,5,14,0:0:0:0:
43,65,61893,1,8,0:1:0:0:
291,32,62047,1,14,0:0:0:0:
101,208,62203,1,8,0:0:0:0:
108,240,62281,1,8,0:0:0:0:
139,263,62359,5,8,0:1:0:0:
139,287,62437,1,8,0:1:0:0:
139,311,62515,1,8,0:1:0:0:
136,335,62593,1,8,0:1:0:0:
111,367,62672,6,0,B|193:328|163:403|268:365,1,135,14|0,0:1|0:0,0:0:0:0:
323,335,62986,2,0,P|344:273|327:223,1,90,8|0,0:0|0:0,0:0:0:0:
234,100,63300,1,10,0:1:0:0:
267,274,63457,1,0,0:0:0:0:
366,98,63614,2,0,P|414:69|474:74,1,90,8|0,0:0|0:0,0:0:0:0:
489,224,63928,5,10,0:1:0:0:
339,161,64081,1,0,0:0:0:0:
420,301,64235,2,0,L|407:204,1,90,8|0,0:0|0:0,0:0:0:0:
336,357,64543,1,8,0:1:0:0:
185,296,64697,1,0,0:0:0:0:
35,359,64851,2,0,P|11:305|13:264,1,90,10|2,0:0|0:0,0:0:0:0:
222,218,65158,6,0,P|195:287|156:309,1,90,14|0,0:1|0:0,0:0:0:0:
3,109,65466,2,0,P|30:178|69:200,1,90,10|0,0:0|0:0,0:0:0:0:
164,82,65774,1,10,0:1:0:0:
113,222,65927,1,2,0:0:0:0:
85,62,66081,2,0,L|196:55,1,90,8|2,0:0|0:0,0:0:0:0:
333,16,66387,5,8,0:1:0:0:
455,120,66539,1,0,0:0:0:0:
302,174,66691,2,0,P|277:103|291:62,1,90,8|0,0:0|0:0,0:0:0:0:
246,250,66996,1,8,0:1:0:0:
124,146,67148,1,0,0:0:0:0:
278,90,67300,2,0,P|303:153|290:200,1,90,10|0,0:0|0:0,0:0:0:0:
295,331,67605,6,0,L|205:340,1,90,14|0,0:1|0:0,0:0:0:0:
3,244,67914,2,0,L|92:253,1,90,8|0,0:0|0:0,0:0:0:0:
4,115,68223,1,10,0:1:0:0:
147,189,68378,1,0,0:0:0:0:
95,36,68532,2,0,P|82:93|87:137,1,90,10|0,0:0|0:0,0:0:0:0:
313,47,68842,6,0,L|221:56,1,90,10|0,0:1|0:0,0:0:0:0:
57,180,69149,2,0,L|149:189,1,90,8|0,0:0|0:0,0:0:0:0:
306,154,69457,1,10,0:1:0:0:
266,321,69611,1,0,0:0:0:0:
432,379,69765,2,0,P|476:334|476:289,1,90,10|0,0:0|0:0,0:0:0:0:
306,154,70069,6,0,L|315:248,1,90,14|0,0:1|0:0,0:0:0:0:
504,89,70374,2,0,L|513:-5,1,90,8|0,0:0|0:0,0:0:0:0:
417,161,70678,1,8,0:1:0:0:
319,9,70830,1,2,0:0:0:0:
357,220,70983,2,0,P|398:248|459:232,1,90,10|2,0:0|0:0,0:0:0:0:
272,127,71291,5,8,0:1:0:0:
146,257,71447,1,0,0:0:0:0:
15,158,71603,2,0,P|-1:94|15:48,1,90,8|0,0:0|0:0,0:0:0:0:
146,257,71916,1,10,0:1:0:0:
326,296,72067,1,8,0:0:0:0:
348,299,72143,1,8,0:0:0:0:
370,302,72219,5,8,0:0:0:0:
315,118,72370,1,8,0:0:0:0:
293,121,72446,1,8,0:0:0:0:
272,127,72522,6,0,B|291:82|291:82|284:5,1,90,14|0,0:1|0:0,0:0:0:0:
80,200,72832,2,0,B|62:240|62:240|68:322,1,90,10|0,0:0|0:0,0:0:0:0:
123,59,73143,1,10,0:1:0:0:
146,257,73299,1,0,0:0:0:0:
4,102,73454,1,8,0:0:0:0:
213,121,73610,6,0,L|314:128,1,90,10|0,0:1|0:0,0:0:0:0:
473,230,73919,1,2,0:0:0:0:
400,45,74073,2,0,P|338:17|305:52,1,90,10|0,0:0|0:0,0:0:0:0:
253,210,74383,1,10,0:1:0:0:
446,146,74537,1,0,0:0:0:0:
251,75,74692,1,8,0:0:0:0:
368,237,74847,6,0,B|390:268|383:304|383:304|351:271,1,90,10|0,0:1|0:0,0:0:0:0:
313,146,75153,1,2,0:0:0:0:
265,362,75306,2,0,L|166:347,1,90,10|0,0:0|0:0,0:0:0:0:
89,228,75612,1,10,0:1:0:0:
305,285,75765,1,2,0:0:0:0:
97,359,75918,1,10,0:0:0:0:
141,159,76071,6,0,P|93:211|87:251,1,90,10|0,0:1|0:0,0:0:0:0:
319,140,76380,1,2,0:0:0:0:
145,81,76534,2,0,L|42:76,1,90,10|0,0:0|0:0,0:0:0:0:
352,16,76844,2,0,L|455:11,1,90,10|0,0:1|0:0,0:0:0:0:
261,184,77153,2,0,P|248:160|308:69,1,135,10|0,0:0|0:0,0:0:0:0:
367,83,77462,6,0,B|394:117|394:117|384:230,1,141.749995674133,10|0,0:1|0:0,0:0:0:0:
358,290,77768,2,0,B|277:245|291:310|220:282,1,141.749995674133,8|0,0:0|0:0,0:0:0:0:
165,235,78074,1,10,0:1:0:0:
310,348,78227,1,0,0:0:0:0:
261,184,78380,2,0,L|272:79,1,94.499997116089,8|0,0:0|0:0,0:0:0:0:
335,0,78686,5,10,0:1:0:0:
353,193,78840,1,0,0:0:0:0:
196,41,78995,2,0,L|187:156,1,90,8|0,0:0|0:0,0:0:0:0:
222,285,79304,1,10,0:1:0:0:
113,116,79459,1,0,0:0:0:0:
64,320,79613,2,0,P|85:351|136:339,1,90,8|0,0:0|0:0,0:0:0:0:
300,164,79923,6,0,B|261:197|261:197|209:206,1,90,14|0,0:0|0:0,0:0:0:0:
413,61,80230,2,0,B|452:28|452:28|504:19,1,90,10|0,0:0|0:0,0:0:0:0:
400,192,80538,2,0,P|388:246|395:289,1,90,4|0,0:0|0:0,0:0:0:0:
238,112,80846,2,0,P|250:58|243:15,1,90,2|0,0:0|0:0,0:0:0:0:
196,307,81153,6,0,L|141:316,1,45,14|0,0:0|0:0,0:0:0:0:
33,265,81305,2,0,L|88:274,1,45,8|0,0:1|0:0,0:0:0:0:
125,74,81457,2,0,L|142:128,1,45,8|0,0:0|0:0,0:0:0:0:
233,250,81609,2,0,L|216:196,1,45,8|0,0:1|0:0,0:0:0:0:
245,20,81762,5,10,0:0:0:0:
290,7,81838,1,0,0:0:0:0:
337,9,81914,1,8,0:0:0:0:
381,25,81990,1,0,0:0:0:0:
418,54,82066,1,10,0:0:0:0:
445,92,82142,1,8,0:0:0:0:
458,138,82218,1,10,0:0:0:0:
457,185,82295,1,8,0:0:0:0:
443,231,82371,6,0,B|366:274|368:196|286:248,1,155.250002961159,14|0,0:1|0:0,0:0:0:0:
253,376,82678,2,0,P|323:374|330:289,1,155.250002961159,10|0,0:0|0:0,0:0:0:0:
234,278,82986,1,10,0:1:0:0:
475,332,83140,1,0,0:0:0:0:
337,153,83294,1,8,0:0:0:0:
208,345,83447,6,0,B|177:351|159:344|159:344|130:287|179:220,1,155.250002961159,14|0,0:1|0:0,0:0:0:0:
245,176,83755,1,8,0:1:0:0:
83,337,83909,1,10,0:0:0:0:
62,109,84063,1,0,0:0:0:0:
234,278,84217,2,0,P|302:268|336:220,1,103.500001974106,10|0,0:1|0:0,0:0:0:0:
45,241,84524,1,8,0:0:0:0:
245,176,84678,6,0,B|270:117|270:117|264:79|264:79|292:16,1,155.250002961159,14|0,0:1|0:0,0:0:0:0:
168,128,84983,1,10,0:1:0:0:
206,3,85136,1,10,0:0:0:0:
387,213,85289,1,2,0:0:0:0:
351,105,85442,1,14,0:1:0:0:
331,326,85595,2,0,P|270:318|233:271,1,103.500001974106,0|10,0:0|0:0,0:0:0:0:
425,57,85901,6,0,P|446:118|396:188,1,155.250002961159,14|0,0:1|0:0,0:0:0:0:
281,154,86211,1,10,0:1:0:0:
492,12,86367,1,10,0:0:0:0:
459,256,86522,1,0,0:0:0:0:
303,61,86678,2,0,P|237:69|203:108,1,103.500001974106,10|0,0:0|0:0,0:0:0:0:
160,260,86989,1,10,0:0:0:0:
95,34,87144,1,8,0:0:0:0:
95,34,87222,1,8,0:0:0:0:
95,34,87299,6,0,L|77:202,1,155.250002961159,14|0,0:1|0:0,0:0:0:0:
90,360,87605,2,0,P|152:340|156:254,1,155.250002961159,10|0,0:0|0:0,0:0:0:0:
48,278,87911,1,10,0:1:0:0:
235,139,88064,1,0,0:0:0:0:
176,248,88217,1,8,0:0:0:0:
158,49,88370,6,0,P|213:16|308:42,1,155.250002961159,14|0,0:1|0:0,0:0:0:0:
371,97,88680,1,8,0:1:0:0:
86,166,88836,2,0,P|141:199|247:166,1,155.250002961159,10|0,0:0|0:0,0:0:0:0:
235,139,89147,1,10,0:1:0:0:
12,23,89302,1,0,0:0:0:0:
31,154,89458,1,8,0:0:0:0:
165,24,89613,6,0,B|191:7|216:13|216:13|261:37|261:37|286:16|331:22,1,155.250002961159,14|0,0:1|0:0,0:0:0:0:
413,11,89919,1,10,0:1:0:0:
330,108,90072,1,10,0:0:0:0:
418,335,90225,1,0,0:0:0:0:
335,238,90378,1,6,0:0:0:0:
512,172,90531,1,10,0:1:0:0:
384,169,90684,1,10,0:0:0:0:
512,371,90837,6,0,B|455:376|455:376|413:357|413:357|327:363,1,155.250002961159,14|0,0:1|0:0,0:0:0:0:
244,384,91141,1,10,0:1:0:0:
384,169,91293,1,10,0:0:0:0:
124,254,91446,1,2,0:0:0:0:
261,23,91598,6,0,B|276:50|276:50|262:158,1,112.5,14|10,0:1|0:0,0:0:0:0:
240,164,91831,1,8,0:0:0:0:
240,164,91908,1,8,0:0:0:0:
21,79,92064,1,8,0:0:0:0:
29,56,92142,1,8,0:0:0:0:
26,36,92219,6,0,B|79:29|79:29|120:38|120:38|202:27,1,155.250002961159,14|0,0:1|0:0,0:0:0:0:
325,114,92528,2,0,P|268:107|266:18,1,155.250002961159,10|0,0:0|0:0,0:0:0:0:
366,31,92837,1,10,0:1:0:0:
270,260,92992,1,0,0:0:0:0:
179,30,93146,1,8,0:0:0:0:
111,235,93301,6,0,P|57:212|4:288,1,135,14|0,0:1|0:0,0:0:0:0:
21,361,93608,1,10,0:1:0:0:
208,197,93762,1,10,0:0:0:0:
2,277,93916,1,2,0:0:0:0:
177,364,94070,2,0,P|242:368|292:333,1,103.500001974106,10|0,0:1|0:0,0:0:0:0:
340,202,94377,1,8,0:0:0:0:
409,384,94531,6,0,P|435:320|415:216,1,155.250002961159,14|0,0:1|0:0,0:0:0:0:
340,202,94840,1,10,0:1:0:0:
307,327,94994,1,10,0:0:0:0:
102,120,95149,1,2,0:0:0:0:
135,245,95304,1,14,0:1:0:0:
373,77,95458,1,2,0:0:0:0:
340,202,95613,1,10,0:0:0:0:
125,41,95768,6,0,B|158:43|176:70|176:70|229:78|265:50,1,155.250002961159,14|0,0:1|0:0,0:0:0:0:
343,0,96075,1,10,0:1:0:0:
462,222,96229,1,10,0:0:0:0:
426,75,96383,1,0,0:0:0:0:
376,301,96537,2,0,P|428:371|478:375,1,103.500001974106,10|0,0:0|0:0,0:0:0:0:
510,73,96851,2,0,P|493:21|408:-1,1,103.500001974106,10|0,0:0|0:0,0:0:0:0:
512,207,97165,5,14,0:0:0:0:
269,146,97319,1,8,0:0:0:0:
417,131,97474,1,0,0:0:0:0:
375,226,97628,1,0,0:0:0:0:
256,14,97783,5,10,0:0:0:0:
248,278,97938,1,8,0:0:0:0:
145,136,98092,1,0,0:0:0:0:
269,146,98247,1,0,0:0:0:0:
43,271,98402,5,10,0:0:0:0:
293,366,98555,1,8,0:0:0:0:
119,341,98708,1,0,0:0:0:0:
248,278,98861,1,0,0:0:0:0:
79,91,99014,5,10,0:0:0:0:
36,362,99167,1,8,0:0:0:0:
160,175,99320,1,0,0:0:0:0:
43,271,99473,1,0,0:0:0:0:
320,205,99626,5,10,0:0:0:0:
106,25,99779,1,8,0:0:0:0:
368,49,99932,1,0,0:0:0:0:
205,77,100085,1,0,0:0:0:0:
477,122,100238,5,10,0:0:0:0:
219,230,100391,1,8,0:0:0:0:
497,282,100544,1,10,0:0:0:0:
231,366,100697,6,0,L|120:355,1,103.500001974106,14|0,0:0|0:0,0:0:0:0:
351,327,101009,1,8,0:1:0:0:
121,267,101165,2,0,P|96:207|112:158,1,103.500001974106,12|0,0:0|0:0,0:0:0:0:
231,366,101478,2,0,P|250:309|247:298,1,45,10|0,0:0|0:0,0:0:0:0:
238,183,101631,2,0,P|219:240|222:251,1,45,10|0,0:0|0:0,0:0:0:0:
410,285,101784,6,0,P|365:252|300:273,1,90,12|0,0:1|0:0,0:0:0:0:
424,377,102090,6,0,B|467:338|467:338|464:219,1,141.749995674133,14|0,0:1|0:0,0:0:0:0:
417,191,102397,2,0,P|394:113|464:64,1,141.749995674133,10|0,0:0|0:0,0:0:0:0:
494,97,102705,1,10,0:1:0:0:
430,200,102859,1,0,0:0:0:0:
346,233,103013,1,8,0:0:0:0:
172,141,103166,6,0,B|203:113|203:113|332:121,1,141.749995674133,14|0,0:1|0:0,0:0:0:0:
358,158,103474,1,8,0:1:0:0:
238,309,103628,2,0,P|218:256|220:211,1,94.499997116089,10|0,0:0|0:0,0:0:0:0:
284,29,103936,2,0,P|304:82|302:127,1,94.499997116089,10|0,0:1|0:0,0:0:0:0:
140,18,104243,1,8,0:0:0:0:
219,206,104396,6,0,B|187:228|161:231|126:209|126:209|94:204|68:236,1,141.749995674133,14|0,0:1|0:0,0:0:0:0:
44,302,104702,1,8,0:1:0:0:
44,302,104778,1,8,0:1:0:0:
44,302,104855,2,0,P|74:258|71:200,1,94.499997116089,10|2,0:0|0:0,0:0:0:0:
123,89,105161,2,0,B|51:98|51:98|80:83,1,94.499997116089,14|0,0:1|0:0,0:0:0:0:
249,1,105467,1,10,0:0:0:0:
160,163,105620,6,0,P|147:223|197:287,1,141.749995674133,14|0,0:1|0:0,0:0:0:0:
267,304,105929,1,8,0:1:0:0:
231,115,106083,1,10,0:0:0:0:
369,194,106238,1,0,0:0:0:0:
323,24,106393,2,0,P|368:20|423:42,1,94.499997116089,10|0,0:1|0:0,0:0:0:0:
476,197,106702,1,10,0:0:0:0:
496,47,106857,1,8,0:0:0:0:
496,47,106934,1,8,0:0:0:0:
496,47,107011,6,0,B|506:85|506:85|487:196,1,141.749995674133,14|0,0:1|0:0,0:0:0:0:
446,256,107315,2,0,B|343:246|408:297|291:289,1,141.749995674133,10|0,0:0|0:0,0:0:0:0:
241,263,107620,1,10,0:1:0:0:
421,332,107772,1,0,0:0:0:0:
346,158,107924,1,8,0:0:0:0:
230,351,108076,6,0,P|161:331|137:262,1,141.749995674133,14|0,0:1|0:0,0:0:0:0:
160,201,108385,1,8,0:1:0:0:
54,333,108539,1,10,0:0:0:0:
216,271,108694,1,2,0:0:0:0:
45,183,108849,2,0,P|12:131|17:87,1,94.499997116089,10|0,0:1|0:0,0:0:0:0:
106,281,109158,1,8,0:0:0:0:
117,58,109313,6,0,B|169:47|169:47|219:61|219:61|276:52,1,135,14|0,0:1|0:0,0:0:0:0:
324,17,109616,1,10,0:1:0:0:
437,109,109767,1,14,0:0:0:0:
410,281,109919,1,2,0:0:0:0:
225,267,110070,6,0,P|248:206|255:199,1,47.2499985580445,8|0,0:1|0:0,0:0:0:0:
351,171,110222,2,0,P|328:232|321:239,1,47.2499985580445,8|0,0:1|0:0,0:0:0:0:
207,282,110373,2,0,P|230:221|237:214,1,47.2499985580445,8|0,0:1|0:0,0:0:0:0:
237,85,110525,6,0,P|292:55|364:116,1,141.749995674133,12|0,0:0|0:0,0:0:0:0:
351,171,110839,5,2,0:1:0:0:
245,183,110996,1,2,0:1:0:0:
140,195,111153,1,2,0:1:0:0:
62,300,111310,5,0,0:0:0:0:
217,315,111467,5,0,0:0:0:0:
315,198,111625,5,0,0:0:0:0:
265,60,111783,5,0,0:0:0:0:
107,33,111941,5,2,0:0:0:0:
136,145,112094,2,0,L|232:153,1,85.4999977169037,2|0,0:0|0:0,0:0:0:0:
148,259,112402,1,0,0:0:0:0:
244,182,112556,2,0,L|341:173,1,85.4999977169037,2|0,0:0|0:0,0:0:0:0:
136,145,112864,1,10,0:0:0:0:
197,319,113017,6,0,P|162:341|99:318,1,85.4999977169037,10|0,0:1|0:0,0:0:0:0:
256,266,113320,1,2,0:0:0:0:
312,371,113471,1,2,0:0:0:0:
365,264,113623,1,8,0:0:0:0:
420,361,113774,2,0,P|462:353|488:310,1,85.4999977169037,2|0,0:0|0:0,0:0:0:0:
357,176,114077,2,0,P|315:184|289:227,1,85.4999977169037,2|0,0:0|0:0,0:0:0:0:
446,191,114380,5,6,0:0:0:0:
446,191,114534,1,0,0:0:0:0:
404,91,114689,1,2,0:0:0:0:
404,91,114843,1,0,0:0:0:0:
481,0,114998,2,0,L|492:99,1,85.4999977169037,2|2,0:0|0:0,0:0:0:0:
310,208,115307,2,0,L|320:112,1,85.4999977169037,10|2,0:0|0:0,0:0:0:0:
362,286,115617,5,4,0:0:0:0:
285,333,115771,1,2,0:0:0:0:
208,288,115926,1,0,0:0:0:0:
239,79,116081,1,10,0:0:0:0:
317,123,116235,1,2,0:0:0:0:
310,209,116390,1,0,0:0:0:0:
118,309,116544,1,2,0:0:0:0:
115,219,116699,1,0,0:0:0:0:
193,175,116854,5,4,0:0:0:0:
30,257,117005,2,0,P|18:198|48:157,1,85.4999977169037,2|0,0:0|0:0,0:0:0:0:
8,367,117308,1,0,0:0:0:0:
171,285,117460,2,0,P|183:344|152:386,1,85.4999977169037,2|0,0:0|0:0,0:0:0:0:
193,175,117763,5,8,0:0:0:0:
321,289,117914,2,0,P|375:285|410:254,1,85.4999977169037,2|4,0:0|0:0,0:0:0:0:
301,381,118226,1,0,0:0:0:0:
173,267,118382,2,0,P|119:271|84:301,1,85.4999977169037,2|8,0:0|0:0,0:0:0:0:
274,240,118695,5,0,0:0:0:0:
281,147,118851,1,2,0:0:0:0:
214,88,119007,2,0,B|191:83|172:88|172:88|174:109|196:127,1,85.4999977169037,2|0,0:0|0:0,0:0:0:0:
335,75,119320,5,14,0:0:0:0:
314,229,119473,1,10,0:0:0:0:
212,87,119626,1,8,0:0:0:0:
405,108,119779,2,0,P|408:57|404:44,1,45,10|0,0:0|0:0,0:0:0:0:
393,232,119932,2,0,P|390:181|394:168,1,45,10|8,0:0|0:0,0:0:0:0:
413,358,120085,2,0,P|416:307|412:294,1,45,10|0,0:0|0:0,0:0:0:0:
271,373,120238,5,10,0:0:0:0:
482,249,120391,1,10,0:0:0:0:
365,212,121328,5,8,0:1:0:0:
376,93,121476,2,0,B|357:81|335:90|335:90|306:127|329:178,1,135,10|0,0:0|0:0,0:0:0:0:
365,212,121783,5,10,0:0:0:0:
336,197,121859,1,8,0:0:0:0:
304,196,121936,1,8,0:0:0:0:
274,207,122013,1,8,0:0:0:0:
250,228,122090,1,10,0:0:0:0:
223,244,122167,1,8,0:0:0:0:
191,243,122244,1,8,0:0:0:0:
162,230,122321,1,8,0:0:0:0:
143,204,122398,6,0,L|157:61,1,135,10|0,0:0|0:0,0:0:0:0:
176,35,122706,1,12,0:0:0:0:
334,145,122859,2,0,P|370:94|331:29,1,135,14|0,0:0|0:0,0:0:0:0:
294,49,123163,1,10,0:1:0:0:
388,237,123315,1,10,0:0:0:0:
429,141,123468,1,0,0:0:0:0:
272,290,123620,6,0,B|329:292|329:292|360:313|360:313|424:317,1,135,10|0,0:1|0:0,0:0:0:0:
431,334,123924,1,10,0:1:0:0:
239,365,124077,2,0,P|191:326|188:275,1,90,10|0,0:0|0:0,0:0:0:0:
270,157,124380,1,2,0:0:0:0:
97,260,124531,2,0,P|140:212|199:212,1,90,10|0,0:0|0:0,0:0:0:0:
35,362,124834,5,10,0:1:0:0:
11,169,124986,1,2,0:0:0:0:
36,249,125137,1,10,0:0:0:0:
142,88,125289,1,2,0:0:0:0:
117,168,125440,6,0,L|113:36,1,90,10|2,0:1|0:0,0:0:0:0:
310,216,125759,2,0,L|314:84,1,90,10|2,0:0|0:0,0:0:0:0:
206,324,126078,1,10,0:1:0:0:
444,200,126237,2,0,P|401:221|385:262,1,90,0|10,0:0|0:0,0:0:0:0:
512,111,126557,6,0,B|480:89|480:89|365:99,1,135,14|0,0:1|0:0,0:0:0:0:
356,132,126863,1,10,0:1:0:0:
264,75,127016,1,10,0:0:0:0:
171,117,127169,1,2,0:0:0:0:
80,62,127322,1,10,0:1:0:0:
33,195,127475,2,0,L|37:301,1,90,2|8,0:0|0:0,0:0:0:0:
239,214,127781,6,0,P|252:158|186:96,1,135,10|0,0:1|0:0,0:0:0:0:
171,117,128087,1,10,0:1:0:0:
372,208,128240,2,0,P|394:263|375:315,1,90,10|0,0:0|0:0,0:0:0:0:
377,95,128546,1,2,0:0:0:0:
301,259,128699,1,10,0:1:0:0:
271,41,128852,2,0,B|324:37|324:37|341:23|341:23|406:18,1,135,8|0,0:0|0:0,0:0:0:0:
438,6,129158,5,10,0:1:0:0:
377,95,129313,1,0,0:0:0:0:
460,174,129468,1,10,0:0:0:0:
399,263,129624,1,8,0:1:0:0:
473,363,129779,2,0,P|510:313|507:281,1,90,2|0,0:0|0:0,0:0:0:0:
336,183,130090,2,0,P|299:233|302:265,1,90,10|0,0:0|0:0,0:0:0:0:
460,174,130401,1,10,0:1:0:0:
350,331,130552,6,0,B|315:351|315:351|188:331,1,135,10|0,0:0|0:0,0:0:0:0:
188,307,130855,1,10,0:1:0:0:
225,121,131007,1,10,0:0:0:0:
64,199,131160,1,0,0:0:0:0:
227,243,131313,2,0,B|303:215|281:285|366:248,1,135,10|0,0:0|0:0,0:0:0:0:
438,203,131619,6,0,P|379:170|341:214,1,135,14|0,0:1|0:0,0:0:0:0:
355,252,131926,1,8,0:0:0:0:
512,255,132080,1,0,0:0:0:0:
366,343,132234,2,0,P|310:337|282:303,1,90,10|0,0:1|0:0,0:0:0:0:
179,154,132542,2,0,P|235:160|263:194,1,90,8|0,0:0|0:0,0:0:0:0:
79,222,132849,5,10,0:1:0:0:
160,49,133004,1,0,0:0:0:0:
184,244,133159,1,8,0:0:0:0:
34,100,133315,2,0,L|38:8,1,90,0|8,0:0|0:1,0:0:0:0:
0,188,133626,1,0,0:0:0:0:
179,154,133781,1,10,0:0:0:0:
340,238,133937,6,0,B|373:257|395:256|395:256|439:228,1,90,10|2,0:1|0:0,0:0:0:0:
512,142,134241,1,0,0:0:0:0:
292,75,134393,2,0,B|278:106|283:135|283:135|308:134|316:113,1,90,10|0,0:0|0:0,0:0:0:0:
407,24,134698,1,2,0:0:0:0:
196,81,134850,2,0,P|139:56|126:18,1,90,10|8,0:1|0:0,0:0:0:0:
299,0,135155,6,0,P|356:25|369:63,1,90,10|0,0:1|0:1,0:0:0:0:
284,240,135464,2,0,P|301:184|326:157,1,90,10|8,0:1|0:0,0:0:0:0:
496,217,135773,2,0,P|502:278|476:309,1,90,10|0,0:1|0:0,0:0:0:0:
280,324,136082,1,8,0:1:0:0:
280,324,136237,2,0,P|336:310|372:318,1,90,10|0,0:0|0:0,0:0:0:0:
168,377,136546,6,0,P|134:325|130:234,1,135,14|0,0:1|0:0,0:0:0:0:
148,211,136852,2,0,B|177:183|211:183|211:183|241:206|286:193,1,135,8|0,0:0|0:0,0:0:0:0:
304,165,137158,1,10,0:1:0:0:
205,267,137311,1,0,0:0:0:0:
345,280,137464,1,10,0:0:0:0:
191,279,137617,1,0,0:0:0:0:
377,174,137770,6,0,P|360:122|307:102,1,90,10|0,0:1|0:0,0:0:0:0:
262,282,138082,2,0,P|247:333|217:349,1,90,8|0,0:0|0:0,0:0:0:0:
36,293,138395,2,0,P|15:245|33:145,1,135,10|0,0:1|0:0,0:0:0:0:
117,193,138707,6,0,P|59:205|37:134,1,135,10|0,0:0|0:0,0:0:0:0:
46,102,139011,2,0,B|114:82|95:148|198:104,1,135,8|0,0:1|0:0,0:0:0:0:
201,78,139316,2,0,P|261:52|321:91,1,135,8|0,0:0|0:0,0:0:0:0:
305,122,139620,5,8,0:1:0:0:
457,84,139772,1,2,0:0:0:0:
420,236,139925,1,10,0:0:0:0:
305,122,140077,2,0,L|314:21,1,90,10|0,0:1|0:0,0:0:0:0:
167,233,140384,2,0,L|155:115,1,90,8|8,0:1|0:0,0:0:0:0:
317,278,140692,2,0,L|306:382,1,90,8|2,0:1|0:0,0:0:0:0:
276,188,141000,1,8,0:0:0:0:
410,344,141153,2,0,P|434:293|426:249,1,90,8|8,0:0|0:0,0:0:0:0:
327,107,141461,6,0,B|358:90|358:90|490:112,1,135,14|0,0:1|0:0,0:0:0:0:
489,200,141765,2,0,P|440:174|492:97,1,135,10|0,0:0|0:0,0:0:0:0:
496,91,142070,1,10,0:1:0:0:
377,210,142222,1,0,0:0:0:0:
349,26,142374,1,8,0:0:0:0:
286,262,142526,6,0,P|224:281|180:231,1,135,10|0,0:1|0:0,0:0:0:0:
179,191,142838,1,10,0:1:0:0:
388,212,142994,2,0,L|375:110,1,90,10|0,0:0|0:0,0:0:0:0:
512,247,143307,2,0,L|499:349,1,90,10|0,0:1|0:0,0:0:0:0:
475,150,143619,1,8,0:0:0:0:
377,342,143776,6,0,B|317:376|317:376|236:358,1,135,10|0,0:1|0:0,0:0:0:0:
220,331,144085,1,10,0:1:0:0:
324,213,144239,2,0,P|321:172|296:111,1,90,10|0,0:0|0:0,0:0:0:0:
72,214,144549,2,0,P|125:231|161:230,1,90,10|2,0:1|0:0,0:0:0:0:
6,135,144858,1,10,0:0:0:0:
130,304,145013,6,0,P|104:364|29:357,1,135,10|0,0:1|0:0,0:0:0:0:
11,330,145319,1,10,0:1:0:0:
192,344,145472,1,10,0:0:0:0:
72,214,145625,1,0,0:0:0:0:
276,243,145778,2,0,P|281:295|270:335,1,90,10|0,0:1|0:0,0:0:0:0:
72,214,146084,2,0,P|67:162|78:122,1,90,10|0,0:0|0:0,0:0:0:0:
179,38,146390,6,0,B|256:16|235:81|317:53,1,135,10|0,0:1|0:0,0:0:0:0:
342,21,146699,2,0,B|357:60|357:60|343:170,1,135,10|0,0:0|0:0,0:0:0:0:
318,181,147008,1,10,0:1:0:0:
466,86,147163,1,0,0:0:0:0:
273,127,147317,2,0,P|245:169|272:229,1,90,8|0,0:0|0:0,0:0:0:0:
456,313,147627,6,0,L|312:326,1,135,10|0,0:1|0:0,0:0:0:0:
240,348,147937,2,0,P|286:351|290:273,1,135,8|0,0:0|0:0,0:0:0:0:
261,262,148248,1,10,0:1:0:0:
149,369,148404,1,0,0:0:0:0:
97,202,148559,1,8,0:0:0:0:
150,358,148715,1,0,0:0:0:0:
300,196,148870,6,0,L|205:183,1,90,14|0,0:0|0:0,0:0:0:0:
31,289,149181,2,0,L|126:276,1,90,10|0,0:1|0:0,0:0:0:0:
0,34,149492,1,8,0:0:0:0:
210,183,149803,1,10,0:0:0:0:
148,343,150113,5,10,0:1:0:0:
256,57,150264,1,10,0:1:0:0:
453,336,150719,5,8,0:0:0:0:
367,8,150870,1,8,0:0:0:0:
292,193,151022,5,2,0:0:0:0:
376,127,151173,1,2,0:0:0:0:
176,91,151325,6,0,B|160:130|160:130|195:261,1,161.999995056153,14|0,0:1|0:0,0:0:0:0:
271,322,151632,2,0,P|367:288|355:203,1,161.999995056153,10|0,0:0|0:0,0:0:0:0:
292,193,151940,1,10,0:1:0:0:
477,374,152094,1,0,0:0:0:0:
503,135,152248,1,8,0:0:0:0:
359,339,152401,6,0,B|268:374|290:294|191:338,1,161.999995056153,14|0,0:1|0:0,0:0:0:0:
139,380,152711,1,8,0:1:0:0:
292,193,152867,2,0,P|295:118|222:83,1,161.999995056153,10|0,0:0|0:0,0:0:0:0:
157,137,153178,1,10,0:1:0:0:
394,33,153333,1,0,0:0:0:0:
325,281,153489,1,8,0:0:0:0:
191,55,153644,6,0,B|123:60|123:60|96:80|96:80|16:86,1,161.999995056153,14|0,0:1|0:0,0:0:0:0:
11,18,153948,1,10,0:1:0:0:
50,171,154100,1,10,0:0:0:0:
308,2,154253,1,2,0:0:0:0:
259,143,154405,2,0,B|281:161|316:155|316:155|327:132|355:118,1,107.999996704102,14|0,0:1|0:0,0:0:0:0:
447,42,154709,1,10,0:0:0:0:
478,269,154862,6,0,B|458:278|434:271|434:271|426:284|410:303|410:303|371:290|334:323,1,161.999995056153,14|0,0:1|0:0,0:0:0:0:
256,367,155172,1,10,0:1:0:0:
261,141,155328,2,0,P|205:111|128:176,1,161.999995056153,10|0,0:0|0:0,0:0:0:0:
164,295,155639,2,0,P|204:243|200:189,1,107.999996704102,10|0,0:1|0:0,0:0:0:0:
12,59,155950,2,0,L|25:175,1,107.999996704102,10|8,0:0|0:0,0:0:0:0:
261,141,156260,6,0,B|364:121|319:192|417:173,1,161.999995056153,14|0,0:1|0:0,0:0:0:0:
481,91,156564,1,10,0:0:0:0:
389,307,156716,1,2,0:0:0:0:
391,90,156869,2,0,P|365:21|333:2,1,107.999996704102,10|0,0:1|0:0,0:0:0:0:
506,186,157173,1,8,0:0:0:0:
282,251,157325,6,0,B|244:269|244:269|115:237,1,161.999995056153,14|0,0:1|0:0,0:0:0:0:
61,177,157631,1,8,0:1:0:0:
89,384,157784,2,0,P|135:322|118:224,1,161.999995056153,10|0,0:0|0:0,0:0:0:0:
61,177,158090,1,10,0:1:0:0:
224,378,158243,1,0,0:0:0:0:
224,120,158396,1,8,0:0:0:0:
30,307,158549,6,0,B|88:301|88:301|125:311|125:311|208:298,1,161.999995056153,14|0,0:1|0:0,0:0:0:0:
260,253,158853,1,10,0:1:0:0:
83,381,159005,1,10,0:0:0:0:
144,186,159158,2,0,L|137:71,1,107.999996704102,8|6,0:1|0:0,0:0:0:0:
85,260,159462,1,2,0:0:0:0:
288,131,159614,1,10,0:0:0:0:
53,50,159767,6,0,P|102:-5|199:15,1,161.999995056153,14|14,0:1|0:1,0:0:0:0:
244,69,160074,1,10,0:1:0:0:
25,167,160228,1,10,0:0:0:0:
248,241,160382,1,2,0:0:0:0:
53,50,160536,6,0,P|71:107|49:166,1,107.999996704102,14|10,0:1|0:0,0:0:0:0:
25,167,160770,1,8,0:0:0:0:
25,167,160848,1,8,0:0:0:0:
121,330,161004,1,8,0:0:0:0:
141,311,161082,1,8,0:0:0:0:
145,286,161161,6,0,B|233:254|212:337|309:303,1,161.999995056153,14|0,0:1|0:0,0:0:0:0:
372,194,161473,2,0,P|299:170|269:242,1,161.999995056153,10|0,0:0|0:0,0:0:0:0:
297,306,161786,1,10,0:1:0:0:
297,49,161942,1,0,0:0:0:0:
470,201,162098,1,8,0:0:0:0:
266,234,162254,6,0,P|210:175|250:76,1,161.999995056153,14|0,0:1|0:0,0:0:0:0:
297,49,162563,1,10,0:1:0:0:
268,309,162717,1,10,0:0:0:0:
71,181,162872,1,2,0:0:0:0:
311,101,163027,2,0,B|339:72|331:36|331:36|307:39|292:52,1,107.999996704102,10|0,0:1|0:0,0:0:0:0:
219,226,163336,1,8,0:0:0:0:
441,151,163491,6,0,B|451:207|451:207|443:250|443:250|452:316,1,161.999995056153,14|0,0:1|0:0,0:0:0:0:
506,370,163795,1,10,0:1:0:0:
366,312,163947,1,10,0:0:0:0:
507,99,164100,1,2,0:0:0:0:
367,157,164252,1,14,0:1:0:0:
271,64,164404,1,2,0:0:0:0:
135,116,164556,1,10,0:0:0:0:
241,235,164709,6,0,P|271:172|204:103,1,161.999995056153,14|0,0:1|0:0,0:0:0:0:
135,116,165010,1,10,0:1:0:0:
367,167,165161,1,10,0:0:0:0:
118,243,165312,1,0,0:0:0:0:
328,331,165462,2,0,P|384:314|407:263,1,90,10|0,0:0|0:0,0:0:0:0:
374,57,165769,2,0,P|318:74|295:125,1,90,10|0,0:0|0:0,0:0:0:0:
481,351,166077,6,0,B|378:378|426:298|309:336,1,161.999995056153,14|0,0:1|0:0,0:0:0:0:
217,374,166389,2,0,B|189:385|163:380|163:380|120:344|140:265,1,161.999995056153,8|0,0:0|0:0,0:0:0:0:
215,173,166702,2,0,P|233:238|209:281,1,107.999996704102,10|0,0:1|0:0,0:0:0:0:
64,110,167014,2,0,P|46:45|70:2,1,107.999996704102,8|0,0:0|0:0,0:0:0:0:
45,231,167327,5,14,0:1:0:0:
135,60,167479,1,0,0:0:0:0:
283,140,167631,2,0,B|340:133|340:133|370:108|370:108|449:97,1,161.999995056153,8|0,0:0|0:0,0:0:0:0:
509,127,167936,1,10,0:1:0:0:
292,39,168088,1,0,0:0:0:0:
374,237,168240,2,0,L|363:354,1,107.999996704102,8|0,0:0|0:0,0:0:0:0:
283,140,168545,5,14,0:1:0:0:
494,270,168697,1,0,0:0:0:0:
258,334,168849,2,0,P|186:309|178:212,1,161.999995056153,8|0,0:0|0:0,0:0:0:0:
213,157,169154,1,12,0:1:0:0:
95,358,169306,1,0,0:0:0:0:
47,144,169458,2,0,L|51:27,1,107.999996704102,8|4,0:0|0:0,0:0:0:0:
1,239,169766,5,10,0:1:0:0:
182,55,169922,1,0,0:0:0:0:
104,305,170078,2,0,B|190:260|170:350|274:309,1,161.999995056153,8|0,0:0|0:0,0:0:0:0:
301,233,170391,5,10,0:0:0:0:
480,344,170545,1,10,0:0:0:0:
306,115,170700,5,10,0:0:0:0:
480,220,170854,1,10,0:0:0:0:
384,27,171009,5,14,0:1:0:0:
350,266,171321,1,2,0:0:0:0:
150,138,171634,2,0,P|115:181|170:280,1,161.999995056153,10|0,0:0|0:0,0:0:0:0:
232,129,172102,6,0,L|217:41,1,80.9999975280763,10|0,0:1|0:0,0:0:0:0:
199,205,172409,1,0,0:0:0:0:
304,86,172563,1,10,0:1:0:0:
285,266,172717,1,0,0:0:0:0:
218,49,172871,6,0,B|209:23|186:11|186:11|109:7|72:63,1,161.999995056153,10|0,0:0|0:0,0:0:0:0:
90,193,173332,2,0,P|117:131|101:90,1,80.9999975280763,10|0,0:1|0:0,0:0:0:0:
10,245,173638,1,2,0:0:0:0:
96,334,173791,1,2,0:0:0:0:
192,248,173944,1,2,0:0:0:0:
279,339,174097,2,0,B|253:328|217:343|217:343|256:354,1,80.9999975280763,10|0,0:0|0:0,0:0:0:0:
392,361,174403,1,8,0:1:0:0:
308,159,174556,6,0,P|354:112|452:148,1,180,10|0,0:0|0:0,0:0:0:0:
294,250,175012,2,0,P|251:231|224:196,1,90,2|2,0:0|0:0,0:0:0:0:
401,74,175317,2,0,P|444:93|470:128,1,90,10|0,0:0|0:0,0:0:0:0:
264,41,175621,2,0,B|192:19|208:81|119:40,1,135,10|0,0:0|0:0,0:0:0:0:
36,118,175926,6,0,P|73:142|121:118,1,80.9999975280763,14|0,0:0|0:0,0:0:0:0:
279,192,176240,2,0,P|242:216|194:192,1,80.9999975280763,10|2,0:1|0:0,0:0:0:0:
97,353,176554,2,0,L|78:183,1,161.999995056153,10|0,0:0|0:0,0:0:0:0:
214,303,177025,6,0,P|263:319|278:349,1,80.9999975280763,10|0,0:1|0:0,0:0:0:0:
418,348,177332,2,0,P|427:279|411:250,1,80.9999975280763,8|2,0:1|0:0,0:0:0:0:
309,172,177640,1,10,0:1:0:0:
445,358,177794,2,0,P|460:278|415:181,1,161.999995056153,10|0,0:0|0:0,0:0:0:0:
277,102,178255,6,0,P|294:160|337:180,1,80.9999975280763,10|0,0:1|0:0,0:0:0:0:
317,19,178567,1,2,0:0:0:0:
187,83,178723,1,10,0:1:0:0:
355,109,178880,1,2,0:0:0:0:
173,64,179036,2,0,L|91:52,1,80.9999975280763,10|2,0:0|0:0,0:0:0:0:
311,202,179348,1,10,0:1:0:0:
120,167,179505,6,0,P|72:183|60:192,1,45,10|0,0:0|0:0,0:0:0:0:
274,300,179655,2,0,P|322:284|334:275,1,45,10|0,0:0|0:0,0:0:0:0:
126,262,179805,5,10,0:0:0:0:
146,296,179880,1,8,0:0:0:0:
148,336,179955,1,10,0:0:0:0:
123,368,180030,1,8,0:0:0:0:
84,379,180105,1,10,0:0:0:0:
44,370,180180,1,8,0:0:0:0:
19,338,180255,5,10,0:1:0:0:
21,313,180331,1,8,0:1:0:0:
23,289,180408,1,10,0:1:0:0:
25,264,180484,1,8,0:1:0:0:
49,240,180561,5,8,0:1:0:0:
47,223,180637,1,8,0:1:0:0:
45,206,180714,1,8,0:1:0:0:
43,189,180790,1,8,0:1:0:0:
14,159,180867,6,0,P|47:123|113:160,1,135,10|0,0:1|0:0,0:0:0:0:
135,223,181158,6,0,B|154:244|185:241|185:241|227:197|296:219,1,161.999995056153,14|0,0:0|0:0,0:0:0:0:
324,288,181467,1,14,0:0:0:0:
236,125,181621,1,8,0:0:0:0:
248,82,181699,1,8,0:0:0:0:
281,55,181776,1,8,0:0:0:0:
324,49,181853,1,8,0:0:0:0:
364,63,181931,6,0,B|366:126|366:126|389:165|389:165|391:228,1,161.999995056153,14|0,0:0|0:0,0:0:0:0:
337,297,182238,1,8,0:1:0:0:
460,82,182392,1,14,0:0:0:0:
224,162,182546,1,8,0:1:0:0:
448,268,182700,1,10,0:0:0:0:
453,310,182777,1,8,0:0:0:0:
434,348,182854,1,8,0:0:0:0:
379,146,183007,1,8,0:0:0:0:
326,358,183161,6,0,B|213:394|264:309|152:339,1,161.999995056153,14|0,0:1|0:0,0:0:0:0:
81,380,183467,1,10,0:1:0:0:
95,141,183620,1,10,0:0:0:0:
286,294,183773,1,2,0:0:0:0:
27,201,183926,5,14,0:0:0:0:
6,152,184002,1,8,0:0:0:0:
16,99,184079,1,10,0:0:0:0:
54,62,184155,1,8,0:0:0:0:
106,53,184232,1,10,0:0:0:0:
155,75,184308,1,8,0:0:0:0:
185,124,184385,6,0,B|194:157|177:176|177:176|177:197|185:218|185:218|157:244|165:293,1,161.999995056153,14|0,0:1|0:0,0:0:0:0:
161,354,184699,1,10,0:1:0:0:
95,141,184856,1,14,0:0:0:0:
286,294,185013,1,2,0:0:0:0:
339,119,185170,1,14,0:1:0:0:
185,218,185328,1,0,0:0:0:0:
146,57,185487,2,0,B|182:30|182:30|312:46,1,135,14|0,0:1|0:0,0:0:0:0:
339,119,185804,5,14,0:0:0:0:
87,200,185957,1,8,0:0:0:0:
245,130,186110,1,0,0:0:0:0:
200,217,186263,1,0,0:0:0:0:
374,36,186416,5,10,0:0:0:0:
399,305,186569,1,8,0:0:0:0:
466,149,186722,1,0,0:0:0:0:
355,162,186875,1,0,0:0:0:0:
512,373,187028,5,10,0:0:0:0:
247,299,187181,1,8,0:0:0:0:
429,279,187335,1,0,0:0:0:0:
363,372,187489,1,0,0:0:0:0:
128,367,187643,5,10,0:0:0:0:
164,88,187797,1,8,0:0:0:0:
45,258,187951,1,0,0:0:0:0:
194,236,188104,1,0,0:0:0:0:
36,16,188258,5,10,0:0:0:0:
309,95,188411,1,8,0:0:0:0:
100,122,188564,1,0,0:0:0:0:
216,20,188717,1,0,0:0:0:0:
288,293,188870,5,8,0:0:0:0:
364,17,189023,1,8,0:0:0:0:
485,289,189176,1,10,0:0:0:0:
248,137,189329,6,0,P|181:139|161:295,1,233.999989288331,14|0,0:0|0:0,0:0:0:0:
299,354,189792,2,0,B|260:321|260:321|88:349,1,175.499991966248,12|0,0:0|0:0,0:0:0:0:
38,384,190102,2,0,P|-2:335|-3:321,1,45,10|0,0:0|0:0,0:0:0:0:
122,118,190257,2,0,P|162:167|163:181,1,45,10|0,0:0|0:0,0:0:0:0:
15,303,190412,1,12,0:0:0:0:
284,70,190723,6,0,B|370:49|345:118|448:80,1,135,14|0,0:1|0:0,0:0:0:0:
485,37,191032,2,0,P|450:22|426:100,1,141.749995674133,10|0,0:0|0:0,0:0:0:0:
448,112,191341,1,10,0:1:0:0:
494,297,191496,2,0,L|502:185,1,94.499997116089,8|8,0:1|0:0,0:0:0:0:
385,333,191805,6,0,B|330:339|330:339|300:327|300:327|226:336,1,135,14|0,0:1|0:0,0:0:0:0:
227,363,192111,1,8,0:1:0:0:
319,208,192264,2,0,P|295:152|244:147,1,94.499997116089,10|0,0:0|0:0,0:0:0:0:
378,295,192570,1,10,0:1:0:0:
182,249,192723,2,0,L|86:262,1,94.499997116089,8|8,0:1|0:0,0:0:0:0:
119,38,193029,6,0,P|167:49|189:137,1,135,14|0,0:1|0:0,0:0:0:0:
160,151,193336,1,8,0:1:0:0:
283,34,193490,2,0,B|317:4|317:4|433:19,1,141.749995674133,10|0,0:0|0:0,0:0:0:0:
437,50,193798,1,14,0:1:0:0:
298,192,193952,2,0,P|312:241|369:266,1,94.499997116089,8|10,0:1|0:0,0:0:0:0:
251,115,194259,6,0,B|184:94|184:94|93:132,1,135,14|0,0:1|0:0,0:0:0:0:
90,144,194568,2,0,L|79:49,1,90,8|10,0:1|0:0,0:0:0:0:
180,269,194877,2,0,L|192:171,1,94.499997116089,8|2,0:1|0:0,0:0:0:0:
97,299,195186,1,8,0:1:0:0:
262,313,195341,1,10,0:0:0:0:
346,204,195496,1,8,0:0:0:0:
346,204,195573,1,8,0:0:0:0:
346,204,195650,6,0,L|451:222,1,90,14|0,0:1|0:0,0:0:0:0:
316,350,195960,2,0,P|282:380|215:354,1,90,10|2,0:0|0:0,0:0:0:0:
191,175,196271,1,10,0:1:0:0:
54,278,196427,2,0,L|65:396,1,90,8|8,0:1|0:0,0:0:0:0:
93,85,196738,6,0,P|39:97|9:171,1,135,14|0,0:1|0:0,0:0:0:0:
38,196,197044,1,8,0:1:0:0:
192,43,197197,2,0,P|242:21|300:26,1,94.499997116089,10|2,0:0|0:0,0:0:0:0:
93,85,197503,1,10,0:1:0:0:
247,210,197656,2,0,P|264:150|256:108,1,94.499997116089,8|8,0:1|0:0,0:0:0:0:
121,289,197962,6,0,B|180:283|180:283|216:302|216:302|267:297,1,141.749995674133,14|0,0:1|0:0,0:0:0:0:
292,276,198268,1,10,0:1:0:0:
151,367,198421,1,10,0:0:0:0:
176,175,198574,1,10,0:1:0:0:
151,367,198727,1,2,0:0:0:0:
176,175,198880,2,0,B|127:174|127:174|82:192,1,94.499997116089,8|8,0:1|0:0,0:0:0:0:
269,240,199186,6,0,L|280:74,1,135,14|0,0:0|0:0,0:0:0:0:
162,20,199490,2,0,L|177:186,1,155.250002961159,14|0,0:0|0:0,0:0:0:0:
162,290,199795,2,0,B|191:319|191:319|328:305,1,148.50000453186,14|0,0:1|0:0,0:0:0:0:
372,238,200099,1,10,0:0:0:0:
372,238,200175,1,8,0:0:0:0:
372,238,200251,2,0,L|310:233,1,49.5000015106202,8|0,0:0|0:0,0:0:0:0:
442,84,200404,1,8,0:0:0:0:
467,89,200480,1,8,0:0:0:0:
488,74,200556,6,0,B|483:127|483:127|499:165|499:165|494:235,1,135,14|0,0:1|0:0,0:0:0:0:
504,253,200865,2,0,P|429:279|387:236,1,141.749995674133,10|0,0:0|0:0,0:0:0:0:
401,207,201174,1,10,0:1:0:0:
292,355,201329,2,0,L|188:366,1,94.499997116089,8|8,0:1|0:0,0:0:0:0:
35,308,201638,6,0,B|65:270|65:270|186:251,1,135,14|0,0:1|0:0,0:0:0:0:
190,282,201944,1,8,0:1:0:0:
95,162,202097,2,0,P|71:99|92:51,1,94.499997116089,10|0,0:0|0:0,0:0:0:0:
210,5,202403,1,10,0:1:0:0:
141,221,202556,2,0,P|89:239|44:214,1,94.499997116089,8|8,0:1|0:0,0:0:0:0:
235,110,202862,6,0,B|311:95|291:163|373:134,1,135,14|0,0:1|0:0,0:0:0:0:
399,112,203171,1,8,0:1:0:0:
241,261,203325,2,0,P|263:203|234:169,1,94.499997116089,10|2,0:0|0:0,0:0:0:0:
196,356,203635,1,14,0:1:0:0:
71,182,203789,2,0,L|77:285,1,94.499997116089,10|10,0:1|0:0,0:0:0:0:
165,88,204099,6,0,P|126:46|71:38,1,90,14|0,0:0|0:0,0:0:0:0:
335,166,204406,2,0,P|374:124|429:116,1,90,10|10,0:0|0:0,0:0:0:0:
235,275,204714,1,8,0:1:0:0:
233,89,204868,1,10,0:0:0:0:
416,199,205025,1,0,0:0:0:0:
175,219,205183,2,0,P|151:260|195:342,1,135,10|0,0:0|0:0,0:0:0:0:
206,358,205499,5,14,0:0:0:0:
291,168,205652,1,8,0:0:0:0:
280,305,205806,1,0,0:0:0:0:
280,305,205960,1,0,0:0:0:0:
150,148,206114,5,10,0:0:0:0:
363,106,206268,1,8,0:0:0:0:
221,100,206422,1,0,0:0:0:0:
221,100,206575,1,0,0:0:0:0:
394,216,206729,5,10,0:0:0:0:
463,0,206880,1,8,0:0:0:0:
462,159,207032,1,0,0:0:0:0:
462,159,207183,1,0,0:0:0:0:
280,58,207335,5,10,0:0:0:0:
311,286,207486,1,8,0:0:0:0:
231,146,207638,1,0,0:0:0:0:
231,146,207789,1,0,0:0:0:0:
408,273,207941,5,10,0:0:0:0:
178,330,208094,1,8,0:0:0:0:
311,286,208247,1,0,0:0:0:0:
311,286,208400,1,0,0:0:0:0:
138,181,208553,6,0,P|85:208|76:275,1,90,8|8,0:0|0:0,0:0:0:0:
178,330,208859,1,10,0:0:0:0:
107,49,209012,1,14,0:0:0:0:
256,192,209166,12,0,215197,0:0:0:0:
