osu file format v14

[General]
AudioFilename: audio.mp3
AudioLeadIn: 0
PreviewTime: 180862
Countdown: 0
SampleSet: Soft
StackLeniency: 0.4
Mode: 0
LetterboxInBreaks: 0
WidescreenStoryboard: 1

[Editor]
Bookmarks: 13448,33140,42986,52832,62678,72524,82371,96516,102063,111909,121755,131617,141463,151324,171016,180862,190708,209016,215170
DistanceSpacing: 3
BeatDivisor: 4
GridSize: 4
TimelineZoom: 2.4

[Metadata]
Title:Rolling Girl
TitleUnicode:ローリンガール
Artist:Various Artists
ArtistUnicode:Various Artists
Creator:Shidoni
Version:Nowa's Extra
Source:
Tags:wowaka vocaloid hatsune miku rock japanese cover mashup G-san Gさん vipTenchou vip店長 Kanipan. かにぱん。 Limone-Sensei リモーネ先生 Korosuke 転少女 Yuge 湯毛 Gom ゴム yonji Rumdarjun らむだーじゃん Tightson タイツォン Mijinko ミジンコ Nodoame のど飴 Yamadan やまだん niconico douga Nico Chorus メビウス Moebius アンデルセン Andersen ピストン Piston チョリス Choris 金☆ヨンス Kin*Yonsu Band Arrange Arrangement バンドアレンジ dtm9 nowa dtm9_nowa kkipalt
BeatmapID:2056940
BeatmapSetID:965620

[Difficulty]
HPDrainRate:5
CircleSize:4
OverallDifficulty:8.8
ApproachRate:9.4
SliderMultiplier:1.6
SliderTickRate:1

[Events]
//Background and Video events
0,0,"wa.jpg",0,0
Video,98,"video.mp4"
//Break Periods
2,4098,5512
2,6564,7855
//Storyboard Layer 0 (Background)
//Storyboard Layer 1 (Fail)
//Storyboard Layer 2 (Pass)
//Storyboard Layer 3 (Foreground)
//Storyboard Layer 4 (Overlay)
//Storyboard Sound Samples

[TimingPoints]
2335,314.136125654451,4,2,1,30,1,0
2335,-200,4,2,1,30,0,0
3591,307.692307692308,4,2,1,50,1,0
6052,312.5,4,2,1,50,1,0
8395,304.568527918782,4,2,1,50,1,0
8496,312.5,4,2,1,50,1,0
8496,-250,4,2,1,50,0,0
10996,304.568527918782,4,2,1,50,1,0
12214,295.566502463054,4,2,1,50,1,0
12805,307.692307692308,4,2,1,50,1,0
13420,312.5,4,2,1,50,1,0
13420,-100,4,2,1,65,0,0
14513,309.278350515464,4,2,1,65,1,0
15750,304.568527918782,4,2,1,65,1,0
16968,309.278350515464,5,2,1,65,1,0
18359,310.880829015544,4,2,1,65,1,0
19447,307.692307692308,4,2,1,65,1,0
20677,312.5,4,2,1,65,1,0
21927,303.030303030303,4,2,1,65,1,0
22533,306.122448979592,4,2,1,65,1,0
23296,307.692307692308,4,2,1,65,1,0
24372,306.122448979592,4,2,1,65,1,0
25596,307.692307692308,4,2,1,65,1,0
26826,303.030303030303,4,2,1,65,1,0
27583,312.5,4,2,1,65,1,0
28208,312.5,4,2,1,65,1,0
29458,303.030303030303,4,2,1,65,1,0
30821,-133.333333333333,4,2,1,65,0,0
31730,307.692307692308,4,2,1,75,1,0
31730,-399.999999999997,4,2,1,75,0,0
32806,320.855614973262,4,2,1,45,1,0
33126,320.855614973262,4,2,1,45,1,0
33126,-166.666666666667,4,2,1,45,0,0
33767,307.692307692308,4,2,1,45,1,0
33767,-166.666666666667,4,2,1,45,0,0
34382,319.148936170213,4,2,1,45,1,0
34382,-166.666666666667,4,2,1,45,0,0
35658,312.5,4,2,1,45,1,0
35658,-166.666666666667,4,2,1,45,0,0
36283,306.122448979592,4,2,1,45,1,0
36283,-166.666666666667,4,2,1,45,0,0
36742,303.030303030303,4,2,1,45,1,0
36742,-166.666666666667,4,2,1,45,0,0
37802,306.122448979592,4,2,1,45,1,0
38720,310.880829015544,4,2,1,45,1,0
38720,-166.666666666667,4,2,1,45,0,0
39341,307.692307692308,4,2,1,45,1,0
39341,-166.666666666667,4,2,1,45,0,0
41493,267.857142857143,4,2,1,45,1,0
41493,-166.666666666667,4,2,1,45,0,0
41760,300,4,2,1,55,1,0
42360,309.278350515463,4,2,1,55,1,0
42978,314.136125654449,4,2,1,55,1,0
42978,-83.3333333333334,4,2,1,65,0,0
44077,306.122448979591,5,2,1,65,1,0
44077,-83.3333333333334,4,2,1,65,0,0
45454,307.692307692307,4,2,1,65,1,0
45454,-83.3333333333334,4,2,1,65,0,0
46530,306.122448979591,5,2,1,65,1,0
46530,-83.3333333333334,4,2,1,65,0,0
47907,303.030303030302,4,2,1,65,1,0
47907,-83.3333333333334,4,2,1,65,0,0
48967,312.499999999999,5,2,1,65,1,0
48967,-83.3333333333334,4,2,1,65,0,0
50373,310.880829015543,4,2,1,65,1,0
50373,-83.3333333333334,4,2,1,65,0,0
51616,306.122448979591,4,2,1,65,1,0
51616,-83.3333333333334,4,2,1,65,0,0
52840,304.568527918781,4,2,1,65,1,0
52840,-71.4285714285714,4,2,1,75,0,0
53905,309.278350515463,4,2,1,75,1,0
53905,-71.4285714285714,4,2,1,75,0,0
55142,307.692307692307,4,2,1,75,1,0
55142,-71.4285714285714,4,2,1,75,0,0
56372,306.122448979591,4,2,1,75,1,0
56372,-71.4285714285714,4,2,1,75,0,0
56984,312.499999999999,4,2,1,75,1,0
56984,-71.4285714285714,4,2,1,75,0,0
57762,307.692307692307,4,2,1,75,1,0
57762,-71.4285714285714,4,2,1,75,0,0
60069,301.507537688441,4,2,1,75,1,0
60069,-71.4285714285714,4,2,1,75,0,0
60822,304.56852791878,4,2,1,75,1,0
60822,-71.4285714285714,4,2,1,75,0,0
61278,307.692307692306,4,2,1,75,1,0
61278,-71.4285714285714,4,2,1,75,0,0
61739,-100,4,2,1,75,0,0
62047,312.499999999998,4,2,1,75,1,0
62672,314.136125654448,4,2,1,75,1,0
62678,-100,4,2,1,65,0,0
63928,307.692307692306,4,2,1,65,1,0
66235,304.56852791878,5,2,1,65,1,0
67605,309.278350515462,4,2,1,65,1,0
68842,307.692307692306,4,2,1,65,1,0
69765,304.56852791878,5,2,1,65,1,0
71135,312.499999999998,4,2,1,65,1,0
71916,303.030303030301,4,2,1,65,1,0
72522,310.880829015542,4,2,1,65,1,0
72522,-100,4,2,1,75,0,0
73610,309.278350515462,4,2,1,75,1,0
74847,306.12244897959,4,2,1,75,1,0
76071,309.278350515462,5,2,1,75,1,0
77462,306.12244897959,4,2,1,75,1,0
78686,309.278350515462,4,2,1,75,1,0
79923,307.692307692306,4,2,1,75,1,0
79923,-71.4285714285714,4,2,1,75,0,0
80846,-133.333333333333,4,2,1,65,0,0
81153,304.56852791878,4,2,1,65,1,0
82063,-133.333333333333,4,2,1,75,0,0
82371,307.692307692306,4,2,1,75,1,0
82371,-60.6060606060606,4,2,1,85,0,1
84677,306.12244897959,4,2,1,85,1,1
84677,-60.6060606060606,4,2,1,85,0,1
85901,310.880829015542,5,2,1,85,1,1
85901,-60.6060606060606,4,2,1,85,0,1
87299,306.12244897959,4,2,1,85,1,1
87299,-60.6060606060606,4,2,1,85,0,1
88370,310.880829015542,4,2,1,85,1,1
88370,-60.6060606060606,4,2,1,85,0,1
89613,306.12244897959,4,2,1,85,1,1
89613,-60.6060606060606,4,2,1,85,0,1
90837,304.56852791878,4,2,1,85,1,1
90837,-60.6060606060606,4,2,1,85,0,1
91598,310.880829015542,4,2,1,85,1,1
91598,-60.6060606060606,4,2,1,85,0,1
92219,309.278350515462,4,2,1,85,1,1
92219,-60.6060606060606,4,2,1,85,0,1
93301,307.692307692306,4,2,1,85,1,1
93301,-60.6060606060606,4,2,1,85,0,1
94531,309.278350515462,4,2,1,85,1,1
94531,-60.6060606060606,4,2,1,85,0,1
95768,307.692307692306,4,2,1,85,1,1
95768,-60.6060606060606,4,2,1,85,0,1
96537,314.136125654449,4,2,1,85,1,1
96537,-60.6060606060606,4,2,1,85,0,1
97165,309.278350515463,4,2,1,85,1,1
97165,-133.333333333333,4,2,1,85,0,1
98402,306.122448979591,4,2,1,85,1,1
98402,-133.333333333333,4,2,1,85,0,1
100697,312.499999999999,4,2,1,85,1,0
100697,-133.333333333333,4,2,1,85,0,1
101478,306.122448979591,4,2,1,80,1,0
101478,-133.333333333333,4,2,1,85,0,0
102090,307.692307692307,4,2,1,65,1,0
102090,-86.9565217391302,4,2,1,65,0,0
104396,306.122448979591,4,2,1,65,1,0
104396,-86.9565217391302,4,2,1,65,0,0
105620,309.278350515463,5,2,1,65,1,0
105620,-86.9565217391302,4,2,1,65,0,0
107011,304.568527918781,4,2,1,65,1,0
107011,-86.9565217391302,4,2,1,65,0,0
108076,309.278350515463,4,2,1,65,1,0
108076,-86.9565217391302,4,2,1,65,0,0
109313,303.030303030302,4,2,1,65,1,0
109313,-74.0740740740741,4,2,1,65,0,0
109767,-57.1428571428571,4,2,1,65,0,0
110146,-57.1428571428571,4,2,1,45,0,0
110222,-57.1428571428571,4,2,1,65,0,0
110297,-57.1428571428571,4,2,1,45,0,0
110373,-57.1428571428571,4,2,1,65,0,0
110449,-57.1428571428571,4,2,1,45,0,0
110525,314.136125654449,4,2,1,50,1,0
110525,-57.1428571428571,4,2,1,70,0,0
111310,315.789473684209,4,2,1,60,1,0
111941,307.692307692306,4,2,1,60,1,0
111941,-133.333333333333,4,2,1,60,0,0
113017,303.030303030301,5,2,1,60,1,0
113017,-133.333333333333,4,2,1,60,0,0
114380,309.278350515462,4,2,1,60,1,0
114380,-133.333333333333,4,2,1,60,0,0
116854,303.030303030301,4,2,1,60,1,0
116854,-133.333333333333,4,2,1,60,0,0
117914,312.499999999998,5,2,1,60,1,0
117914,-133.333333333333,4,2,1,60,0,0
119320,306.12244897959,4,2,1,60,1,0
119320,-133.333333333333,4,2,1,60,0,0
120391,312.499999999998,4,2,1,60,1,0
120391,-133.333333333333,4,2,1,60,0,0
121328,297.029702970295,4,2,1,60,1,0
121328,-133.333333333333,4,2,1,60,0,0
121476,307.692307692306,4,2,1,60,1,0
121476,-100,4,2,1,75,0,0
121783,307.692307692306,4,2,1,75,1,0
121783,-100,4,2,1,75,0,0
122859,304.56852791878,4,2,1,75,1,0
124077,303.030303030301,5,2,1,75,1,0
125440,319.148936170211,4,2,1,75,1,0
126557,306.12244897959,4,2,1,75,1,0
127781,306.12244897959,5,2,1,75,1,0
129158,310.880829015542,4,2,1,75,1,0
130401,303.030303030301,4,2,1,75,1,0
131007,306.12244897959,4,2,1,75,1,0
131619,307.692307692306,4,2,1,75,1,0
132849,310.880829015542,4,2,1,75,1,0
133937,304.56852791878,4,2,1,75,1,0
135155,309.278350515462,5,2,1,75,1,0
136546,306.12244897959,4,2,1,75,1,0
137770,312.499999999998,4,2,1,75,1,0
138707,304.56852791878,5,2,1,75,1,0
140077,307.692307692306,5,2,1,75,1,0
141461,304.56852791878,4,2,1,75,1,0
141463,-100,4,2,1,75,0,0
142526,312.499999999998,4,2,1,75,1,0
143776,309.278350515462,4,2,1,75,1,0
145013,306.12244897959,5,2,1,75,1,0
146390,309.278350515462,4,2,1,75,1,0
147627,310.880829015542,4,2,1,75,1,0
150113,303.030303030301,4,2,1,75,1,0
151022,-500,4,2,1,50,0,0
151325,307.692307692306,4,2,1,85,1,0
151325,-60.6060606060606,4,2,1,85,0,1
152401,310.880829015542,4,2,1,85,1,1
152401,-60.6060606060606,4,2,1,85,0,1
153644,304.56852791878,4,2,1,85,1,1
153644,-60.6060606060606,4,2,1,85,0,1
154862,310.880829015542,5,2,1,85,1,1
154862,-60.6060606060606,4,2,1,85,0,1
156260,304.56852791878,4,2,1,85,1,1
156260,-60.6060606060606,4,2,1,85,0,1
157325,306.12244897959,4,2,1,85,1,1
157325,-60.6060606060606,4,2,1,85,0,1
158549,304.56852791878,4,2,1,85,1,1
158549,-60.6060606060606,4,2,1,85,0,1
159767,307.692307692306,4,2,1,85,1,1
159767,-60.6060606060606,4,2,1,85,0,1
160536,312.499999999998,4,2,1,85,1,1
160536,-60.6060606060606,4,2,1,85,0,1
161161,312.499999999998,4,2,1,85,1,1
161161,-60.6060606060606,4,2,1,85,0,1
162254,309.278350515462,4,2,1,85,1,1
162254,-60.6060606060606,4,2,1,85,0,1
163491,304.56852791878,4,2,1,85,1,1
163491,-60.6060606060606,4,2,1,85,0,1
164709,301.50753768844,4,2,1,85,1,1
164709,-60.6060606060606,4,2,1,85,0,1
165462,307.692307692306,4,2,1,85,1,1
165462,-60.6060606060606,4,2,1,85,0,1
166077,312.499999999998,4,2,1,85,1,1
166077,-71.4285714285714,4,2,1,85,0,1
167327,304.56852791878,4,2,1,85,1,1
167327,-71.4285714285714,4,2,1,85,0,1
169610,312.499999999998,4,2,1,85,1,1
169610,-100,4,2,1,85,0,1
170391,309.278350515462,4,2,1,80,1,0
171009,312.499999999998,4,2,1,65,1,0
171009,-83.3333333333333,4,2,1,65,0,0
172102,307.692307692306,4,2,1,65,1,0
172102,-83.3333333333333,4,2,1,65,0,0
173332,306.12244897959,4,2,1,65,1,0
173332,-83.3333333333333,4,2,1,65,0,0
174556,304.56852791878,5,2,1,65,1,0
174556,-83.3333333333333,4,2,1,65,0,0
175926,314.136125654448,4,2,1,65,1,0
175926,-83.3333333333333,4,2,1,65,0,0
177025,307.692307692306,4,2,1,65,1,0
177025,-83.3333333333333,4,2,1,65,0,0
178255,312.499999999998,4,2,1,65,1,0
178255,-83.3333333333333,4,2,1,65,0,0
179505,299.999999999998,4,2,1,65,1,0
179505,-83.3333333333333,4,2,1,65,0,0
180255,306.12244897959,4,2,1,65,1,0
180255,-83.3333333333333,4,2,1,65,0,0
180867,291.262135922328,4,2,1,65,1,0
180867,-153.846153846153,4,2,1,65,0,0
181158,309.278350515462,4,2,1,65,1,0
181158,-71.4285714285714,4,2,1,75,0,1
181467,-43.4782608695652,4,2,1,85,0,1
181931,307.692307692306,4,2,1,85,1,1
181931,-71.4285714285714,4,2,1,75,0,1
182392,-60.6060606060606,4,2,1,85,0,1
183161,306.12244897959,4,2,1,85,1,1
183161,-60.6060606060606,4,2,1,85,0,1
184385,314.136125654449,4,2,1,85,1,1
184385,-60.6060606060606,4,2,1,85,0,1
185170,317.460317460316,4,2,1,85,1,1
185170,-60.6060606060606,4,2,1,85,0,1
185804,306.12244897959,4,2,1,85,1,1
185804,-133.333333333333,4,2,1,85,0,1
187028,307.692307692306,4,2,1,85,1,1
187028,-133.333333333333,4,2,1,85,0,1
188258,306.12244897959,4,2,1,85,1,1
188258,-133.333333333333,4,2,1,85,0,1
189329,309.278350515462,4,2,1,85,1,1
189329,-133.333333333333,4,2,1,85,0,1
190102,310.880829015542,4,2,1,85,1,1
190102,-133.333333333333,4,2,1,85,0,1
190723,309.278350515462,4,2,1,65,1,0
190723,-100,4,2,1,65,0,0
191805,306.12244897959,4,2,1,65,1,0
193029,307.692307692306,4,2,1,65,1,0
194259,309.278350515462,5,2,1,65,1,0
195650,310.880829015542,4,2,1,65,1,0
196738,306.12244897959,4,2,1,65,1,0
199186,304.56852791878,5,2,1,65,1,0
200556,309.278350515462,4,2,1,65,1,0
201638,306.12244897959,4,2,1,65,1,0
202862,309.278350515462,4,2,1,65,1,0
204099,307.692307692306,4,2,1,65,1,0
204868,315.789473684209,4,2,1,65,1,0
205499,307.692307692306,4,2,1,65,1,0
205499,-117.647058823529,4,2,1,65,0,0
206268,-117.647058823529,4,2,1,65,0,0
206729,303.030303030301,4,2,1,65,1,0
206880,-117.647058823529,4,2,1,65,0,0
207486,-117.647058823529,4,2,1,65,0,0
207941,306.12244897959,4,2,1,65,1,0
208094,-117.647058823529,4,2,1,65,0,0
209012,309.278350515462,4,2,1,65,1,0
209166,-100,4,2,1,25,0,0

[Colours]
Combo1 : 222,56,126
Combo2 : 185,208,197
Combo3 : 206,203,176
Combo4 : 164,160,197

[HitObjects]
98,117,2335,6,0,P|134:98|186:85,3,80,2|2|2|2,0:0|0:0|0:0|0:0,0:0:0:0:
307,39,3591,5,6,0:0:0:0:
292,123,3898,1,6,0:0:0:0:
321,50,6052,5,6,0:0:0:0:
298,132,6364,1,6,0:0:0:0:
352,61,8395,5,8,0:0:0:0:
352,61,8496,2,0,B|359:140|281:218|178:229|92:128|84:36|174:-1|232:15|236:96,1,480,14|0,0:0|0:0,0:0:0:0:
99,219,10996,5,6,0:0:0:0:
44,89,11300,1,6,0:0:0:0:
169,152,12214,6,0,P|200:112|286:121,2,120,10|10|10,0:0|0:0|0:0,0:0:0:0:
117,225,12805,2,0,P|91:187|91:123,1,100,10|0,0:0|0:0,0:0:0:0:
136,73,13112,1,4,0:0:0:0:
262,264,13420,6,0,P|304:265|362:245,1,80,4|0,3:2|0:0,0:0:0:0:
424,177,13732,1,10,0:0:0:0:
361,372,14045,2,0,P|391:343|418:287,1,80,2|0,3:2|0:0,0:0:0:0:
424,177,14357,1,10,0:0:0:0:
276,348,14513,6,0,P|193:346|130:293,1,160,6|2,3:2|3:2,0:0:0:0:
110,188,14976,1,10,0:0:0:0:
13,361,15286,2,0,P|2:307|8:247,1,80,2|2,3:2|0:0,0:0:0:0:
30,164,15595,1,8,0:0:0:0:
183,233,15750,6,0,L|359:215,1,160,6|2,3:2|3:2,0:0:0:0:
428,162,16206,1,10,0:0:0:0:
396,369,16511,2,0,L|411:269,1,80,6|2,3:2|0:0,0:0:0:0:
428,162,16815,1,8,0:0:0:0:
324,239,16968,6,0,B|280:249|241:222|241:222|201:198|144:218,1,160,6|2,3:2|3:2,0:0:0:0:
45,353,17431,2,0,P|41:309|71:252,2,80,10|2|0,0:0|0:0|3:2,0:0:0:0:
191,372,17895,2,0,P|204:332|200:291,1,80,2|8,0:0|0:0,0:0:0:0:
126,191,18205,1,10,0:0:0:0:
143,194,18282,1,8,0:0:0:0:
160,197,18359,5,4,3:2:0:0:
297,116,18514,1,2,0:0:0:0:
280,119,18592,1,2,0:0:0:0:
263,122,18669,1,10,0:0:0:0:
391,301,18980,2,0,P|414:255|418:205,1,80,2|2,3:2|0:0,0:0:0:0:
404,108,19291,1,8,0:0:0:0:
311,248,19447,6,0,P|253:303|142:298,1,160,6|2,3:2|3:2,0:0:0:0:
95,226,19908,1,10,0:0:0:0:
0,380,20216,2,0,P|4:338|23:301,1,80,2|0,3:2|0:0,0:0:0:0:
95,226,20523,1,10,0:0:0:0:
168,332,20677,6,0,B|218:342|249:315|249:315|282:290|339:302,1,160,6|2,3:2|3:2,0:0:0:0:
433,337,21145,1,10,0:0:0:0:
332,315,21302,1,2,0:0:0:0:
505,285,21458,2,0,P|511:326|512:368,1,80,6|0,3:2|0:0,0:0:0:0:
393,260,21770,1,8,0:0:0:0:
471,134,21927,6,0,P|471:181|454:229,1,80,6|0,3:2|0:0,0:0:0:0:
332,315,22230,1,2,0:0:0:0:
294,157,22381,2,0,P|313:194|321:235,1,80,12|2,0:0|0:0,0:0:0:0:
202,378,22686,2,0,P|221:340|229:299,1,80,4|10,3:2|0:0,0:0:0:0:
211,227,22915,1,8,0:0:0:0:
208,216,22992,1,8,0:0:0:0:
50,277,23145,1,8,0:0:0:0:
53,288,23221,1,8,0:0:0:0:
56,299,23296,6,0,P|107:315|145:312,1,80,4|0,3:2|0:0,0:0:0:0:
238,289,23603,1,10,0:0:0:0:
124,132,23911,2,0,P|108:183|111:221,1,80,2|2,3:2|0:0,0:0:0:0:
142,320,24219,1,8,0:0:0:0:
285,213,24372,6,0,P|362:188|451:238,1,160,6|2,3:2|3:2,0:0:0:0:
458,326,24831,1,10,0:0:0:0:
218,256,25137,2,0,P|207:202|220:153,1,80,2|2,3:2|0:0,0:0:0:0:
272,67,25443,1,8,0:0:0:0:
147,124,25596,6,0,P|68:139|-13:66,1,160,6|2,3:2|3:2,0:0:0:0:
86,39,26057,1,10,0:0:0:0:
211,174,26365,2,0,P|199:214|176:248,1,80,6|2,3:2|0:0,0:0:0:0:
79,287,26672,1,8,0:0:0:0:
270,240,26826,6,0,B|314:234|350:265|350:265|388:293|446:279,1,160,6|2,3:2|3:2,0:0:0:0:
512,175,27280,1,14,0:0:0:0:
424,116,27432,1,2,0:0:0:0:
424,116,27507,1,0,0:0:0:0:
424,116,27583,2,0,P|407:155|407:208,1,80,12|2,0:0|3:2,0:0:0:0:
493,346,27895,2,12,P|510:307|510:254,1,80,14|0,0:0|3:2,0:0:0:0:
296,283,28208,6,0,P|328:290|381:286,2,80,14|0|0,0:0|3:2|0:0,0:0:0:0:
199,166,28833,5,10,3:2:0:0:
272,359,28989,1,8,3:2:0:0:
244,97,29458,5,10,3:2:0:0:
209,323,29609,1,8,3:2:0:0:
315,66,30064,5,10,3:2:0:0:
174,259,30215,1,8,3:2:0:0:
389,57,30670,5,10,3:2:0:0:
182,189,30821,2,0,P|223:182|259:169,2,60.0000022888184,8|0|0,0:0|3:2|3:2,0:0:0:0:
331,126,31276,5,10,0:0:0:0:
120,73,31427,1,10,0:0:0:0:
289,266,31579,1,10,0:0:0:0:
487,72,31730,6,0,B|503:39|500:2|500:2|503:14|511:34,1,100,10|0,0:0|0:0,0:0:0:0:
353,163,33126,6,0,P|306:167|252:138,1,95.9999970703126,6|0,0:0|0:0,0:0:0:0:
286,0,33767,2,0,P|312:38|314:99,1,95.9999970703126,2|0,0:0|0:0,0:0:0:0:
220,205,34382,2,0,B|157:215|118:161|118:161|80:103|5:124,1,239.999992675781,2|0,0:0|0:0,0:0:0:0:
43,202,35339,1,2,0:0:0:0:
197,119,35499,1,2,0:0:0:0:
197,119,35658,6,0,P|253:123|293:160,1,95.9999970703126,2|0,0:0|0:0,0:0:0:0:
342,262,36283,1,2,0:0:0:0:
342,262,36436,2,0,L|340:210,1,47.9999985351563,2|0,0:0|0:0,0:0:0:0:
436,144,36742,2,0,L|414:388,1,239.999992675781,2|0,0:0|0:0,0:0:0:0:
308,369,37802,1,2,0:0:0:0:
200,354,38108,5,2,0:0:0:0:
211,364,38720,2,0,L|204:255,1,95.9999970703126,2|0,0:0|0:0,0:0:0:0:
123,175,39341,2,0,P|50:168|94:280,1,239.999992675781,2|0,0:0|0:0,0:0:0:0:
204,267,40264,1,0,0:0:0:0:
204,267,40417,2,0,P|221:134|151:0,1,287.999991210938,2|0,0:0|0:0,0:0:0:0:
61,29,41494,2,0,P|52:56|62:92,1,47.9999985351563,2|0,0:0|0:0,0:0:0:0:
118,125,41760,5,2,0:0:0:0:
233,95,42060,1,2,0:0:0:0:
453,52,42210,1,0,3:2:0:0:
453,52,42285,1,0,3:2:0:0:
453,52,42360,2,0,P|463:94|461:138,1,80,2|0,3:2|0:0,0:0:0:0:
357,187,42669,2,0,P|360:163|367:140,1,40,2|0,3:2|0:0,0:0:0:0:
483,313,42978,6,0,B|428:330|384:305|384:305|340:282|277:298,1,191.999994140625,6|8,3:2|0:0,0:0:0:0:
21,360,43606,2,0,P|64:358|118:314,1,95.9999970703126,0|0,3:2|0:0,0:0:0:0:
120,194,43920,1,10,0:0:0:0:
170,368,44077,6,0,P|183:332|118:183,1,191.999994140625,2|0,3:2|3:2,0:0:0:0:
1,135,44536,1,8,0:0:0:0:
246,234,44842,2,0,P|297:227|334:197,1,95.9999970703126,2|0,3:2|0:0,0:0:0:0:
187,88,45148,2,0,P|167:135|175:182,1,95.9999970703126,10|0,0:0|0:0,0:0:0:0:
292,310,45454,6,0,L|498:285,1,191.999994140625,2|10,3:2|0:0,0:0:0:0:
261,158,46069,2,0,L|422:177,1,143.999995605469,2|0,3:2|0:0,0:0:0:0:
417,182,46377,1,10,0:0:0:0:
279,77,46530,6,0,B|225:69|188:103|188:103|149:140|73:117,1,191.999994140625,2|0,3:2|3:2,0:0:0:0:
5,20,46989,1,8,0:0:0:0:
58,234,47295,2,0,L|39:346,1,95.9999970703126,2|0,3:2|0:0,0:0:0:0:
124,107,47601,2,0,L|105:-5,1,95.9999970703126,10|0,0:0|0:0,0:0:0:0:
198,250,47907,6,0,P|246:281|395:241,1,191.999994140625,2|8,3:2|0:0,0:0:0:0:
448,48,48513,1,0,3:2:0:0:
443,132,48664,1,2,0:0:0:0:
455,44,48816,1,10,0:0:0:0:
335,192,48967,6,0,P|314:122|309:4,1,191.999994140625,2|0,3:2|3:2,0:0:0:0:
455,44,49435,1,8,0:0:0:0:
178,123,49748,2,0,P|124:117|85:91,1,95.9999970703126,2|0,3:2|0:0,0:0:0:0:
316,188,50060,2,0,P|357:164|404:160,1,95.9999970703126,10|0,0:0|0:0,0:0:0:0:
207,299,50373,6,0,P|209:226|190:108,2,191.999994140625,2|8|0,3:2|0:0|3:2,0:0:0:0:
142,374,51150,1,2,0:0:0:0:
293,318,51305,1,10,0:0:0:0:
155,378,51461,1,2,0:0:0:0:
66,243,51616,6,0,P|57:204|115:105,1,143.999995605469,14|0,3:2|0:0,0:0:0:0:
190,108,51922,1,8,3:2:0:0:
201,105,51998,1,0,3:2:0:0:
213,103,52075,1,0,3:2:0:0:
225,101,52151,1,0,3:2:0:0:
237,98,52228,1,8,3:2:0:0:
248,96,52304,1,0,3:2:0:0:
260,94,52381,1,0,3:2:0:0:
272,91,52457,1,0,3:2:0:0:
284,89,52534,1,8,3:2:0:0:
296,87,52610,1,0,3:2:0:0:
307,85,52687,1,8,3:2:0:0:
319,82,52763,1,0,3:2:0:0:
331,80,52840,6,0,P|421:93|467:213,1,223.999993164063,14|10,3:2|0:0,0:0:0:0:
365,183,53296,1,0,0:0:0:0:
455,9,53449,1,2,3:2:0:0:
371,198,53601,1,2,0:0:0:0:
312,70,53753,1,8,0:0:0:0:
462,226,53905,6,0,P|425:289|275:321,1,223.999993164063,6|2,3:2|3:2,0:0:0:0:
104,251,54368,2,0,L|123:365,1,111.999996582031,10|0,0:0|0:0,0:0:0:0:
168,151,54678,1,2,3:2:0:0:
49,200,54832,2,0,L|-9:192,2,55.9999982910157,2|2|10,0:0|0:0|0:0,0:0:0:0:
184,269,55142,6,0,P|243:246|281:93,1,223.999993164063,6|0,3:2|3:2,0:0:0:0:
406,10,55603,2,0,P|426:40|441:127,1,111.999996582031,8|0,0:0|0:0,0:0:0:0:
328,284,55911,1,6,3:2:0:0:
299,117,56065,1,2,0:0:0:0:
448,199,56218,1,10,0:0:0:0:
281,117,56372,6,0,P|208:102|100:223,1,223.999993164063,6|2,3:2|3:2,0:0:0:0:
154,371,56831,1,10,0:0:0:0:
250,288,56984,2,0,P|166:288|18:328,1,223.999993164063,2|2,3:2|3:2,0:0:0:0:
166,379,57452,1,10,0:0:0:0:
216,208,57609,1,8,0:0:0:0:
216,208,57687,1,8,0:0:0:0:
216,208,57762,6,0,P|266:208|282:213,3,55.9999982910157,6|2|2|2,3:2|0:0|0:0|0:0,0:0:0:0:
352,261,58069,2,0,P|402:261|418:256,3,55.9999982910157,10|2|2|2,0:0|0:0|0:0|0:0,0:0:0:0:
496,171,58377,1,2,3:2:0:0:
497,143,58454,1,2,0:0:0:0:
499,115,58531,1,2,0:0:0:0:
501,86,58608,1,2,0:0:0:0:
503,58,58685,2,0,L|508:0,1,55.9999982910157,10|0,0:0|0:0,0:0:0:0:
374,164,58838,6,0,L|369:105,1,55.9999982910157,6|0,3:2|0:0,0:0:0:0:
273,0,58992,2,0,L|268:58,1,55.9999982910157,0|0,0:0|0:0,0:0:0:0:
249,206,59146,1,2,3:2:0:0:
128,76,59300,2,0,P|104:69|58:67,3,55.9999982910157,10|2|2|2,0:0|0:0|0:0|0:0,0:0:0:0:
23,137,59608,2,0,L|32:269,1,111.999996582031,2|0,3:2|0:0,0:0:0:0:
106,303,59838,1,2,0:0:0:0:
116,295,59915,2,0,P|124:264|129:227,1,55.9999982910157,10|0,0:0|0:0,0:0:0:0:
137,113,60069,1,6,3:2:0:0:
254,225,60219,6,0,P|260:156|205:-4,1,223.999993164063,6|8,3:2|0:0,0:0:0:0:
101,16,60672,1,2,0:0:0:0:
341,113,60822,6,0,P|412:118|527:21,1,223.999993164063,6|8,3:2|0:0,0:0:0:0:
332,294,61278,2,0,P|344:330|388:370,1,55.9999982910157,6|0,3:2|0:0,0:0:0:0:
235,198,61431,6,0,P|165:176|55:212,1,167.999994873047,2|0,3:2|0:0,0:0:0:0:
4,273,61739,2,0,L|19:388,1,80,14|0,0:0|0:0,0:0:0:0:
57,90,62047,1,14,3:2:0:0:
75,197,62203,1,0,3:2:0:0:
76,210,62281,1,0,3:2:0:0:
78,223,62359,1,8,3:2:0:0:
80,236,62437,1,0,3:2:0:0:
81,249,62515,1,8,3:2:0:0:
83,263,62593,1,0,3:2:0:0:
85,276,62672,6,0,P|126:314|225:316,1,160,6|8,3:2|0:0,0:0:0:0:
399,146,63300,2,0,P|321:138|258:185,1,160,2|8,3:2|0:0,0:0:0:0:
461,373,63928,6,0,P|486:320|498:183,2,160,2|8|0,3:2|0:0|3:2,0:0:0:0:
491,204,64851,1,10,0:0:0:0:
389,344,65004,1,2,0:0:0:0:
389,344,65158,6,0,B|341:347|311:324|311:324|273:297|224:309,1,160,2|10,3:2|0:0,0:0:0:0:
11,351,65774,1,2,3:2:0:0:
12,172,65927,2,0,P|23:206|29:256,1,80,2|8,0:0|0:0,0:0:0:0:
134,372,66235,6,0,P|145:338|145:202,1,160,2|0,3:2|3:2,0:0:0:0:
86,74,66691,1,8,0:0:0:0:
154,222,66996,1,0,3:2:0:0:
241,67,67300,2,0,P|269:39|374:41,1,120,10|0,0:0|0:0,0:0:0:0:
435,65,67605,6,0,P|448:97|486:128,2,80,2|0|8,3:2|0:0|0:0,0:0:0:0:
371,219,68223,2,0,P|341:192|318:139,1,80,2|0,3:2|0:0,0:0:0:0:
276,38,68532,2,0,P|267:77|233:123,1,80,10|0,0:0|0:0,0:0:0:0:
103,167,68842,6,0,P|29:138|3:42,2,160,2|8|2,3:2|0:0|3:2,0:0:0:0:
215,306,69765,6,0,P|259:254|365:241,1,160,10|0,0:0|3:2,0:0:0:0:
498,355,70221,1,0,0:0:0:0:
511,368,70374,2,0,P|490:288|493:179,1,160,8|0,0:0|3:2,0:0:0:0:
361,315,70830,1,2,0:0:0:0:
388,161,70983,1,10,0:0:0:0:
231,311,71135,6,0,P|166:319|76:233,1,160,2|0,3:2|3:2,0:0:0:0:
36,99,71603,2,0,P|55:136|66:204,1,80,8|0,0:0|0:0,0:0:0:0:
235,322,71916,2,0,P|245:294|251:258,1,40,2|0,3:2|0:0,0:0:0:0:
206,159,72067,1,8,0:0:0:0:
198,177,72143,1,8,0:0:0:0:
193,196,72219,1,8,0:0:0:0:
335,294,72370,1,8,0:0:0:0:
340,274,72446,1,8,0:0:0:0:
341,255,72522,6,0,L|329:125,1,120,6|0,3:2|0:0,0:0:0:0:
320,120,72832,1,10,0:0:0:0:
445,310,73143,2,0,L|454:207,1,80,2|0,3:2|0:0,0:0:0:0:
362,384,73454,1,8,0:0:0:0:
341,255,73610,6,0,L|324:79,1,160,2|2,3:2|3:2,0:0:0:0:
216,218,74073,2,0,L|226:129,1,80,10|0,0:0|0:0,0:0:0:0:
326,95,74383,2,0,L|341:255,1,160,2|8,3:2|0:0,0:0:0:0:
441,380,74847,6,0,P|392:352|274:371,1,160,2|2,3:2|3:2,0:0:0:0:
129,367,75306,2,0,P|160:333|191:315,1,80,10|0,0:0|0:0,0:0:0:0:
338,265,75612,1,2,3:2:0:0:
197,326,75765,1,2,0:0:0:0:
128,189,75918,1,10,0:0:0:0:
203,338,76071,6,0,P|225:271|229:229,1,80,2|0,0:0|3:2,0:0:0:0:
334,178,76380,1,2,0:0:0:0:
334,178,76534,2,0,P|348:246|348:289,1,80,10|0,0:0|0:0,0:0:0:0:
322,373,76844,1,2,3:2:0:0:
257,81,77153,1,10,0:0:0:0:
334,365,77462,6,0,P|356:288|348:177,1,160,2|8,3:2|0:0,0:0:0:0:
89,123,78074,2,0,P|67:200|75:311,1,160,2|8,3:2|0:0,0:0:0:0:
379,294,78686,6,0,P|379:214|358:137,1,160,2|8,3:2|0:0,0:0:0:0:
47,182,79304,2,0,P|46:261|67:338,1,160,2|8,3:2|0:0,0:0:0:0:
233,373,79923,6,0,P|330:327|452:329,2,223.999993164063,14|0|8,0:0|3:2|0:0,0:0:0:0:
72,342,80692,1,0,0:0:0:0:
72,342,80846,2,0,P|62:305|66:271,1,60.0000022888184,10|0,0:0|0:0,0:0:0:0:
130,187,81153,5,14,3:2:0:0:
144,201,81229,1,0,3:2:0:0:
160,211,81305,1,0,3:2:0:0:
179,218,81381,1,0,3:2:0:0:
199,222,81457,1,8,3:2:0:0:
219,220,81533,1,0,3:2:0:0:
238,215,81609,1,0,3:2:0:0:
256,205,81685,1,0,3:2:0:0:
271,193,81762,1,10,3:2:0:0:
283,177,81838,1,0,3:2:0:0:
292,159,81914,1,0,3:2:0:0:
296,140,81990,1,0,3:2:0:0:
297,120,82066,1,10,3:2:0:0:
293,100,82142,1,0,3:2:0:0:
285,82,82218,1,8,3:2:0:0:
274,65,82295,1,0,3:2:0:0:
259,52,82371,6,0,B|202:23|146:49|146:49|188:74,1,132.00000125885,6|0,3:2|0:0,0:0:0:0:
387,159,82678,2,0,P|415:130|425:39,1,132.00000125885,10|0,0:0|0:0,0:0:0:0:
205,133,82986,1,2,3:2:0:0:
378,275,83140,1,0,0:0:0:0:
338,74,83294,1,8,0:0:0:0:
180,317,83447,6,0,B|111:373|15:347|-7:294|-7:294|51:221,1,264.0000025177,6|0,3:2|3:2,0:0:0:0:
289,254,83909,2,0,P|288:327|252:371,1,132.00000125885,10|0,0:0|0:0,0:0:0:0:
39,180,84217,1,2,3:2:0:0:
257,73,84370,1,0,0:0:0:0:
197,246,84524,1,8,0:0:0:0:
0,99,84677,6,0,B|70:80|119:134|119:134|170:184|242:150,1,264.0000025177,6|2,3:2|3:2,0:0:0:0:
363,34,85136,1,10,0:0:0:0:
182,85,85289,1,2,0:0:0:0:
373,172,85442,2,0,P|384:123|372:19,1,132.00000125885,6|0,3:2|0:0,0:0:0:0:
264,276,85748,1,10,0:0:0:0:
454,30,85901,6,0,P|483:138|486:335,1,264.0000025177,6|2,3:2|3:2,0:0:0:0:
259,384,86367,2,0,P|274:332|269:222,1,132.00000125885,10|0,0:0|0:0,0:0:0:0:
61,135,86678,2,0,P|46:187|51:297,1,132.00000125885,2|0,3:2|0:0,0:0:0:0:
387,322,86989,1,10,0:0:0:0:
334,175,87144,1,8,0:0:0:0:
334,175,87222,1,8,0:0:0:0:
334,175,87299,6,0,P|231:184|179:268,1,198.000001888275,6|0,3:2|0:0,0:0:0:0:
196,273,87605,1,10,0:0:0:0:
168,46,87758,1,2,0:0:0:0:
213,289,87911,2,0,P|212:224|196:121,1,132.00000125885,2|0,3:2|0:0,0:0:0:0:
174,355,88217,1,8,0:0:0:0:
413,114,88370,6,0,B|338:133|287:88|287:88|234:42|147:68,1,264.0000025177,6|0,3:2|3:2,0:0:0:0:
53,282,88836,1,10,0:0:0:0:
12,37,88991,1,2,0:0:0:0:
61,290,89147,2,0,P|79:220|76:139,1,132.00000125885,2|0,3:2|0:0,0:0:0:0:
16,24,89458,1,8,0:0:0:0:
225,171,89613,6,0,P|374:167|500:123,1,264.0000025177,6|2,3:2|3:2,0:0:0:0:
269,42,90072,1,10,0:0:0:0:
353,272,90225,1,0,0:0:0:0:
382,80,90378,1,6,3:2:0:0:
269,325,90531,1,2,0:0:0:0:
183,121,90684,1,10,0:0:0:0:
386,356,90837,6,0,P|448:315|456:181,1,198.000001888275,6|0,3:2|0:0,0:0:0:0:
423,138,91141,1,2,3:2:0:0:
258,343,91293,2,0,P|231:283|231:213,1,132.00000125885,10|2,0:0|0:0,0:0:0:0:
355,47,91598,1,6,3:2:0:0:
230,217,91753,1,10,0:0:0:0:
209,225,91831,1,8,0:0:0:0:
187,228,91908,1,8,0:0:0:0:
135,34,92064,1,8,0:0:0:0:
156,26,92142,1,8,0:0:0:0:
178,23,92219,6,0,B|228:9|281:45|281:45|253:38,1,132.00000125885,6|0,3:2|0:0,0:0:0:0:
5,157,92528,2,0,P|-4:119|27:34,1,132.00000125885,10|0,0:0|0:0,0:0:0:0:
230,216,92837,2,0,P|239:254|208:339,1,132.00000125885,2|0,3:2|0:0,0:0:0:0:
96,256,93146,1,8,0:0:0:0:
344,368,93301,6,0,B|421:401|508:345|505:283|505:283|458:332,1,264.0000025177,6|2,3:2|3:2,0:0:0:0:
246,183,93762,2,0,P|245:231|296:307,1,132.00000125885,10|2,0:0|0:0,0:0:0:0:
383,69,94070,1,2,3:2:0:0:
336,215,94224,1,0,0:0:0:0:
493,70,94377,1,8,0:0:0:0:
246,183,94531,6,0,B|176:207|125:152|125:152|72:101|-2:127,1,264.0000025177,6|2,3:2|3:2,0:0:0:0:
231,73,94994,1,10,0:0:0:0:
41,232,95149,1,2,0:0:0:0:
180,6,95304,5,6,3:2:0:0:
327,205,95458,1,2,0:0:0:0:
167,9,95613,1,10,0:0:0:0:
231,272,95768,6,0,P|256:180|270:3,1,264.0000025177,6|2,3:2|3:2,0:0:0:0:
438,175,96229,2,0,P|427:109|405:47,1,132.00000125885,10|0,0:0|0:0,0:0:0:0:
141,242,96537,2,0,P|162:179|173:114,1,132.00000125885,10|0,3:2|0:0,0:0:0:0:
438,373,96851,2,0,P|427:307|405:245,1,132.00000125885,10|0,0:0|0:0,0:0:0:0:
46,337,97165,6,0,P|135:322|232:336,1,180.000006866455,6|0,3:2|0:0,0:0:0:0:
357,383,97783,5,10,3:2:0:0:
324,106,97938,2,0,P|332:129|344:177,1,60.0000022888184,8|0,3:2|0:0,0:0:0:0:
264,356,98402,5,10,3:2:0:0:
426,135,98555,2,0,P|418:164|408:192,1,60.0000022888184,8|0,3:2|0:0,0:0:0:0:
200,291,99014,5,10,3:2:0:0:
492,216,99167,2,0,P|469:235|444:252,1,60.0000022888184,8|0,3:2|0:0,0:0:0:0:
190,194,99626,5,10,3:2:0:0:
501,321,99779,2,0,P|472:325|441:324,1,60.0000022888184,8|0,3:2|0:0,0:0:0:0:
291,108,100238,5,8,0:0:0:0:
333,357,100391,1,8,0:0:0:0:
201,177,100544,1,10,0:0:0:0:
353,366,100697,2,0,P|380:338|408:247,1,120.000004577637,14|0,0:0|0:0,0:0:0:0:
401,151,101165,1,12,0:0:0:0:
483,343,101478,5,10,3:2:0:0:
411,134,101631,1,10,3:2:0:0:
411,134,102090,6,0,P|264:142|207:166,1,184.000003509522,6|10,3:2|0:0,0:0:0:0:
170,267,102551,1,0,0:0:0:0:
111,103,102705,2,0,P|104:146|113:212,1,92.0000017547608,2|0,3:2|0:0,0:0:0:0:
174,368,103013,1,8,0:0:0:0:
417,253,103166,6,0,P|340:206|255:231,1,184.000003509522,6|0,3:2|3:2,0:0:0:0:
174,368,103628,2,0,P|171:329|191:269,1,92.0000017547608,10|0,0:0|0:0,0:0:0:0:
282,143,103936,1,2,3:2:0:0:
326,291,104090,1,0,0:0:0:0:
202,115,104243,1,8,0:0:0:0:
89,349,104397,6,0,P|99:294|148:159,1,184.000003509522,6|2,3:2|3:2,0:0:0:0:
10,63,104855,2,0,P|15:101|37:167,1,92.0000017547608,10|2,0:0|0:0,0:0:0:0:
224,263,105161,1,6,3:2:0:0:
205,122,105314,1,0,0:0:0:0:
168,319,105467,1,10,0:0:0:0:
291,107,105620,6,0,P|384:64|468:60,1,184.000003509522,6|2,3:2|3:2,0:0:0:0:
350,262,106083,2,0,P|354:216|370:173,1,92.0000017547608,10|0,0:0|0:0,0:0:0:0:
418,366,106393,1,2,3:2:0:0:
418,366,106470,1,4,3:2:0:0:
418,366,106547,1,0,3:2:0:0:
201,288,106702,1,10,0:0:0:0:
263,165,106857,1,8,0:0:0:0:
263,165,106934,1,8,0:0:0:0:
263,165,107011,6,0,P|272:218|274:283,1,92.0000017547608,6|0,3:2|0:0,0:0:0:0:
137,114,107315,1,10,0:0:0:0:
71,296,107467,1,2,0:0:0:0:
9,105,107620,2,0,P|40:206|53:328,1,184.000003509522,2|8,3:2|0:0,0:0:0:0:
263,384,108076,6,0,P|294:283|307:161,1,184.000003509522,6|0,3:2|3:2,0:0:0:0:
484,316,108539,1,10,0:0:0:0:
449,110,108694,1,2,0:0:0:0:
305,205,108849,1,2,3:2:0:0:
320,207,108926,1,0,3:2:0:0:
336,210,109003,1,0,3:2:0:0:
508,63,109158,1,8,0:0:0:0:
348,219,109313,6,0,B|287:233|249:192|249:192|205:150|148:165,1,216.000000823975,6|2,3:2|3:2,0:0:0:0:
19,352,109767,2,0,P|123:345|167:230,1,210.000002002716,14|0,0:0|0:0,0:0:0:0:
110,116,110070,6,0,P|121:147|146:175,1,70.000000667572,8|8,3:2|3:2,0:0:0:0:
307,191,110222,2,0,P|274:185|237:192,1,70.000000667572,8|8,3:2|3:2,0:0:0:0:
342,382,110373,2,0,P|363:356|375:321,1,70.000000667572,8|8,3:2|3:2,0:0:0:0:
444,97,110525,5,8,0:0:0:0:
256,192,110682,12,0,111783,0:0:0:0:
133,99,111941,5,4,3:2:0:0:
133,99,112094,2,0,P|148:150|160:235,1,120.000004577637,2|0,0:0|0:0,0:0:0:0:
291,133,112556,2,0,P|287:169|270:207,1,60.0000022888184,2|0,0:0|0:0,0:0:0:0:
189,347,112864,1,10,0:0:0:0:
146,220,113017,1,2,0:0:0:0:
296,328,113168,6,0,P|336:334|363:330,1,60.0000022888184,4|2,3:2|0:0,0:0:0:0:
425,223,113471,1,2,0:0:0:0:
457,381,113623,1,8,0:0:0:0:
355,331,113774,2,0,P|315:325|288:329,1,60.0000022888184,2|0,3:2|3:2,0:0:0:0:
451,372,114077,2,0,P|480:373|510:368,1,60.0000022888184,2|0,3:2|3:2,0:0:0:0:
198,285,114380,6,0,P|192:318|191:371,1,60.0000022888184,6|0,0:0|0:0,0:0:0:0:
278,156,114689,2,0,P|275:126|270:96,1,60.0000022888184,2|0,0:0|0:0,0:0:0:0:
159,218,114998,1,2,0:0:0:0:
300,232,115153,1,2,0:0:0:0:
108,158,115307,1,10,0:0:0:0:
62,301,115462,1,2,0:0:0:0:
183,146,115617,5,4,0:0:0:0:
183,146,115771,2,0,P|183:95|175:59,1,60.0000022888184,2|0,0:0|0:0,0:0:0:0:
132,8,116081,1,10,0:0:0:0:
252,214,116235,2,0,P|267:180|275:142,1,60.0000022888184,2|0,3:2|3:2,0:0:0:0:
274,42,116544,1,2,3:2:0:0:
377,152,116699,1,0,3:2:0:0:
368,123,116776,1,0,3:2:0:0:
356,95,116854,5,4,3:2:0:0:
471,176,117005,2,0,P|465:240|451:299,1,120.000004577637,2|0,0:0|0:0,0:0:0:0:
308,347,117460,2,0,P|327:290|338:231,1,120.000004577637,2|8,0:0|0:0,0:0:0:0:
266,77,117914,1,2,0:0:0:0:
266,77,118070,6,0,P|270:114|263:152,1,60.0000022888184,4|0,0:0|0:0,0:0:0:0:
186,279,118382,2,0,P|199:251|205:221,2,60.0000022888184,2|8|0,0:0|0:0|0:0,0:0:0:0:
169,92,118851,5,0,0:0:0:0:
98,233,119007,2,0,P|119:211|141:173,1,60.0000022888184,2|0,3:2|0:0,0:0:0:0:
161,7,119320,5,14,0:0:0:0:
134,186,119473,2,0,L|126:238,2,30.0000011444092,10|8|10,0:0|0:0|0:0,0:0:0:0:
252,58,119779,1,10,0:0:0:0:
140,226,119932,1,10,0:0:0:0:
142,211,120008,1,8,0:0:0:0:
144,196,120085,1,10,0:0:0:0:
160,7,120238,1,10,0:0:0:0:
221,163,120391,1,6,3:2:0:0:
221,163,121328,5,0,3:2:0:0:
160,7,121476,1,10,0:0:0:0:
160,7,121783,5,10,3:2:0:0:
171,16,121859,1,0,3:2:0:0:
184,23,121936,1,0,3:2:0:0:
198,29,122013,1,0,3:2:0:0:
213,32,122090,1,10,3:2:0:0:
228,33,122167,1,0,3:2:0:0:
243,32,122244,1,8,3:2:0:0:
257,28,122321,1,0,3:2:0:0:
271,22,122398,1,10,3:2:0:0:
430,39,122706,1,12,0:0:0:0:
502,126,122859,6,0,P|512:203|491:296,1,160,14|2,3:2|3:2,0:0:0:0:
304,366,123315,2,0,P|275:315|292:232,1,120,10|0,0:0|0:0,0:0:0:0:
349,228,123620,1,2,3:2:0:0:
91,363,123924,1,10,0:0:0:0:
29,241,124077,6,0,P|32:148|47:93,1,120,2|0,3:2|0:0,0:0:0:0:
87,58,124380,1,2,3:2:0:0:
160,250,124531,2,0,P|136:211|122:155,1,80,10|0,0:0|0:0,0:0:0:0:
236,79,124834,2,0,P|260:118|274:174,1,80,2|2,3:2|0:0,0:0:0:0:
156,263,125137,2,0,P|132:224|118:168,1,80,10|2,0:0|0:0,0:0:0:0:
294,309,125440,5,2,3:2:0:0:
129,351,125599,1,2,0:0:0:0:
302,289,125759,1,10,0:0:0:0:
150,358,125918,1,2,0:0:0:0:
88,157,126078,2,0,P|125:191|139:237,1,80,2|0,3:2|0:0,0:0:0:0:
132,368,126397,1,10,0:0:0:0:
215,234,126557,6,0,P|234:180|218:64,1,160,2|2,3:2|3:2,0:0:0:0:
391,134,127016,2,0,P|381:95|357:47,1,80,10|2,0:0|0:0,0:0:0:0:
389,266,127322,1,2,3:2:0:0:
499,117,127475,2,0,P|489:156|465:204,1,80,2|8,0:0|0:0,0:0:0:0:
320,358,127781,6,0,P|270:317|151:323,1,160,2|2,3:2|3:2,0:0:0:0:
17,269,128240,2,0,P|44:249|97:228,1,80,10|0,0:0|0:0,0:0:0:0:
233,217,128546,1,2,3:2:0:0:
89,321,128699,1,2,0:0:0:0:
13,165,128852,1,8,0:0:0:0:
295,365,129158,6,0,P|308:330|314:277,1,80,2|0,3:2|0:0,0:0:0:0:
421,115,129468,2,0,P|434:150|442:198,1,80,10|0,0:0|0:0,0:0:0:0:
313,373,129779,2,0,P|326:338|332:285,1,80,2|0,3:2|0:0,0:0:0:0:
439,112,130090,2,0,P|452:147|460:195,1,80,10|0,0:0|0:0,0:0:0:0:
456,310,130401,5,2,3:2:0:0:
204,206,130552,2,0,P|256:156|363:169,1,160,10|2,0:0|0:0,0:0:0:0:
213,378,131007,2,0,P|194:341|190:294,1,80,10|0,0:0|0:0,0:0:0:0:
405,31,131313,2,0,P|423:66|428:105,1,80,10|0,0:0|0:0,0:0:0:0:
327,315,131619,6,0,L|341:129,1,160,6|8,3:2|0:0,0:0:0:0:
92,263,132234,2,0,L|106:77,1,160,2|8,3:2|0:0,0:0:0:0:
372,33,132849,6,0,P|339:71|281:83,1,80,2|0,3:2|0:0,0:0:0:0:
101,21,133159,2,0,P|150:30|189:74,1,80,8|0,0:0|0:0,0:0:0:0:
230,257,133470,2,0,P|213:209|232:153,1,80,0|0,3:2|0:0,0:0:0:0:
423,279,133781,1,10,0:0:0:0:
235,343,133937,6,0,P|165:329|71:258,1,160,2|0,3:2|0:0,0:0:0:0:
47,121,134393,2,0,P|63:153|98:192,1,80,10|0,0:0|0:0,0:0:0:0:
296,118,134698,1,2,3:2:0:0:
123,30,134850,2,0,P|123:72|138:115,1,80,2|8,0:0|0:0,0:0:0:0:
268,222,135155,6,0,P|194:200|91:207,1,160,2|0,3:2|0:0,0:0:0:0:
0,344,135618,2,0,P|9:307|29:258,1,80,8|0,0:0|0:0,0:0:0:0:
129,297,135928,2,0,P|114:334|104:373,1,80,0|0,3:2|0:0,0:0:0:0:
259,202,136237,6,0,P|262:140|241:54,1,120,10|0,0:0|0:0,0:0:0:0:
191,40,136546,2,0,P|270:52|359:60,1,160,2|8,3:2|0:0,0:0:0:0:
508,223,137158,2,0,P|468:233|425:236,1,80,2|0,3:2|0:0,0:0:0:0:
267,311,137464,2,0,P|305:322|345:324,1,80,10|0,0:0|0:0,0:0:0:0:
512,382,137770,6,0,L|504:302,1,80,2|0,3:2|0:0,0:0:0:0:
331,167,138082,2,0,L|323:247,1,80,8|0,0:0|0:0,0:0:0:0:
143,345,138395,1,2,3:2:0:0:
143,345,138707,6,0,P|86:353|18:264,2,160,10|0|8,0:0|3:2|0:0,0:0:0:0:
266,149,139620,1,0,3:2:0:0:
326,309,139772,1,2,0:0:0:0:
388,167,139925,1,10,0:0:0:0:
451,254,140077,6,0,P|382:241|198:246,1,240,2|8,3:2|0:0,0:0:0:0:
126,350,140692,1,0,0:0:0:0:
184,123,140846,1,2,3:2:0:0:
209,249,141000,1,8,0:0:0:0:
79,45,141153,1,8,0:0:0:0:
54,171,141307,1,8,0:0:0:0:
250,74,141461,6,0,P|304:64|402:149,1,160,6|10,3:2|0:0,0:0:0:0:
448,354,142070,2,0,P|467:322|478:256,1,80,2|0,3:2|0:0,0:0:0:0:
465,146,142374,1,8,0:0:0:0:
361,341,142526,6,0,P|274:363|189:321,1,160,2|2,3:2|3:2,0:0:0:0:
169,135,142994,2,0,P|188:178|191:217,1,80,10|0,0:0|0:0,0:0:0:0:
17,282,143307,2,0,P|34:246|39:206,1,80,2|0,3:2|0:0,0:0:0:0:
6,68,143619,1,8,0:0:0:0:
190,209,143776,6,0,P|252:230|358:168,1,160,2|2,3:2|3:2,0:0:0:0:
466,60,144239,2,0,P|474:101|464:158,1,80,10|0,0:0|0:0,0:0:0:0:
412,308,144549,2,0,P|404:267|414:210,1,80,2|2,3:2|0:0,0:0:0:0:
466,60,144858,1,10,0:0:0:0:
336,196,145013,6,0,P|265:229|190:209,1,160,2|2,3:2|0:0,0:0:0:0:
97,58,145472,1,10,0:0:0:0:
129,250,145625,1,0,0:0:0:0:
277,64,145778,2,0,P|265:96|257:162,1,80,2|0,3:2|0:0,0:0:0:0:
123,262,146084,2,0,P|109:224|103:184,1,80,10|0,0:0|0:0,0:0:0:0:
17,17,146390,6,0,P|2:87|1:197,1,160,2|8,3:2|0:0,0:0:0:0:
271,278,147008,2,0,P|256:208|255:98,1,160,2|8,3:2|0:0,0:0:0:0:
466,84,147627,6,0,P|481:154|482:264,1,160,2|8,3:2|0:0,0:0:0:0:
273,361,148248,2,0,B|226:364|200:333|200:333|166:304|124:312,1,160,2|8,3:2|0:0,0:0:0:0:
375,343,148870,6,0,P|434:328|479:229,2,160,14|0|8,0:0|3:2|0:0,0:0:0:0:
212,214,149803,2,0,P|231:238|284:255,1,80,10|0,0:0|0:0,0:0:0:0:
368,196,150114,5,10,3:2:0:0:
126,253,150264,1,10,3:2:0:0:
281,275,150719,5,8,3:2:0:0:
19,227,150870,1,8,3:2:0:0:
19,227,151022,2,0,L|24:256,1,24,2|0,0:0|0:0,0:0:0:0:
65,338,151325,6,0,B|122:367|178:341|178:341|191:310,1,132.00000125885,6|0,3:2|0:0,0:0:0:0:
325,142,151632,2,0,P|297:171|287:262,1,132.00000125885,10|0,0:0|0:0,0:0:0:0:
512,383,151940,1,2,3:2:0:0:
368,217,152094,1,0,0:0:0:0:
502,381,152248,1,8,0:0:0:0:
492,116,152401,6,0,B|436:46|336:52|304:99|304:99|345:183,1,264.0000025177,6|0,3:2|3:2,0:0:0:0:
346,350,152867,2,0,P|384:297|382:233,1,132.00000125885,10|0,0:0|0:0,0:0:0:0:
217,42,153178,1,2,3:2:0:0:
300,271,153333,1,0,0:0:0:0:
492,116,153489,1,8,0:0:0:0:
210,248,153644,6,0,B|106:289|6:208|6:208|29:193|69:187,1,264.0000025177,6|2,3:2|3:2,0:0:0:0:
252,124,154100,1,10,0:0:0:0:
169,353,154253,1,2,0:0:0:0:
39,112,154405,2,0,P|106:100|179:114,1,132.00000125885,6|0,3:2|0:0,0:0:0:0:
356,241,154709,1,10,0:0:0:0:
210,3,154862,6,0,P|304:41|419:182,1,264.0000025177,6|2,3:2|3:2,0:0:0:0:
422,384,155328,2,0,P|442:332|452:235,1,132.00000125885,10|0,0:0|0:0,0:0:0:0:
482,51,155639,2,0,P|502:102|512:200,1,132.00000125885,2|0,3:2|0:0,0:0:0:0:
355,338,155950,1,10,0:0:0:0:
197,164,156105,1,8,0:0:0:0:
197,164,156183,1,8,0:0:0:0:
197,164,156260,6,0,P|300:173|352:257,1,198.000001888275,6|0,3:2|0:0,0:0:0:0:
335,260,156564,1,10,0:0:0:0:
354,23,156716,1,2,0:0:0:0:
347,269,156869,2,0,P|376:211|382:138,1,132.00000125885,2|0,3:2|0:0,0:0:0:0:
201,20,157173,1,8,0:0:0:0:
31,239,157325,6,0,B|106:258|157:213|157:213|210:167|297:193,1,264.0000025177,6|0,3:2|3:2,0:0:0:0:
426,344,157784,1,10,0:0:0:0:
505,119,157937,1,2,0:0:0:0:
435,355,158090,2,0,P|478:306|502:237,1,132.00000125885,2|0,3:2|0:0,0:0:0:0:
465,35,158396,1,8,0:0:0:0:
273,190,158549,6,0,P|124:186|6:113,1,264.0000025177,6|2,3:2|3:2,0:0:0:0:
253,95,159005,1,10,0:0:0:0:
114,270,159158,1,0,0:0:0:0:
189,11,159310,1,6,3:2:0:0:
375,205,159462,1,2,0:0:0:0:
144,100,159614,1,10,0:0:0:0:
437,71,159767,6,0,P|341:62|233:85,1,198.000001888275,6|0,3:2|0:0,0:0:0:0:
203,169,160074,1,2,3:2:0:0:
51,5,160228,2,0,P|24:65|24:135,1,132.00000125885,10|2,0:0|0:0,0:0:0:0:
119,319,160536,1,6,3:2:0:0:
308,240,160692,1,10,0:0:0:0:
287,232,160770,1,8,0:0:0:0:
265,229,160848,1,8,0:0:0:0:
84,336,161004,1,8,0:0:0:0:
106,333,161082,1,8,0:0:0:0:
127,325,161161,6,0,P|156:273|156:179,1,132.00000125885,6|0,3:2|0:0,0:0:0:0:
20,37,161473,2,0,P|50:88|131:135,1,132.00000125885,10|0,0:0|0:0,0:0:0:0:
328,76,161786,1,2,3:2:0:0:
116,36,161942,1,0,0:0:0:0:
70,246,162098,1,8,0:0:0:0:
212,40,162254,6,0,B|289:7|376:63|373:114|373:114|338:104|321:62,1,264.0000025177,6|2,3:2|3:2,0:0:0:0:
464,300,162717,2,0,P|497:241|502:175,1,132.00000125885,10|2,0:0|0:0,0:0:0:0:
459,21,163027,1,2,3:2:0:0:
392,214,163181,1,0,0:0:0:0:
479,12,163336,1,8,0:0:0:0:
275,206,163491,6,0,B|205:230|154:175|154:175|101:124|27:150,1,264.0000025177,6|2,3:2|3:2,0:0:0:0:
163,347,163947,1,10,0:0:0:0:
234,112,164100,1,2,0:0:0:0:
74,316,164252,1,6,3:2:0:0:
308,269,164404,1,2,0:0:0:0:
63,305,164556,1,10,0:0:0:0:
369,348,164709,6,0,P|394:256|408:79,1,264.0000025177,6|2,3:2|3:2,0:0:0:0:
177,10,165161,2,0,P|198:72|209:137,1,132.00000125885,10|0,0:0|0:0,0:0:0:0:
265,347,165462,2,0,P|282:282|290:217,1,132.00000125885,10|0,3:2|0:0,0:0:0:0:
72,28,165769,2,0,P|104:85|127:147,1,132.00000125885,10|0,0:0|0:0,0:0:0:0:
279,362,166077,6,0,P|302:276|310:97,1,223.999993164063,6|8,3:2|0:0,0:0:0:0:
10,275,166702,2,0,P|60:298|138:284,1,111.999996582031,2|0,3:2|0:0,0:0:0:0:
298,153,167014,1,8,0:0:0:0:
81,212,167170,1,0,0:0:0:0:
301,354,167327,6,0,P|350:288|484:276,1,223.999993164063,6|8,3:2|0:0,0:0:0:0:
160,384,167936,2,0,P|139:344|129:276,1,111.999996582031,2|0,3:2|0:0,0:0:0:0:
301,122,168240,1,8,0:0:0:0:
216,302,168392,1,0,0:0:0:0:
49,134,168545,6,0,P|111:123|246:213,1,223.999993164063,6|8,3:2|0:0,0:0:0:0:
426,364,169154,1,4,3:2:0:0:
456,163,169306,1,0,0:0:0:0:
502,313,169458,1,8,0:0:0:0:
323,361,169610,6,0,P|256:364|157:312,1,160,4|0,0:0|0:0,0:0:0:0:
97,147,170078,1,8,0:0:0:0:
112,139,170391,1,2,3:2:0:0:
75,331,170545,1,0,3:2:0:0:
22,191,170700,1,10,3:2:0:0:
172,327,170854,1,0,3:2:0:0:
277,184,171009,6,0,P|323:160|388:154,1,95.9999970703126,6|0,3:2|0:0,0:0:0:0:
471,166,171321,1,2,0:0:0:0:
385,343,171634,2,0,L|364:138,1,191.999994140625,10|0,0:0|0:0,0:0:0:0:
404,34,172102,6,0,P|382:113|249:110,1,191.999994140625,2|0,3:2|0:0,0:0:0:0:
228,45,172563,1,2,0:0:0:0:
167,199,172871,2,0,P|145:120|12:123,1,191.999994140625,10|0,0:0|0:0,0:0:0:0:
133,281,173332,6,0,P|223:266|253:179,1,191.999994140625,2|2,3:2|0:0,0:0:0:0:
242,60,173791,1,2,0:0:0:0:
236,172,173944,1,2,0:0:0:0:
332,228,174097,2,0,P|328:163|240:53,1,191.999994140625,10|0,0:0|0:0,0:0:0:0:
358,15,174556,6,0,P|410:90|434:219,1,191.999994140625,2|0,3:2|0:0,0:0:0:0:
417,301,175012,1,2,0:0:0:0:
440,192,175165,1,2,0:0:0:0:
425,298,175317,1,10,0:0:0:0:
259,180,175621,1,10,0:0:0:0:
280,335,175774,1,8,0:0:0:0:
334,142,175926,6,0,P|343:98|331:42,1,95.9999970703126,14|0,3:2|0:0,0:0:0:0:
242,185,176240,1,2,0:0:0:0:
260,93,176397,1,2,0:0:0:0:
378,224,176554,2,0,P|375:130|347:29,1,191.999994140625,10|0,0:0|0:0,0:0:0:0:
449,20,177025,6,0,P|473:112|477:208,1,191.999994140625,2|0,3:2|0:0,0:0:0:0:
357,356,177486,1,2,0:0:0:0:
378,224,177640,1,2,0:0:0:0:
245,384,177794,2,0,P|239:318|204:195,1,191.999994140625,10|0,0:0|0:0,0:0:0:0:
51,135,178255,6,0,P|113:175|217:98,1,191.999994140625,2|2,3:2|0:0,0:0:0:0:
224,2,178723,1,2,0:0:0:0:
200,116,178880,1,2,0:0:0:0:
306,46,179036,1,10,0:0:0:0:
282,160,179192,1,2,0:0:0:0:
224,2,179348,1,2,0:0:0:0:
355,207,179505,6,0,P|365:155|423:79,1,143.999995605469,2|0,3:2|0:0,0:0:0:0:
488,16,179805,1,10,3:2:0:0:
503,40,179880,1,8,3:2:0:0:
511,67,179955,1,10,3:2:0:0:
512,96,180030,1,8,3:2:0:0:
505,124,180105,1,10,3:2:0:0:
490,148,180180,1,8,3:2:0:0:
471,168,180255,2,0,P|483:181|518:198,6,47.9999985351563,2|0|2|0|0|0|0,3:2|3:2|3:2|3:2|3:2|3:2|3:2,0:0:0:0:
415,276,180867,6,0,P|387:264|326:266,1,77.9999964294435,2|0,0:0|0:0,0:0:0:0:
288,351,181158,6,0,P|320:292|295:224,1,111.999996582031,12|0,0:0|0:0,0:0:0:0:
91,164,181467,6,0,P|59:223|117:372,1,184.000003509522,12|0,0:0|0:0,0:0:0:0:
415,276,181776,1,8,0:0:0:0:
181,257,181931,6,0,P|226:275|415:287,1,223.999993164063,6|2,3:2|3:2,0:0:0:0:
493,141,182392,2,0,P|499:64|508:8,1,132.00000125885,14|0,0:0|0:0,0:0:0:0:
418,265,182700,1,2,3:2:0:0:
421,292,182777,1,0,3:2:0:0:
424,320,182854,1,0,3:2:0:0:
427,348,182931,1,0,3:2:0:0:
430,376,183007,1,8,3:2:0:0:
339,152,183161,6,0,P|259:75|100:82,1,264.0000025177,6|2,3:2|3:2,0:0:0:0:
50,266,183620,1,10,0:0:0:0:
122,87,183773,1,2,0:0:0:0:
203,300,183926,1,6,3:2:0:0:
200,275,184002,1,0,3:2:0:0:
197,251,184079,1,2,3:2:0:0:
195,227,184155,1,0,3:2:0:0:
192,203,184232,2,0,L|180:122,1,66.0000006294251,10|0,0:0|0:0,0:0:0:0:
312,359,184385,6,0,P|327:255|365:88,1,264.0000025177,6|2,3:2|3:2,0:0:0:0:
497,313,184856,2,0,P|482:248|472:183,1,132.00000125885,14|2,0:0|0:0,0:0:0:0:
296,34,185170,2,0,P|274:96|257:160,1,132.00000125885,6|0,3:2|0:0,0:0:0:0:
482,316,185487,2,0,P|467:251|457:186,1,132.00000125885,14|0,0:0|0:0,0:0:0:0:
104,270,185804,6,0,P|193:255|290:269,1,180.000006866455,6|0,3:2|0:0,0:0:0:0:
414,384,186416,5,10,3:2:0:0:
483,129,186569,2,0,P|478:158|471:187,1,60.0000022888184,8|0,3:2|0:0,0:0:0:0:
296,349,187028,5,10,3:2:0:0:
205,100,187181,2,0,P|209:129|216:158,1,60.0000022888184,8|0,3:2|0:0,0:0:0:0:
440,317,187643,5,10,3:2:0:0:
501,59,187797,2,0,P|496:88|489:117,1,60.0000022888184,8|0,3:2|0:0,0:0:0:0:
264,283,188258,5,10,3:2:0:0:
187,30,188411,2,0,P|191:59|198:88,1,60.0000022888184,8|0,3:2|0:0,0:0:0:0:
322,332,188870,5,8,0:0:0:0:
354,144,189023,1,8,0:0:0:0:
207,367,189176,1,10,0:0:0:0:
132,128,189329,2,0,P|100:68|56:26,1,120.000004577637,14|0,0:0|0:0,0:0:0:0:
11,143,189792,1,12,0:0:0:0:
295,17,190102,5,10,3:2:0:0:
17,136,190257,1,10,3:2:0:0:
17,136,190723,6,0,P|59:137|117:117,1,80,6|0,3:2|0:0,0:0:0:0:
207,25,191032,1,10,0:0:0:0:
195,274,191341,2,0,P|225:245|252:189,1,80,2|0,3:2|0:0,0:0:0:0:
255,101,191650,1,8,0:0:0:0:
351,234,191805,6,0,P|429:177|520:190,1,160,6|0,3:2|3:2,0:0:0:0:
458,334,192264,1,10,0:0:0:0:
262,219,192570,2,0,P|251:165|257:105,1,80,2|0,3:2|0:0,0:0:0:0:
303,3,192876,1,8,0:0:0:0:
128,206,193029,6,0,P|130:146|178:47,1,160,6|2,3:2|3:2,0:0:0:0:
303,3,193490,1,10,0:0:0:0:
322,226,193798,2,0,P|331:192|372:137,1,80,6|0,3:2|0:0,0:0:0:0:
480,122,194105,1,10,0:0:0:0:
346,302,194259,6,0,B|302:312|263:285|263:285|223:261|166:281,1,160,6|2,3:2|3:2,0:0:0:0:
33,307,194722,1,10,0:0:0:0:
161,367,194877,1,2,0:0:0:0:
161,367,194954,1,0,0:0:0:0:
161,367,195032,2,0,P|178:328|178:275,1,80,2|0,3:2|0:0,0:0:0:0:
119,121,195341,1,10,0:0:0:0:
188,278,195496,1,8,0:0:0:0:
200,257,195573,1,8,0:0:0:0:
219,242,195650,5,6,3:2:0:0:
364,213,195805,1,0,0:0:0:0:
266,315,195960,1,10,0:0:0:0:
415,151,196271,2,0,P|438:197|442:247,1,80,2|0,3:2|0:0,0:0:0:0:
405,341,196582,1,8,0:0:0:0:
364,213,196738,6,0,P|328:155|228:125,1,160,6|0,3:2|3:2,0:0:0:0:
142,223,197197,1,10,0:0:0:0:
103,34,197503,2,0,P|82:81|89:151,1,120,2|0,3:2|0:0,0:0:0:0:
142,223,197809,1,8,0:0:0:0:
226,19,197962,6,0,B|276:9|307:36|307:36|340:61|397:49,1,160,6|2,3:2|3:2,0:0:0:0:
496,0,198421,2,0,P|509:39|504:99,1,80,10|0,0:0|0:0,0:0:0:0:
408,217,198727,2,0,P|395:178|400:118,1,80,6|2,3:2|0:0,0:0:0:0:
510,356,199033,1,10,0:0:0:0:
382,291,199186,6,0,P|338:283|280:293,1,80,6|0,3:2|0:0,0:0:0:0:
149,341,199490,1,2,3:2:0:0:
340,376,199642,1,10,0:0:0:0:
190,257,199795,1,2,0:0:0:0:
357,370,199947,2,0,P|376:324|381:271,1,80,6|10,3:2|0:0,0:0:0:0:
385,218,200175,1,8,0:0:0:0:
382,207,200251,1,8,0:0:0:0:
190,257,200404,1,8,0:0:0:0:
193,268,200480,1,8,0:0:0:0:
196,279,200556,6,0,P|247:295|285:292,1,80,6|0,3:2|0:0,0:0:0:0:
385,218,200865,1,10,0:0:0:0:
266,384,201174,2,0,P|307:383|347:369,1,80,2|0,3:2|0:0,0:0:0:0:
454,266,201483,1,8,0:0:0:0:
303,301,201638,6,0,P|214:293|116:253,1,160,6|2,3:2|3:2,0:0:0:0:
42,137,202097,1,10,0:0:0:0:
10,355,202403,2,0,P|-1:301|5:241,1,80,2|0,3:2|0:0,0:0:0:0:
26,146,202709,1,8,0:0:0:0:
147,305,202862,6,0,P|149:245|197:146,1,160,6|2,3:2|3:2,0:0:0:0:
306,57,203325,1,10,0:0:0:0:
325,275,203635,2,0,P|301:240|290:200,1,80,6|2,3:2|0:0,0:0:0:0:
306,57,203944,1,10,0:0:0:0:
511,167,204099,6,0,B|467:177|428:150|428:150|388:126|331:146,1,160,6|2,3:2|3:2,0:0:0:0:
227,270,204560,1,10,0:0:0:0:
116,134,204714,1,2,0:0:0:0:
116,134,204791,1,0,0:0:0:0:
116,134,204868,2,0,P|133:173|133:226,1,80,10|0,3:2|0:0,0:0:0:0:
89,367,205183,1,10,0:0:0:0:
36,191,205341,1,0,0:0:0:0:
197,339,205499,6,0,P|225:344|286:335,2,68.0000012969971,6|0|0,3:2|0:0|0:0,0:0:0:0:
68,210,206114,5,10,3:2:0:0:
216,348,206268,2,0,P|249:349|283:343,1,68.0000012969971,8|0,3:2|0:0,0:0:0:0:
382,164,206729,5,10,3:2:0:0:
269,356,206880,2,0,P|235:357|201:351,1,68.0000012969971,8|0,3:2|0:0,0:0:0:0:
45,143,207335,5,10,3:2:0:0:
212,363,207486,2,0,P|245:364|279:358,1,68.0000012969971,8|0,3:2|0:0,0:0:0:0:
395,93,207941,5,10,3:2:0:0:
271,369,208094,2,0,P|237:370|203:364,1,68.0000012969971,8|0,3:2|0:0,0:0:0:0:
32,67,208553,5,8,0:0:0:0:
130,260,208706,1,8,0:0:0:0:
0,214,208859,1,10,0:0:0:0:
264,100,209012,5,14,0:0:0:0:
256,192,209166,12,0,215197,0:0:0:0:
