osu file format v14

[General]
AudioFilename: audio.mp3
AudioLeadIn: 0
PreviewTime: 180862
Countdown: 0
SampleSet: Soft
StackLeniency: 0.4
Mode: 0
LetterboxInBreaks: 0
WidescreenStoryboard: 1

[Editor]
Bookmarks: 13448,33140,42986,52832,62678,72524,82371,102063,111909,121755,131617,141463,151324,171016,180862,190708,209016,215170
DistanceSpacing: 1.2
BeatDivisor: 4
GridSize: 4
TimelineZoom: 1.668

[Metadata]
Title:Rolling Girl
TitleUnicode:ローリンガール
Artist:Various Artists
ArtistUnicode:Various Artists
Creator:Shidoni
Version:KKip's Hard
Source:
Tags:wowaka vocaloid hatsune miku rock japanese cover mashup G-san Gさん vipTenchou vip店長 Kanipan. かにぱん。 Limone-Sensei リモーネ先生 Korosuke 転少女 Yuge 湯毛 Gom ゴム yonji Rumdarjun らむだーじゃん Tightson タイツォン Mijinko ミジンコ Nodoame のど飴 Yamadan やまだん niconico douga Nico Chorus メビウス Moebius アンデルセン Andersen ピストン Piston チョリス Choris 金☆ヨンス Kin*Yonsu Band Arrange Arrangement バンドアレンジ dtm9 nowa dtm9_nowa kkipalt
BeatmapID:2053182
BeatmapSetID:965620

[Difficulty]
HPDrainRate:3
CircleSize:3.4
OverallDifficulty:6
ApproachRate:8
SliderMultiplier:1.4
SliderTickRate:1

[Events]
//Background and Video events
0,0,"wa.jpg",0,0
Video,98,"video.mp4"
//Break Periods
//Storyboard Layer 0 (Background)
//Storyboard Layer 1 (Fail)
//Storyboard Layer 2 (Pass)
//Storyboard Layer 3 (Foreground)
//Storyboard Layer 4 (Overlay)
//Storyboard Sound Samples

[TimingPoints]
2335,314.136125654451,4,2,1,50,1,0
3591,307.692307692308,4,2,1,50,1,0
3591,-133.333333333333,4,2,1,50,0,0
3924,-133.333333333333,4,2,1,50,0,0
6052,312.5,4,2,1,50,1,0
6052,-133.333333333333,4,2,1,50,0,0
6386,-133.333333333333,4,2,1,50,0,0
8395,304.568527918782,4,2,1,50,1,0
8395,-133.333333333333,4,2,1,50,0,0
8496,312.5,4,2,1,50,1,0
10733,-133.333333333333,4,2,1,50,0,0
10996,304.568527918782,4,2,1,50,1,0
10996,-133.333333333333,4,2,1,50,0,0
11309,-133.333333333333,4,2,1,50,0,0
12214,295.566502463054,4,2,1,65,1,0
12805,307.692307692308,4,2,1,65,1,0
12805,-133.333333333333,4,2,1,65,0,0
13420,312.5,4,2,1,65,1,0
13420,-117.647058823529,4,2,1,65,0,0
14513,309.278350515464,4,2,1,65,1,0
14513,-117.647058823529,4,2,1,65,0,0
15750,304.568527918782,4,2,1,65,1,0
15750,-117.647058823529,4,2,1,65,0,0
16968,309.278350515464,5,2,1,65,1,0
16968,-117.647058823529,4,2,1,65,0,0
18359,310.880829015544,4,2,1,65,1,0
18359,-117.647058823529,4,2,1,65,0,0
19447,307.692307692308,4,2,1,65,1,0
19447,-117.647058823529,4,2,1,65,0,0
20677,312.5,4,2,1,65,1,0
20677,-117.647058823529,4,2,1,65,0,0
21927,303.030303030303,4,2,1,65,1,0
21927,-117.647058823529,4,2,1,65,0,0
22533,306.122448979592,4,2,1,65,1,0
22533,-117.647058823529,4,2,1,65,0,0
23296,307.692307692308,4,2,1,65,1,0
23296,-117.647058823529,4,2,1,65,0,0
24372,306.122448979592,4,2,1,65,1,0
24372,-117.647058823529,4,2,1,65,0,0
25596,307.692307692308,4,2,1,65,1,0
25596,-117.647058823529,4,2,1,65,0,0
26826,303.030303030303,4,2,1,65,1,0
26826,-117.647058823529,4,2,1,65,0,0
27583,312.5,4,2,1,65,1,0
27583,-117.647058823529,4,2,1,65,0,0
28208,312.5,4,2,1,65,1,0
28208,-117.647058823529,4,2,1,65,0,0
29458,303.030303030303,4,2,1,65,1,0
29458,-117.647058823529,4,2,1,65,0,0
31730,307.692307692308,4,2,1,75,1,0
31730,-117.647058823529,4,2,1,75,0,0
32806,320.855614973262,4,2,1,45,1,0
32806,-117.647058823529,4,2,1,45,0,0
33126,320.855614973262,4,2,1,45,1,0
33126,-117.647058823529,4,2,1,55,0,0
33767,307.692307692308,4,2,1,55,1,0
33767,-117.647058823529,4,2,1,55,0,0
34382,319.148936170213,4,2,1,55,1,0
34382,-117.647058823529,4,2,1,55,0,0
35658,312.5,4,2,1,55,1,0
35658,-117.647058823529,4,2,1,55,0,0
36283,306.122448979592,4,2,1,55,1,0
36283,-117.647058823529,4,2,1,55,0,0
36742,303.030303030303,4,2,1,55,1,0
36742,-117.647058823529,4,2,1,55,0,0
37802,306.122448979592,4,2,1,55,1,0
37802,-117.647058823529,4,2,1,55,0,0
38720,310.880829015544,4,2,1,55,1,0
38720,-117.647058823529,4,2,1,55,0,0
39341,307.692307692308,4,2,1,55,1,0
39341,-117.647058823529,4,2,1,55,0,0
41493,267.857142857143,4,2,1,55,1,0
41493,-117.647058823529,4,2,1,55,0,0
41760,300,4,2,1,55,1,0
41760,-117.647058823529,4,2,1,55,0,0
42360,309.278350515463,4,2,1,55,1,0
42360,-117.647058823529,4,2,1,55,0,0
42978,314.136125654449,4,2,1,55,1,0
42978,-117.647058823529,4,2,1,65,0,0
44077,306.122448979591,5,2,1,65,1,0
44077,-117.647058823529,4,2,1,65,0,0
45454,307.692307692307,4,2,1,65,1,0
45454,-117.647058823529,4,2,1,65,0,0
46530,306.122448979591,5,2,1,65,1,0
46530,-117.647058823529,4,2,1,65,0,0
47907,303.030303030302,4,2,1,65,1,0
47907,-117.647058823529,4,2,1,65,0,0
48967,312.499999999999,5,2,1,65,1,0
48967,-117.647058823529,4,2,1,65,0,0
50373,310.880829015543,4,2,1,65,1,0
50373,-117.647058823529,4,2,1,65,0,0
51616,306.122448979591,4,2,1,65,1,0
51616,-117.647058823529,4,2,1,65,0,0
52840,304.568527918781,4,2,1,65,1,0
52840,-117.647058823529,4,2,1,75,0,0
53905,309.278350515463,4,2,1,75,1,0
53905,-117.647058823529,4,2,1,75,0,0
55142,307.692307692307,4,2,1,75,1,0
55142,-117.647058823529,4,2,1,75,0,0
56372,306.122448979591,4,2,1,75,1,0
56372,-117.647058823529,4,2,1,75,0,0
56984,312.499999999999,4,2,1,75,1,0
56984,-117.647058823529,4,2,1,75,0,0
57762,307.692307692307,4,2,1,75,1,0
57762,-117.647058823529,4,2,1,75,0,0
60069,301.507537688441,4,2,1,75,1,0
60069,-117.647058823529,4,2,1,75,0,0
60822,304.56852791878,4,2,1,75,1,0
60822,-117.647058823529,4,2,1,75,0,0
61278,307.692307692306,4,2,1,75,1,0
61278,-117.647058823529,4,2,1,75,0,0
62047,312.499999999998,4,2,1,75,1,0
62047,-117.647058823529,4,2,1,75,0,0
62672,314.136125654448,4,2,1,75,1,0
62672,-117.647058823529,4,2,1,65,0,0
63928,307.692307692306,4,2,1,65,1,0
63928,-117.647058823529,4,2,1,65,0,0
66235,304.56852791878,5,2,1,65,1,0
66235,-117.647058823529,4,2,1,65,0,0
67605,309.278350515462,4,2,1,65,1,0
67605,-117.647058823529,4,2,1,65,0,0
68842,307.692307692306,4,2,1,65,1,0
68842,-117.647058823529,4,2,1,65,0,0
69765,304.56852791878,5,2,1,65,1,0
69765,-117.647058823529,4,2,1,65,0,0
71135,312.499999999998,4,2,1,65,1,0
71135,-117.647058823529,4,2,1,65,0,0
71916,303.030303030301,4,2,1,65,1,0
71926,-117.647058823529,4,2,1,65,0,0
72522,310.880829015542,4,2,1,65,1,0
72522,-117.647058823529,4,2,1,75,0,0
73610,309.278350515462,4,2,1,75,1,0
73610,-117.647058823529,4,2,1,75,0,0
74847,306.12244897959,4,2,1,75,1,0
74847,-117.647058823529,4,2,1,75,0,0
76071,309.278350515462,5,2,1,75,1,0
76071,-117.647058823529,4,2,1,75,0,0
77462,306.12244897959,4,2,1,75,1,0
77462,-117.647058823529,4,2,1,75,0,0
78686,309.278350515462,4,2,1,75,1,0
78686,-117.647058823529,4,2,1,75,0,0
79923,307.692307692306,4,2,1,75,1,0
79923,-117.647058823529,4,2,1,75,0,0
81153,304.56852791878,4,2,1,65,1,0
81153,-117.647058823529,4,2,1,65,0,0
82371,307.692307692306,4,2,1,75,1,0
82371,-100,4,2,1,80,0,1
84677,306.12244897959,4,2,1,85,1,1
85901,310.880829015542,5,2,1,85,1,1
87299,306.12244897959,4,2,1,85,1,1
88370,310.880829015542,4,2,1,85,1,1
89613,306.12244897959,4,2,1,85,1,1
90837,304.56852791878,4,2,1,85,1,1
91598,310.880829015542,4,2,1,85,1,1
92219,309.278350515462,4,2,1,85,1,1
93301,307.692307692306,4,2,1,85,1,1
94531,309.278350515462,4,2,1,85,1,1
95768,307.692307692306,4,2,1,85,1,1
96537,314.136125654449,4,2,1,85,1,1
97165,309.278350515463,4,2,1,85,1,1
98402,306.122448979591,4,2,1,85,1,1
100697,312.499999999999,4,2,1,85,1,0
101478,306.122448979591,4,2,1,80,1,0
101986,-100,4,2,1,5,0,0
102084,-117.647058823529,4,2,1,65,0,0
102090,307.692307692307,4,2,1,65,1,0
102316,-117.647058823529,4,2,1,5,0,0
102393,-117.647058823529,4,2,1,65,0,0
104396,306.122448979591,4,2,1,65,1,0
104396,-117.647058823529,4,2,1,65,0,0
105620,309.278350515463,5,2,1,65,1,0
105620,-117.647058823529,4,2,1,65,0,0
107011,304.568527918781,4,2,1,65,1,0
107011,-117.647058823529,4,2,1,65,0,0
108076,309.278350515463,4,2,1,65,1,0
108076,-117.647058823529,4,2,1,65,0,0
109313,303.030303030302,4,2,1,65,1,0
109313,-117.647058823529,4,2,1,65,0,0
110525,314.136125654449,4,2,1,50,1,0
110525,-117.647058823529,4,2,1,60,0,0
111310,315.789473684209,4,2,1,60,1,0
111310,-117.647058823529,4,2,1,60,0,0
111941,307.692307692306,4,2,1,60,1,0
111941,-117.647058823529,4,2,1,60,0,0
113017,303.030303030301,5,2,1,60,1,0
113017,-117.647058823529,4,2,1,60,0,0
114380,309.278350515462,4,2,1,60,1,0
114380,-117.647058823529,4,2,1,60,0,0
116854,303.030303030301,4,2,1,60,1,0
116854,-117.647058823529,4,2,1,60,0,0
117914,312.499999999998,5,2,1,60,1,0
117914,-117.647058823529,4,2,1,60,0,0
119320,306.12244897959,4,2,1,60,1,0
119320,-117.647058823529,4,2,1,60,0,0
120391,312.499999999998,4,2,1,60,1,0
120391,-117.647058823529,4,2,1,60,0,0
121328,297.029702970295,4,2,1,60,1,0
121328,-117.647058823529,4,2,1,60,0,0
121476,307.692307692306,4,2,1,60,1,0
121476,-117.647058823529,4,2,1,60,0,0
121783,307.692307692306,4,2,1,75,1,0
121783,-117.647058823529,4,2,1,75,0,0
122859,304.56852791878,4,2,1,75,1,0
122859,-117.647058823529,4,2,1,75,0,0
124077,303.030303030301,5,2,1,75,1,0
124077,-117.647058823529,4,2,1,75,0,0
125440,319.148936170211,4,2,1,75,1,0
125440,-117.647058823529,4,2,1,75,0,0
126557,306.12244897959,4,2,1,75,1,0
126557,-117.647058823529,4,2,1,75,0,0
127781,306.12244897959,5,2,1,75,1,0
127781,-117.647058823529,4,2,1,75,0,0
129158,310.880829015542,4,2,1,75,1,0
129158,-117.647058823529,4,2,1,75,0,0
130401,303.030303030301,4,2,1,75,1,0
130401,-117.647058823529,4,2,1,75,0,0
131007,306.12244897959,4,2,1,75,1,0
131007,-117.647058823529,4,2,1,75,0,0
131619,307.692307692306,4,2,1,75,1,0
131619,-117.647058823529,4,2,1,75,0,0
132849,310.880829015542,4,2,1,75,1,0
132849,-117.647058823529,4,2,1,75,0,0
133937,304.56852791878,4,2,1,75,1,0
133937,-117.647058823529,4,2,1,75,0,0
135155,309.278350515462,5,2,1,75,1,0
135155,-117.647058823529,4,2,1,75,0,0
136546,306.12244897959,4,2,1,75,1,0
136546,-117.647058823529,4,2,1,75,0,0
137770,312.499999999998,4,2,1,75,1,0
137770,-117.647058823529,4,2,1,75,0,0
138707,304.56852791878,5,2,1,75,1,0
138707,-117.647058823529,4,2,1,75,0,0
140077,307.692307692306,5,2,1,75,1,0
140077,-117.647058823529,4,2,1,75,0,0
141461,304.56852791878,4,2,1,75,1,0
141461,-117.647058823529,4,2,1,75,0,0
142526,312.499999999998,4,2,1,75,1,0
142526,-117.647058823529,4,2,1,75,0,0
143776,309.278350515462,4,2,1,75,1,0
143776,-117.647058823529,4,2,1,75,0,0
145013,306.12244897959,5,2,1,75,1,0
145013,-117.647058823529,4,2,1,75,0,0
146390,309.278350515462,4,2,1,75,1,0
146390,-117.647058823529,4,2,1,75,0,0
147627,310.880829015542,4,2,1,75,1,0
147627,-117.647058823529,4,2,1,75,0,0
150113,303.030303030301,4,2,1,75,1,0
150114,-117.647058823529,4,2,1,75,0,0
151325,307.692307692306,4,2,1,85,1,0
152401,310.880829015542,4,2,1,85,1,1
153644,304.56852791878,4,2,1,85,1,1
154862,310.880829015542,5,2,1,85,1,1
156260,304.56852791878,4,2,1,85,1,1
157325,306.12244897959,4,2,1,85,1,1
158549,304.56852791878,4,2,1,85,1,1
159767,307.692307692306,4,2,1,85,1,1
160536,312.499999999998,4,2,1,85,1,1
161161,312.499999999998,4,2,1,85,1,1
162254,309.278350515462,4,2,1,85,1,1
163491,304.56852791878,4,2,1,85,1,1
164709,301.50753768844,4,2,1,85,1,1
165462,307.692307692306,4,2,1,85,1,1
166077,312.499999999998,4,2,1,85,1,1
167327,304.56852791878,4,2,1,85,1,1
169610,312.499999999998,4,2,1,85,1,1
170391,309.278350515462,4,2,1,80,1,0
171009,312.499999999998,4,2,1,65,1,0
171009,-125,4,2,1,65,0,0
172102,307.692307692306,4,2,1,65,1,0
172102,-125,4,2,1,65,0,0
173332,306.12244897959,4,2,1,65,1,0
173332,-125,4,2,1,65,0,0
174556,304.56852791878,5,2,1,65,1,0
174556,-125,4,2,1,65,0,0
175926,314.136125654448,4,2,1,65,1,0
175926,-125,4,2,1,65,0,0
177025,307.692307692306,4,2,1,65,1,0
177025,-125,4,2,1,65,0,0
178255,312.499999999998,4,2,1,65,1,0
178255,-125,4,2,1,65,0,0
179505,299.999999999998,4,2,1,65,1,0
179505,-125,4,2,1,65,0,0
180255,306.12244897959,4,2,1,65,1,0
180255,-125,4,2,1,65,0,0
180867,291.262135922328,4,2,1,65,1,0
181158,309.278350515462,4,2,1,65,1,0
181931,307.692307692306,4,2,1,85,1,1
183161,306.12244897959,4,2,1,85,1,1
184385,314.136125654449,4,2,1,85,1,1
185170,317.460317460316,4,2,1,85,1,1
185804,306.12244897959,4,2,1,85,1,1
187028,307.692307692306,4,2,1,85,1,1
188258,306.12244897959,4,2,1,85,1,1
189329,309.278350515462,4,2,1,85,1,1
190102,310.880829015542,4,2,1,85,1,1
190723,309.278350515462,4,2,1,65,1,0
190723,-117.647058823529,4,2,1,65,0,0
191805,306.12244897959,4,2,1,65,1,0
191805,-117.647058823529,4,2,1,65,0,0
193029,307.692307692306,4,2,1,65,1,0
193029,-117.647058823529,4,2,1,65,0,0
194259,309.278350515462,5,2,1,65,1,0
194259,-117.647058823529,4,2,1,65,0,0
195650,310.880829015542,4,2,1,65,1,0
195650,-117.647058823529,4,2,1,65,0,0
196738,306.12244897959,4,2,1,65,1,0
196738,-117.647058823529,4,2,1,65,0,0
199186,304.56852791878,5,2,1,65,1,0
199186,-117.647058823529,4,2,1,65,0,0
200556,309.278350515462,4,2,1,65,1,0
200556,-117.647058823529,4,2,1,65,0,0
201638,306.12244897959,4,2,1,65,1,0
201638,-117.647058823529,4,2,1,65,0,0
202862,309.278350515462,4,2,1,65,1,0
202862,-117.647058823529,4,2,1,65,0,0
204099,307.692307692306,4,2,1,65,1,0
204099,-117.647058823529,4,2,1,65,0,0
204868,315.789473684209,4,2,1,65,1,0
204868,-117.647058823529,4,2,1,65,0,0
205499,307.692307692306,4,2,1,65,1,0
205499,-117.647058823529,4,2,1,65,0,0
206729,303.030303030301,4,2,1,65,1,0
206729,-117.647058823529,4,2,1,65,0,0
207941,306.12244897959,4,2,1,65,1,0
207941,-117.647058823529,4,2,1,65,0,0
209012,309.278350515462,4,2,1,65,1,0
209012,-117.647058823529,4,2,1,65,0,0

[Colours]
Combo1 : 222,56,126
Combo2 : 185,208,197
Combo3 : 206,203,176
Combo4 : 164,160,197

[HitObjects]
187,81,2335,5,2,0:0:0:0:
184,106,2649,1,2,0:0:0:0:
181,131,2963,1,2,0:0:0:0:
178,156,3277,1,2,0:0:0:0:
38,316,3591,6,0,P|85:325|138:286,1,105.000004005432,6|6,0:0|0:0,0:0:0:0:
197,243,6052,6,0,P|244:234|304:272,1,105.000004005432,6|6,0:0|0:0,0:0:0:0:
357,141,8395,6,0,L|320:157,1,35.0000013351441,8|14,0:0|0:0,0:0:0:0:
256,192,8574,12,0,10683,0:0:0:0:
358,316,10996,6,0,P|405:325|458:281,1,105.000004005432,6|6,0:0|0:0,0:0:0:0:
251,131,12214,6,0,L|262:24,2,105,10|10|10,0:0|0:0|0:0,0:0:0:0:
238,231,12805,2,0,P|274:263|339:240,1,105.000004005432,10|4,0:0|0:0,0:0:0:0:
460,181,13420,6,0,L|473:316,1,119.000002269745,4|10,3:2|0:0,0:0:0:0:
309,380,14045,1,2,3:2:0:0:
236,351,14201,1,0,0:0:0:0:
297,304,14357,1,10,0:0:0:0:
218,363,14513,6,0,P|159:365|86:372,1,119.000002269745,6|2,3:2|3:2,0:0:0:0:
31,302,14976,2,0,P|61:299|90:292,1,59.5000011348725,10|0,0:0|0:0,0:0:0:0:
139,226,15286,2,0,P|130:261|128:290,2,59.5000011348725,2|2|8,3:2|0:0|0:0,0:0:0:0:
15,160,15750,6,0,P|46:207|103:206,1,119.000002269745,6|2,3:2|3:2,0:0:0:0:
159,150,16206,2,0,P|165:121|165:91,1,59.5000011348725,10|0,0:0|0:0,0:0:0:0:
204,24,16511,1,6,3:2:0:0:
204,24,16663,2,0,P|232:30|262:30,1,59.5000011348725,2|8,0:0|0:0,0:0:0:0:
244,156,16968,6,0,P|326:144|373:148,1,119.000002269745,6|2,3:2|3:2,0:0:0:0:
437,164,17431,2,0,P|433:134|427:105,1,59.5000011348725,10|2,0:0|0:0,0:0:0:0:
270,288,17895,1,2,0:0:0:0:
270,288,18050,2,0,P|276:258|280:229,1,59.5000011348725,8|10,0:0|0:0,0:0:0:0:
339,337,18359,5,4,3:2:0:0:
249,370,18514,1,2,0:0:0:0:
249,370,18592,1,2,0:0:0:0:
249,370,18669,2,0,P|195:347|133:363,1,119.000002269745,10|2,0:0|3:2,0:0:0:0:
61,344,19136,2,0,P|70:285|72:259,1,59.5000011348725,2|8,0:0|0:0,0:0:0:0:
156,208,19447,6,0,P|97:210|24:217,1,119.000002269745,6|2,3:2|3:2,0:0:0:0:
12,144,19908,2,0,P|42:141|71:134,1,59.5000011348725,10|0,0:0|0:0,0:0:0:0:
128,80,20216,2,0,P|119:45|117:16,2,59.5000011348725,2|0|10,3:2|0:0|0:0,0:0:0:0:
164,188,20677,6,0,P|195:141|252:142,1,119.000002269745,6|2,3:2|3:2,0:0:0:0:
320,180,21145,2,0,P|326:151|326:121,1,59.5000011348725,10|2,0:0|0:0,0:0:0:0:
284,56,21458,2,0,P|312:62|412:72,1,119.000002269745,6|8,3:2|0:0,0:0:0:0:
512,21,21927,6,0,L|504:97,1,59.5000011348725,6|0,3:2|0:0,0:0:0:0:
442,133,22230,2,0,L|458:193,1,59.5000011348725,2|12,0:0|0:0,0:0:0:0:
512,250,22533,2,0,L|504:314,1,59.5000011348725,2|4,0:0|3:2,0:0:0:0:
431,360,22839,2,12,L|384:370,2,29.7500005674362,10|8|8,0:0|0:0|0:0,0:0:0:0:
371,279,23145,1,8,0:0:0:0:
371,279,23221,1,8,0:0:0:0:
371,279,23296,6,0,P|334:281|306:289,1,59.5000011348725,4|0,3:2|0:0,0:0:0:0:
248,344,23603,2,0,P|208:332|164:328,1,59.5000011348725,10|0,0:0|0:0,0:0:0:0:
148,264,23911,1,2,3:2:0:0:
117,336,24065,1,2,0:0:0:0:
71,274,24219,1,8,0:0:0:0:
132,360,24372,6,0,P|73:362|0:369,1,119.000002269745,6|2,3:2|3:2,0:0:0:0:
12,283,24831,2,0,P|42:280|71:273,1,59.5000011348725,10|0,0:0|0:0,0:0:0:0:
96,200,25137,2,0,P|87:165|85:136,2,59.5000011348725,2|2|8,3:2|0:0|0:0,0:0:0:0:
152,84,25596,6,0,P|209:82|240:129,1,119.000002269745,6|2,3:2|3:2,0:0:0:0:
312,164,26057,2,0,P|318:135|318:105,1,59.5000011348725,10|0,0:0|0:0,0:0:0:0:
360,40,26365,1,6,3:2:0:0:
360,40,26519,2,0,P|388:46|418:46,1,59.5000011348725,2|8,0:0|0:0,0:0:0:0:
509,130,26826,6,0,P|450:128|392:140,1,119.000002269745,6|2,3:2|3:2,0:0:0:0:
380,216,27280,2,0,P|384:246|390:275,1,59.5000011348725,14|2,0:0|0:0,0:0:0:0:
464,292,27583,2,0,P|460:321|454:350,1,59.5000011348725,12|2,0:0|3:2,0:0:0:0:
380,372,27895,2,12,P|351:368|322:362,1,59.5000011348725,14|0,0:0|3:2,0:0:0:0:
268,304,28208,6,0,P|196:312|140:336,1,119.000002269745,14|0,0:0|0:0,0:0:0:0:
20,168,28833,2,0,P|62:172|95:186,1,59.5000011348725,10|8,3:2|3:2,0:0:0:0:
140,236,29458,2,0,P|182:231|215:217,1,59.5000011348725,10|8,3:2|3:2,0:0:0:0:
260,168,30064,2,0,P|302:172|335:186,1,59.5000011348725,10|8,3:2|3:2,0:0:0:0:
380,236,30670,2,0,P|422:231|455:217,1,59.5000011348725,10|8,3:2|0:0,0:0:0:0:
484,156,31276,5,10,0:0:0:0:
484,156,31427,1,10,0:0:0:0:
424,92,31579,1,10,0:0:0:0:
508,20,31730,1,10,0:0:0:0:
256,192,31806,12,0,32806,0:0:0:0:
508,20,33126,6,0,P|456:48|312:44,1,178.500003404617,6|0,0:0|0:0,0:0:0:0:
272,88,33767,2,0,P|240:68|216:68,3,59.5000011348725,2|0|0|0,0:0|0:0|0:0|0:0,0:0:0:0:
160,116,34382,6,0,P|100:112|80:48,1,119.000002269745,2|0,0:0|0:0,0:0:0:0:
28,4,34860,2,0,P|23:33|-4:130,1,119.000002269745,0|0,0:0|0:0,0:0:0:0:
8,196,35339,1,2,0:0:0:0:
8,196,35658,6,0,P|76:216|128:212,1,119.000002269745,2|0,0:0|0:0,0:0:0:0:
264,344,36283,2,0,P|232:364|208:364,3,59.5000011348725,2|2|0|2,0:0|0:0|0:0|0:0,0:0:0:0:
208,284,36893,6,0,P|280:296|348:304,1,119.000002269745,0|0,0:0|0:0,0:0:0:0:
384,356,37348,2,0,P|456:344|524:336,1,119.000002269745,0|0,0:0|0:0,0:0:0:0:
492,260,37802,1,2,0:0:0:0:
492,260,38108,6,0,P|428:216|436:120,1,178.500003404617,2|0,0:0|0:0,0:0:0:0:
432,32,38720,2,0,P|400:52|376:52,3,59.5000011348725,2|0|0|0,0:0|0:0|0:0|0:0,0:0:0:0:
340,128,39341,6,0,P|282:129|245:75,1,119.000002269745,2|0,0:0|0:0,0:0:0:0:
195,8,39802,2,0,P|135:10|105:68,1,119.000002269745,0|0,0:0|0:0,0:0:0:0:
32,100,40264,1,0,0:0:0:0:
32,100,40417,6,0,L|48:240,1,119.000002269745,2|0,0:0|0:0,0:0:0:0:
8,288,40879,2,0,P|40:308|64:308,3,59.5000011348725,2|0|0|2,0:0|0:0|0:0|0:0,0:0:0:0:
45,218,41493,1,2,0:0:0:0:
231,199,41760,6,0,P|243:271|251:339,1,119.000002269745,2|2,0:0|0:0,0:0:0:0:
324,344,42210,2,0,L|320:376,2,29.7500005674362,0|0|2,3:2|3:2|3:2,0:0:0:0:
384,296,42514,1,0,0:0:0:0:
448,340,42669,1,2,3:2:0:0:
448,340,42978,6,0,P|464:256|464:200,2,119.000002269745,6|8|0,3:2|0:0|3:2,0:0:0:0:
384,296,43763,1,0,0:0:0:0:
384,296,43920,1,10,0:0:0:0:
400,196,44077,6,0,P|344:196|280:184,1,119.000002269745,2|0,3:2|3:2,0:0:0:0:
212,152,44536,2,0,L|216:84,1,59.5000011348725,8|0,0:0|0:0,0:0:0:0:
148,56,44842,2,0,P|112:68|80:68,1,59.5000011348725,2|0,3:2|0:0,0:0:0:0:
16,28,45148,2,0,L|12:87,1,59.5000011348725,10|0,0:0|0:0,0:0:0:0:
4,164,45454,6,0,P|96:152|128:176,2,119.000002269745,2|10|2,3:2|0:0|3:2,0:0:0:0:
24,246,46223,1,0,0:0:0:0:
24,246,46377,1,10,0:0:0:0:
6,329,46530,6,0,P|82:313|134:313,1,119.000002269745,2|0,3:2|3:2,0:0:0:0:
188,364,46989,2,0,P|236:368|264:372,1,59.5000011348725,8|0,0:0|0:0,0:0:0:0:
252,292,47295,2,0,P|300:288|328:284,1,59.5000011348725,2|0,3:2|0:0,0:0:0:0:
340,360,47601,2,0,P|388:364|416:368,1,59.5000011348725,10|0,0:0|0:0,0:0:0:0:
464,320,47907,6,0,P|480:236|440:212,2,119.000002269745,2|8|0,3:2|0:0|3:2,0:0:0:0:
391,284,48664,1,2,0:0:0:0:
391,284,48816,1,10,0:0:0:0:
318,230,48967,6,0,P|301:172|313:108,1,119.000002269745,2|0,3:2|3:2,0:0:0:0:
384,88,49435,2,0,L|388:20,1,59.5000011348725,8|0,0:0|0:0,0:0:0:0:
312,12,49748,2,0,P|276:24|244:24,1,59.5000011348725,2|0,3:2|0:0,0:0:0:0:
224,96,50060,2,0,P|188:84|156:84,1,59.5000011348725,10|0,0:0|0:0,0:0:0:0:
108,32,50373,6,0,P|120:124|96:156,2,119.000002269745,2|8|0,3:2|0:0|3:2,0:0:0:0:
32,38,51150,1,2,0:0:0:0:
32,38,51305,1,10,0:0:0:0:
35,114,51461,1,2,0:0:0:0:
12,191,51616,6,0,P|24:247|24:275,1,59.5000011348725,14|8,3:2|0:0,0:0:0:0:
48,264,51845,1,8,3:2:0:0:
48,264,51922,2,0,P|36:320|36:348,1,59.5000011348725,8|0,3:2|3:2,0:0:0:0:
97,374,52228,1,8,3:2:0:0:
175,347,52381,1,0,3:2:0:0:
175,347,52457,1,0,3:2:0:0:
175,347,52534,2,0,L|218:336,2,29.7500005674362,8|0|8,3:2|3:2|3:2,0:0:0:0:
292,377,52840,6,0,P|276:333|336:277,1,119.000002269745,14|10,3:2|0:0,0:0:0:0:
512,156,53449,1,2,3:2:0:0:
452,204,53601,1,2,0:0:0:0:
380,176,53753,1,8,0:0:0:0:
381,84,53905,6,0,P|325:88|257:98,1,119.000002269745,6|2,3:2|3:2,0:0:0:0:
180,92,54368,2,0,P|184:32|180:8,1,59.5000011348725,10|0,0:0|0:0,0:0:0:0:
104,0,54678,2,0,P|103:29|108:59,1,59.5000011348725,2|2,3:2|0:0,0:0:0:0:
93,138,54987,1,10,0:0:0:0:
168,176,55142,6,0,P|168:205|80:244,1,119.000002269745,6|0,3:2|3:2,0:0:0:0:
28,224,55603,2,0,B|40:300|40:296,1,59.5000011348725,8|0,0:0|0:0,0:0:0:0:
84,344,55911,1,6,3:2:0:0:
156,320,56065,1,2,0:0:0:0:
212,376,56218,1,10,0:0:0:0:
278,300,56372,6,0,P|336:288|416:304,1,119.000002269745,6|2,3:2|3:2,0:0:0:0:
466,344,56831,1,10,0:0:0:0:
508,264,56984,2,0,P|488:216|475:137,1,119.000002269745,2|2,3:2|3:2,0:0:0:0:
504,76,57452,1,10,0:0:0:0:
440,36,57609,5,8,0:0:0:0:
440,36,57687,1,8,0:0:0:0:
440,36,57762,2,0,L|340:48,1,89.2500017023087,6|2,3:2|0:0,0:0:0:0:
328,84,58069,2,0,L|228:72,1,89.2500017023087,10|2,0:0|0:0,0:0:0:0:
204,104,58377,2,0,L|154:109,2,29.7500005674362,2|2|2,3:2|0:0|0:0,0:0:0:0:
200,200,58685,1,10,0:0:0:0:
200,200,58838,6,0,P|264:188|340:208,1,119.000002269745,6|2,3:2|3:2,0:0:0:0:
341,281,59300,2,0,P|382:309|404:315,1,59.5000011348725,10|2,0:0|0:0,0:0:0:0:
496,359,59608,2,0,P|488:299|488:267,1,89.2500017023087,2|2,3:2|0:0,0:0:0:0:
456,272,59915,2,0,P|466:235|472:208,1,59.5000011348725,10|6,0:0|3:2,0:0:0:0:
428,152,60219,6,0,P|352:188|360:232,1,119.000002269745,6|8,3:2|0:0,0:0:0:0:
196,364,60822,2,0,P|120:328|128:284,1,119.000002269745,6|8,3:2|0:0,0:0:0:0:
56,260,61278,6,0,P|132:224|124:180,1,119.000002269745,6|0,3:2|0:0,0:0:0:0:
80,144,61739,2,0,P|56:72|48:20,1,119.000002269745,14|14,0:0|3:2,0:0:0:0:
132,14,62203,1,0,3:2:0:0:
132,14,62281,1,0,3:2:0:0:
132,14,62359,2,0,L|168:22,2,29.7500005674362,8|0|8,3:2|3:2|3:2,0:0:0:0:
193,94,62672,6,0,P|261:86|329:82,1,119.000002269745,6|8,3:2|0:0,0:0:0:0:
488,152,63300,1,2,3:2:0:0:
488,152,63457,1,0,0:0:0:0:
432,204,63614,2,0,P|372:200|364:200,1,59.5000011348725,8|0,0:0|0:0,0:0:0:0:
324,260,63928,6,0,P|320:316|308:336,1,59.5000011348725,2|0,3:2|0:0,0:0:0:0:
252,356,64235,2,0,P|192:340|120:340,1,119.000002269745,8|0,0:0|3:2,0:0:0:0:
64,372,64697,1,0,0:0:0:0:
16,312,64851,1,10,0:0:0:0:
108,252,65004,6,0,P|112:196|48:144,1,119.000002269745,2|0,0:0|0:0,0:0:0:0:
12,104,65466,2,4,P|104:108|144:108,1,119.000002269745,10|2,0:0|3:2,0:0:0:0:
180,48,65927,1,2,0:0:0:0:
228,108,66081,1,8,0:0:0:0:
316,32,66235,6,0,P|376:44|380:116,1,119.000002269745,2|0,3:2|3:2,0:0:0:0:
384,172,66691,2,6,P|448:160|524:152,1,119.000002269745,8|0,0:0|3:2,0:0:0:0:
440,240,67148,1,0,0:0:0:0:
512,260,67300,2,0,P|460:232|444:232,1,59.5000011348725,10|0,0:0|0:0,0:0:0:0:
404,328,67605,6,0,P|336:320|268:316,1,119.000002269745,2|8,3:2|0:0,0:0:0:0:
80,328,68223,1,2,3:2:0:0:
80,328,68378,1,0,0:0:0:0:
136,380,68532,2,0,P|196:376|204:376,1,59.5000011348725,10|0,0:0|0:0,0:0:0:0:
256,328,68842,6,0,P|252:272|240:252,1,59.5000011348725,2|0,3:2|0:0,0:0:0:0:
188,224,69149,2,0,P|128:208|56:208,1,119.000002269745,8|2,0:0|3:2,0:0:0:0:
4,244,69611,1,0,0:0:0:0:
81,126,69765,1,10,0:0:0:0:
81,126,70069,2,0,P|74:76|73:61,1,59.5000011348725,0|0,3:2|0:0,0:0:0:0:
0,115,70374,2,0,P|92:119|132:119,1,119.000002269745,8|0,0:0|3:2,0:0:0:0:
216,132,70830,1,2,0:0:0:0:
192,56,70983,1,10,0:0:0:0:
293,117,71135,6,0,P|311:64|368:56,1,119.000002269745,2|0,3:2|3:2,0:0:0:0:
384,132,71603,2,0,P|448:120|524:112,1,119.000002269745,8|2,0:0|3:2,0:0:0:0:
508,200,72067,1,8,0:0:0:0:
508,200,72143,1,8,0:0:0:0:
508,200,72219,2,4,L|496:260,1,59.5000011348725,8|8,0:0|0:0,0:0:0:0:
432,316,72522,6,0,P|491:313|496:368,2,119.000002269745,6|10|2,3:2|0:0|3:2,0:0:0:0:
376,372,73299,1,0,0:0:0:0:
352,300,73454,1,8,0:0:0:0:
240,368,73610,6,0,P|180:370|104:360,1,119.000002269745,2|2,3:2|3:2,0:0:0:0:
52,332,74073,2,0,P|72:276|68:260,1,59.5000011348725,10|0,0:0|0:0,0:0:0:0:
112,212,74383,2,0,P|92:156|96:140,1,59.5000011348725,2|0,3:2|0:0,0:0:0:0:
128,88,74692,1,8,0:0:0:0:
24,72,74847,6,0,P|140:76|160:72,1,119.000002269745,2|2,3:2|3:2,0:0:0:0:
196,132,75306,2,0,P|260:124|272:124,1,59.5000011348725,10|0,0:0|0:0,0:0:0:0:
324,169,75612,1,2,3:2:0:0:
324,169,75765,1,2,0:0:0:0:
384,115,75918,1,10,0:0:0:0:
420,188,76071,6,0,P|484:184|492:124,1,119.000002269745,2|2,0:0|0:0,0:0:0:0:
408,176,76534,2,0,P|404:235|412:294,2,119.000002269745,10|2|10,0:0|3:2|0:0,0:0:0:0:
344,0,77462,6,0,P|356:72|364:128,1,119.000002269745,2|8,3:2|0:0,0:0:0:0:
492,304,78074,2,0,L|476:368,1,59.5000011348725,2|0,3:2|0:0,0:0:0:0:
404,384,78380,1,8,0:0:0:0:
224,280,78686,6,0,L|240:344,1,59.5000011348725,2|0,3:2|0:0,0:0:0:0:
312,360,78995,1,8,0:0:0:0:
112,304,79304,2,0,L|96:368,1,59.5000011348725,2|0,3:2|0:0,0:0:0:0:
24,384,79613,1,8,0:0:0:0:
16,164,79923,6,0,P|132:168|152:164,2,119.000002269745,14|0|8,0:0|3:2|0:0,0:0:0:0:
187,73,80846,1,10,0:0:0:0:
187,73,80999,1,0,0:0:0:0:
232,160,81153,5,14,3:2:0:0:
319,122,81305,1,0,3:2:0:0:
319,122,81381,1,0,3:2:0:0:
319,122,81457,2,0,P|339:118|371:110,3,29.7500005674362,8|0|0|0,3:2|3:2|3:2|3:2,0:0:0:0:
384,100,81762,2,0,L|423:133,3,29.7500005674362,10|0|0|0,3:2|3:2|3:2|3:2,0:0:0:0:
444,141,82066,2,0,L|442:184,3,29.7500005674362,10|0|8|0,3:2|3:2|3:2|3:2,0:0:0:0:
487,221,82371,6,0,P|432:240|410:324,2,140,6|10|2,3:2|0:0|3:2,0:0:0:0:
505,298,83140,1,0,0:0:0:0:
473,371,83294,1,8,0:0:0:0:
366,374,83447,6,0,P|310:350|210:350,1,140,6|0,3:2|3:2,0:0:0:0:
154,324,83909,2,0,P|218:328|246:328,1,70,10|0,0:0|0:0,0:0:0:0:
24,384,84217,2,0,P|88:380|116:380,1,70,2|0,3:2|0:0,0:0:0:0:
152,304,84524,1,8,0:0:0:0:
36,264,84677,6,0,P|20:220|104:168,1,140,6|2,3:2|3:2,0:0:0:0:
172,116,85136,2,0,P|172:172|188:192,1,70,10|2,0:0|0:0,0:0:0:0:
256,212,85442,1,6,3:2:0:0:
256,212,85595,1,0,0:0:0:0:
316,152,85748,1,10,0:0:0:0:
464,132,85901,6,0,P|448:216|448:276,1,140,6|2,3:2|3:2,0:0:0:0:
484,348,86367,2,0,P|432:348|396:352,1,70,10|0,0:0|0:0,0:0:0:0:
336,376,86678,1,2,3:2:0:0:
336,376,86833,1,0,0:0:0:0:
280,312,86989,1,10,0:0:0:0:
184,364,87144,1,8,0:0:0:0:
88,316,87299,6,0,P|84:256|84:172,2,140,6|10|2,3:2|0:0|3:2,0:0:0:0:
88,316,88064,1,0,0:0:0:0:
160,272,88217,1,8,0:0:0:0:
68,196,88370,6,0,P|46:131|86:77,1,140,6|0,3:2|3:2,0:0:0:0:
168,52,88836,2,0,P|164:108|168:136,1,70,10|2,0:0|0:0,0:0:0:0:
240,164,89147,1,2,3:2:0:0:
240,164,89302,1,0,0:0:0:0:
292,96,89458,1,8,0:0:0:0:
356,180,89613,6,0,P|400:188|468:120,1,140,6|2,3:2|3:2,0:0:0:0:
460,44,90072,2,0,P|452:112|452:128,1,70,10|0,0:0|0:0,0:0:0:0:
512,204,90378,2,0,P|504:272|504:288,1,70,6|2,3:2|0:0,0:0:0:0:
420,280,90684,1,10,0:0:0:0:
488,376,90837,6,0,P|428:364|332:360,1,140,6|2,3:2|3:2,0:0:0:0:
280,308,91293,2,0,P|216:332|192:332,1,70,10|2,0:0|0:0,0:0:0:0:
136,300,91598,1,6,3:2:0:0:
152,384,91753,2,0,P|112:335|37:340,1,140,10|8,0:0|0:0,0:0:0:0:
16,347,92142,1,8,0:0:0:0:
16,347,92219,6,0,P|36:259|36:255,1,70,6|0,3:2|0:0,0:0:0:0:
80,216,92528,2,0,P|73:181|61:148,1,70,10|0,0:0|0:0,0:0:0:0:
8,84,92837,2,0,P|84:120|152:128,1,140,2|8,3:2|0:0,0:0:0:0:
240,36,93301,6,0,P|296:12|396:12,1,140,6|2,3:2|3:2,0:0:0:0:
412,84,93762,2,0,P|476:88|504:88,1,70,10|2,0:0|0:0,0:0:0:0:
308,168,94070,2,0,P|372:164|400:164,1,70,2|0,3:2|0:0,0:0:0:0:
388,80,94377,1,8,0:0:0:0:
480,168,94531,6,0,P|496:212|412:264,1,140,6|2,3:2|3:2,0:0:0:0:
356,244,94994,2,0,P|356:300|372:320,1,70,10|2,0:0|0:0,0:0:0:0:
436,352,95304,1,6,3:2:0:0:
436,352,95458,1,2,0:0:0:0:
360,384,95613,1,10,0:0:0:0:
264,312,95768,6,0,P|180:296|120:296,1,140,6|2,3:2|3:2,0:0:0:0:
80,368,96229,2,0,P|28:368|-8:372,1,70,10|0,0:0|0:0,0:0:0:0:
28,264,96537,2,0,P|62:266|97:265,1,70,10|0,3:2|0:0,0:0:0:0:
168,216,96851,1,10,0:0:0:0:
168,216,97008,1,0,0:0:0:0:
107,123,97165,5,6,3:2:0:0:
107,123,97319,2,0,P|159:135|232:90,1,140,0|0,0:0|0:0,0:0:0:0:
319,14,97783,1,10,3:2:0:0:
319,14,97938,2,0,P|300:81|323:154,1,140,8|0,3:2|0:0,0:0:0:0:
431,188,98402,5,10,3:2:0:0:
431,188,98555,2,0,P|450:257|411:326,1,140,8|0,3:2|0:0,0:0:0:0:
305,291,99014,1,10,3:2:0:0:
305,291,99167,2,0,P|303:222|362:247,1,140,8|0,3:2|0:0,0:0:0:0:
424,322,99626,5,10,3:2:0:0:
424,322,99779,1,8,3:2:0:0:
352,376,99932,2,4,P|317:385|285:375,1,70,0|0,0:0|0:0,0:0:0:0:
218,302,100238,1,8,0:0:0:0:
166,366,100391,1,8,0:0:0:0:
114,302,100544,1,10,0:0:0:0:
59,384,100697,6,0,P|87:276|79:216,1,140,14|0,0:0|0:0,0:0:0:0:
117,176,101165,2,0,P|89:128|89:108,1,70,12|0,0:0|0:0,0:0:0:0:
153,62,101478,1,10,3:2:0:0:
29,36,101631,1,10,3:2:0:0:
344,16,102090,6,0,P|320:84|319:158,1,140,6|10,3:2|0:0,0:0:0:0:
480,272,102705,2,0,P|488:232|480:200,1,59.5000011348725,2|0,3:2|0:0,0:0:0:0:
412,188,103013,1,8,0:0:0:0:
360,248,103166,6,0,P|392:296|348:348,1,119.000002269745,6|0,3:2|3:2,0:0:0:0:
292,312,103628,1,10,0:0:0:0:
236,368,103782,2,0,B|200:356|108:360,1,119.000002269745
72,296,104243,1,8,0:0:0:0:
0,384,104397,6,0,P|48:348|32:296,1,119.000002269745,6|2,3:2|3:2,0:0:0:0:
44,220,104855,2,0,P|28:180|28:156,1,59.5000011348725,10|2,0:0|0:0,0:0:0:0:
44,88,105161,1,6,3:2:0:0:
44,88,105314,1,0,0:0:0:0:
123,109,105467,1,10,0:0:0:0:
184,40,105620,6,0,P|236:64|232:136,1,119.000002269745,6|2,3:2|3:2,0:0:0:0:
300,172,106083,2,0,B|376:160|368:160,1,59.5000011348725,10|0,0:0|0:0,0:0:0:0:
416,212,106393,2,0,B|492:224|484:224,1,59.5000011348725,2|0,3:2|3:2,0:0:0:0:
508,152,106702,1,10,0:0:0:0:
512,248,106857,1,8,0:0:0:0:
436,316,107011,6,0,P|432:356|504:376,2,119.000002269745,6|10|2,3:2|0:0|3:2,0:0:0:0:
360,304,107772,1,0,0:0:0:0:
316,368,107924,1,8,0:0:0:0:
252,280,108076,6,0,P|196:304|204:368,1,119.000002269745,6|0,3:2|3:2,0:0:0:0:
120,376,108539,2,0,P|72:356|40:356,1,59.5000011348725,10|2,0:0|0:0,0:0:0:0:
12,291,108849,1,2,3:2:0:0:
12,291,109003,1,0,3:2:0:0:
49,216,109158,1,8,0:0:0:0:
4,144,109313,6,0,P|52:160|128:168,1,119.000002269745,6|2,3:2|3:2,0:0:0:0:
192,136,109767,1,14,0:0:0:0:
192,136,110070,1,8,3:2:0:0:
256,92,110222,1,8,3:2:0:0:
316,140,110373,1,8,3:2:0:0:
384,52,110525,6,0,P|395:110|410:177,1,119.000002269745,8|0,0:0|0:0,0:0:0:0:
484,200,110996,2,0,P|468:248|468:260,1,59.5000011348725,2|0,0:0|0:0,0:0:0:0:
496,328,111310,2,0,P|444:288|400:368,1,178.500003404617,10|0,0:0|0:0,0:0:0:0:
320,360,111941,6,0,P|256:356|184:368,1,119.000002269745,4|0,3:2|0:0,0:0:0:0:
132,384,112402,1,0,0:0:0:0:
144,308,112556,2,0,P|68:340|16:312,1,119.000002269745,2|10,0:0|0:0,0:0:0:0:
0,228,113017,6,0,P|20:112|16:104,1,119.000002269745,2|2,0:0|0:0,0:0:0:0:
72,56,113471,2,0,L|140:72,1,59.5000011348725,2|8,0:0|0:0,0:0:0:0:
193,132,113774,1,2,3:2:0:0:
193,132,113926,1,0,3:2:0:0:
256,80,114077,1,2,3:2:0:0:
256,80,114229,1,0,3:2:0:0:
316,132,114380,6,0,L|384:116,3,59.5000011348725,6|0|2|0,0:0|0:0|0:0|0:0,0:0:0:0:
428,64,114998,2,0,P|420:125|416:188,1,119.000002269745,2|10,0:0|0:0,0:0:0:0:
480,228,115462,5,2,0:0:0:0:
480,228,115771,2,0,P|420:228|368:264,1,119.000002269745,2|10,0:0|0:0,0:0:0:0:
364,336,116235,2,0,P|320:328|292:324,1,59.5000011348725,2|0,3:2|3:2,0:0:0:0:
232,296,116544,1,2,3:2:0:0:
208,376,116699,5,0,3:2:0:0:
208,376,116776,1,0,3:2:0:0:
208,376,116854,2,0,P|148:372|136:308,1,119.000002269745,4|0,3:2|0:0,0:0:0:0:
64,284,117308,1,0,0:0:0:0:
64,284,117460,2,0,P|124:280|136:216,1,119.000002269745,2|8,0:0|0:0,0:0:0:0:
216,208,117914,6,0,P|156:204|144:140,1,119.000002269745,2|0,0:0|0:0,0:0:0:0:
64,132,118382,2,0,P|124:128|136:64,1,119.000002269745,2|0,0:0|0:0,0:0:0:0:
108,8,118851,1,0,0:0:0:0:
192,84,119007,2,0,P|224:72|256:72,1,59.5000011348725,2|0,3:2|0:0,0:0:0:0:
330,115,119320,5,14,0:0:0:0:
330,115,119473,2,0,L|371:108,2,29.7500005674362,10|8|10,0:0|0:0|0:0,0:0:0:0:
408,35,119779,1,10,0:0:0:0:
408,35,119932,2,0,L|449:42,2,29.7500005674362,10|8|10,0:0|0:0|0:0,0:0:0:0:
493,117,120238,1,10,0:0:0:0:
388,189,120391,1,6,3:2:0:0:
352,296,121328,5,0,3:2:0:0:
464,332,121476,1,10,0:0:0:0:
256,352,121783,2,0,L|264:388,8,29.7500005674362,10|0|0|0|10|0|8|0|10,3:2|3:2|3:2|3:2|3:2|3:2|3:2|3:2|3:2,0:0:0:0:
124,260,122706,1,12,0:0:0:0:
92,340,122859,6,0,P|148:296|124:252,1,119.000002269745,14|2,3:2|3:2,0:0:0:0:
60,208,123315,2,0,P|4:164|28:120,1,119.000002269745,10|2,0:0|3:2,0:0:0:0:
76,80,123772,1,0,0:0:0:0:
76,80,123924,1,10,0:0:0:0:
160,160,124077,6,0,P|168:116|236:104,1,119.000002269745,2|2,3:2|3:2,0:0:0:0:
260,28,124531,2,0,P|268:72|336:84,1,119.000002269745,10|2,0:0|3:2,0:0:0:0:
333,85,124986,1,2,0:0:0:0:
436,40,125137,2,0,P|419:71|419:103,1,59.5000011348725,10|2,0:0|0:0,0:0:0:0:
376,160,125440,6,0,P|392:191|392:223,1,59.5000011348725,2|2,3:2|0:0,0:0:0:0:
472,228,125759,2,0,P|455:259|455:291,1,59.5000011348725,10|2,0:0|0:0,0:0:0:0:
484,356,126078,1,2,3:2:0:0:
484,356,126237,1,0,0:0:0:0:
398,342,126397,1,10,0:0:0:0:
320,380,126557,6,0,P|240:372|176:368,1,119.000002269745,2|2,3:2|3:2,0:0:0:0:
148,312,127016,2,0,L|68:324,1,59.5000011348725,10|2,0:0|0:0,0:0:0:0:
12,324,127322,2,0,P|16:289|28:248,1,59.5000011348725,2|2,3:2|0:0,0:0:0:0:
88,220,127628,1,8,0:0:0:0:
8,136,127781,6,0,P|76:164|80:208,1,119.000002269745,2|2,3:2|3:2,0:0:0:0:
160,184,128240,2,0,P|196:192|232:192,1,59.5000011348725,10|0,0:0|0:0,0:0:0:0:
293,160,128546,1,2,3:2:0:0:
293,160,128699,1,2,0:0:0:0:
241,92,128852,2,12,P|257:32|261:20,1,59.5000011348725,8|0,0:0|0:0,0:0:0:0:
340,24,129158,6,0,P|400:32|420:36,1,59.5000011348725,2|0,3:2|0:0,0:0:0:0:
452,88,129468,2,0,P|512:80|532:76,1,59.5000011348725,10|0,0:0|0:0,0:0:0:0:
368,156,129779,2,0,P|428:164|448:168,1,59.5000011348725,2|0,3:2|0:0,0:0:0:0:
492,224,130090,1,10,0:0:0:0:
492,224,130246,1,0,0:0:0:0:
347,189,130552,6,0,P|298:189|245:243,1,119.000002269745,10|2,0:0|0:0,0:0:0:0:
320,278,131007,1,10,0:0:0:0:
200,361,131313,1,10,0:0:0:0:
34,301,131619,6,0,P|102:293|170:289,1,119.000002269745,6|8,3:2|0:0,0:0:0:0:
4,168,132234,1,2,3:2:0:0:
4,168,132388,1,0,0:0:0:0:
60,220,132542,2,0,P|120:216|128:216,1,59.5000011348725,8|0,0:0|0:0,0:0:0:0:
192,188,132849,6,0,L|208:130,1,59.5000011348725,2|0,3:2|0:0,0:0:0:0:
160,72,133159,2,0,P|220:88|292:88,1,119.000002269745,8|0,0:0|3:2,0:0:0:0:
352,76,133626,1,0,0:0:0:0:
304,16,133781,1,10,0:0:0:0:
360,92,133937,6,0,P|416:96|468:32,1,119.000002269745,2|0,3:2|0:0,0:0:0:0:
352,76,134393,2,0,P|348:168|348:208,1,119.000002269745,10|2,0:0|3:2,0:0:0:0:
404,248,134850,1,2,0:0:0:0:
468,204,135002,1,8,0:0:0:0:
468,328,135155,6,0,P|408:316|404:244,1,119.000002269745,2|0,3:2|0:0,0:0:0:0:
316,264,135618,2,0,P|252:276|176:284,1,119.000002269745,8|0,0:0|3:2,0:0:0:0:
120,352,136082,1,0,0:0:0:0:
192,372,136237,2,0,P|140:344|124:344,1,59.5000011348725,10|0,0:0|0:0,0:0:0:0:
136,236,136546,6,0,P|68:228|0:224,1,119.000002269745,2|8,3:2|0:0,0:0:0:0:
212,116,137158,1,2,3:2:0:0:
212,116,137311,1,0,0:0:0:0:
136,136,137464,2,0,P|196:132|204:132,1,59.5000011348725,10|0,0:0|0:0,0:0:0:0:
256,180,137770,6,0,P|312:176|332:164,1,59.5000011348725,2|0,3:2|0:0,0:0:0:0:
368,120,138082,2,0,P|352:60|352:-11,1,119.000002269745,8|2,0:0|3:2,0:0:0:0:
490,39,138551,1,0,0:0:0:0:
480,136,138707,6,0,P|424:140|372:76,1,119.000002269745,10|0,0:0|0:0,0:0:0:0:
328,188,139163,1,2,0:0:0:0:
328,188,139316,2,4,P|332:280|332:320,1,119.000002269745,8|0,0:0|3:2,0:0:0:0:
400,348,139772,1,2,0:0:0:0:
332,384,139925,1,10,0:0:0:0:
256,288,140077,6,0,P|203:306|195:363,1,119.000002269745,2|0,3:2|3:2,0:0:0:0:
120,384,140538,2,6,P|56:372|-20:364,1,119.000002269745,8|2,0:0|3:2,0:0:0:0:
56,292,141000,1,8,0:0:0:0:
56,292,141153,2,4,L|44:232,1,59.5000011348725,8|8,0:0|0:0,0:0:0:0:
120,192,141461,6,0,P|61:195|56:140,2,119.000002269745,6|10|2,3:2|0:0|3:2,0:0:0:0:
176,136,142222,1,0,0:0:0:0:
152,64,142374,1,8,0:0:0:0:
44,48,142526,6,0,P|104:50|180:40,1,119.000002269745,2|2,3:2|3:2,0:0:0:0:
232,80,142994,2,0,P|252:24|248:8,1,59.5000011348725,10|0,0:0|0:0,0:0:0:0:
328,8,143307,2,0,P|348:64|344:80,1,59.5000011348725,2|0,3:2|0:0,0:0:0:0:
316,132,143619,1,8,0:0:0:0:
428,56,143776,6,0,P|424:172|428:192,1,119.000002269745,2|2,3:2|3:2,0:0:0:0:
416,252,144239,2,0,P|480:244|492:244,1,59.5000011348725,10|0,0:0|0:0,0:0:0:0:
507,320,144549,1,2,3:2:0:0:
507,320,144703,1,2,0:0:0:0:
436,365,144858,1,10,0:0:0:0:
364,312,145013,6,0,P|300:308|292:248,1,119.000002269745,2|2,3:2|0:0,0:0:0:0:
216,344,145472,2,0,P|157:340|98:348,2,119.000002269745,10|2|10,0:0|3:2|0:0,0:0:0:0:
22,381,146390,6,0,P|13:322|4:264,1,119.000002269745,2|8,3:2|0:0,0:0:0:0:
208,144,147008,2,0,L|192:208,1,59.5000011348725,2|0,3:2|0:0,0:0:0:0:
124,236,147317,1,8,0:0:0:0:
48,28,147627,6,0,L|112:44,1,59.5000011348725,2|0,3:2|0:0,0:0:0:0:
128,116,147937,1,8,0:0:0:0:
264,248,148248,2,0,L|328:232,1,59.5000011348725,2|0,3:2|0:0,0:0:0:0:
344,160,148559,1,8,0:0:0:0:
512,16,148870,6,0,P|448:40|372:48,2,119.000002269745,14|0|8,0:0|3:2|0:0,0:0:0:0:
480,232,149803,2,0,P|480:292|484:308,1,59.5000011348725,10|0,0:0|0:0,0:0:0:0:
512,360,150114,5,10,3:2:0:0:
404,304,150264,2,0,P|352:304|328:364,1,119.000002269745,10|0,3:2|0:0,0:0:0:0:
256,384,150719,1,8,3:2:0:0:
108,304,150870,2,4,P|160:304|184:364,1,119.000002269745,8|0,3:2|0:0,0:0:0:0:
252,264,151325,6,0,P|256:184|248:116,2,140,6|10|2,3:2|0:0|3:2,0:0:0:0:
176,232,152094,1,0,0:0:0:0:
112,296,152248,1,8,0:0:0:0:
184,216,152401,6,0,P|128:192|28:192,1,140,6|0,3:2|3:2,0:0:0:0:
0,96,152867,2,0,P|64:100|92:100,1,70,10|0,0:0|0:0,0:0:0:0:
140,60,153178,2,0,P|204:56|232:56,1,70,2|0,3:2|0:0,0:0:0:0:
276,4,153489,1,8,0:0:0:0:
332,140,153644,6,0,P|316:96|400:44,1,140,6|2,3:2|3:2,0:0:0:0:
460,20,154100,2,0,P|460:76|476:96,1,70,10|2,0:0|0:0,0:0:0:0:
428,160,154405,1,6,3:2:0:0:
428,160,154557,1,0,0:0:0:0:
348,136,154709,1,10,0:0:0:0:
456,172,154862,6,0,P|440:256|440:316,1,140,6|2,3:2|3:2,0:0:0:0:
508,360,155328,2,0,P|456:360|420:364,1,70,10|0,0:0|0:0,0:0:0:0:
364,320,155639,1,2,3:2:0:0:
364,320,155794,1,0,0:0:0:0:
304,382,155950,1,10,0:0:0:0:
229,303,156105,1,8,0:0:0:0:
140,376,156260,6,0,P|80:380|-4:380,2,140,6|10|2,3:2|0:0|3:2,0:0:0:0:
140,376,157021,1,0,0:0:0:0:
92,308,157173,1,8,0:0:0:0:
240,304,157325,6,0,P|262:239|222:185,1,140,6|0,3:2|3:2,0:0:0:0:
204,104,157784,2,0,P|200:160|204:188,1,70,10|2,0:0|0:0,0:0:0:0:
160,40,158090,1,2,3:2:0:0:
160,40,158243,1,0,0:0:0:0:
244,24,158396,1,8,0:0:0:0:
296,160,158549,6,0,P|340:168|408:100,1,140,6|2,3:2|3:2,0:0:0:0:
428,28,159005,2,0,P|420:96|420:112,1,70,10|0,0:0|0:0,0:0:0:0:
480,156,159310,2,0,P|472:224|472:240,1,70,6|2,3:2|0:0,0:0:0:0:
400,268,159614,1,10,0:0:0:0:
512,360,159767,6,0,P|452:348|356:344,1,140,6|2,3:2|3:2,0:0:0:0:
304,384,160228,2,0,P|328:320|328:296,1,70,10|2,0:0|0:0,0:0:0:0:
284,248,160536,1,6,3:2:0:0:
200,364,160692,2,0,P|156:324|80:344,1,140,10|8,0:0|0:0,0:0:0:0:
63,370,161082,1,8,0:0:0:0:
63,370,161161,6,0,P|83:282|83:278,1,70,6|0,3:2|0:0,0:0:0:0:
20,240,161473,2,0,P|13:205|1:172,1,70,10|0,0:0|0:0,0:0:0:0:
68,120,161786,2,0,P|144:156|172:104,1,140,2|8,3:2|0:0,0:0:0:0:
260,44,162254,6,0,P|336:8|364:60,1,140,6|2,3:2|3:2,0:0:0:0:
444,24,162717,2,0,P|440:88|440:116,1,70,10|2,0:0|0:0,0:0:0:0:
336,164,163027,2,0,P|400:160|428:160,1,70,2|0,3:2|0:0,0:0:0:0:
480,196,163336,1,8,0:0:0:0:
376,248,163491,6,0,P|360:292|444:344,1,140,6|2,3:2|3:2,0:0:0:0:
512,332,163947,2,0,P|456:332|436:347,1,70,10|2,0:0|0:0,0:0:0:0:
344,320,164252,1,6,3:2:0:0:
344,320,164404,1,2,0:0:0:0:
284,384,164556,1,10,0:0:0:0:
284,248,164709,6,0,P|200:232|140:232,1,140,6|2,3:2|3:2,0:0:0:0:
192,308,165161,2,0,P|140:308|104:312,1,70,10|0,0:0|0:0,0:0:0:0:
10,375,165462,2,0,P|45:377|80:376,1,70,10|0,3:2|0:0,0:0:0:0:
64,260,165769,1,10,0:0:0:0:
64,260,165923,1,0,0:0:0:0:
176,176,166077,5,6,3:2:0:0:
124,124,166233,1,0,0:0:0:0:
52,152,166389,2,0,P|111:168|204:180,1,140,8|2,0:0|3:2,0:0:0:0:
264,304,166858,1,0,0:0:0:0:
264,304,167014,2,0,P|332:288|402:284,1,140,8|6,0:0|3:2,0:0:0:0:
456,384,167479,5,0,0:0:0:0:
456,384,167631,2,0,P|448:316|476:246,1,140,8|2,0:0|3:2,0:0:0:0:
504,140,168088,1,0,0:0:0:0:
504,140,168240,2,0,P|512:208|444:212,1,140,8|6,0:0|3:2,0:0:0:0:
360,276,168697,5,0,0:0:0:0:
360,276,168849,2,4,P|368:208|300:204,1,140,8|4,0:0|3:2,0:0:0:0:
204,244,169306,1,0,0:0:0:0:
204,244,169458,2,0,P|196:176|212:160,1,70,8|4,0:0|0:0,0:0:0:0:
264,132,169766,6,0,P|244:84|244:48,1,70,2|0,3:2|0:0,0:0:0:0:
188,0,170078,1,8,0:0:0:0:
456,80,170391,1,2,3:2:0:0:
456,80,170545,1,0,3:2:0:0:
388,128,170700,1,10,3:2:0:0:
388,128,170854,1,0,3:2:0:0:
472,184,171009,6,0,P|392:187|343:181,2,112,6|2|10,3:2|0:0|0:0,0:0:0:0:
512,262,171790,1,0,0:0:0:0:
512,262,171946,1,0,0:0:0:0:
454,331,172102,6,0,P|405:303|348:308,1,112,2|0,3:2|0:0,0:0:0:0:
303,370,172563,2,0,P|260:377|230:372,1,56,2|0,0:0|0:0,0:0:0:0:
196,315,172871,2,0,P|159:308|122:311,1,56,10|0,0:0|0:0,0:0:0:0:
83,373,173178,1,0,0:0:0:0:
83,373,173332,6,0,P|49:337|64:272,1,112,2|2,3:2|0:0,0:0:0:0:
125,213,173791,2,0,P|138:180|135:154,1,56,2|2,0:0|0:0,0:0:0:0:
63,95,174097,1,10,0:0:0:0:
63,95,174250,1,0,0:0:0:0:
123,34,174403,1,0,0:0:0:0:
217,4,174556,6,0,P|201:61|210:121,1,112,2|0,3:2|0:0,0:0:0:0:
261,177,175012,2,0,P|313:177|341:171,1,56,2|2,0:0|0:0,0:0:0:0:
400,153,175317,1,10,0:0:0:0:
480,194,175469,2,0,L|487:121,2,56,0|10|8,0:0|0:0|0:0,0:0:0:0:
480,294,175926,6,0,P|425:293|360:301,2,112,14|2|10,3:2|0:0|0:0,0:0:0:0:
414,213,176711,1,0,0:0:0:0:
414,213,176868,1,0,0:0:0:0:
368,299,177025,6,0,P|333:262|261:282,1,112,2|0,3:2|0:0,0:0:0:0:
228,344,177486,2,0,P|198:352|164:347,1,56,2|2,0:0|0:0,0:0:0:0:
110,301,177794,1,10,0:0:0:0:
110,301,177948,1,0,0:0:0:0:
34,346,178101,1,0,0:0:0:0:
25,258,178255,6,0,P|51:224|127:215,1,112,2|2,3:2|0:0,0:0:0:0:
189,257,178723,2,0,P|195:211|193:184,1,56,2|2,0:0|0:0,0:0:0:0:
270,160,179036,2,0,P|259:117|261:93,1,56,10|2,0:0|0:0,0:0:0:0:
307,35,179348,1,2,0:0:0:0:
353,136,179505,6,0,P|367:181|440:170,1,112,2|10,3:2|3:2,0:0:0:0:
483,70,179955,2,0,P|476:117|487:142,1,56,10|10,3:2|3:2,0:0:0:0:
507,251,180255,1,2,3:2:0:0:
507,251,180408,2,0,P|454:255|387:271,1,112,2|0,3:2|3:2,0:0:0:0:
271,327,180867,5,2,0:0:0:0:
271,327,181158,2,0,P|260:246|244:174,1,140,12|12,0:0|0:0,0:0:0:0:
12,32,181776,1,8,0:0:0:0:
110,67,181931,6,0,P|57:105|8:64,1,140,6|2,3:2|3:2,0:0:0:0:
116,40,182392,2,0,P|150:41|185:44,1,70,14|0,0:0|0:0,0:0:0:0:
252,100,182700,2,0,P|316:96|344:96,1,70,2|0,3:2|3:2,0:0:0:0:
400,128,183007,1,8,3:2:0:0:
472,16,183161,6,0,P|488:60|404:112,1,140,6|2,3:2|3:2,0:0:0:0:
496,196,183620,2,0,P|440:196|420:211,1,70,10|2,0:0|0:0,0:0:0:0:
408,284,183926,1,6,3:2:0:0:
408,284,184079,1,2,3:2:0:0:
448,356,184232,1,10,0:0:0:0:
320,280,184385,6,0,P|236:264|176:264,1,140,6|2,3:2|3:2,0:0:0:0:
108,304,184856,2,0,P|56:304|20:308,1,70,14|2,0:0|0:0,0:0:0:0:
180,352,185170,2,0,P|215:354|250:353,1,70,6|0,3:2|0:0,0:0:0:0:
108,304,185487,1,14,0:0:0:0:
108,304,185646,1,0,0:0:0:0:
54,214,185804,5,6,3:2:0:0:
54,214,185957,2,0,P|115:190|193:188,1,140,0|0,0:0|0:0,0:0:0:0:
303,234,186416,1,10,3:2:0:0:
303,234,186569,2,0,P|338:300|299:374,1,140,8|0,3:2|0:0,0:0:0:0:
200,372,187028,5,10,3:2:0:0:
200,372,187181,2,0,P|165:306|204:232,1,140,8|0,3:2|0:0,0:0:0:0:
251,162,187643,1,10,3:2:0:0:
251,162,187797,2,0,P|228:108|171:149,1,140,8|0,3:2|0:0,0:0:0:0:
191,250,188258,5,10,3:2:0:0:
191,250,188411,1,8,3:2:0:0:
282,266,188564,2,4,P|318:254|342:219,1,70,0|0,0:0|0:0,0:0:0:0:
343,140,188870,1,8,0:0:0:0:
394,73,189023,1,8,0:0:0:0:
447,140,189176,1,10,0:0:0:0:
447,140,189329,6,0,P|448:180|457:292,2,140,14|8|2,3:2|0:0|3:2,0:0:0:0:
394,73,190102,1,10,3:2:0:0:
295,170,190257,1,10,3:2:0:0:
277,365,190723,6,0,P|218:354|192:288,1,119.000002269745,6|10,3:2|0:0,0:0:0:0:
295,170,191341,1,2,3:2:0:0:
368,141,191496,1,0,0:0:0:0:
307,94,191650,1,8,0:0:0:0:
386,153,191805,6,0,P|445:150|497:195,1,119.000002269745,6|0,3:2|3:2,0:0:0:0:
452,280,192264,2,0,P|482:277|511:270,1,59.5000011348725,10|0,0:0|0:0,0:0:0:0:
384,324,192570,2,0,P|375:359|373:388,2,59.5000011348725,2|0|8,3:2|0:0|0:0,0:0:0:0:
240,288,193029,6,0,P|209:335|152:334,1,119.000002269745,6|2,3:2|3:2,0:0:0:0:
80,300,193490,2,0,P|86:271|86:241,1,59.5000011348725,10|2,0:0|0:0,0:0:0:0:
70,165,193798,1,6,3:2:0:0:
70,165,193952,2,4,P|41:166|12:160,1,59.5000011348725,0|10,0:0|0:0,0:0:0:0:
176,80,194259,6,0,P|258:68|305:72,1,119.000002269745,6|2,3:2|3:2,0:0:0:0:
368,88,194722,2,0,P|364:58|358:29,1,59.5000011348725,10|2,0:0|0:0,0:0:0:0:
484,272,195186,1,8,3:2:0:0:
484,272,195341,2,0,P|490:242|494:213,1,59.5000011348725,10|8,0:0|0:0,0:0:0:0:
512,344,195650,5,6,3:2:0:0:
420,368,195805,1,8,3:2:0:0:
420,368,195883,1,8,3:2:0:0:
420,368,195960,2,0,P|366:345|304:361,1,119.000002269745,10|2,0:0|3:2,0:0:0:0:
236,384,196427,2,0,P|245:325|247:299,1,59.5000011348725,0|8,0:0|0:0,0:0:0:0:
140,252,196738,6,0,P|81:254|8:261,1,119.000002269745,6|0,3:2|3:2,0:0:0:0:
0,180,197197,2,0,P|30:177|59:170,1,59.5000011348725,10|2,0:0|0:0,0:0:0:0:
100,100,197503,2,0,P|91:65|89:36,2,59.5000011348725,2|0|8,3:2|0:0|0:0,0:0:0:0:
144,228,197962,6,0,P|175:181|232:182,1,119.000002269745,6|2,3:2|3:2,0:0:0:0:
308,224,198421,2,0,P|314:195|314:165,1,59.5000011348725,10|0,0:0|0:0,0:0:0:0:
268,96,198727,2,0,P|296:102|396:112,1,119.000002269745,6|10,3:2|0:0,0:0:0:0:
505,59,199186,6,0,L|512:0,1,59.5000011348725,6|0,3:2|0:0,0:0:0:0:
451,161,199490,2,0,L|436:104,1,59.5000011348725,2|10,3:2|0:0,0:0:0:0:
504,279,199795,2,0,L|512:220,1,59.5000011348725,2|6,0:0|3:2,0:0:0:0:
455,353,200099,1,10,0:0:0:0:
455,353,200175,1,8,0:0:0:0:
455,353,200251,1,8,0:0:0:0:
392,272,200404,1,8,0:0:0:0:
392,272,200480,1,8,0:0:0:0:
392,272,200556,6,0,P|352:265|314:268,1,59.5000011348725,6|0,3:2|0:0,0:0:0:0:
294,339,200865,2,0,P|254:343|223:335,1,59.5000011348725,10|0,0:0|0:0,0:0:0:0:
208,216,201174,1,2,3:2:0:0:
131,226,201329,1,0,0:0:0:0:
177,288,201483,1,8,0:0:0:0:
112,208,201638,6,0,P|128:132|128:64,1,119.000002269745,6|2,3:2|3:2,0:0:0:0:
76,20,202097,2,0,P|106:17|135:10,1,59.5000011348725,10|0,0:0|0:0,0:0:0:0:
220,60,202403,2,0,P|211:25|209:-4,2,59.5000011348725,2|0|8,3:2|0:0|0:0,0:0:0:0:
304,156,202862,6,0,P|361:158|392:111,1,119.000002269745,6|2,3:2|3:2,0:0:0:0:
468,148,203325,2,0,P|474:119|474:89,1,59.5000011348725,10|2,0:0|0:0,0:0:0:0:
424,228,203635,1,6,3:2:0:0:
424,228,203789,2,0,P|452:234|482:234,1,59.5000011348725,2|10,0:0|0:0,0:0:0:0:
512,352,204099,6,0,P|453:350|395:362,1,119.000002269745,6|2,3:2|3:2,0:0:0:0:
312,372,204560,2,0,P|306:342|302:313,1,59.5000011348725,10|2,0:0|0:0,0:0:0:0:
232,268,204868,2,0,P|228:297|222:326,1,59.5000011348725,10|0,3:2|0:0,0:0:0:0:
140,348,205183,2,0,P|111:344|82:338,1,59.5000011348725,10|0,0:0|0:0,0:0:0:0:
0,240,205499,6,0,P|56:220|116:216,1,119.000002269745,6|0,3:2|0:0,0:0:0:0:
224,12,206114,2,0,P|220:54|206:87,1,59.5000011348725,10|8,3:2|3:2,0:0:0:0:
296,104,206729,2,0,P|300:146|314:179,1,59.5000011348725,10|8,3:2|3:2,0:0:0:0:
160,188,207335,2,0,P|132:220|102:239,1,59.5000011348725,10|8,3:2|3:2,0:0:0:0:
392,236,207941,2,0,P|419:268|449:287,1,59.5000011348725,10|8,3:2|3:2,0:0:0:0:
256,380,208553,5,8,0:0:0:0:
256,380,208706,1,8,0:0:0:0:
320,328,208859,1,10,0:0:0:0:
232,252,209012,1,14,0:0:0:0:
256,192,209089,12,0,215197,0:0:0:0:
