osu file format v14

[General]
AudioFilename: audio3.mp3
AudioLeadIn: 0
PreviewTime: -1
Countdown: 1
SampleSet: Soft
StackLeniency: 0.7
Mode: 0
LetterboxInBreaks: 0
WidescreenStoryboard: 1

[Editor]
Bookmarks: 20669,61520,76839,122797
DistanceSpacing: 0.8
BeatDivisor: 4
GridSize: 4
TimelineZoom: 1

[Metadata]
Title:Raul Songs Favourites Compilation
TitleUnicode:Raul Songs Favourites Compilation
Artist:Various Artists
ArtistUnicode:Various Artists
Creator:MasterHerobrine
Version:Vena Cava - Ohana
Source:
Tags:stonebank stronger maduk veela ghost assassin hourglass bonusmix vena cava ohana hige driver join. selen 打打打打打打打打打打 Dadadadadadadadadada
BeatmapID:1390127
BeatmapSetID:656045

[Difficulty]
HPDrainRate:3.5
CircleSize:4.3
OverallDifficulty:7.3
ApproachRate:9.2
SliderMultiplier:1.4
SliderTickRate:1

[Events]
//Background and Video events
0,0,"anime-night-sky-background-download-anime-night-sky-wallpaper-5776--15.jpeg",0,0
//Break Periods
2,122837,132439
//Storyboard Layer 0 (Background)
//Storyboard Layer 1 (Fail)
//Storyboard Layer 2 (Pass)
//Storyboard Layer 3 (Foreground)
//Storyboard Sound Samples

[TimingPoints]
244,319.148936170213,4,2,1,5,1,0
245,-200,4,2,1,5,0,0
4712,-166.666666666667,4,2,1,5,0,0
8222,-142.857142857143,4,2,1,5,0,0
20669,-117.647058823529,4,2,1,5,0,0
33435,-100,4,2,1,5,0,0
43648,-90.9090909090909,4,2,1,5,0,0
73009,-83.3333333333333,4,2,1,5,0,0
73329,-76.9230769230769,4,2,1,5,0,0
73648,-71.4285714285714,4,2,1,5,0,0
73967,-66.6666666666667,4,2,1,5,0,0
74286,-62.5,4,2,1,5,0,0
74605,-58.8235294117647,4,2,1,5,0,0
74924,-57.1428571428571,4,2,1,5,0,0
75244,-55.5555555555556,4,2,1,5,0,0
75563,-54.054054054054,4,2,1,5,0,0
75882,-52.6315789473684,4,2,1,5,0,0
76201,-51.2820512820513,4,2,1,5,0,0
76520,-50,4,2,1,5,0,0
81946,-66.6666666666667,4,2,1,5,0,0
89605,-58.8235294117647,4,2,1,5,0,0
133009,-133.333333333333,4,2,1,5,0,0

[HitObjects]
108,68,244,5,0,0:0:0:0:
160,136,563,2,0,L|208:132,2,35
96,184,1041,1,0,0:0:0:0:
96,184,1201,2,0,P|88:196|80:228,1,35
296,44,2158,5,0,0:0:0:0:
296,44,2318,2,0,L|332:52,1,35
404,68,2797,1,0,0:0:0:0:
352,136,3116,2,0,L|304:132,2,35
416,184,3594,1,0,0:0:0:0:
416,184,3754,2,0,P|424:196|432:228,1,35
124,296,4712,5,0,0:0:0:0:
88,228,5031,2,0,L|96:184,1,41.9999987182618
112,116,5350,2,0,P|56:108|20:132,1,83.9999974365235
168,168,5829,1,0,0:0:0:0:
220,220,5988,2,0,L|276:212,1,41.9999987182618
320,136,6307,2,0,L|268:144,1,41.9999987182618
236,80,6626,5,0,0:0:0:0:
380,200,6946,2,0,L|372:248,1,41.9999987182618
464,316,7265,2,0,L|460:272,1,41.9999987182618
296,264,7584,2,0,L|240:272,1,41.9999987182618
352,332,7903,2,0,L|408:340,1,41.9999987182618
344,200,8222,5,0,0:0:0:0:
460,272,8382,1,0,0:0:0:0:
432,176,8541,1,0,0:0:0:0:
372,292,8701,1,0,0:0:0:0:
344,200,8861,6,0,L|280:192,1,48.9999985046387
216,180,9180,1,0,0:0:0:0:
232,156,9499,5,0,0:0:0:0:
160,324,9659,1,0,0:0:0:0:
300,252,9818,1,0,0:0:0:0:
124,160,9978,1,0,0:0:0:0:
252,308,10137,5,0,0:0:0:0:
216,76,10297,1,0,0:0:0:0:
104,272,10456,1,0,0:0:0:0:
288,160,10775,5,0,0:0:0:0:
368,176,10935,1,0,0:0:0:0:
312,236,11094,1,0,0:0:0:0:
340,100,11254,1,0,0:0:0:0:
340,100,11414,2,0,P|336:60|328:44,1,48.9999985046387
368,176,11733,1,0,0:0:0:0:
356,196,12052,5,0,0:0:0:0:
152,152,12212,1,0,0:0:0:0:
272,88,12371,1,0,0:0:0:0:
184,296,12531,1,0,0:0:0:0:
172,72,12690,5,0,0:0:0:0:
244,260,12850,1,0,0:0:0:0:
364,208,13009,1,0,0:0:0:0:
332,120,13328,5,0,0:0:0:0:
456,176,13488,1,0,0:0:0:0:
404,300,13647,1,0,0:0:0:0:
272,236,13807,1,0,0:0:0:0:
272,236,13967,2,0,P|236:244|204:232,1,48.9999985046387
140,168,14286,6,0,B|180:160|180:160|244:172,1,97.9999970092774
320,188,14765,1,0,0:0:0:0:
124,84,14924,1,0,0:0:0:0:
184,240,15084,1,0,0:0:0:0:
256,100,15244,5,0,0:0:0:0:
240,300,15403,1,0,0:0:0:0:
328,176,15563,1,0,0:0:0:0:
320,292,15882,5,0,0:0:0:0:
288,192,16041,1,0,0:0:0:0:
344,96,16201,1,0,0:0:0:0:
440,64,16361,1,0,0:0:0:0:
344,96,16520,2,0,P|300:96|280:88,1,48.9999985046387
240,52,16839,6,0,P|252:88|224:148,1,97.9999970092774
154,157,17318,1,0,0:0:0:0:
170,233,17478,1,0,0:0:0:0:
230,141,17637,1,0,0:0:0:0:
246,217,17797,1,0,0:0:0:0:
96,212,17956,5,0,0:0:0:0:
304,164,18116,1,0,0:0:0:0:
154,157,18435,2,0,L|142:93,1,48.9999985046387
246,217,18754,2,0,L|232:276,1,48.9999985046387
124,92,19073,2,0,L|216:88,1,73.4999977569581
264,120,19392,5,0,0:0:0:0:
256,192,19712,12,0,20509,0:0:0:0:
256,192,20669,6,0,P|216:196|192:188,1,59.5000011348725
312,144,20988,2,0,P|352:140|392:152,1,59.5000011348725
200,192,21307,2,0,P|144:220|68:200,1,119.000002269745
369,143,21946,2,0,P|428:136|468:152,1,89.2500017023087
472,168,22265,1,0,0:0:0:0:
480,188,22425,2,0,L|476:252,1,59.5000011348725
76,288,22903,6,0,L|208:280,1,119.000002269745
384,192,23541,2,0,L|252:184,1,119.000002269745
128,88,24180,2,0,L|108:212,1,119.000002269745
389,251,24818,2,0,L|381:171,1,59.5000011348725
384,192,25456,1,0,0:0:0:0:
436,288,25775,6,0,L|304:280,1,119.000002269745
128,192,26413,2,0,L|260:184,1,119.000002269745
384,88,27052,2,0,L|404:212,1,119.000002269745
246,184,27531,2,0,L|254:104,1,59.5000011348725
260,48,28009,1,0,0:0:0:0:
260,48,28329,6,0,L|120:60,1,119.000002269745
100,196,28967,2,0,L|240:184,1,119.000002269745
372,100,29605,5,0,0:0:0:0:
460,124,29765,1,0,0:0:0:0:
432,216,29924,1,0,0:0:0:0:
344,192,30084,1,0,0:0:0:0:
372,100,30244,2,0,P|360:64|360:40,1,59.5000011348725
432,216,30563,2,0,P|430:245|419:273,1,59.5000011348725
356,316,30882,6,0,B|328:328|288:316|288:316|252:300|216:320,1,119.000002269745
320,132,31520,2,0,B|336:176|336:176|324:260,1,119.000002269745
260,64,32158,2,0,L|372:56,1,89.2500017023087
448,124,32478,2,0,L|380:116,1,59.5000011348725
396,128,33116,1,0,0:0:0:0:
88,124,33435,6,0,P|132:144|184:136,1,70
304,148,33754,2,0,P|273:131|238:127,1,70
208,200,34073,2,0,P|216:248|208:280,1,70
184,80,34392,2,0,P|176:32|184:0,1,70
252,132,34712,6,0,L|344:124,1,70
368,224,35031,1,0,0:0:0:0:
368,224,35190,2,0,P|336:168|364:88,1,140
420,276,35669,2,0,P|420:308|412:352,1,70
80,232,35988,6,0,L|168:240,1,70
292,152,36307,2,0,L|204:160,1,70
296,232,36626,2,0,L|208:240,1,70
84,152,36945,2,0,L|172:160,1,70
296,232,37265,6,0,P|368:252|420:224,1,105
440,180,37584,2,0,L|424:96,1,70
368,64,37903,1,0,0:0:0:0:
304,104,38222,1,0,0:0:0:0:
304,104,38541,6,0,L|228:96,1,70
312,180,38861,2,0,L|236:172,1,70
316,256,39180,2,0,L|240:248,1,70
324,332,39500,2,0,L|248:324,1,70
172,244,39818,5,0,0:0:0:0:
232,140,39978,1,0,0:0:0:0:
336,92,40137,1,0,0:0:0:0:
452,108,40297,1,0,0:0:0:0:
304,164,40456,1,0,0:0:0:0:
372,320,40775,5,0,0:0:0:0:
276,52,40935,1,0,0:0:0:0:
216,96,41095,6,0,L|124:88,1,70
260,164,41414,2,0,L|340:156,1,70
84,36,41733,2,0,P|68:92|124:172,1,140
144,284,42371,1,0,0:0:0:0:
144,284,42690,2,0,P|152:232|148:204,1,70
180,156,43009,2,0,L|224:152,1,35
412,200,43329,2,0,L|280:192,1,105
280,192,43648,6,0,P|276:120|336:60,1,154.000004699707
232,256,44286,2,0,P|136:304|64:288,1,154.000004699707
360,192,44924,2,0,P|428:176|460:184,1,77.0000023498536
324,252,45244,1,0,0:0:0:0:
292,184,45403,2,0,P|292:128|372:48,1,154.000004699707
376,60,45802,1,0,0:0:0:0:
392,68,45882,2,0,P|320:72|236:48,1,154.000004699707
228,44,46281,6,0,L|232:168,1,115.50000352478
64,336,46839,2,0,P|52:232|92:184,1,154.000004699707
434,195,47478,2,0,P|467:263|448:336,1,154.000004699707
384,308,47956,1,0,0:0:0:0:
320,340,48116,2,0,P|272:324|148:336,1,154.000004699707
160,220,48754,6,0,L|152:132,1,77.0000023498536
244,160,49073,2,0,L|237:236,1,77.0000023498536
324,208,49392,2,0,L|316:120,1,77.0000023498536
408,148,49711,2,0,L|401:224,1,77.0000023498536
336,280,50031,5,0,0:0:0:0:
368,80,50190,1,0,0:0:0:0:
296,284,50350,5,0,0:0:0:0:
264,84,50509,1,0,0:0:0:0:
264,84,50669,2,0,L|168:80,1,77.0000023498536
76,252,50988,1,0,0:0:0:0:
76,252,51148,2,0,L|144:256,1,38.5000011749268
136,256,51307,6,0,P|140:196|80:112,1,154.000004699707
192,312,51946,2,0,P|276:324|344:292,1,154.000004699707
128,260,52584,2,0,P|88:256|40:268,1,77.0000023498536
192,312,52903,1,0,0:0:0:0:
200,236,53063,2,0,P|196:152|256:72,1,154.000004699707
296,120,53541,2,0,P|356:120|400:96,1,77.0000023498536
448,172,53861,6,0,P|464:224|460:272,1,77.0000023498536
412,352,54180,2,0,P|398:316|395:277,1,77.0000023498536
320,152,54499,2,0,P|336:204|332:252,1,77.0000023498536
284,332,54818,2,0,P|270:296|267:257,1,77.0000023498536
320,152,55137,2,0,P|380:136|476:196,1,154.000004699707
468,192,55536,1,0,0:0:0:0:
472,216,55616,2,0,L|468:308,1,77.0000023498536
396,324,55935,1,0,0:0:0:0:
396,324,56095,2,0,L|400:236,1,77.0000023498536
64,172,56414,6,0,P|48:224|52:272,1,77.0000023498536
100,352,56733,2,0,P|113:316|116:277,1,77.0000023498536
192,152,57052,2,0,P|176:204|180:252,1,77.0000023498536
228,332,57371,2,0,P|241:296|244:257,1,77.0000023498536
192,152,57690,2,0,P|132:136|36:196,1,154.000004699707
44,192,58089,1,0,0:0:0:0:
40,216,58169,2,0,L|44:308,1,77.0000023498536
116,324,58488,1,0,0:0:0:0:
116,324,58648,2,0,L|112:236,1,77.0000023498536
448,211,58967,6,0,P|461:176|464:137,1,77.0000023498536
412,32,59286,2,0,P|398:67|395:106,1,77.0000023498536
320,231,59605,2,0,P|333:196|336:157,1,77.0000023498536
284,51,59924,2,0,P|270:87|267:126,1,77.0000023498536
392,236,60244,5,0,0:0:0:0:
92,160,60403,1,0,0:0:0:0:
392,136,60563,5,0,0:0:0:0:
128,248,60722,1,0,0:0:0:0:
352,56,60882,5,0,0:0:0:0:
352,56,61201,2,0,L|460:48,1,77.0000023498536
256,192,61520,12,0,66626,0:0:0:0:
124,96,66946,5,0,0:0:0:0:
128,96,67025,1,0,0:0:0:0:
132,96,67105,1,0,0:0:0:0:
136,96,67185,1,0,0:0:0:0:
140,96,67265,2,0,L|140:144,1,38.5000011749268
420,96,67584,5,0,0:0:0:0:
412,96,67663,1,0,0:0:0:0:
404,96,67743,1,0,0:0:0:0:
396,96,67823,1,0,0:0:0:0:
388,96,67903,5,0,0:0:0:0:
384,96,67982,1,0,0:0:0:0:
380,96,68062,1,0,0:0:0:0:
376,96,68142,1,0,0:0:0:0:
372,96,68222,2,0,L|372:144,1,38.5000011749268
372,208,68541,1,0,0:0:0:0:
276,296,68861,5,0,0:0:0:0:
262,297,68940,1,0,0:0:0:0:
249,299,69020,1,0,0:0:0:0:
235,299,69100,1,0,0:0:0:0:
224,300,69180,2,0,P|184:296|160:288,1,38.5000011749268
116,220,69499,5,0,0:0:0:0:
112,204,69578,1,0,0:0:0:0:
112,188,69658,1,0,0:0:0:0:
116,172,69738,1,0,0:0:0:0:
124,160,69818,2,0,P|164:164|188:172,1,38.5000011749268
236,120,70137,5,0,0:0:0:0:
240,104,70216,1,0,0:0:0:0:
240,88,70296,1,0,0:0:0:0:
236,72,70376,1,0,0:0:0:0:
228,60,70456,2,0,P|188:64|164:72,1,38.5000011749268
76,28,70775,5,0,0:0:0:0:
72,44,70854,1,0,0:0:0:0:
72,60,70934,1,0,0:0:0:0:
76,76,71014,1,0,0:0:0:0:
84,88,71094,2,0,P|124:84|148:76,1,38.5000011749268
172,136,71414,5,0,0:0:0:0:
176,152,71493,1,0,0:0:0:0:
176,168,71573,1,0,0:0:0:0:
172,184,71653,1,0,0:0:0:0:
164,196,71733,2,0,P|124:192|80:168,1,77.0000023498536
32,136,72052,2,0,P|16:192|24:232,1,77.0000023498536
96,344,72371,2,0,P|96:296|76:252,1,77.0000023498536
80,260,72611,1,0,0:0:0:0:
72,252,72690,2,0,P|124:248|168:256,1,77.0000023498536
216,280,73009,6,0,L|320:284,1,83.9999974365235
448,224,73329,2,0,L|320:232,1,90.9999958343508
316,172,73648,2,0,P|308:108|316:56,1,97.9999970092774
455,120,73967,2,0,P|458:168|439:244,1,105.000004005432
312,76,74286,6,0,L|156:72,1,112
44,144,74605,2,0,L|184:136,1,119.000002269745
232,272,74924,2,0,L|240:140,1,122.500001168251
116,340,75244,2,0,L|104:200,1,125.999996154785
239,149,75563,6,0,L|375:141,1,129.499999505997
476,244,75882,2,0,L|316:236,1,132.999996448517
240,152,76201,2,0,P|177:126|110:131,1,136.500000520706
210,220,76520,2,0,P|272:245|346:236,1,140
112,132,76839,5,0,0:0:0:0:
92,208,76999,1,0,0:0:0:0:
124,280,77158,1,0,0:0:0:0:
192,316,77318,1,0,0:0:0:0:
208,112,77478,5,0,0:0:0:0:
300,128,77637,1,0,0:0:0:0:
280,232,77797,1,0,0:0:0:0:
188,212,77956,1,0,0:0:0:0:
300,128,78116,5,0,0:0:0:0:
280,232,78275,1,0,0:0:0:0:
208,112,78435,1,0,0:0:0:0:
188,212,78595,1,0,0:0:0:0:
216,292,78754,5,0,0:0:0:0:
264,52,78914,1,0,0:0:0:0:
132,144,79073,1,0,0:0:0:0:
352,192,79233,1,0,0:0:0:0:
280,156,79392,5,0,0:0:0:0:
273,170,79471,1,0,0:0:0:0:
269,186,79551,1,0,0:0:0:0:
268,202,79631,1,0,0:0:0:0:
270,218,79711,5,0,0:0:0:0:
275,233,79790,1,0,0:0:0:0:
284,247,79870,1,0,0:0:0:0:
294,259,79950,1,0,0:0:0:0:
307,268,80030,1,0,0:0:0:0:
322,275,80110,5,0,0:0:0:0:
337,279,80189,1,0,0:0:0:0:
353,280,80269,1,0,0:0:0:0:
369,278,80349,1,0,0:0:0:0:
384,272,80429,1,0,0:0:0:0:
398,264,80509,5,0,0:0:0:0:
410,254,80588,1,0,0:0:0:0:
416,244,80669,6,0,P|428:192|412:136,7,70
424,160,81307,5,0,0:0:0:0:
368,104,81467,1,0,0:0:0:0:
296,84,81626,1,0,0:0:0:0:
224,96,81786,1,0,0:0:0:0:
160,144,81946,2,0,L|164:212,1,52.5000020027161
228,272,82105,2,0,L|232:212,1,52.5000020027161
505,76,82584,6,0,L|281:84,1,210.000008010865
232,116,83063,1,0,0:0:0:0:
176,168,83222,2,0,P|160:224|252:352,1,210.000008010865
260,208,83861,2,0,P|244:108|128:84,1,210.000008010865
296,272,84499,6,0,B|372:272|372:272|396:280|396:280|424:272|424:272|520:272,1,210.000008010865
476,200,84978,2,0,P|472:148|480:124,1,52.5000020027161
488,128,85137,2,0,B|424:112|376:132|376:132|340:152|288:128|288:128|232:104|180:132,1,315.000012016297
192,176,85696,1,0,0:0:0:0:
200,212,85775,2,0,P|264:144|108:48,1,315.000012016297
132,240,86414,2,0,B|104:256|80:260|80:260|156:312|228:284|228:284|288:264|340:280,1,315.000012016297
392,316,87052,6,0,L|412:184,1,105.000004005432
340,48,87371,2,0,L|352:152,1,105.000004005432
304,200,87690,2,0,B|240:224|184:192|184:192|124:164|60:200,1,210.000008010865
48,96,88169,2,0,P|88:88|140:100,1,52.5000020027161
168,112,88329,2,0,P|208:172|36:252,1,315.000012016297
112,192,88967,2,0,P|248:192|384:152,1,262.500010013581
304,96,89605,6,0,P|280:176|464:152,1,357.000006809235
372,160,90244,2,0,B|292:120|204:172|204:172|112:220|20:184,1,357.000006809235
44,76,90802,1,0,0:0:0:0:
44,76,90882,2,0,P|129:151|112:248,1,178.500003404617
88,268,91201,2,0,B|156:288|156:288|300:264,1,178.500003404617
312,220,91520,2,0,B|304:144|304:144|316:100,1,119.000002269745
432,176,91839,2,0,B|440:252|440:252|428:296,1,119.000002269745
404,80,92158,6,0,B|396:112|376:132|376:132|404:96|464:80|540:120|544:212|484:288|408:260|364:212,1,416.500007944107
312,176,92797,2,2,B|236:168|236:168|24:184,1,238.00000453949
148,312,93275,2,2,L|144:240,1,59.5000011348725
69,61,93435,2,2,L|77:225,1,119.000002269745
152,116,93754,2,0,L|144:-12,1,119.000002269745
224,160,94073,2,0,P|296:168|168:296,1,416.500007944107
224,72,94712,6,0,B|272:100|324:64|324:64|396:20|476:104,1,238.00000453949
376,140,95111,2,0,L|368:268,1,119.000002269745
408,328,95350,2,0,B|340:348|304:296|304:296|264:356|180:332,1,238.00000453949
304,296,95829,2,0,B|296:272|296:272|304:184,1,59.5000011348725
364,83,95988,2,0,B|376:107|376:107|368:259,1,178.500003404617
299,237,96307,2,0,B|259:249|259:249|71:229,1,178.500003404617
96,160,96626,2,0,B|60:120|56:76|56:76|0:164|40:240|40:240|72:312|48:380,1,357.000006809235
124,40,97265,6,0,P|140:104|252:116,1,178.500003404617
276,64,97584,2,0,P|260:128|280:192,1,119.000002269745
356,256,97903,2,0,B|312:244|312:244|168:276|168:276|104:256,1,238.00000453949
368,128,98382,2,0,L|376:196,1,59.5000011348725
380,332,98541,2,0,P|424:288|416:208,1,119.000002269745
376,188,98861,2,0,B|240:168|240:168|288:120,1,178.500003404617
324,88,99180,2,0,B|268:44|208:88|208:88|156:132|64:128|8:80|20:-16,1,357.000006809235
144,192,99818,6,0,B|160:216|160:216|128:344,1,119.000002269745
204,152,100137,2,0,B|184:124|184:124|208:32,1,119.000002269745
228,224,100456,2,0,B|272:236|272:236|360:220|360:220|428:236,1,178.500003404617
472,248,100775,1,0,0:0:0:0:
432,108,100935,1,0,0:0:0:0:
136,136,101733,5,0,0:0:0:0:
184,312,101892,1,0,0:0:0:0:
248,176,102052,1,0,0:0:0:0:
80,272,102212,1,0,0:0:0:0:
248,176,102371,6,0,P|312:188|368:160,1,119.000002269745
136,136,102690,2,0,P|72:124|16:152,1,119.000002269745
168,292,103009,2,0,B|200:252|200:252|184:64,1,238.00000453949
344,92,103648,2,0,B|312:132|312:132|328:320,1,238.00000453949
460,180,104126,2,0,L|396:160,1,59.5000011348725
344,92,104286,2,0,L|88:116,1,238.00000453949
173,213,104924,6,0,L|193:333,1,119.000002269745
77,229,105244,2,0,L|109:105,1,119.000002269745
192,330,105563,1,0,0:0:0:0:
108,308,105882,1,0,0:0:0:0:
328,88,106201,2,0,L|456:80,1,119.000002269745
280,232,106520,2,0,L|288:160,1,59.5000011348725
388,280,106680,2,0,L|384:148,1,119.000002269745
192,112,107158,2,0,L|196:264,1,119.000002269745
44,164,107478,6,0,L|172:172,1,119.000002269745
289,43,107797,2,0,L|141:55,1,119.000002269745
164,172,108116,2,0,L|172:32,1,119.000002269745
280,184,108435,2,0,L|284:304,1,119.000002269745
220,348,108754,6,0,P|308:372|368:272,1,178.500003404617
356,248,109073,2,0,P|352:212|356:184,1,59.5000011348725
432,132,109233,2,0,P|348:148|272:108,1,119.000002269745
256,92,109552,2,0,L|248:32,1,59.5000011348725
252,168,109712,2,0,P|232:228|272:312,1,119.000002269745
192,124,110031,6,0,B|136:112|136:112|72:144,1,119.000002269745
32,208,110350,2,0,B|88:220|88:220|152:188,1,119.000002269745
320,124,110669,2,0,B|376:112|376:112|440:144,1,119.000002269745
480,208,110988,2,0,B|424:220|424:220|360:188,1,119.000002269745
196,124,111307,5,0,0:0:0:0:
368,192,111467,1,0,0:0:0:0:
144,192,111626,1,0,0:0:0:0:
320,124,111786,1,0,0:0:0:0:
256,312,111946,1,0,0:0:0:0:
256,312,112265,2,0,B|244:272|244:272|252:184,1,119.000002269745
296,132,112584,6,0,B|244:120|244:120|100:168,1,178.500003404617
68,200,112903,2,0,P|63:235|68:288,1,59.5000011348725
144,328,113063,2,0,P|148:292|144:240,1,59.5000011348725
212,212,113222,2,0,P|300:232|400:128,1,238.00000453949
360,76,113701,1,0,0:0:0:0:
320,136,113861,2,0,P|364:224|516:220,1,238.00000453949
424,152,114339,1,0,0:0:0:0:
424,152,114499,2,0,P|404:92|428:28,1,119.000002269745
432,48,114818,2,0,P|340:72|212:48,1,178.500003404617
188,32,115137,6,0,P|184:96|228:160,1,119.000002269745
240,276,115456,2,0,L|320:268,1,59.5000011348725
180,216,115616,2,0,L|100:208,1,59.5000011348725
120,210,115775,2,0,P|124:138|-4:50,1,238.00000453949
324,152,116414,2,0,P|256:172|216:216,1,119.000002269745
376,212,116733,1,0,0:0:0:0:
376,212,116892,2,0,P|464:212|488:196,1,119.000002269745
328,152,117212,1,0,0:0:0:0:
328,152,117371,2,0,P|300:88|248:60,1,119.000002269745
272,216,117690,6,0,P|204:216|120:224,1,119.000002269745
320,284,118009,2,0,P|384:284|432:268,1,59.5000011348725
488,144,118169,2,0,P|458:141|428:144,1,59.5000011348725
364,200,118329,2,0,P|360:92|440:60,1,178.500003404617
424,64,118648,2,0,P|336:72|224:60,1,178.500003404617
176,44,118967,2,0,B|172:132|172:132|192:180,1,119.000002269745
196,176,119286,2,0,L|280:184,1,59.5000011348725
376,148,119446,2,0,L|300:152,1,59.5000011348725
255,181,119605,6,0,P|248:116|280:32,1,119.000002269745
328,24,119924,1,0,0:0:0:0:
320,240,120244,2,0,P|328:316|300:380,1,119.000002269745
212,292,120563,1,0,0:0:0:0:
236,176,120722,1,0,0:0:0:0:
128,144,120882,2,0,P|52:156|0:124,1,119.000002269745
280,88,121201,2,0,P|356:76|408:108,1,119.000002269745
232,292,121520,5,0,0:0:0:0:
200,136,121680,1,0,0:0:0:0:
132,296,121839,5,0,0:0:0:0:
164,60,121999,1,0,0:0:0:0:
268,216,122158,6,0,L|388:208,1,119.000002269745
276,108,122478,5,0,0:0:0:0:
332,352,122637,1,0,0:0:0:0:
88,72,133009,5,0,0:0:0:0:
96,80,133329,5,0,0:0:0:0:
164,168,133488,1,0,0:0:0:0:
172,88,133648,1,0,0:0:0:0:
88,160,133807,1,0,0:0:0:0:
236,136,133967,1,0,0:0:0:0:
24,112,134126,1,0,0:0:0:0:
236,136,134286,2,0,L|312:128,1,52.5000020027161
408,156,134605,2,0,L|352:152,1,52.5000020027161
292,216,134924,5,0,0:0:0:0:
344,76,135084,1,0,0:0:0:0:
368,224,135244,5,0,0:0:0:0:
420,84,135404,1,0,0:0:0:0:
268,68,135563,2,0,P|232:64|196:56,1,52.5000020027161
368,224,135882,5,0,0:0:0:0:
320,288,136041,1,0,0:0:0:0:
268,68,136201,5,0,0:0:0:0:
316,132,136360,1,0,0:0:0:0:
116,192,136520,5,0,0:0:0:0:
184,156,136680,1,0,0:0:0:0:
136,260,136839,2,0,P|128:300|132:320,1,52.5000020027161
320,160,137158,5,0,0:0:0:0:
296,84,137318,1,0,0:0:0:0:
284,308,137478,1,0,0:0:0:0:
316,236,137637,1,0,0:0:0:0:
208,180,137797,1,0,0:0:0:0:
224,256,137957,1,0,0:0:0:0:
296,84,138116,6,0,L|360:80,1,52.5000020027161
140,128,138435,5,0,0:0:0:0:
60,108,138595,1,0,0:0:0:0:
224,256,138754,5,0,0:0:0:0:
304,236,138914,1,0,0:0:0:0:
136,288,139073,5,0,0:0:0:0:
136,208,139233,1,0,0:0:0:0:
216,108,139392,6,0,L|288:100,1,52.5000020027161
380,152,139712,2,0,L|308:144,1,52.5000020027161
336,64,140031,5,0,0:0:0:0:
256,176,140190,1,0,0:0:0:0:
324,220,140350,1,0,0:0:0:0:
268,28,140509,1,0,0:0:0:0:
160,84,140669,6,0,P|116:88|84:84,1,52.5000020027161
324,220,140988,5,0,0:0:0:0:
356,144,141148,1,0,0:0:0:0:
280,152,141307,1,0,0:0:0:0:
208,160,141467,1,0,0:0:0:0:
324,220,141626,2,0,P|324:246|320:272,1,52.5000020027161
208,160,141946,2,0,P|207:133|211:107,1,52.5000020027161
256,192,142265,12,0,143858,0:0:0:0:
