osu file format v14

[General]
AudioFilename: audio.mp3
AudioLeadIn: 0
PreviewTime: 167217
Countdown: 1
SampleSet: Soft
StackLeniency: 0.7
Mode: 0
LetterboxInBreaks: 0
WidescreenStoryboard: 0

[Editor]
DistanceSpacing: 2
BeatDivisor: 4
GridSize: 32
TimelineZoom: 1.2

[Metadata]
Title:Qi Cheng
TitleUnicode:啟程
Artist:Various Artists
ArtistUnicode:Various Artists
Creator:BinFhone
Version:Graduation
Source:
Tags:群星 高中生大合唱 啟程 2016啟程高中原創畢業歌合輯 Taiwanese High School Students Chorus 2016 Qi Cheng Gao Zhong Yuan Chuang Bi Ye Ge He Ji coooool
BeatmapID:1855806
BeatmapSetID:887794

[Difficulty]
HPDrainRate:7
CircleSize:4.6
OverallDifficulty:7
ApproachRate:8
SliderMultiplier:1.6
SliderTickRate:1

[Events]
//Background and Video events
Video,0,"QiCheng.mp4"
0,0,"bg.jpg",0,0
//Break Periods
//Storyboard Layer 0 (Background)
//Storyboard Layer 1 (Fail)
//Storyboard Layer 2 (Pass)
//Storyboard Layer 3 (Foreground)
//Storyboard Layer 4 (Overlay)
//Storyboard Sound Samples

[TimingPoints]
3988,833.333333333333,4,2,0,30,1,0
3988,-133.333333333333,4,2,0,30,0,0
17321,-117.647058823529,4,2,0,40,0,0
30654,-100,4,2,0,40,0,0
90654,-90.9090909090909,4,2,0,45,0,0
93987,-83.3333333333333,4,2,0,50,0,0
95862,-83.3333333333333,4,2,0,5,0,0
96071,-83.3333333333333,4,2,0,50,0,0
97321,-66.6666666666667,4,2,0,60,0,1
123987,-133.333333333333,4,2,0,30,0,0
127321,-100,4,2,0,40,0,0
147321,-83.3333333333333,4,2,0,45,0,0
153987,-90.9090909090909,4,2,0,40,0,0
160654,-83.3333333333333,4,2,0,45,0,0
163987,-76.9230769230769,4,2,0,50,0,0
167321,-66.6666666666667,4,2,0,60,0,1
193987,-83.3333333333333,4,2,0,55,0,0
223987,-40,4,2,0,50,0,0
250654,-100,4,2,0,40,0,0
251800,-100,4,2,0,5,0,0
251904,-40,4,2,0,55,0,0
253987,-33.3333333333333,4,2,0,65,0,1
265654,-25,4,2,0,70,0,1
266071,-33.3333333333333,4,2,0,65,0,1
280654,-133.333333333333,4,2,0,40,0,0
283154,-133.333333333333,4,2,0,10,0,0
283987,-200,4,2,0,20,0,0
290446,-200,4,2,0,5,0,0
290602,-200,4,2,0,20,0,0
292737,-33.3333333333333,4,2,0,60,0,0
292946,-50,4,2,0,55,0,0
293987,-25,4,2,0,70,0,1
317321,869.565217391304,4,1,0,65,1,0
317321,-28.5714285714286,4,1,0,65,0,0
318190,895.522388059701,4,1,0,60,1,0
318190,-33.3333333333333,4,1,0,60,0,0
319085,1016.94915254237,4,1,0,55,1,0
319085,-40,4,1,0,55,0,0
320101,967.741935483871,4,1,0,50,1,0
320101,-50,4,1,0,50,0,0
321068,1111.11111111111,4,1,0,40,1,0
321068,-100,4,1,0,40,0,0
321623,-100,4,1,0,5,0,0
321762,-100,4,1,0,40,0,0
325512,-100,4,1,0,10,0,0

[Colours]
Combo1 : 130,130,130
Combo2 : 118,230,235
Combo3 : 13,242,41
Combo4 : 15,105,240

[HitObjects]
319,62,3988,6,0,L|456:57,3,120.000004577637
168,154,7321,6,0,L|35:147,2,120.000004577637
323,224,9821,2,0,L|394:219,1,60.0000022888184
169,356,10654,6,0,P|144:299|169:227,3,120.000004577637
328,38,13987,6,0,P|341:96|324:165,2,120.000004577637
151,39,16487,2,0,P|148:76|153:110,1,60.0000022888184
23,346,17321,6,0,P|94:314|167:319,1,136.000002593994
150,314,18987,1,0,0:0:0:0:
287,376,19821,2,0,P|285:334|288:297,1,68.0000012969971
468,119,20654,6,0,P|409:145|330:136,1,136.000002593994
339,139,22321,2,0,L|195:126,1,136.000002593994
97,52,23571,5,0,0:0:0:0:
97,52,23779,1,0,0:0:0:0:
97,52,23987,6,0,P|104:111|86:166,1,102.000001945496
61,163,24821,2,0,P|60:198|62:242,1,68.0000012969971
11,358,25654,2,0,B|62:331|88:363|142:329,1,136.000002593994
280,134,27321,6,0,P|219:143|238:88,2,136.000002593994
497,347,30654,6,0,P|440:369|362:346,1,120
362,319,31487,2,0,P|315:305|241:318,1,120
224,357,32321,1,0,0:0:0:0:
122,310,32737,1,0,0:0:0:0:
23,361,33154,1,0,0:0:0:0:
0,157,33987,6,0,L|86:165,1,80
169,212,34821,2,0,L|267:204,1,80
340,111,35654,2,0,P|392:90|486:135,1,160
512,236,36904,1,0,0:0:0:0:
259,364,37321,6,0,P|246:309|264:240,1,120
293,233,38154,2,0,P|309:182|288:109,1,120
266,92,38987,2,0,L|145:79,1,120
105,71,39821,1,0,0:0:0:0:
7,213,40237,5,0,0:0:0:0:
7,213,40446,1,0,0:0:0:0:
7,213,40654,2,0,P|55:226|121:221,1,80
209,170,41487,1,0,0:0:0:0:
209,170,41696,2,0,B|178:164|178:164|200:271,1,120
431,354,43154,5,0,0:0:0:0:
447,250,43571,1,0,0:0:0:0:
462,140,43987,2,0,B|467:111|467:111|406:119,2,80
304,33,45237,1,0,0:0:0:0:
248,121,45654,2,0,P|243:180|251:224,1,80
324,283,46487,1,0,0:0:0:0:
348,171,46904,1,0,0:0:0:0:
233,296,47321,2,0,B|226:322|237:356|237:356|186:340|186:340|166:358|130:352,1,160
143,353,48987,1,0,0:0:0:0:
25,284,49821,6,0,L|30:240,1,40
43,206,50237,2,0,L|41:146,1,53.3333333333333
21,130,50654,2,0,P|76:134|184:115,1,160
208,80,51748,2,0,L|207:33,1,40
206,0,52112,1,0,0:0:0:0:
245,142,52390,6,0,P|302:130|367:150,1,120
386,178,53154,1,0,0:0:0:0:
484,88,53571,1,0,0:0:0:0:
367,30,53987,2,0,B|305:20|245:33|245:33|211:42|177:32|177:32|136:17|88:51|95:101,1,320
41,16,56487,6,0,P|26:47|23:78,1,40
28,123,56904,1,0,0:0:0:0:
35,153,57112,1,0,0:0:0:0:
10,233,57321,6,0,B|49:244|78:224|78:224|99:210|126:212,1,120
159,233,58154,2,0,B|179:249|213:247|229:227|229:227|256:189,1,120
267,158,58987,2,0,P|257:212|317:239,1,120
348,231,59821,2,0,P|388:243|424:322,1,120
393,377,60654,5,0,0:0:0:0:
249,304,61071,1,0,0:0:0:0:
344,313,61487,1,0,0:0:0:0:
232,384,61904,1,0,0:0:0:0:
154,284,62321,1,0,0:0:0:0:
38,366,62737,6,0,L|135:378,2,80
30,224,63987,6,0,B|82:210|82:210|73:286,1,120
109,298,64821,2,0,L|125:168,1,120
113,139,65654,2,0,B|152:157|152:157|230:135,1,106.666666666667
263,123,66487,1,0,0:0:0:0:
158,63,66904,1,0,0:0:0:0:
277,15,67321,6,0,P|325:37|352:74,1,80
356,97,67946,1,0,0:0:0:0:
361,192,68154,6,0,L|436:198,1,60
468,118,68749,2,0,L|408:125,1,45.7142857142857
361,192,69821,6,0,P|358:242|369:284,1,80
465,325,70654,5,0,0:0:0:0:
366,303,71071,1,0,0:0:0:0:
264,336,71487,1,0,0:0:0:0:
207,244,71904,1,0,0:0:0:0:
333,130,72321,1,0,0:0:0:0:
307,233,72737,1,0,0:0:0:0:
199,160,73154,1,0,0:0:0:0:
220,59,73571,1,0,0:0:0:0:
237,225,73987,1,0,0:0:0:0:
96,163,74404,1,0,0:0:0:0:
23,257,74821,6,0,P|63:277|119:282,1,80
280,270,75654,1,0,0:0:0:0:
482,16,76487,6,0,L|492:73,1,40
510,86,76904,2,0,L|503:144,1,40
482,160,77321,2,0,P|491:228|481:336,1,160
484,318,78571,1,0,0:0:0:0:
365,376,78987,6,0,P|364:317|373:276,1,80
390,259,79612,2,0,L|388:212,1,40
399,179,80029,2,0,P|345:188|305:167,1,80
361,110,80654,6,0,P|305:103|270:118,1,80
254,146,81279,1,0,0:0:0:0:
254,146,81487,2,0,L|201:144,1,40
165,140,81904,1,0,0:0:0:0:
79,67,82321,2,0,B|52:64|31:74|31:74|20:66|20:66|3:62,2,80
198,2,83571,5,0,0:0:0:0:
257,120,83987,1,0,0:0:0:0:
398,134,84404,1,0,0:0:0:0:
496,31,84821,1,0,0:0:0:0:
338,1,85237,2,0,B|324:26|324:26|333:110,1,80
353,233,86071,1,0,0:0:0:0:
512,118,86904,5,0,0:0:0:0:
512,118,87112,1,0,0:0:0:0:
497,192,87321,5,0,0:0:0:0:
512,258,87599,1,0,0:0:0:0:
462,304,87876,1,0,0:0:0:0:
473,190,88154,5,0,0:0:0:0:
484,266,88432,1,0,0:0:0:0:
431,318,88710,1,0,0:0:0:0:
361,297,88987,6,0,B|326:302|299:333|299:333|271:362|217:357,1,160
73,336,90237,6,0,L|78:298,1,20
94,321,90446,2,0,L|95:284,1,20
114,300,90654,2,0,P|108:243|99:210,1,88.000002685547
75,184,91279,2,0,L|24:176,1,44.0000013427735
0,168,91696,2,0,P|48:173|72:90,1,132.00000402832
47,42,92529,1,0,0:0:0:0:
89,25,92737,2,0,L|152:28,1,44.0000013427735
203,15,93154,5,0,0:0:0:0:
192,99,93432,5,0,0:0:0:0:
277,110,93710,5,0,0:0:0:0:
286,21,93987,6,0,P|266:65|279:114,1,95.9999970703126
267,151,94612,2,0,P|318:127|502:239,1,287.999991210938
499,304,96071,5,0,0:0:0:0:
357,290,96279,1,0,0:0:0:0:
459,384,96487,1,0,0:0:0:0:
433,249,96696,1,0,0:0:0:0:
374,378,96904,1,0,0:0:0:0:
228,119,97321,6,0,P|184:119|133:102,1,90.0000034332277
83,63,97737,2,0,B|68:88|68:88|75:170,1,90.0000034332277
83,217,98154,2,0,B|122:232|122:232|179:201,1,80.0000030517579
71,321,98849,5,0,0:0:0:0:
71,321,98987,2,0,L|12:301,1,60.0000022888184
154,356,99404,2,0,L|215:321,1,60.0000022888184
380,221,99821,1,0,0:0:0:0:
273,158,100029,2,0,P|262:245|290:312,1,120.000004577637
468,383,100654,5,0,0:0:0:0:
506,245,101071,2,0,P|504:290|500:310,1,60.0000022888184
462,181,101487,2,0,P|446:145|443:110,1,60.0000022888184
429,254,101904,2,0,P|390:272|356:275,1,60.0000022888184
256,324,102321,1,0,0:0:0:0:
219,175,102529,1,0,0:0:0:0:
281,356,102737,2,0,L|361:364,1,60.0000022888184
370,192,103154,1,0,0:0:0:0:
274,241,103571,1,0,0:0:0:0:
89,103,103987,6,0,P|135:117|182:104,1,90.0000034332277
233,60,104404,2,0,L|233:-13,1,60.0000022888184
302,109,104821,2,0,L|362:86,1,60.0000022888184
294,191,105237,2,0,L|338:244,1,60.0000022888184
250,326,105654,5,0,0:0:0:0:
390,298,105862,1,0,0:0:0:0:
294,191,106071,1,0,0:0:0:0:
173,267,106279,2,0,L|168:207,1,60.0000022888184
51,236,106696,2,0,B|38:174|78:125|78:125|89:92|92:60,1,180.000006866455
168,207,107737,6,0,P|208:213|242:208,1,60.0000022888184
104,290,108154,2,0,P|88:332|91:366,1,60.0000022888184
70,197,108571,1,0,0:0:0:0:
169,339,108779,1,0,0:0:0:0:
201,133,108987,5,0,0:0:0:0:
324,94,109196,2,0,L|319:141,1,30.0000011444092
199,103,109404,1,0,0:0:0:0:
317,161,109612,1,0,0:0:0:0:
196,70,109821,2,0,L|193:29,1,30.0000011444092
313,190,110029,2,0,P|376:185|406:121,1,120.000004577637
483,0,110654,6,0,L|490:107,1,90.0000034332277
509,160,111071,2,0,B|491:167|475:164|475:164|482:200|481:243,1,90.0000034332277
500,288,111487,2,0,P|456:286|417:257,1,80.0000030517579
272,359,112154,5,0,0:0:0:0:
272,359,112321,2,0,L|347:367,1,60.0000022888184
190,275,112737,2,0,L|121:290,1,60.0000022888184
0,384,113154,1,0,0:0:0:0:
164,350,113362,2,0,B|155:315|131:288|131:288|153:244|147:186,1,120.000004577637
89,51,113987,5,0,0:0:0:0:
222,100,114404,2,0,P|183:101|155:94,1,60.0000022888184
293,149,114821,2,0,P|301:191|299:228,1,60.0000022888184
298,65,115237,2,0,P|328:43|365:38,1,60.0000022888184
436,47,115550,1,0,0:0:0:0:
462,63,115654,5,0,0:0:0:0:
397,190,115862,2,0,L|392:125,1,60.0000022888184
508,197,116279,2,0,L|500:281,2,60.0000022888184
411,311,116904,1,0,0:0:0:0:
262,249,117112,1,0,0:0:0:0:
116,376,117321,6,0,P|126:323|122:275,1,90.0000034332277
76,227,117737,2,0,L|7:234,1,60.0000022888184
151,295,118154,2,0,L|224:300,1,60.0000022888184
334,212,118571,1,0,0:0:0:0:
201,141,118779,2,0,L|196:109,2,30.0000011444092
201,141,119196,5,0,0:0:0:0:
287,37,119404,2,0,P|245:32|207:39,1,60.0000022888184
336,104,119821,2,0,P|372:108|417:103,1,60.0000022888184
511,68,120237,1,0,0:0:0:0:
366,18,120446,1,0,0:0:0:0:
472,148,120654,6,0,P|479:220|469:261,1,90.0000034332277
429,295,121071,2,0,L|353:288,1,60.0000022888184
235,168,121487,5,0,0:0:0:0:
265,265,121696,1,0,0:0:0:0:
229,336,121904,1,0,0:0:0:0:
166,362,122112,1,0,0:0:0:0:
43,281,122321,6,0,L|42:144,1,120.000004577637
40,38,122946,1,0,0:0:0:0:
150,192,123154,5,0,0:0:0:0:
139,85,123362,1,0,0:0:0:0:
203,30,123571,1,0,0:0:0:0:
275,32,123779,1,0,0:0:0:0:
316,54,123987,6,0,P|352:89|232:245,1,300.000011444092
236,141,126279,5,0,0:0:0:0:
251,142,126383,1,0,0:0:0:0:
263,145,126487,1,0,0:0:0:0:
332,223,126696,1,0,0:0:0:0:
332,304,126904,1,0,0:0:0:0:
105,372,127321,6,0,P|98:328|131:238,1,120
196,241,128154,2,0,P|212:191|207:135,1,80
112,40,128987,1,0,0:0:0:0:
38,149,129404,1,0,0:0:0:0:
202,90,129821,2,0,L|298:86,1,80
457,148,130654,5,0,0:0:0:0:
348,122,131071,1,0,0:0:0:0:
290,259,131487,1,0,0:0:0:0:
409,242,131904,1,0,0:0:0:0:
493,354,132321,2,0,P|442:348|418:349,1,40
376,374,132737,2,0,P|405:373|429:368,1,40
303,330,133154,1,0,0:0:0:0:
192,384,133571,1,0,0:0:0:0:
61,326,133987,6,0,B|61:338|68:347|68:347|99:323|76:235,1,120
29,193,134821,2,0,P|81:182|125:168,1,80
226,93,135654,1,0,0:0:0:0:
136,1,136071,1,0,0:0:0:0:
186,163,136487,1,0,0:0:0:0:
29,44,136904,5,0,0:0:0:0:
29,44,137112,1,0,0:0:0:0:
29,44,137321,2,0,P|31:104|40:147,1,80
102,256,138154,5,0,0:0:0:0:
114,187,138432,5,0,0:0:0:0:
48,212,138710,5,0,0:0:0:0:
91,324,138987,5,0,0:0:0:0:
3,368,139196,2,0,L|3:323,1,40
180,210,139821,2,0,L|180:257,1,40
180,345,140237,1,0,0:0:0:0:
374,268,140654,5,0,0:0:0:0:
271,196,141071,1,0,0:0:0:0:
306,347,141487,1,0,0:0:0:0:
442,359,141904,1,0,0:0:0:0:
503,214,142321,1,0,0:0:0:0:
402,147,142737,1,0,0:0:0:0:
512,34,143154,1,0,0:0:0:0:
490,135,143571,1,0,0:0:0:0:
375,11,143987,5,0,0:0:0:0:
285,92,144404,1,0,0:0:0:0:
370,177,144821,1,0,0:0:0:0:
461,95,145237,2,0,L|401:81,1,40
341,102,145654,2,0,L|394:96,1,40
289,162,146071,1,0,0:0:0:0:
138,88,146487,5,0,0:0:0:0:
63,110,146696,1,0,0:0:0:0:
22,178,146904,1,0,0:0:0:0:
26,257,147112,1,0,0:0:0:0:
84,314,147321,6,0,L|186:302,1,95.9999970703126
336,288,148154,1,0,0:0:0:0:
244,161,148571,1,0,0:0:0:0:
244,161,148779,1,0,0:0:0:0:
244,161,148987,2,0,L|247:225,1,47.9999985351563
251,298,149404,1,0,0:0:0:0:
379,196,149821,2,0,P|354:194|323:197,2,47.9999985351563
464,315,150654,6,0,P|462:248|470:202,1,95.9999970703126
487,127,151279,1,0,0:0:0:0:
421,49,151487,1,0,0:0:0:0:
512,25,151696,2,0,P|454:49|382:39,1,95.9999970703126
303,24,152321,5,0,0:0:0:0:
340,109,152529,2,0,P|285:115|248:98,1,95.9999970703126
176,7,153154,1,0,0:0:0:0:
222,215,153571,1,0,0:0:0:0:
20,151,153987,5,0,0:0:0:0:
131,89,154404,2,0,P|143:146|140:186,1,88.000002685547
45,290,155237,2,0,L|-8:296,2,44.0000013427735
171,364,156071,2,0,L|215:370,1,44.0000013427735
288,316,156487,2,0,L|350:307,1,44.0000013427735
434,373,156904,1,0,0:0:0:0:
434,373,157112,1,0,0:0:0:0:
491,286,157321,6,0,P|492:261|490:204,1,66.0000020141602
478,203,157737,2,0,L|420:190,1,44.0000013427735
347,175,158154,6,0,P|346:192|349:215,1,29.3333342285157
279,214,158432,2,0,P|283:238|295:261,1,29.3333342285157
223,271,158710,2,0,P|237:294|258:311,1,29.3333342285157
311,312,158987,1,0,0:0:0:0:
208,360,159196,6,0,P|179:360|98:340,1,88.000002685547
51,289,159821,1,0,0:0:0:0:
58,208,160029,1,0,0:0:0:0:
62,171,160237,1,0,0:0:0:0:
15,27,160654,6,0,B|47:39|47:39|127:27,1,95.9999970703126
166,83,161279,2,0,L|239:93,1,47.9999985351563
280,40,161696,2,0,P|300:88|354:120,1,95.9999970703126
372,123,162217,1,0,0:0:0:0:
372,123,162321,1,0,0:0:0:0:
460,106,162529,1,0,0:0:0:0:
415,25,162737,2,0,P|376:30|346:43,1,47.9999985351563
297,84,163154,5,0,0:0:0:0:
300,184,163432,5,0,0:0:0:0:
175,190,163710,5,0,0:0:0:0:
167,93,163987,6,0,P|187:146|170:196,1,103.999995239258
106,246,164612,1,0,0:0:0:0:
11,180,164821,5,0,0:0:0:0:
106,147,165029,1,0,0:0:0:0:
186,165,165237,1,0,0:0:0:0:
235,214,165446,1,0,0:0:0:0:
212,311,165654,6,0,P|212:257|250:199,1,103.999995239258
303,155,166279,1,0,0:0:0:0:
429,215,166487,5,0,0:0:0:0:
334,242,166696,1,0,0:0:0:0:
296,317,166904,2,0,L|306:373,1,51.999997619629
506,380,167321,6,0,B|512:349|512:349|498:273,1,90.0000034332277
445,247,167737,2,0,B|435:263|432:278|432:278|425:200,1,90.0000034332277
491,192,168154,2,0,B|504:153|504:153|492:110,1,80.0000030517579
370,20,168779,1,0,0:0:0:0:
340,142,168987,6,0,P|382:149|425:139,1,60.0000022888184
289,59,169404,2,0,P|263:53|219:58,1,60.0000022888184
25,143,169821,1,0,0:0:0:0:
65,38,170029,2,0,P|106:66|129:100,1,60.0000022888184
94,225,170446,2,0,P|106:180|132:156,1,60.0000022888184
331,86,171071,6,0,L|336:11,1,60.0000022888184
254,162,171487,2,0,L|249:92,1,60.0000022888184
325,231,171904,2,0,L|333:153,1,60.0000022888184
254,303,172321,1,0,0:0:0:0:
181,208,172529,1,0,0:0:0:0:
88,332,172737,2,0,P|131:322|172:301,1,60.0000022888184
13,248,173154,2,0,L|18:328,1,60.0000022888184
88,154,173571,2,0,L|94:86,1,60.0000022888184
279,25,173987,6,0,P|212:21|180:49,1,90.0000034332277
242,87,174404,2,0,L|245:156,1,60.0000022888184
159,269,174821,2,0,L|235:197,1,60.0000022888184
342,253,175237,2,0,L|275:212,1,60.0000022888184
162,150,175654,5,0,0:0:0:0:
329,144,175862,1,0,0:0:0:0:
250,303,176071,1,0,0:0:0:0:
242,87,176279,2,0,L|239:28,1,60.0000022888184
409,100,176696,2,0,L|400:179,2,60.0000022888184
510,1,177321,6,0,P|503:69|508:105,1,90.0000034332277
512,165,177737,2,0,L|489:231,1,60.0000022888184
448,338,178154,2,0,L|514:307,1,60.0000022888184
376,278,178571,2,0,L|293:270,1,60.0000022888184
187,356,178987,5,0,0:0:0:0:
56,237,179196,2,0,L|97:242,1,30.0000011444092
151,361,179404,1,0,0:0:0:0:
127,249,179612,1,0,0:0:0:0:
113,368,179821,2,0,L|57:376,1,30.0000011444092
166,256,180029,2,0,P|212:241|283:240,1,120.000004577637
439,166,180654,6,0,B|412:182|412:182|351:171,1,90.0000034332277
298,124,181071,2,0,B|263:115|263:115|204:132,1,90.0000034332277
156,177,181487,2,0,B|137:142|137:142|148:89,1,80.0000030517579
0,23,182112,1,0,0:0:0:0:
43,158,182321,6,0,L|61:83,1,60.0000022888184
0,241,182737,2,0,L|14:307,1,60.0000022888184
189,356,183154,1,0,0:0:0:0:
119,291,183362,2,0,P|101:315|94:359,1,60.0000022888184
275,308,183779,2,0,P|254:281|223:265,1,60.0000022888184
429,303,184404,6,0,L|419:384,1,60.0000022888184
342,217,184821,2,0,L|353:289,1,60.0000022888184
427,126,185237,2,0,L|412:201,1,60.0000022888184
352,33,185654,5,0,0:0:0:0:
507,94,185862,2,0,P|509:126|499:168,1,60.0000022888184
338,219,186279,2,0,P|331:188|336:146,2,60.0000022888184
459,321,186904,1,0,0:0:0:0:
427,126,187112,1,0,0:0:0:0:
331,365,187321,6,0,P|286:375|231:374,1,90.0000034332277
168,324,187737,2,0,L|170:384,1,60.0000022888184
33,349,188154,2,0,L|40:263,1,60.0000022888184
55,115,188571,1,0,0:0:0:0:
161,235,188779,2,0,L|199:242,2,30.0000011444092
161,235,189196,5,0,0:0:0:0:
242,103,189404,6,0,P|243:148|226:187,1,60.0000022888184
94,100,189821,2,0,P|82:74|84:17,1,60.0000022888184
306,15,190237,1,0,0:0:0:0:
167,129,190446,1,0,0:0:0:0:
379,216,190654,5,0,0:0:0:0:
379,216,190862,1,0,0:0:0:0:
274,143,191071,6,0,P|267:204|273:225,1,60.0000022888184
331,345,191487,2,0,P|331:302|325:257,1,60.0000022888184
163,212,191904,1,0,0:0:0:0:
230,315,192112,1,0,0:0:0:0:
33,366,192321,6,0,P|26:322|38:264,1,60.0000022888184
80,159,192737,2,0,P|83:115|75:71,1,60.0000022888184
6,237,193154,1,0,0:0:0:0:
104,292,193362,1,0,0:0:0:0:
193,275,193571,2,0,P|220:249|241:213,1,60.0000022888184
194,53,193987,6,0,B|165:150|234:232|234:232|271:198|323:212|323:212|382:205|389:155|389:155|327:94|369:-4|466:19,1,575.999982421876
512,210,196904,1,0,0:0:0:0:
509,234,197112,1,0,0:0:0:0:
434,90,197321,6,0,B|373:60|293:82|272:143|272:143|248:98|198:85|198:85|196:140|150:161|150:161|106:141|106:141|14:144|5:247,1,575.999982421876
132,358,200237,1,0,0:0:0:0:
156,365,200446,1,0,0:0:0:0:
98,220,200654,6,0,P|84:234|92:258,1,47.9999985351563
176,157,201071,1,0,0:0:0:0:
103,93,201279,1,0,0:0:0:0:
187,250,201487,6,0,L|247:256,1,47.9999985351563
374,210,201904,1,0,0:0:0:0:
318,113,202112,1,0,0:0:0:0:
313,264,202321,2,0,L|321:328,1,47.9999985351563
407,356,202737,2,0,L|414:305,1,47.9999985351563
493,247,203154,1,0,0:0:0:0:
435,91,203571,2,0,P|430:126|437:152,1,47.9999985351563
502,25,203987,6,0,P|457:1|376:24,1,95.9999970703126
332,65,204612,1,0,0:0:0:0:
105,18,204821,5,0,0:0:0:0:
214,68,205029,1,0,0:0:0:0:
164,177,205237,1,0,0:0:0:0:
55,126,205446,1,0,0:0:0:0:
393,117,205654,5,0,0:0:0:0:
284,167,205862,1,0,0:0:0:0:
334,276,206071,1,0,0:0:0:0:
443,225,206279,1,0,0:0:0:0:
105,212,206487,5,0,0:0:0:0:
214,262,206695,1,0,0:0:0:0:
164,371,206903,1,0,0:0:0:0:
55,320,207112,1,0,0:0:0:0:
300,362,207321,6,0,P|360:364|389:367,1,47.9999985351563
481,306,207737,2,0,P|444:305|416:307,1,47.9999985351563
308,237,208154,2,0,P|305:178|319:125,1,95.9999970703126
312,142,208779,1,0,0:0:0:0:
420,47,208987,5,0,0:0:0:0:
512,119,209196,1,0,0:0:0:0:
408,173,209404,2,0,P|358:169|329:147,1,71.9999978027344
408,173,209821,2,0,P|383:118|384:102,1,47.9999985351563
499,42,210237,1,0,0:0:0:0:
483,189,210446,1,0,0:0:0:0:
340,70,210654,5,0,0:0:0:0:
246,38,210862,1,0,0:0:0:0:
162,109,211071,2,0,L|165:174,1,47.9999985351563
71,25,211487,6,0,P|60:106|73:164,1,95.9999970703126
110,218,212112,1,0,0:0:0:0:
206,252,212321,1,0,0:0:0:0:
162,109,212529,1,0,0:0:0:0:
30,202,212737,6,0,L|24:251,1,47.9999985351563
134,366,213154,2,0,L|129:309,1,47.9999985351563
24,351,213571,1,0,0:0:0:0:
237,326,213779,1,0,0:0:0:0:
124,179,213987,6,0,P|155:182|199:180,1,47.9999985351563
270,80,214404,2,0,P|251:105|231:144,1,47.9999985351563
289,254,214821,2,0,P|276:225|252:188,1,47.9999985351563
156,91,215237,1,0,0:0:0:0:
197,271,215446,1,0,0:0:0:0:
332,143,215654,1,0,0:0:0:0:
242,119,215862,5,0,0:0:0:0:
267,210,216071,1,0,0:0:0:0:
358,233,216279,1,0,0:0:0:0:
439,73,216487,5,0,0:0:0:0:
509,136,216696,1,0,0:0:0:0:
445,204,216904,1,0,0:0:0:0:
375,142,217112,1,0,0:0:0:0:
507,284,217321,6,0,P|508:341|499:374,1,47.9999985351563
404,317,217737,2,0,P|395:346|382:372,1,47.9999985351563
293,291,218154,1,0,0:0:0:0:
256,190,218362,1,0,0:0:0:0:
258,315,218571,5,0,0:0:0:0:
215,323,218710,5,0,0:0:0:0:
173,311,218849,5,0,0:0:0:0:
144,279,218987,5,0,0:0:0:0:
130,191,219196,1,0,0:0:0:0:
42,203,219404,1,0,0:0:0:0:
54,291,219612,1,0,0:0:0:0:
144,170,219821,5,0,0:0:0:0:
168,54,220030,1,0,0:0:0:0:
190,57,220133,1,0,0:0:0:0:
211,61,220238,1,0,0:0:0:0:
342,84,220446,1,0,0:0:0:0:
445,334,220654,5,0,0:0:0:0:
318,239,220862,1,0,0:0:0:0:
429,224,221071,1,0,0:0:0:0:
334,350,221279,1,0,0:0:0:0:
192,144,221487,5,0,0:0:0:0:
303,128,221696,1,0,0:0:0:0:
208,255,221904,1,0,0:0:0:0:
66,49,222112,5,0,0:0:0:0:
97,270,222321,1,0,0:0:0:0:
81,159,222529,1,0,0:0:0:0:
112,381,222737,5,0,0:0:0:0:
223,366,222946,1,0,0:0:0:0:
414,113,223154,5,0,0:0:0:0:
398,2,223362,1,0,0:0:0:0:
287,16,223571,1,0,0:0:0:0:
176,33,223779,1,0,0:0:0:0:
32,147,223987,6,0,B|70:209|145:187|145:187|199:167|259:197,1,228.571428571429
420,313,224821,1,0,0:0:0:0:
462,190,225154,2,0,P|374:197|310:249,1,160
192,382,226071,2,0,P|197:311|92:236,1,200
97,340,226765,1,0,0:0:0:0:
70,117,227154,2,0,L|62:34,1,80
349,10,227797,6,0,P|339:79|337:183,1,171.428571428571
412,336,228617,1,0,0:0:0:0:
479,223,228987,2,0,B|403:200|329:217|329:217|257:237|173:210|173:210|224:207|271:180,1,400
363,65,230237,2,0,P|422:67|495:36,2,100
187,1,231117,6,0,P|176:100|141:86,1,177.777777777778
9,0,231904,1,0,0:0:0:0:
34,238,232321,2,0,P|48:169|45:113,1,114.285714285714
0,335,232946,2,0,P|70:333|110:305,1,100
171,198,233432,2,0,B|140:286|216:342|291:308|291:308|254:293|242:248,1,266.666666666667
339,80,234404,6,0,B|350:157|330:209|330:209|367:168|439:164,1,200
512,273,235237,1,0,0:0:0:0:
512,108,235602,6,0,P|449:97|392:109,1,100
258,163,236227,2,0,P|258:113|233:52,1,100
101,76,236644,2,0,P|43:151|124:136,1,225
171,21,237321,5,0,0:0:0:0:
0,230,237737,2,0,B|70:273|144:237|144:237|195:271,1,200
326,362,238432,1,0,0:0:0:0:
311,152,238821,2,0,L|296:240,1,80
476,62,239404,1,0,0:0:0:0:
234,8,239821,1,0,0:0:0:0:
90,86,240099,2,0,P|172:127|248:86,1,166.666666666667
321,7,240654,5,0,0:0:0:0:
55,12,241123,2,0,B|51:75|56:180|56:180|38:135,1,200
124,309,241904,1,0,0:0:0:0:
250,150,242321,2,0,P|260:84|279:23,1,114.285714285714
344,193,242946,2,0,P|343:232|353:300,1,100
452,126,243392,2,0,B|478:97|446:53|446:53|394:112|481:170|464:282,1,285.714285714286
209,176,244404,6,0,P|249:270|191:355,1,200
85,174,245237,1,0,0:0:0:0:
54,285,245446,2,0,L|169:259,1,100
271,68,246071,6,0,P|338:16|443:55,1,200
261,178,246904,1,0,0:0:0:0:
374,214,247112,2,0,L|361:106,1,100
500,309,247737,6,0,B|432:309|432:309|386:329|336:324|304:296,2,200
289,187,248987,2,0,P|238:208|215:356,1,200
374,214,249821,2,0,P|377:172|308:97,1,133.333333333333
104,115,250446,1,0,0:0:0:0:
104,115,250654,6,0,B|116:131|104:146|79:140|60:119|75:81|105:73|135:86|143:108|138:135|80:161|111:233,1,220
161,320,251904,5,0,0:0:0:0:
281,133,252112,1,0,0:0:0:0:
403,350,252321,2,0,P|405:286|396:221,1,100
189,196,252737,1,0,0:0:0:0:
295,367,253015,5,0,0:0:0:0:
298,360,253085,5,0,0:0:0:0:
301,352,253154,5,0,0:0:0:0:
208,277,253362,1,0,0:0:0:0:
109,313,253571,1,0,0:0:0:0:
81,383,253779,1,0,0:0:0:0:
0,229,253987,6,0,L|2:88,1,120.000004577637
125,3,254404,2,0,P|188:56|258:59,1,120.000004577637
387,35,254821,2,0,B|448:26|448:26|432:62,1,80.0000030517579
502,140,255099,2,0,B|502:196|502:196|482:172,1,80.0000030517579
371,354,255446,1,0,0:0:0:0:
304,235,255654,6,0,P|366:216|459:239,1,120.000004577637
233,343,256071,2,0,P|180:325|125:280,1,120.000004577637
61,67,256487,1,0,0:0:0:0:
0,326,256765,2,0,B|-14:374|-14:374|189:311,1,240.000009155274
377,247,257321,5,0,0:0:0:0:
125,41,257737,2,0,P|65:26|-6:27,1,120.000004577637
227,126,258154,2,0,P|182:145|107:158,1,120.000004577637
332,35,258571,2,0,P|278:21|206:13,1,120.000004577637
409,147,258987,1,0,0:0:0:0:
512,22,259196,1,0,0:0:0:0:
302,179,259404,2,0,P|291:236|327:313,1,120.000004577637
507,228,259821,2,0,B|453:203|411:234|411:234|446:240|463:231,1,120.000004577637
288,375,260237,2,0,B|342:400|384:369|384:369|349:363|332:372,1,120.000004577637
45,244,260654,6,0,L|40:380,1,120.000004577637
122,138,261071,2,0,P|123:91|136:14,1,120.000004577637
219,175,261487,2,0,P|220:128|233:51,1,120.000004577637
315,216,261904,2,0,P|316:169|329:92,1,120.000004577637
408,257,262321,1,0,0:0:0:0:
462,64,262529,2,0,B|473:32|473:32|494:79|475:160,1,120.000004577637
446,349,262946,1,0,0:0:0:0:
267,282,263154,1,0,0:0:0:0:
125,367,263362,2,0,P|71:379|-6:374,1,120.000004577637
0,14,263987,5,0,0:0:0:0:
159,38,264196,2,0,L|233:52,1,60.0000022888184
56,157,264404,1,0,0:0:0:0:
245,56,264612,1,0,0:0:0:0:
130,280,264821,2,0,L|270:260,1,120.000004577637
403,99,265237,1,0,0:0:0:0:
387,241,265446,1,0,0:0:0:0:
161,140,265654,6,0,B|145:111|159:71|159:71|165:97|184:114,1,80
313,165,265862,2,0,B|329:194|315:234|315:234|309:208|290:191,1,80
223,20,266071,1,0,0:0:0:0:
241,275,266279,1,0,0:0:0:0:
304,31,266487,2,0,P|323:50|335:89,1,60.0000022888184
168,235,266696,2,0,B|126:195|108:144|122:81|122:81|114:129|89:164|17:172,1,300.000011444092
31,75,267321,6,0,B|28:54|28:54|128:83,1,120.000004577637
304,31,267737,2,0,B|275:52|275:52|177:26,1,120.000004577637
286,165,268154,2,0,P|293:207|270:266,1,80.0000030517579
227,358,268432,2,0,P|276:328|321:326,1,80.0000030517579
507,367,268779,1,0,0:0:0:0:
381,162,268987,6,0,P|434:106|508:89,1,120.000004577637
311,74,269404,2,0,P|261:57|211:6,1,120.000004577637
116,247,269821,1,0,0:0:0:0:
43,63,270099,2,0,B|74:120|51:188|51:188|85:150|138:163,1,200.000007629395
302,186,270654,5,0,0:0:0:0:
117,377,271071,2,0,P|53:376|-19:342,1,120.000004577637
240,265,271487,2,0,P|171:266|98:290,1,120.000004577637
355,377,271904,2,0,P|293:375|236:357,1,120.000004577637
452,262,272321,6,0,B|461:301|461:301|442:347,1,80.0000030517579
426,163,272599,1,0,0:0:0:0:
512,110,272737,2,0,P|516:67|504:10,1,80.0000030517579
508,24,272946,5,0,0:0:0:0:
503,19,273015,6,0,L|404:14,1,80.0000030517579
219,0,273362,2,0,B|175:14|154:60|154:60|136:98|163:129|213:97|191:65|154:60|154:60|99:54|58:86,1,300.000011444092
15,27,273987,6,0,P|33:135|29:191,1,120.000004577637
14,360,274404,2,0,B|4:313|4:313|16:268|16:268|25:311,1,120.000004577637
112,166,274821,2,0,B|122:213|122:213|110:258|110:258|101:215,1,120.000004577637
44,88,275237,1,0,0:0:0:0:
94,337,275446,1,0,0:0:0:0:
218,169,275654,6,0,L|221:30,1,120.000004577637
444,36,276071,2,0,B|402:68|360:58|360:58|391:46,1,120.000004577637
500,166,276487,2,0,B|455:186|415:162|415:162|454:164,1,120.000004577637
478,304,276904,1,0,0:0:0:0:
323,140,277112,1,0,0:0:0:0:
219,313,277321,6,0,L|367:284,1,120.000004577637
116,230,277737,2,0,P|57:249|-11:279,1,120.000004577637
124,132,278154,2,0,P|65:151|-3:181,1,120.000004577637
133,33,278571,2,0,P|74:52|6:82,1,120.000004577637
199,191,278987,6,0,B|234:199|234:199|341:170,1,120.000004577637
484,51,279404,2,0,B|449:43|449:43|342:72,1,120.000004577637
478,165,279821,6,0,L|415:151,1,60.0000022888184
277,96,280029,2,0,L|206:77,1,60.0000022888184
84,21,280237,1,0,0:0:0:0:
102,251,280446,1,0,0:0:0:0:
314,301,280654,6,0,B|345:291|342:266|309:254|268:267|263:309|285:339|317:343|343:333|343:333|387:317|443:344|443:344|471:311|462:245,1,360.000013732911
399,149,283987,5,0,0:0:0:0:
319,177,284404,2,0,P|293:176|271:170,1,40
249,160,285029,1,0,0:0:0:0:
222,141,285237,1,0,0:0:0:0:
190,133,285446,2,0,L|159:129,1,20
128,205,286071,2,0,L|186:204,1,40
232,257,286904,2,0,L|266:261,1,20
285,263,287321,1,0,0:0:0:0:
235,335,287737,2,0,L|184:338,2,40
322,328,288987,1,0,0:0:0:0:
405,352,289404,2,0,B|413:335|410:308|410:308|407:279|420:251,1,100
432,231,290602,2,0,L|432:224,2,5
432,231,292737,6,0,P|437:170|430:135,1,60.0000022888184
369,58,292946,2,0,P|365:100|369:127,1,40
467,19,293154,5,0,0:0:0:0:
287,1,293362,1,0,0:0:0:0:
182,68,293571,1,0,0:0:0:0:
132,140,293779,1,0,0:0:0:0:
125,156,293987,6,0,P|226:328|329:156,1,480
227,211,294821,2,0,P|367:266|331:39,1,480
125,156,295654,5,0,0:0:0:0:
329,157,295862,1,0,0:0:0:0:
227,211,296071,2,0,L|226:40,1,160
293,247,296487,2,0,P|180:271|229:135,1,320
441,343,297321,6,0,B|378:294|378:294|333:394|160:407|93:317|93:317|23:382,1,480
140,17,298154,2,0,B|116:152|228:214|228:214|360:153|325:4,1,480
432,185,298987,5,0,0:0:0:0:
234,80,299196,1,0,0:0:0:0:
35,179,299404,2,0,P|84:264|146:314,1,160
432,185,299821,2,0,B|423:99|330:55|249:104|249:104|295:178,1,320
0,335,300654,6,0,B|42:379|145:383|145:383|162:322|108:240|108:240|249:203|314:270,1,480
512,49,301487,2,0,B|470:5|367:1|367:1|350:62|404:144|404:144|263:181|198:114,1,480
64,24,302321,5,0,0:0:0:0:
250,18,302529,1,0,0:0:0:0:
0,132,302737,2,0,P|-7:221|12:305,1,160
242,226,303154,5,0,0:0:0:0:
116,184,303362,1,0,0:0:0:0:
109,319,303571,1,0,0:0:0:0:
239,361,303779,1,0,0:0:0:0:
414,153,303987,6,0,B|428:99|384:54|384:54|323:99|302:193|375:274,1,320
477,316,304612,1,0,0:0:0:0:
235,223,304821,6,0,B|139:209|47:305|47:305|84:191|154:185,1,320
169,82,305446,1,0,0:0:0:0:
263,316,305654,6,0,B|291:361|364:380|364:380|386:267|409:184,1,320
462,43,306279,1,0,0:0:0:0:
482,280,306487,5,0,0:0:0:0:
321,133,306696,2,0,L|312:39,1,80
219,90,306904,2,0,P|314:141|298:43,1,240
146,23,307321,6,0,B|109:93|131:193|195:226|195:226|145:238|99:302|99:302|36:247|22:169,1,480
314,295,308154,2,0,B|263:290|263:290|201:311|180:333|170:354|170:354|348:372|348:372|403:340|405:289|386:251,1,480
276,98,308987,5,0,0:0:0:0:
84,15,309196,1,0,0:0:0:0:
139,137,309404,2,0,P|193:79|216:3,1,160
142,245,309821,2,0,B|256:201|294:92|294:92|183:56,1,320
129,354,310654,6,0,B|279:315|356:197|356:197|417:212|433:290|433:290|399:314|353:300,1,480
142,245,311487,2,0,B|78:245|28:302|28:302|84:273|84:141|28:110|28:110|78:167|144:167|144:167,1,480
291,59,312321,5,0,0:0:0:0:
131,28,312529,1,0,0:0:0:0:
282,168,312737,2,0,P|346:153|395:53,1,160
264,271,313154,2,0,P|431:215|495:86,1,320
414,328,313987,6,0,B|323:252|181:251|91:327|91:327|160:280|161:208,1,480
77,64,314821,2,0,B|42:55|12:80|12:80|77:124|177:56|177:56|251:141|390:117,1,480
499,14,315654,5,0,0:0:0:0:
497,191,315862,1,0,0:0:0:0:
306,90,316071,2,0,P|248:98|154:163,1,160
305,277,316487,2,0,P|209:264|-11:354,1,320
471,379,317321,6,0,P|486:238|482:84,1,280.000002670288
374,6,317973,1,0,0:0:0:0:
366,357,318190,6,0,P|379:250|372:102,1,240.000009155274
268,32,318861,1,0,0:0:0:0:
266,334,319085,6,0,P|280:251|272:125,1,200
166,63,319847,1,0,0:0:0:0:
164,310,320101,6,0,P|178:234|167:153,1,160
66,266,321068,6,0,P|74:227|60:184,1,80
256,192,321762,12,0,325512,0:0:0:0:
