osu file format v14

[General]
AudioFilename: audio.mp3
AudioLeadIn: 0
PreviewTime: -1
Countdown: 0
SampleSet: Normal
StackLeniency: 0.7
Mode: 3
LetterboxInBreaks: 0
SpecialStyle: 0
WidescreenStoryboard: 0

[Editor]
Bookmarks: 248366
DistanceSpacing: 0.8
BeatDivisor: 6
GridSize: 16
TimelineZoom: 3.099998

[Metadata]
Title:Pilipinas Dan Course
TitleUnicode:Pilipinas Dan Course
Artist:Various Artists
ArtistUnicode:Various Artists
Creator:arge-
Version:Lominal
Source:
Tags:philippines filipino music dan course pinas philippines number one
BeatmapID:1928998
BeatmapSetID:923680

[Difficulty]
HPDrainRate:8
CircleSize:4
OverallDifficulty:8
ApproachRate:5
SliderMultiplier:1.4
SliderTickRate:1

[Events]
//Background and Video events
0,0,"Lominal.png",0,0
//Break Periods
2,51377,60494
2,118465,127565
2,180667,189063
//Storyboard Layer 0 (Background)
//Storyboard Layer 1 (Fail)
//Storyboard Layer 2 (Pass)
//Storyboard Layer 3 (Foreground)
//Storyboard Sound Samples

[TimingPoints]
4946.02177264718,447.761194029851,4,1,0,5,1,0
61694,447.761194029851,4,1,0,5,1,0
128886,306.122448979592,4,1,0,5,1,0
128886,-147.058823529412,4,1,0,5,0,0
190323,306.122448979592,4,1,0,5,1,0
190323,-147.058823529412,4,1,0,5,0,0
209884,400,4,1,0,5,1,0
209984,-111.111111111111,4,1,0,5,0,0
222805,306.122448979592,4,1,0,5,1,0
222805,-147.058823529412,4,1,0,5,0,0

[HitObjects]
448,192,4722,5,0,0:0:0:0:
448,192,4834,1,0,0:0:0:0:
448,192,4946,1,0,0:0:0:0:
64,192,5169,1,0,0:0:0:0:
192,192,5169,1,0,0:0:0:0:
320,192,5169,1,0,0:0:0:0:
448,192,5393,1,0,0:0:0:0:
320,192,5393,1,0,0:0:0:0:
192,192,5393,1,0,0:0:0:0:
64,192,5617,1,0,0:0:0:0:
64,192,5729,1,0,0:0:0:0:
64,192,5841,1,0,0:0:0:0:
448,192,6065,1,0,0:0:0:0:
320,192,6065,1,0,0:0:0:0:
64,192,6065,1,0,0:0:0:0:
64,192,6289,1,0,0:0:0:0:
192,192,6289,1,0,0:0:0:0:
448,192,6289,1,0,0:0:0:0:
320,192,6513,1,0,0:0:0:0:
320,192,6625,1,0,0:0:0:0:
64,192,6737,1,0,0:0:0:0:
64,192,6849,1,0,0:0:0:0:
448,192,6960,1,0,0:0:0:0:
448,192,7072,1,0,0:0:0:0:
192,192,7184,1,0,0:0:0:0:
192,192,7296,1,0,0:0:0:0:
320,192,7408,1,0,0:0:0:0:
320,192,7520,1,0,0:0:0:0:
448,192,7632,1,0,0:0:0:0:
192,192,7632,1,0,0:0:0:0:
320,192,7632,1,0,0:0:0:0:
64,192,7632,1,0,0:0:0:0:
64,192,7856,1,0,0:0:0:0:
192,192,7856,1,0,0:0:0:0:
448,192,7856,1,0,0:0:0:0:
448,192,8080,1,0,0:0:0:0:
320,192,8080,1,0,0:0:0:0:
64,192,8080,1,0,0:0:0:0:
192,192,8304,1,0,0:0:0:0:
192,192,8416,1,0,0:0:0:0:
192,192,8528,1,0,0:0:0:0:
320,192,8751,1,0,0:0:0:0:
64,192,8751,1,0,0:0:0:0:
448,192,8751,1,0,0:0:0:0:
64,192,8975,1,0,0:0:0:0:
320,192,8975,1,0,0:0:0:0:
192,192,8975,1,0,0:0:0:0:
448,192,9199,1,0,0:0:0:0:
448,192,9311,1,0,0:0:0:0:
448,192,9423,1,0,0:0:0:0:
64,192,9647,1,0,0:0:0:0:
192,192,9647,1,0,0:0:0:0:
320,192,9647,1,0,0:0:0:0:
192,192,9871,1,0,0:0:0:0:
320,192,9871,1,0,0:0:0:0:
448,192,9871,1,0,0:0:0:0:
320,192,10095,1,0,0:0:0:0:
192,192,10095,1,0,0:0:0:0:
64,192,10095,1,0,0:0:0:0:
64,192,10319,1,0,0:0:0:0:
192,192,10319,1,0,0:0:0:0:
320,192,10319,1,0,0:0:0:0:
448,192,10319,1,0,0:0:0:0:
448,192,10543,1,0,0:0:0:0:
320,192,10543,1,0,0:0:0:0:
448,192,10654,1,0,0:0:0:0:
448,192,10766,1,0,0:0:0:0:
64,192,10990,1,0,0:0:0:0:
192,192,10990,1,0,0:0:0:0:
64,192,11102,1,0,0:0:0:0:
64,192,11214,1,0,0:0:0:0:
192,192,11438,1,0,0:0:0:0:
320,192,11438,1,0,0:0:0:0:
320,192,11662,1,0,0:0:0:0:
192,192,11662,1,0,0:0:0:0:
64,192,11886,1,0,0:0:0:0:
320,192,11886,1,0,0:0:0:0:
64,192,11998,1,0,0:0:0:0:
320,192,11998,1,0,0:0:0:0:
448,192,12222,1,0,0:0:0:0:
192,192,12222,1,0,0:0:0:0:
64,192,12222,1,0,0:0:0:0:
320,192,12446,1,0,0:0:0:0:
192,192,12446,1,0,0:0:0:0:
64,192,12446,1,0,0:0:0:0:
448,192,12669,1,0,0:0:0:0:
448,192,12781,1,0,0:0:0:0:
448,192,12893,1,0,0:0:0:0:
448,192,13117,1,0,0:0:0:0:
192,192,13117,1,0,0:0:0:0:
64,192,13117,1,0,0:0:0:0:
320,192,13341,1,0,0:0:0:0:
192,192,13341,1,0,0:0:0:0:
64,192,13341,1,0,0:0:0:0:
448,192,13565,1,0,0:0:0:0:
192,192,13565,1,0,0:0:0:0:
448,192,13677,1,0,0:0:0:0:
192,192,13677,1,0,0:0:0:0:
448,192,13789,1,0,0:0:0:0:
192,192,13789,1,0,0:0:0:0:
320,192,14013,1,0,0:0:0:0:
320,192,14125,1,0,0:0:0:0:
64,192,14237,1,0,0:0:0:0:
64,192,14349,1,0,0:0:0:0:
192,192,14460,1,0,0:0:0:0:
192,192,14572,1,0,0:0:0:0:
448,192,14684,1,0,0:0:0:0:
448,192,14908,1,0,0:0:0:0:
320,192,14908,1,0,0:0:0:0:
192,192,14908,1,0,0:0:0:0:
64,192,14908,1,0,0:0:0:0:
448,192,15132,1,0,0:0:0:0:
320,192,15132,1,0,0:0:0:0:
192,192,15132,1,0,0:0:0:0:
64,192,15132,1,0,0:0:0:0:
448,192,15356,1,0,0:0:0:0:
448,192,15468,1,0,0:0:0:0:
448,192,15580,1,0,0:0:0:0:
448,192,15804,1,0,0:0:0:0:
320,192,15804,1,0,0:0:0:0:
192,192,15804,1,0,0:0:0:0:
64,192,16028,1,0,0:0:0:0:
192,192,16028,1,0,0:0:0:0:
448,192,16028,1,0,0:0:0:0:
320,192,16251,1,0,0:0:0:0:
320,192,16363,1,0,0:0:0:0:
320,192,16475,1,0,0:0:0:0:
64,192,16699,1,0,0:0:0:0:
192,192,16699,1,0,0:0:0:0:
448,192,16699,1,0,0:0:0:0:
448,192,16923,1,0,0:0:0:0:
192,192,16923,1,0,0:0:0:0:
64,192,16923,1,0,0:0:0:0:
320,192,17147,1,0,0:0:0:0:
448,192,17147,1,0,0:0:0:0:
64,192,17147,1,0,0:0:0:0:
64,192,17371,1,0,0:0:0:0:
192,192,17371,1,0,0:0:0:0:
448,192,17371,1,0,0:0:0:0:
448,192,17595,1,0,0:0:0:0:
448,192,17707,1,0,0:0:0:0:
448,192,17819,1,0,0:0:0:0:
192,192,18043,1,0,0:0:0:0:
192,192,18154,1,0,0:0:0:0:
192,192,18266,1,0,0:0:0:0:
320,192,18490,1,0,0:0:0:0:
320,192,18602,1,0,0:0:0:0:
320,192,18714,1,0,0:0:0:0:
448,192,18938,1,0,0:0:0:0:
192,192,18938,1,0,0:0:0:0:
64,192,18938,1,0,0:0:0:0:
64,192,19050,1,0,0:0:0:0:
192,192,19050,1,0,0:0:0:0:
448,192,19050,1,0,0:0:0:0:
448,192,19162,1,0,0:0:0:0:
64,192,19162,1,0,0:0:0:0:
192,192,19274,1,0,0:0:0:0:
320,192,19386,1,0,0:0:0:0:
448,192,19498,1,0,0:0:0:0:
320,192,19610,1,0,0:0:0:0:
192,192,19610,1,0,0:0:0:0:
64,192,19722,1,0,0:0:0:0:
320,192,19834,1,0,0:0:0:0:
448,192,19946,1,0,0:0:0:0:
192,192,19946,1,0,0:0:0:0:
64,192,20057,1,0,0:0:0:0:
192,192,20169,1,0,0:0:0:0:
320,192,20281,1,0,0:0:0:0:
448,192,20393,1,0,0:0:0:0:
320,192,20505,1,0,0:0:0:0:
192,192,20505,1,0,0:0:0:0:
64,192,20617,1,0,0:0:0:0:
192,192,20729,1,0,0:0:0:0:
320,192,20841,1,0,0:0:0:0:
192,192,20953,1,0,0:0:0:0:
64,192,21065,1,0,0:0:0:0:
192,192,21177,1,0,0:0:0:0:
320,192,21289,1,0,0:0:0:0:
192,192,21401,1,0,0:0:0:0:
448,192,21401,1,0,0:0:0:0:
64,192,21513,1,0,0:0:0:0:
192,192,21625,1,0,0:0:0:0:
448,192,21737,1,0,0:0:0:0:
320,192,21849,1,0,0:0:0:0:
192,192,21960,1,0,0:0:0:0:
320,192,22072,1,0,0:0:0:0:
448,192,22184,1,0,0:0:0:0:
320,192,22296,1,0,0:0:0:0:
192,192,22296,1,0,0:0:0:0:
64,192,22408,1,0,0:0:0:0:
320,192,22520,1,0,0:0:0:0:
448,192,22632,1,0,0:0:0:0:
192,192,22632,1,0,0:0:0:0:
64,192,22744,1,0,0:0:0:0:
192,192,22856,1,0,0:0:0:0:
320,192,22968,1,0,0:0:0:0:
192,192,23080,1,0,0:0:0:0:
320,192,23192,1,0,0:0:0:0:
448,192,23192,1,0,0:0:0:0:
192,192,23304,1,0,0:0:0:0:
64,192,23416,1,0,0:0:0:0:
192,192,23528,1,0,0:0:0:0:
448,192,23640,1,0,0:0:0:0:
192,192,23751,1,0,0:0:0:0:
64,192,23863,1,0,0:0:0:0:
192,192,23975,1,0,0:0:0:0:
320,192,24087,1,0,0:0:0:0:
448,192,24087,1,0,0:0:0:0:
192,192,24199,1,0,0:0:0:0:
64,192,24311,1,0,0:0:0:0:
320,192,24311,1,0,0:0:0:0:
448,192,24423,1,0,0:0:0:0:
320,192,24535,1,0,0:0:0:0:
192,192,24535,1,0,0:0:0:0:
64,192,24535,1,0,0:0:0:0:
448,192,24759,1,0,0:0:0:0:
448,192,24871,1,0,0:0:0:0:
448,192,24983,1,0,0:0:0:0:
64,192,25207,1,0,0:0:0:0:
64,192,25319,1,0,0:0:0:0:
64,192,25431,1,0,0:0:0:0:
320,192,25654,1,0,0:0:0:0:
320,192,25766,1,0,0:0:0:0:
320,192,25878,1,0,0:0:0:0:
192,192,26102,1,0,0:0:0:0:
448,192,26326,1,0,0:0:0:0:
192,192,26438,1,0,0:0:0:0:
192,192,26550,1,0,0:0:0:0:
320,192,26662,1,0,0:0:0:0:
320,192,26774,1,0,0:0:0:0:
448,192,26886,1,0,0:0:0:0:
448,192,26998,1,0,0:0:0:0:
64,192,27110,1,0,0:0:0:0:
192,192,27110,1,0,0:0:0:0:
64,192,27222,1,0,0:0:0:0:
192,192,27222,1,0,0:0:0:0:
320,192,27334,1,0,0:0:0:0:
448,192,27334,1,0,0:0:0:0:
320,192,27446,1,0,0:0:0:0:
448,192,27446,1,0,0:0:0:0:
192,192,27557,1,0,0:0:0:0:
64,192,27557,1,0,0:0:0:0:
192,192,27669,1,0,0:0:0:0:
64,192,27669,1,0,0:0:0:0:
320,192,27781,1,0,0:0:0:0:
448,192,27781,1,0,0:0:0:0:
320,192,27893,1,0,0:0:0:0:
448,192,27893,1,0,0:0:0:0:
192,192,28005,1,0,0:0:0:0:
64,192,28005,1,0,0:0:0:0:
192,192,28117,1,0,0:0:0:0:
64,192,28117,1,0,0:0:0:0:
192,192,28229,1,0,0:0:0:0:
64,192,28229,1,0,0:0:0:0:
192,192,28341,1,0,0:0:0:0:
64,192,28341,1,0,0:0:0:0:
448,192,28453,1,0,0:0:0:0:
320,192,28453,1,0,0:0:0:0:
192,192,28453,1,0,0:0:0:0:
64,192,28677,1,0,0:0:0:0:
192,192,28677,1,0,0:0:0:0:
320,192,28677,1,0,0:0:0:0:
320,192,28901,1,0,0:0:0:0:
448,192,28901,1,0,0:0:0:0:
448,192,29013,1,0,0:0:0:0:
320,192,29013,1,0,0:0:0:0:
320,192,29125,1,0,0:0:0:0:
448,192,29125,1,0,0:0:0:0:
448,192,29237,1,0,0:0:0:0:
320,192,29237,1,0,0:0:0:0:
192,192,29349,1,0,0:0:0:0:
64,192,29349,1,0,0:0:0:0:
448,192,29349,1,0,0:0:0:0:
64,192,29572,1,0,0:0:0:0:
320,192,29572,1,0,0:0:0:0:
448,192,29572,1,0,0:0:0:0:
192,192,29796,1,0,0:0:0:0:
320,192,29796,1,0,0:0:0:0:
320,192,29908,1,0,0:0:0:0:
192,192,29908,1,0,0:0:0:0:
192,192,30020,1,0,0:0:0:0:
320,192,30020,1,0,0:0:0:0:
320,192,30132,1,0,0:0:0:0:
192,192,30132,1,0,0:0:0:0:
64,192,30244,1,0,0:0:0:0:
192,192,30244,1,0,0:0:0:0:
448,192,30244,1,0,0:0:0:0:
448,192,30468,1,0,0:0:0:0:
320,192,30468,1,0,0:0:0:0:
192,192,30468,1,0,0:0:0:0:
64,192,30692,1,0,0:0:0:0:
448,192,30692,1,0,0:0:0:0:
448,192,30804,1,0,0:0:0:0:
64,192,30804,1,0,0:0:0:0:
64,192,30916,1,0,0:0:0:0:
448,192,30916,1,0,0:0:0:0:
448,192,31028,1,0,0:0:0:0:
64,192,31028,1,0,0:0:0:0:
64,192,31140,1,0,0:0:0:0:
192,192,31140,1,0,0:0:0:0:
320,192,31140,1,0,0:0:0:0:
448,192,31140,1,0,0:0:0:0:
448,192,31363,1,0,0:0:0:0:
320,192,31363,1,0,0:0:0:0:
192,192,31363,1,0,0:0:0:0:
64,192,31363,1,0,0:0:0:0:
64,192,31587,1,0,0:0:0:0:
320,192,31587,1,0,0:0:0:0:
320,192,31699,1,0,0:0:0:0:
64,192,31699,1,0,0:0:0:0:
64,192,31811,1,0,0:0:0:0:
320,192,31811,1,0,0:0:0:0:
320,192,31923,1,0,0:0:0:0:
64,192,31923,1,0,0:0:0:0:
448,192,32035,1,0,0:0:0:0:
320,192,32035,1,0,0:0:0:0:
192,192,32035,1,0,0:0:0:0:
320,192,32259,1,0,0:0:0:0:
192,192,32259,1,0,0:0:0:0:
64,192,32259,1,0,0:0:0:0:
448,192,32483,1,0,0:0:0:0:
320,192,32483,1,0,0:0:0:0:
192,192,32483,1,0,0:0:0:0:
320,192,32595,1,0,0:0:0:0:
448,192,32595,1,0,0:0:0:0:
320,192,32819,1,0,0:0:0:0:
192,192,32819,1,0,0:0:0:0:
64,192,32819,1,0,0:0:0:0:
64,192,32931,1,0,0:0:0:0:
192,192,32931,1,0,0:0:0:0:
192,192,33154,1,0,0:0:0:0:
320,192,33154,1,0,0:0:0:0:
448,192,33154,1,0,0:0:0:0:
448,192,33266,1,0,0:0:0:0:
320,192,33266,1,0,0:0:0:0:
192,192,33490,1,0,0:0:0:0:
320,192,33490,1,0,0:0:0:0:
64,192,33490,1,0,0:0:0:0:
64,192,33602,1,0,0:0:0:0:
192,192,33602,1,0,0:0:0:0:
64,192,33826,1,0,0:0:0:0:
192,192,33826,1,0,0:0:0:0:
192,192,34050,1,0,0:0:0:0:
320,192,34050,1,0,0:0:0:0:
320,192,34274,1,0,0:0:0:0:
448,192,34274,1,0,0:0:0:0:
448,192,34498,1,0,0:0:0:0:
320,192,34498,1,0,0:0:0:0:
64,192,34498,1,0,0:0:0:0:
64,192,34722,1,0,0:0:0:0:
192,192,34722,1,0,0:0:0:0:
320,192,34722,1,0,0:0:0:0:
448,192,35169,1,0,0:0:0:0:
320,192,35169,1,0,0:0:0:0:
448,192,35281,1,0,0:0:0:0:
192,192,35393,1,0,0:0:0:0:
64,192,35393,1,0,0:0:0:0:
64,192,35505,1,0,0:0:0:0:
320,192,35617,1,0,0:0:0:0:
448,192,35617,1,0,0:0:0:0:
448,192,35729,1,0,0:0:0:0:
192,192,35841,1,0,0:0:0:0:
64,192,35841,1,0,0:0:0:0:
64,192,35953,1,0,0:0:0:0:
192,192,36065,1,0,0:0:0:0:
320,192,36065,1,0,0:0:0:0:
192,192,36177,1,0,0:0:0:0:
320,192,36289,1,0,0:0:0:0:
448,192,36289,1,0,0:0:0:0:
320,192,36401,1,0,0:0:0:0:
192,192,36513,1,0,0:0:0:0:
64,192,36513,1,0,0:0:0:0:
64,192,36625,1,0,0:0:0:0:
192,192,36625,1,0,0:0:0:0:
320,192,36737,1,0,0:0:0:0:
448,192,36737,1,0,0:0:0:0:
448,192,36849,1,0,0:0:0:0:
320,192,36849,1,0,0:0:0:0:
448,192,36960,1,0,0:0:0:0:
320,192,36960,1,0,0:0:0:0:
192,192,36960,1,0,0:0:0:0:
64,192,36960,1,0,0:0:0:0:
448,192,37184,1,0,0:0:0:0:
320,192,37184,1,0,0:0:0:0:
192,192,37184,1,0,0:0:0:0:
64,192,37184,1,0,0:0:0:0:
192,192,37408,1,0,0:0:0:0:
320,192,37408,1,0,0:0:0:0:
320,192,37520,1,0,0:0:0:0:
192,192,37520,1,0,0:0:0:0:
64,192,37744,1,0,0:0:0:0:
320,192,37744,1,0,0:0:0:0:
64,192,37856,1,0,0:0:0:0:
320,192,37856,1,0,0:0:0:0:
192,192,38080,1,0,0:0:0:0:
448,192,38080,1,0,0:0:0:0:
192,192,38304,1,0,0:0:0:0:
448,192,38304,1,0,0:0:0:0:
448,192,38751,1,0,0:0:0:0:
320,192,38751,1,0,0:0:0:0:
448,192,38863,1,0,0:0:0:0:
320,192,38863,1,0,0:0:0:0:
448,192,38975,1,0,0:0:0:0:
320,192,38975,1,0,0:0:0:0:
320,192,39199,1,0,0:0:0:0:
448,192,39199,1,0,0:0:0:0:
192,192,39423,1,0,0:0:0:0:
64,192,39423,1,0,0:0:0:0:
64,192,39535,1,0,0:0:0:0:
192,192,39535,1,0,0:0:0:0:
192,192,39647,1,0,0:0:0:0:
64,192,39647,1,0,0:0:0:0:
192,192,39871,1,0,0:0:0:0:
64,192,39871,1,0,0:0:0:0:
192,192,40095,1,0,0:0:0:0:
320,192,40095,1,0,0:0:0:0:
320,192,40207,1,0,0:0:0:0:
192,192,40207,1,0,0:0:0:0:
192,192,40319,1,0,0:0:0:0:
320,192,40319,1,0,0:0:0:0:
448,192,40543,1,0,0:0:0:0:
192,192,40543,1,0,0:0:0:0:
192,192,40654,1,0,0:0:0:0:
448,192,40654,1,0,0:0:0:0:
320,192,40766,1,0,0:0:0:0:
64,192,40766,1,0,0:0:0:0:
320,192,40878,1,0,0:0:0:0:
64,192,40878,1,0,0:0:0:0:
192,192,40990,1,0,0:0:0:0:
448,192,40990,1,0,0:0:0:0:
448,192,41102,1,0,0:0:0:0:
192,192,41102,1,0,0:0:0:0:
320,192,41214,1,0,0:0:0:0:
64,192,41214,1,0,0:0:0:0:
320,192,41326,1,0,0:0:0:0:
64,192,41326,1,0,0:0:0:0:
192,192,41438,1,0,0:0:0:0:
448,192,41438,1,0,0:0:0:0:
448,192,41550,1,0,0:0:0:0:
192,192,41550,1,0,0:0:0:0:
448,192,41774,1,0,0:0:0:0:
320,192,41774,1,0,0:0:0:0:
64,192,41774,1,0,0:0:0:0:
192,192,41774,1,0,0:0:0:0:
320,192,42222,1,0,0:0:0:0:
448,192,42222,1,0,0:0:0:0:
448,192,42334,1,0,0:0:0:0:
448,192,42446,1,0,0:0:0:0:
64,192,42669,1,0,0:0:0:0:
192,192,42669,1,0,0:0:0:0:
448,192,42669,1,0,0:0:0:0:
320,192,42669,1,0,0:0:0:0:
448,192,42893,1,0,0:0:0:0:
320,192,42893,1,0,0:0:0:0:
192,192,42893,1,0,0:0:0:0:
64,192,42893,1,0,0:0:0:0:
192,192,43117,1,0,0:0:0:0:
320,192,43117,1,0,0:0:0:0:
192,192,43229,1,0,0:0:0:0:
192,192,43341,1,0,0:0:0:0:
448,192,43565,1,0,0:0:0:0:
320,192,43565,1,0,0:0:0:0:
192,192,43565,1,0,0:0:0:0:
64,192,43565,1,0,0:0:0:0:
64,192,43789,1,0,0:0:0:0:
192,192,43789,1,0,0:0:0:0:
320,192,43789,1,0,0:0:0:0:
448,192,43789,1,0,0:0:0:0:
448,192,44013,1,0,0:0:0:0:
320,192,44013,1,0,0:0:0:0:
320,192,44237,1,0,0:0:0:0:
448,192,44237,1,0,0:0:0:0:
448,192,44349,1,0,0:0:0:0:
320,192,44349,1,0,0:0:0:0:
192,192,44572,1,0,0:0:0:0:
64,192,44572,1,0,0:0:0:0:
64,192,44684,1,0,0:0:0:0:
192,192,44684,1,0,0:0:0:0:
64,192,44908,1,0,0:0:0:0:
320,192,44908,1,0,0:0:0:0:
64,192,45020,1,0,0:0:0:0:
320,192,45020,1,0,0:0:0:0:
448,192,45244,1,0,0:0:0:0:
192,192,45244,1,0,0:0:0:0:
448,192,45356,1,0,0:0:0:0:
192,192,45356,1,0,0:0:0:0:
320,192,45580,1,0,0:0:0:0:
448,192,45580,1,0,0:0:0:0:
448,192,45692,1,0,0:0:0:0:
320,192,45692,1,0,0:0:0:0:
192,192,45916,1,0,0:0:0:0:
64,192,45916,1,0,0:0:0:0:
64,192,46028,1,0,0:0:0:0:
192,192,46028,1,0,0:0:0:0:
320,192,46251,1,0,0:0:0:0:
448,192,46251,1,0,0:0:0:0:
192,192,46251,1,0,0:0:0:0:
192,192,46363,1,0,0:0:0:0:
320,192,46363,1,0,0:0:0:0:
448,192,46363,1,0,0:0:0:0:
320,192,46587,1,0,0:0:0:0:
192,192,46587,1,0,0:0:0:0:
64,192,46587,1,0,0:0:0:0:
64,192,46699,1,0,0:0:0:0:
192,192,46699,1,0,0:0:0:0:
320,192,46699,1,0,0:0:0:0:
320,192,46923,1,0,0:0:0:0:
64,192,46923,1,0,0:0:0:0:
448,192,46923,1,0,0:0:0:0:
448,192,47035,1,0,0:0:0:0:
320,192,47035,1,0,0:0:0:0:
64,192,47035,1,0,0:0:0:0:
448,192,47259,1,0,0:0:0:0:
192,192,47259,1,0,0:0:0:0:
64,192,47259,1,0,0:0:0:0:
64,192,47371,1,0,0:0:0:0:
192,192,47371,1,0,0:0:0:0:
448,192,47371,1,0,0:0:0:0:
320,192,47595,1,0,0:0:0:0:
448,192,47595,1,0,0:0:0:0:
192,192,47595,1,0,0:0:0:0:
192,192,47707,1,0,0:0:0:0:
64,192,47707,1,0,0:0:0:0:
448,192,47707,1,0,0:0:0:0:
320,192,47931,1,0,0:0:0:0:
192,192,47931,1,0,0:0:0:0:
64,192,47931,1,0,0:0:0:0:
64,192,48043,1,0,0:0:0:0:
448,192,48154,1,0,0:0:0:0:
320,192,48154,1,0,0:0:0:0:
448,192,48266,1,0,0:0:0:0:
320,192,48378,1,0,0:0:0:0:
320,192,48490,1,0,0:0:0:0:
192,192,48602,1,0,0:0:0:0:
64,192,48602,1,0,0:0:0:0:
192,192,48714,1,0,0:0:0:0:
320,192,48826,1,0,0:0:0:0:
448,192,48826,1,0,0:0:0:0:
448,192,48938,1,0,0:0:0:0:
64,192,49162,1,0,0:0:0:0:
192,192,49162,1,0,0:0:0:0:
448,192,49386,1,0,0:0:0:0:
320,192,49386,1,0,0:0:0:0:
192,192,49386,1,0,0:0:0:0:
64,192,49386,1,0,0:0:0:0:
64,192,49834,1,0,0:0:0:0:
192,192,49834,1,0,0:0:0:0:
320,192,49834,1,0,0:0:0:0:
448,192,49834,1,0,0:0:0:0:
448,192,50281,1,0,0:0:0:0:
320,192,50281,1,0,0:0:0:0:
64,192,50281,1,0,0:0:0:0:
192,192,50281,1,0,0:0:0:0:
64,192,50729,1,0,0:0:0:0:
192,192,50729,1,0,0:0:0:0:
320,192,50729,1,0,0:0:0:0:
448,192,50729,1,0,0:0:0:0:
448,192,51177,1,0,0:0:0:0:
320,192,51177,1,0,0:0:0:0:
192,192,51177,1,0,0:0:0:0:
64,192,51177,1,0,0:0:0:0:
448,192,61694,5,0,0:0:0:0:
64,192,61694,1,0,0:0:0:0:
320,192,61765,1,0,0:0:0:0:
192,192,61836,1,0,0:0:0:0:
64,192,62051,1,0,0:0:0:0:
448,192,62051,1,0,0:0:0:0:
192,192,62122,1,0,0:0:0:0:
320,192,62194,1,0,0:0:0:0:
64,192,62479,1,0,0:0:0:0:
448,192,62479,1,0,0:0:0:0:
320,192,62551,1,0,0:0:0:0:
192,192,62622,1,0,0:0:0:0:
64,192,62908,1,0,0:0:0:0:
448,192,62908,1,0,0:0:0:0:
192,192,62979,1,0,0:0:0:0:
320,192,63051,1,0,0:0:0:0:
64,192,63336,1,0,0:0:0:0:
192,192,63408,1,0,0:0:0:0:
448,192,63479,1,0,0:0:0:0:
320,192,63479,1,0,0:0:0:0:
192,192,63765,1,0,0:0:0:0:
64,192,63765,1,0,0:0:0:0:
320,192,63836,1,0,0:0:0:0:
448,192,63908,1,0,0:0:0:0:
192,192,64194,1,0,0:0:0:0:
320,192,64265,1,0,0:0:0:0:
448,192,64336,1,0,0:0:0:0:
192,192,64622,1,0,0:0:0:0:
64,192,64622,1,0,0:0:0:0:
320,192,64694,1,0,0:0:0:0:
448,192,64765,1,0,0:0:0:0:
448,192,65051,1,0,0:0:0:0:
320,192,65051,1,0,0:0:0:0:
192,192,65122,1,0,0:0:0:0:
64,192,65194,1,0,0:0:0:0:
448,192,65479,1,0,0:0:0:0:
192,192,65479,1,0,0:0:0:0:
320,192,65551,1,0,0:0:0:0:
192,192,65622,1,0,0:0:0:0:
192,192,65908,1,0,0:0:0:0:
64,192,65908,1,0,0:0:0:0:
320,192,65979,1,0,0:0:0:0:
64,192,66051,1,0,0:0:0:0:
448,192,66336,1,0,0:0:0:0:
320,192,66336,1,0,0:0:0:0:
192,192,66408,1,0,0:0:0:0:
448,192,66479,1,0,0:0:0:0:
64,192,66765,1,0,0:0:0:0:
192,192,66836,1,0,0:0:0:0:
448,192,66836,1,0,0:0:0:0:
320,192,66908,1,0,0:0:0:0:
448,192,67194,1,0,0:0:0:0:
320,192,67265,1,0,0:0:0:0:
192,192,67265,1,0,0:0:0:0:
64,192,67336,1,0,0:0:0:0:
448,192,67622,1,0,0:0:0:0:
320,192,67694,1,0,0:0:0:0:
192,192,67765,1,0,0:0:0:0:
64,192,68051,1,0,0:0:0:0:
192,192,68122,1,0,0:0:0:0:
448,192,68194,1,0,0:0:0:0:
320,192,68479,1,0,0:0:0:0:
192,192,68551,1,0,0:0:0:0:
448,192,68622,1,0,0:0:0:0:
64,192,68908,1,0,0:0:0:0:
192,192,68979,1,0,0:0:0:0:
320,192,68979,1,0,0:0:0:0:
448,192,69051,1,0,0:0:0:0:
320,192,69336,1,0,0:0:0:0:
448,192,69336,1,0,0:0:0:0:
192,192,69408,1,0,0:0:0:0:
64,192,69479,1,0,0:0:0:0:
448,192,69765,1,0,0:0:0:0:
192,192,69836,1,0,0:0:0:0:
320,192,69836,1,0,0:0:0:0:
64,192,69908,1,0,0:0:0:0:
448,192,70194,1,0,0:0:0:0:
320,192,70194,1,0,0:0:0:0:
192,192,70265,1,0,0:0:0:0:
64,192,70336,1,0,0:0:0:0:
448,192,70622,1,0,0:0:0:0:
320,192,70694,1,0,0:0:0:0:
192,192,70765,1,0,0:0:0:0:
64,192,70765,1,0,0:0:0:0:
192,192,71051,1,0,0:0:0:0:
64,192,71051,1,0,0:0:0:0:
448,192,71122,1,0,0:0:0:0:
320,192,71194,1,0,0:0:0:0:
192,192,71479,1,0,0:0:0:0:
64,192,71479,1,0,0:0:0:0:
320,192,71551,1,0,0:0:0:0:
448,192,71622,1,0,0:0:0:0:
448,192,71908,1,0,0:0:0:0:
320,192,71979,1,0,0:0:0:0:
192,192,72051,1,0,0:0:0:0:
64,192,72051,1,0,0:0:0:0:
64,192,72336,1,0,0:0:0:0:
192,192,72408,1,0,0:0:0:0:
448,192,72408,1,0,0:0:0:0:
320,192,72479,1,0,0:0:0:0:
448,192,72765,1,0,0:0:0:0:
320,192,72836,1,0,0:0:0:0:
192,192,72908,1,0,0:0:0:0:
64,192,72908,1,0,0:0:0:0:
192,192,73194,1,0,0:0:0:0:
64,192,73194,1,0,0:0:0:0:
320,192,73265,1,0,0:0:0:0:
448,192,73336,1,0,0:0:0:0:
448,192,74551,1,0,0:0:0:0:
320,192,74551,1,0,0:0:0:0:
192,192,74694,1,0,0:0:0:0:
64,192,74694,1,0,0:0:0:0:
320,192,74908,1,0,0:0:0:0:
448,192,74908,1,0,0:0:0:0:
64,192,75122,1,0,0:0:0:0:
192,192,75122,1,0,0:0:0:0:
448,192,75336,1,0,0:0:0:0:
192,192,75408,1,0,0:0:0:0:
64,192,75479,1,0,0:0:0:0:
320,192,75765,1,0,0:0:0:0:
192,192,75836,1,0,0:0:0:0:
64,192,75908,1,0,0:0:0:0:
320,192,76194,1,0,0:0:0:0:
448,192,76194,1,0,0:0:0:0:
192,192,76265,1,0,0:0:0:0:
64,192,76408,1,0,0:0:0:0:
192,192,76408,1,0,0:0:0:0:
320,192,76479,1,0,0:0:0:0:
320,192,76622,1,0,0:0:0:0:
448,192,76622,1,0,0:0:0:0:
192,192,76694,1,0,0:0:0:0:
320,192,77051,1,0,0:0:0:0:
192,192,77051,1,0,0:0:0:0:
320,192,77265,1,0,0:0:0:0:
448,192,77265,1,0,0:0:0:0:
192,192,77479,1,0,0:0:0:0:
64,192,77479,1,0,0:0:0:0:
448,192,77694,1,0,0:0:0:0:
320,192,77765,1,0,0:0:0:0:
192,192,77765,1,0,0:0:0:0:
64,192,77908,1,0,0:0:0:0:
320,192,77979,1,0,0:0:0:0:
448,192,77979,1,0,0:0:0:0:
320,192,78122,1,0,0:0:0:0:
192,192,78194,1,0,0:0:0:0:
64,192,78194,1,0,0:0:0:0:
192,192,78336,1,0,0:0:0:0:
448,192,78408,1,0,0:0:0:0:
320,192,78408,1,0,0:0:0:0:
320,192,78765,1,0,0:0:0:0:
192,192,78836,1,0,0:0:0:0:
64,192,78908,1,0,0:0:0:0:
64,192,79194,1,0,0:0:0:0:
192,192,79194,1,0,0:0:0:0:
320,192,79265,1,0,0:0:0:0:
448,192,79336,1,0,0:0:0:0:
192,192,79622,1,0,0:0:0:0:
64,192,79622,1,0,0:0:0:0:
192,192,79836,1,0,0:0:0:0:
320,192,79836,1,0,0:0:0:0:
192,192,80051,1,0,0:0:0:0:
64,192,80051,1,0,0:0:0:0:
448,192,80479,1,0,0:0:0:0:
64,192,80479,1,0,0:0:0:0:
320,192,80551,1,0,0:0:0:0:
192,192,80622,1,0,0:0:0:0:
64,192,80908,1,0,0:0:0:0:
448,192,80908,1,0,0:0:0:0:
192,192,80979,1,0,0:0:0:0:
320,192,81051,1,0,0:0:0:0:
320,192,81336,1,0,0:0:0:0:
192,192,81336,1,0,0:0:0:0:
64,192,81336,1,0,0:0:0:0:
320,192,81515,1,0,0:0:0:0:
448,192,81515,1,0,0:0:0:0:
320,192,81622,1,0,0:0:0:0:
448,192,81622,1,0,0:0:0:0:
320,192,81729,1,0,0:0:0:0:
448,192,81729,1,0,0:0:0:0:
192,192,81979,1,0,0:0:0:0:
64,192,81979,1,0,0:0:0:0:
448,192,82194,1,0,0:0:0:0:
320,192,82194,1,0,0:0:0:0:
192,192,82265,1,0,0:0:0:0:
64,192,82336,1,0,0:0:0:0:
448,192,82622,1,0,0:0:0:0:
320,192,82694,1,0,0:0:0:0:
192,192,82765,1,0,0:0:0:0:
64,192,82765,1,0,0:0:0:0:
64,192,83051,1,0,0:0:0:0:
192,192,83051,1,0,0:0:0:0:
320,192,83122,1,0,0:0:0:0:
448,192,83122,1,0,0:0:0:0:
192,192,83265,1,0,0:0:0:0:
64,192,83265,1,0,0:0:0:0:
320,192,83336,1,0,0:0:0:0:
448,192,83336,1,0,0:0:0:0:
64,192,83479,1,0,0:0:0:0:
192,192,83479,1,0,0:0:0:0:
320,192,83551,1,0,0:0:0:0:
448,192,83551,1,0,0:0:0:0:
448,192,83908,1,0,0:0:0:0:
64,192,83908,1,0,0:0:0:0:
192,192,83979,1,0,0:0:0:0:
320,192,84051,1,0,0:0:0:0:
448,192,84336,1,0,0:0:0:0:
320,192,84408,1,0,0:0:0:0:
192,192,84408,1,0,0:0:0:0:
320,192,84551,1,0,0:0:0:0:
448,192,84551,1,0,0:0:0:0:
192,192,84622,1,0,0:0:0:0:
192,192,84765,1,0,0:0:0:0:
64,192,84765,1,0,0:0:0:0:
320,192,84836,1,0,0:0:0:0:
192,192,84979,1,0,0:0:0:0:
320,192,84979,1,0,0:0:0:0:
448,192,85051,1,0,0:0:0:0:
192,192,85194,1,0,0:0:0:0:
320,192,85194,1,0,0:0:0:0:
64,192,85265,1,0,0:0:0:0:
448,192,85586,1,0,0:0:0:0:
320,192,85586,1,0,0:0:0:0:
448,192,85801,1,0,0:0:0:0:
192,192,85801,1,0,0:0:0:0:
320,192,86015,1,0,0:0:0:0:
448,192,86015,1,0,0:0:0:0:
64,192,86229,1,0,0:0:0:0:
192,192,86229,1,0,0:0:0:0:
320,192,86444,1,0,0:0:0:0:
448,192,86444,1,0,0:0:0:0:
320,192,86551,1,0,0:0:0:0:
448,192,86551,1,0,0:0:0:0:
320,192,86658,1,0,0:0:0:0:
64,192,86872,1,0,0:0:0:0:
192,192,86872,1,0,0:0:0:0:
448,192,86872,1,0,0:0:0:0:
448,192,87086,1,0,0:0:0:0:
320,192,87086,1,0,0:0:0:0:
192,192,87086,1,0,0:0:0:0:
64,192,87086,1,0,0:0:0:0:
448,192,88158,1,0,0:0:0:0:
320,192,88158,1,0,0:0:0:0:
64,192,88372,1,0,0:0:0:0:
64,192,88479,1,0,0:0:0:0:
64,192,88586,1,0,0:0:0:0:
320,192,88801,1,0,0:0:0:0:
192,192,88801,1,0,0:0:0:0:
448,192,89051,1,0,0:0:0:0:
320,192,89122,1,0,0:0:0:0:
64,192,89194,1,0,0:0:0:0:
192,192,89194,1,0,0:0:0:0:
64,192,89479,1,0,0:0:0:0:
192,192,89479,1,0,0:0:0:0:
448,192,89551,1,0,0:0:0:0:
64,192,89694,1,0,0:0:0:0:
192,192,89694,1,0,0:0:0:0:
320,192,89765,1,0,0:0:0:0:
192,192,89908,1,0,0:0:0:0:
64,192,89908,1,0,0:0:0:0:
448,192,89979,1,0,0:0:0:0:
192,192,90336,1,0,0:0:0:0:
64,192,90336,1,0,0:0:0:0:
320,192,90408,1,0,0:0:0:0:
448,192,90479,1,0,0:0:0:0:
448,192,90765,1,0,0:0:0:0:
64,192,90765,1,0,0:0:0:0:
320,192,90836,1,0,0:0:0:0:
192,192,90908,1,0,0:0:0:0:
320,192,91194,1,0,0:0:0:0:
448,192,91194,1,0,0:0:0:0:
64,192,91265,1,0,0:0:0:0:
320,192,91408,1,0,0:0:0:0:
448,192,91408,1,0,0:0:0:0:
192,192,91479,1,0,0:0:0:0:
320,192,91622,1,0,0:0:0:0:
448,192,91622,1,0,0:0:0:0:
64,192,91694,1,0,0:0:0:0:
64,192,92051,1,0,0:0:0:0:
448,192,92051,1,0,0:0:0:0:
192,192,92122,1,0,0:0:0:0:
320,192,92194,1,0,0:0:0:0:
448,192,92479,1,0,0:0:0:0:
320,192,92551,1,0,0:0:0:0:
192,192,92622,1,0,0:0:0:0:
64,192,92622,1,0,0:0:0:0:
320,192,92908,1,0,0:0:0:0:
448,192,92908,1,0,0:0:0:0:
192,192,92979,1,0,0:0:0:0:
64,192,92979,1,0,0:0:0:0:
320,192,93122,1,0,0:0:0:0:
448,192,93122,1,0,0:0:0:0:
192,192,93194,1,0,0:0:0:0:
64,192,93194,1,0,0:0:0:0:
192,192,93336,1,0,0:0:0:0:
64,192,93336,1,0,0:0:0:0:
320,192,93408,1,0,0:0:0:0:
448,192,93408,1,0,0:0:0:0:
448,192,93765,1,0,0:0:0:0:
320,192,93836,1,0,0:0:0:0:
64,192,93836,1,0,0:0:0:0:
192,192,93908,1,0,0:0:0:0:
192,192,94194,1,0,0:0:0:0:
320,192,94265,1,0,0:0:0:0:
448,192,94265,1,0,0:0:0:0:
64,192,94336,1,0,0:0:0:0:
192,192,94586,1,0,0:0:0:0:
64,192,94586,1,0,0:0:0:0:
320,192,94586,1,0,0:0:0:0:
64,192,94801,1,0,0:0:0:0:
192,192,94801,1,0,0:0:0:0:
448,192,94801,1,0,0:0:0:0:
192,192,95015,1,0,0:0:0:0:
320,192,95015,1,0,0:0:0:0:
448,192,95015,1,0,0:0:0:0:
64,192,95229,1,0,0:0:0:0:
64,192,95336,1,0,0:0:0:0:
64,192,95444,1,0,0:0:0:0:
320,192,95658,1,0,0:0:0:0:
448,192,95908,1,0,0:0:0:0:
64,192,95908,1,0,0:0:0:0:
320,192,95979,1,0,0:0:0:0:
192,192,96051,1,0,0:0:0:0:
64,192,96336,1,0,0:0:0:0:
320,192,96408,1,0,0:0:0:0:
448,192,96408,1,0,0:0:0:0:
192,192,96551,1,0,0:0:0:0:
64,192,96551,1,0,0:0:0:0:
320,192,96622,1,0,0:0:0:0:
448,192,96765,1,0,0:0:0:0:
192,192,96836,1,0,0:0:0:0:
64,192,96836,1,0,0:0:0:0:
448,192,97194,1,0,0:0:0:0:
320,192,97265,1,0,0:0:0:0:
64,192,97336,1,0,0:0:0:0:
192,192,97336,1,0,0:0:0:0:
64,192,97622,1,0,0:0:0:0:
192,192,97694,1,0,0:0:0:0:
448,192,97694,1,0,0:0:0:0:
320,192,97765,1,0,0:0:0:0:
320,192,98051,1,0,0:0:0:0:
192,192,98122,1,0,0:0:0:0:
64,192,98122,1,0,0:0:0:0:
448,192,98265,1,0,0:0:0:0:
320,192,98265,1,0,0:0:0:0:
192,192,98336,1,0,0:0:0:0:
320,192,98479,1,0,0:0:0:0:
64,192,98551,1,0,0:0:0:0:
448,192,98908,1,0,0:0:0:0:
320,192,98908,1,0,0:0:0:0:
192,192,98908,1,0,0:0:0:0:
64,192,99336,1,0,0:0:0:0:
192,192,99408,1,0,0:0:0:0:
320,192,99408,1,0,0:0:0:0:
448,192,99479,1,0,0:0:0:0:
64,192,99765,1,0,0:0:0:0:
320,192,99765,1,0,0:0:0:0:
192,192,99765,1,0,0:0:0:0:
448,192,99836,1,0,0:0:0:0:
448,192,99979,1,0,0:0:0:0:
320,192,99979,1,0,0:0:0:0:
192,192,99979,1,0,0:0:0:0:
64,192,100051,1,0,0:0:0:0:
448,192,100194,1,0,0:0:0:0:
320,192,100194,1,0,0:0:0:0:
192,192,100265,1,0,0:0:0:0:
64,192,100622,1,0,0:0:0:0:
192,192,100622,1,0,0:0:0:0:
448,192,101872,1,0,0:0:0:0:
192,192,101872,1,0,0:0:0:0:
64,192,101872,1,0,0:0:0:0:
64,192,102086,1,0,0:0:0:0:
320,192,102086,1,0,0:0:0:0:
448,192,102086,1,0,0:0:0:0:
448,192,102301,1,0,0:0:0:0:
192,192,102301,1,0,0:0:0:0:
64,192,102301,1,0,0:0:0:0:
320,192,102515,1,0,0:0:0:0:
192,192,102515,1,0,0:0:0:0:
64,192,102515,1,0,0:0:0:0:
448,192,102765,1,0,0:0:0:0:
320,192,102765,1,0,0:0:0:0:
192,192,102836,1,0,0:0:0:0:
64,192,102908,1,0,0:0:0:0:
192,192,103194,1,0,0:0:0:0:
448,192,103194,1,0,0:0:0:0:
64,192,103265,1,0,0:0:0:0:
192,192,103408,1,0,0:0:0:0:
320,192,103408,1,0,0:0:0:0:
64,192,103479,1,0,0:0:0:0:
448,192,103622,1,0,0:0:0:0:
64,192,103622,1,0,0:0:0:0:
320,192,103694,1,0,0:0:0:0:
192,192,103694,1,0,0:0:0:0:
448,192,104051,1,0,0:0:0:0:
64,192,104051,1,0,0:0:0:0:
320,192,104051,1,0,0:0:0:0:
64,192,104479,1,0,0:0:0:0:
448,192,104479,1,0,0:0:0:0:
192,192,104551,1,0,0:0:0:0:
320,192,104622,1,0,0:0:0:0:
320,192,104908,1,0,0:0:0:0:
448,192,104908,1,0,0:0:0:0:
192,192,104979,1,0,0:0:0:0:
64,192,105122,1,0,0:0:0:0:
192,192,105122,1,0,0:0:0:0:
320,192,105194,1,0,0:0:0:0:
448,192,105336,1,0,0:0:0:0:
320,192,105336,1,0,0:0:0:0:
192,192,105408,1,0,0:0:0:0:
192,192,105765,1,0,0:0:0:0:
64,192,105765,1,0,0:0:0:0:
320,192,105836,1,0,0:0:0:0:
448,192,105908,1,0,0:0:0:0:
448,192,106194,1,0,0:0:0:0:
192,192,106194,1,0,0:0:0:0:
64,192,106194,1,0,0:0:0:0:
320,192,106265,1,0,0:0:0:0:
192,192,106336,1,0,0:0:0:0:
448,192,106622,1,0,0:0:0:0:
320,192,106622,1,0,0:0:0:0:
192,192,106694,1,0,0:0:0:0:
64,192,106836,1,0,0:0:0:0:
192,192,106836,1,0,0:0:0:0:
320,192,106908,1,0,0:0:0:0:
64,192,107051,1,0,0:0:0:0:
320,192,107122,1,0,0:0:0:0:
448,192,107122,1,0,0:0:0:0:
64,192,107479,1,0,0:0:0:0:
192,192,107479,1,0,0:0:0:0:
320,192,107479,1,0,0:0:0:0:
448,192,107479,1,0,0:0:0:0:
64,192,107908,1,0,0:0:0:0:
448,192,107908,1,0,0:0:0:0:
320,192,107979,1,0,0:0:0:0:
192,192,108051,1,0,0:0:0:0:
320,192,108301,1,0,0:0:0:0:
448,192,108301,1,0,0:0:0:0:
64,192,108515,1,0,0:0:0:0:
192,192,108515,1,0,0:0:0:0:
448,192,108729,1,0,0:0:0:0:
320,192,108729,1,0,0:0:0:0:
64,192,108944,1,0,0:0:0:0:
320,192,108944,1,0,0:0:0:0:
64,192,109051,1,0,0:0:0:0:
320,192,109051,1,0,0:0:0:0:
64,192,109158,1,0,0:0:0:0:
320,192,109158,1,0,0:0:0:0:
448,192,109372,1,0,0:0:0:0:
320,192,109372,1,0,0:0:0:0:
448,192,109622,1,0,0:0:0:0:
64,192,109622,1,0,0:0:0:0:
320,192,109694,1,0,0:0:0:0:
192,192,109765,1,0,0:0:0:0:
448,192,110051,1,0,0:0:0:0:
320,192,110051,1,0,0:0:0:0:
192,192,110122,1,0,0:0:0:0:
320,192,110265,1,0,0:0:0:0:
192,192,110265,1,0,0:0:0:0:
64,192,110336,1,0,0:0:0:0:
192,192,110479,1,0,0:0:0:0:
64,192,110479,1,0,0:0:0:0:
320,192,110551,1,0,0:0:0:0:
448,192,110551,1,0,0:0:0:0:
448,192,110908,1,0,0:0:0:0:
64,192,110908,1,0,0:0:0:0:
320,192,110979,1,0,0:0:0:0:
192,192,111051,1,0,0:0:0:0:
64,192,111336,1,0,0:0:0:0:
192,192,111408,1,0,0:0:0:0:
320,192,111408,1,0,0:0:0:0:
448,192,111479,1,0,0:0:0:0:
64,192,111765,1,0,0:0:0:0:
192,192,111765,1,0,0:0:0:0:
448,192,111765,1,0,0:0:0:0:
320,192,111836,1,0,0:0:0:0:
320,192,111979,1,0,0:0:0:0:
448,192,111979,1,0,0:0:0:0:
64,192,111979,1,0,0:0:0:0:
192,192,112051,1,0,0:0:0:0:
64,192,112194,1,0,0:0:0:0:
192,192,112194,1,0,0:0:0:0:
448,192,112194,1,0,0:0:0:0:
320,192,112265,1,0,0:0:0:0:
448,192,112622,1,0,0:0:0:0:
64,192,112622,1,0,0:0:0:0:
320,192,112694,1,0,0:0:0:0:
192,192,112765,1,0,0:0:0:0:
64,192,113051,1,0,0:0:0:0:
448,192,113051,1,0,0:0:0:0:
192,192,113122,1,0,0:0:0:0:
320,192,113194,1,0,0:0:0:0:
64,192,113479,1,0,0:0:0:0:
320,192,113479,1,0,0:0:0:0:
448,192,113479,1,0,0:0:0:0:
192,192,113551,1,0,0:0:0:0:
64,192,113694,1,0,0:0:0:0:
448,192,113694,1,0,0:0:0:0:
192,192,113694,1,0,0:0:0:0:
320,192,113765,1,0,0:0:0:0:
448,192,113908,1,0,0:0:0:0:
320,192,113908,1,0,0:0:0:0:
64,192,113908,1,0,0:0:0:0:
192,192,113979,1,0,0:0:0:0:
448,192,114336,1,0,0:0:0:0:
64,192,114336,1,0,0:0:0:0:
320,192,114408,1,0,0:0:0:0:
192,192,114479,1,0,0:0:0:0:
320,192,114622,1,0,0:0:0:0:
192,192,114694,1,0,0:0:0:0:
320,192,114765,1,0,0:0:0:0:
192,192,114836,1,0,0:0:0:0:
448,192,115622,1,0,0:0:0:0:
320,192,115622,1,0,0:0:0:0:
64,192,115622,1,0,0:0:0:0:
64,192,115836,1,0,0:0:0:0:
192,192,115836,1,0,0:0:0:0:
448,192,115836,1,0,0:0:0:0:
448,192,116051,1,0,0:0:0:0:
320,192,116051,1,0,0:0:0:0:
64,192,116051,1,0,0:0:0:0:
64,192,116265,1,0,0:0:0:0:
192,192,116265,1,0,0:0:0:0:
448,192,116265,1,0,0:0:0:0:
448,192,116479,128,0,117265:0:0:0:0:
320,192,116479,128,0,116765:0:0:0:0:
192,192,116479,128,0,116765:0:0:0:0:
64,192,116479,128,0,117265:0:0:0:0:
320,192,117408,128,0,117479:0:0:0:0:
64,192,117408,128,0,117479:0:0:0:0:
192,192,117408,1,0,0:0:0:0:
320,192,117622,128,0,117694:0:0:0:0:
448,192,117622,128,0,117694:0:0:0:0:
192,192,117622,1,0,0:0:0:0:
192,192,117836,128,0,117908:0:0:0:0:
64,192,117836,128,0,117908:0:0:0:0:
448,192,117836,1,0,0:0:0:0:
448,192,118051,128,0,118122:0:0:0:0:
320,192,118051,128,0,118122:0:0:0:0:
64,192,118051,1,0,0:0:0:0:
64,192,118265,1,0,0:0:0:0:
192,192,118265,1,0,0:0:0:0:
448,192,118265,1,0,0:0:0:0:
320,192,118265,1,0,0:0:0:0:
64,192,128765,5,0,0:0:0:0:
192,192,128765,1,0,0:0:0:0:
320,192,128765,1,0,0:0:0:0:
448,192,128765,1,0,0:0:0:0:
448,192,128924,1,0,0:0:0:0:
448,192,129077,1,0,0:0:0:0:
448,192,129230,1,0,0:0:0:0:
64,192,129421,1,0,0:0:0:0:
192,192,129421,1,0,0:0:0:0:
320,192,129421,1,0,0:0:0:0:
448,192,129421,1,0,0:0:0:0:
192,192,129574,1,0,0:0:0:0:
192,192,129727,1,0,0:0:0:0:
192,192,129880,1,0,0:0:0:0:
448,192,130033,1,0,0:0:0:0:
320,192,130033,1,0,0:0:0:0:
192,192,130033,1,0,0:0:0:0:
64,192,130033,1,0,0:0:0:0:
320,192,130187,1,0,0:0:0:0:
320,192,130340,1,0,0:0:0:0:
320,192,130493,1,0,0:0:0:0:
448,192,130646,1,0,0:0:0:0:
320,192,130646,1,0,0:0:0:0:
64,192,130646,1,0,0:0:0:0:
192,192,130646,1,0,0:0:0:0:
64,192,130799,1,0,0:0:0:0:
64,192,130952,1,0,0:0:0:0:
64,192,131105,1,0,0:0:0:0:
64,192,131258,1,0,0:0:0:0:
192,192,131258,1,0,0:0:0:0:
320,192,131258,1,0,0:0:0:0:
448,192,131258,1,0,0:0:0:0:
448,192,131411,1,0,0:0:0:0:
320,192,131411,1,0,0:0:0:0:
320,192,131564,1,0,0:0:0:0:
448,192,131564,1,0,0:0:0:0:
320,192,131717,1,0,0:0:0:0:
448,192,131717,1,0,0:0:0:0:
320,192,131870,1,0,0:0:0:0:
448,192,131870,1,0,0:0:0:0:
192,192,131870,1,0,0:0:0:0:
64,192,131870,1,0,0:0:0:0:
64,192,132023,1,0,0:0:0:0:
192,192,132023,1,0,0:0:0:0:
64,192,132176,1,0,0:0:0:0:
192,192,132176,1,0,0:0:0:0:
64,192,132329,1,0,0:0:0:0:
192,192,132329,1,0,0:0:0:0:
448,192,132482,1,0,0:0:0:0:
320,192,132482,1,0,0:0:0:0:
192,192,132482,1,0,0:0:0:0:
64,192,132482,1,0,0:0:0:0:
320,192,132636,1,0,0:0:0:0:
448,192,132636,1,0,0:0:0:0:
448,192,132789,1,0,0:0:0:0:
320,192,132789,1,0,0:0:0:0:
448,192,132942,1,0,0:0:0:0:
320,192,132942,1,0,0:0:0:0:
64,192,133095,1,0,0:0:0:0:
192,192,133095,1,0,0:0:0:0:
448,192,133095,1,0,0:0:0:0:
320,192,133095,1,0,0:0:0:0:
64,192,133248,1,0,0:0:0:0:
192,192,133248,1,0,0:0:0:0:
192,192,133401,1,0,0:0:0:0:
64,192,133401,1,0,0:0:0:0:
192,192,133554,1,0,0:0:0:0:
64,192,133554,1,0,0:0:0:0:
448,192,133707,1,0,0:0:0:0:
320,192,133707,1,0,0:0:0:0:
192,192,133707,1,0,0:0:0:0:
64,192,133707,1,0,0:0:0:0:
320,192,133860,1,0,0:0:0:0:
320,192,134013,1,0,0:0:0:0:
320,192,134166,1,0,0:0:0:0:
192,192,134319,1,0,0:0:0:0:
192,192,134472,1,0,0:0:0:0:
192,192,134625,1,0,0:0:0:0:
192,192,134778,1,0,0:0:0:0:
64,192,134931,1,0,0:0:0:0:
64,192,135084,1,0,0:0:0:0:
64,192,135238,1,0,0:0:0:0:
64,192,135391,1,0,0:0:0:0:
448,192,135544,1,0,0:0:0:0:
448,192,135697,1,0,0:0:0:0:
448,192,135850,1,0,0:0:0:0:
448,192,136003,1,0,0:0:0:0:
64,192,136156,1,0,0:0:0:0:
320,192,136156,1,0,0:0:0:0:
448,192,136156,1,0,0:0:0:0:
192,192,136156,1,0,0:0:0:0:
320,192,136309,1,0,0:0:0:0:
320,192,136462,1,0,0:0:0:0:
320,192,136615,1,0,0:0:0:0:
448,192,136768,1,0,0:0:0:0:
320,192,136768,1,0,0:0:0:0:
192,192,136768,1,0,0:0:0:0:
64,192,136768,1,0,0:0:0:0:
64,192,136921,1,0,0:0:0:0:
64,192,137074,1,0,0:0:0:0:
64,192,137227,1,0,0:0:0:0:
64,192,137380,1,0,0:0:0:0:
192,192,137380,1,0,0:0:0:0:
320,192,137380,1,0,0:0:0:0:
448,192,137380,1,0,0:0:0:0:
320,192,137533,1,0,0:0:0:0:
320,192,137687,1,0,0:0:0:0:
320,192,137840,1,0,0:0:0:0:
448,192,137993,1,0,0:0:0:0:
320,192,137993,1,0,0:0:0:0:
64,192,137993,1,0,0:0:0:0:
192,192,137993,1,0,0:0:0:0:
448,192,138146,1,0,0:0:0:0:
448,192,138299,1,0,0:0:0:0:
448,192,138452,1,0,0:0:0:0:
448,192,138605,1,0,0:0:0:0:
320,192,138605,1,0,0:0:0:0:
64,192,138605,1,0,0:0:0:0:
192,192,138605,1,0,0:0:0:0:
320,192,138758,1,0,0:0:0:0:
192,192,138834,1,0,0:0:0:0:
64,192,138911,1,0,0:0:0:0:
448,192,138911,1,0,0:0:0:0:
320,192,138988,1,0,0:0:0:0:
192,192,139064,1,0,0:0:0:0:
64,192,139141,1,0,0:0:0:0:
448,192,139141,1,0,0:0:0:0:
192,192,139217,1,0,0:0:0:0:
320,192,139294,1,0,0:0:0:0:
192,192,139370,1,0,0:0:0:0:
448,192,139370,1,0,0:0:0:0:
64,192,139447,1,0,0:0:0:0:
192,192,139523,1,0,0:0:0:0:
320,192,139523,1,0,0:0:0:0:
448,192,139523,1,0,0:0:0:0:
64,192,139600,1,0,0:0:0:0:
192,192,139676,1,0,0:0:0:0:
320,192,139753,1,0,0:0:0:0:
448,192,139753,1,0,0:0:0:0:
192,192,139829,1,0,0:0:0:0:
64,192,139906,1,0,0:0:0:0:
320,192,139982,1,0,0:0:0:0:
192,192,140059,1,0,0:0:0:0:
64,192,140136,1,0,0:0:0:0:
448,192,140136,1,0,0:0:0:0:
320,192,140212,1,0,0:0:0:0:
192,192,140212,1,0,0:0:0:0:
64,192,140289,1,0,0:0:0:0:
192,192,140365,1,0,0:0:0:0:
448,192,140365,1,0,0:0:0:0:
320,192,140442,1,0,0:0:0:0:
192,192,140518,1,0,0:0:0:0:
64,192,140595,1,0,0:0:0:0:
192,192,140671,1,0,0:0:0:0:
320,192,140671,1,0,0:0:0:0:
448,192,140748,1,0,0:0:0:0:
320,192,140824,1,0,0:0:0:0:
192,192,140901,1,0,0:0:0:0:
64,192,140977,1,0,0:0:0:0:
448,192,141054,1,0,0:0:0:0:
320,192,141130,1,0,0:0:0:0:
192,192,141130,1,0,0:0:0:0:
64,192,141130,1,0,0:0:0:0:
448,192,141207,1,0,0:0:0:0:
320,192,141283,1,0,0:0:0:0:
192,192,141360,1,0,0:0:0:0:
320,192,141437,1,0,0:0:0:0:
448,192,141437,1,0,0:0:0:0:
192,192,141513,1,0,0:0:0:0:
64,192,141590,1,0,0:0:0:0:
192,192,141666,1,0,0:0:0:0:
320,192,141743,1,0,0:0:0:0:
448,192,141819,1,0,0:0:0:0:
320,192,141896,1,0,0:0:0:0:
192,192,141972,1,0,0:0:0:0:
320,192,142049,1,0,0:0:0:0:
448,192,142125,1,0,0:0:0:0:
64,192,142125,1,0,0:0:0:0:
192,192,142202,1,0,0:0:0:0:
320,192,142202,1,0,0:0:0:0:
448,192,142278,1,0,0:0:0:0:
320,192,142355,1,0,0:0:0:0:
192,192,142431,1,0,0:0:0:0:
320,192,142508,1,0,0:0:0:0:
448,192,142584,1,0,0:0:0:0:
320,192,142661,1,0,0:0:0:0:
192,192,142738,1,0,0:0:0:0:
64,192,142738,1,0,0:0:0:0:
320,192,142814,1,0,0:0:0:0:
448,192,142891,1,0,0:0:0:0:
320,192,142967,1,0,0:0:0:0:
192,192,142967,1,0,0:0:0:0:
64,192,142967,1,0,0:0:0:0:
448,192,143044,1,0,0:0:0:0:
320,192,143120,1,0,0:0:0:0:
192,192,143197,1,0,0:0:0:0:
448,192,143273,1,0,0:0:0:0:
320,192,143273,1,0,0:0:0:0:
192,192,143350,1,0,0:0:0:0:
64,192,143426,1,0,0:0:0:0:
192,192,143503,1,0,0:0:0:0:
320,192,143579,1,0,0:0:0:0:
192,192,143656,1,0,0:0:0:0:
64,192,143656,1,0,0:0:0:0:
448,192,143656,1,0,0:0:0:0:
320,192,143732,1,0,0:0:0:0:
192,192,143809,1,0,0:0:0:0:
320,192,143886,1,0,0:0:0:0:
64,192,143886,1,0,0:0:0:0:
448,192,143962,1,0,0:0:0:0:
320,192,144039,1,0,0:0:0:0:
192,192,144115,1,0,0:0:0:0:
64,192,144192,1,0,0:0:0:0:
192,192,144268,1,0,0:0:0:0:
64,192,144345,1,0,0:0:0:0:
192,192,144421,1,0,0:0:0:0:
320,192,144498,1,0,0:0:0:0:
448,192,144498,1,0,0:0:0:0:
192,192,144574,1,0,0:0:0:0:
320,192,144651,1,0,0:0:0:0:
192,192,144727,1,0,0:0:0:0:
64,192,144804,1,0,0:0:0:0:
448,192,144804,1,0,0:0:0:0:
320,192,144804,1,0,0:0:0:0:
320,192,144957,1,0,0:0:0:0:
448,192,144957,1,0,0:0:0:0:
64,192,144957,1,0,0:0:0:0:
192,192,145033,1,0,0:0:0:0:
320,192,145110,1,0,0:0:0:0:
448,192,145187,1,0,0:0:0:0:
320,192,145263,1,0,0:0:0:0:
192,192,145340,1,0,0:0:0:0:
64,192,145340,1,0,0:0:0:0:
320,192,145416,1,0,0:0:0:0:
448,192,145493,1,0,0:0:0:0:
192,192,145493,1,0,0:0:0:0:
64,192,145493,1,0,0:0:0:0:
320,192,145569,1,0,0:0:0:0:
448,192,145646,1,0,0:0:0:0:
320,192,145722,1,0,0:0:0:0:
192,192,145799,1,0,0:0:0:0:
64,192,145799,1,0,0:0:0:0:
320,192,145875,1,0,0:0:0:0:
448,192,145952,1,0,0:0:0:0:
320,192,146028,1,0,0:0:0:0:
448,192,146105,1,0,0:0:0:0:
192,192,146181,1,0,0:0:0:0:
64,192,146181,1,0,0:0:0:0:
448,192,146258,1,0,0:0:0:0:
320,192,146334,1,0,0:0:0:0:
192,192,146334,1,0,0:0:0:0:
448,192,146411,1,0,0:0:0:0:
320,192,146488,1,0,0:0:0:0:
64,192,146488,1,0,0:0:0:0:
448,192,146564,1,0,0:0:0:0:
192,192,146641,1,0,0:0:0:0:
320,192,146641,1,0,0:0:0:0:
64,192,146717,1,0,0:0:0:0:
448,192,146794,1,0,0:0:0:0:
320,192,146794,1,0,0:0:0:0:
64,192,146870,1,0,0:0:0:0:
320,192,146947,1,0,0:0:0:0:
448,192,147023,1,0,0:0:0:0:
320,192,147100,1,0,0:0:0:0:
64,192,147176,1,0,0:0:0:0:
320,192,147253,1,0,0:0:0:0:
192,192,147253,1,0,0:0:0:0:
448,192,147329,1,0,0:0:0:0:
320,192,147406,1,0,0:0:0:0:
64,192,147406,1,0,0:0:0:0:
448,192,147482,1,0,0:0:0:0:
64,192,147559,1,0,0:0:0:0:
192,192,147559,1,0,0:0:0:0:
448,192,147636,1,0,0:0:0:0:
192,192,147712,1,0,0:0:0:0:
320,192,147712,1,0,0:0:0:0:
64,192,147789,1,0,0:0:0:0:
320,192,147865,1,0,0:0:0:0:
192,192,147865,1,0,0:0:0:0:
448,192,147942,1,0,0:0:0:0:
192,192,148018,1,0,0:0:0:0:
64,192,148095,1,0,0:0:0:0:
320,192,148171,1,0,0:0:0:0:
192,192,148171,1,0,0:0:0:0:
448,192,148248,1,0,0:0:0:0:
192,192,148324,1,0,0:0:0:0:
320,192,148401,1,0,0:0:0:0:
448,192,148477,1,0,0:0:0:0:
64,192,148477,1,0,0:0:0:0:
320,192,148554,1,0,0:0:0:0:
192,192,148630,1,0,0:0:0:0:
448,192,148707,1,0,0:0:0:0:
192,192,148783,1,0,0:0:0:0:
64,192,148860,1,0,0:0:0:0:
192,192,148937,1,0,0:0:0:0:
320,192,149013,1,0,0:0:0:0:
448,192,149013,1,0,0:0:0:0:
192,192,149090,1,0,0:0:0:0:
64,192,149090,1,0,0:0:0:0:
320,192,149166,1,0,0:0:0:0:
448,192,149243,1,0,0:0:0:0:
192,192,149319,1,0,0:0:0:0:
64,192,149396,1,0,0:0:0:0:
320,192,149472,1,0,0:0:0:0:
448,192,149472,1,0,0:0:0:0:
192,192,149549,1,0,0:0:0:0:
64,192,149549,1,0,0:0:0:0:
320,192,149625,1,0,0:0:0:0:
448,192,149702,1,0,0:0:0:0:
64,192,149702,1,0,0:0:0:0:
192,192,149778,1,0,0:0:0:0:
320,192,149855,1,0,0:0:0:0:
448,192,149855,1,0,0:0:0:0:
192,192,149931,1,0,0:0:0:0:
64,192,149931,1,0,0:0:0:0:
320,192,150008,1,0,0:0:0:0:
448,192,150084,1,0,0:0:0:0:
64,192,150084,1,0,0:0:0:0:
192,192,150161,1,0,0:0:0:0:
448,192,150263,128,0,151845:0:0:0:0:
192,192,150314,128,0,151845:0:0:0:0:
320,192,150391,128,0,151845:0:0:0:0:
64,192,150391,128,0,151845:0:0:0:0:
448,192,151921,1,0,0:0:0:0:
192,192,151921,1,0,0:0:0:0:
64,192,151921,1,0,0:0:0:0:
320,192,152074,1,0,0:0:0:0:
192,192,152074,1,0,0:0:0:0:
64,192,152074,1,0,0:0:0:0:
192,192,152227,1,0,0:0:0:0:
320,192,152227,1,0,0:0:0:0:
448,192,152227,1,0,0:0:0:0:
64,192,152610,1,0,0:0:0:0:
192,192,152610,1,0,0:0:0:0:
320,192,152610,1,0,0:0:0:0:
192,192,152916,1,0,0:0:0:0:
320,192,152916,1,0,0:0:0:0:
448,192,152916,1,0,0:0:0:0:
64,192,153069,1,0,0:0:0:0:
448,192,153069,1,0,0:0:0:0:
192,192,153069,1,0,0:0:0:0:
64,192,153681,1,0,0:0:0:0:
192,192,153681,1,0,0:0:0:0:
448,192,153681,1,0,0:0:0:0:
64,192,153834,1,0,0:0:0:0:
320,192,153834,1,0,0:0:0:0:
448,192,153834,1,0,0:0:0:0:
64,192,153988,1,0,0:0:0:0:
192,192,153988,1,0,0:0:0:0:
320,192,153988,1,0,0:0:0:0:
64,192,154141,128,0,154370:0:0:0:0:
192,192,154141,128,0,154294:0:0:0:0:
320,192,154141,128,0,154294:0:0:0:0:
448,192,154141,128,0,154370:0:0:0:0:
448,192,154676,1,0,0:0:0:0:
320,192,154753,1,0,0:0:0:0:
192,192,154829,1,0,0:0:0:0:
64,192,154906,1,0,0:0:0:0:
320,192,154906,1,0,0:0:0:0:
192,192,154982,1,0,0:0:0:0:
64,192,155059,1,0,0:0:0:0:
192,192,155136,1,0,0:0:0:0:
320,192,155136,1,0,0:0:0:0:
448,192,155212,1,0,0:0:0:0:
320,192,155289,1,0,0:0:0:0:
192,192,155365,1,0,0:0:0:0:
64,192,155442,1,0,0:0:0:0:
320,192,155442,1,0,0:0:0:0:
448,192,155442,1,0,0:0:0:0:
192,192,155518,1,0,0:0:0:0:
64,192,155595,1,0,0:0:0:0:
192,192,155671,1,0,0:0:0:0:
320,192,155671,1,0,0:0:0:0:
448,192,155671,1,0,0:0:0:0:
64,192,155748,1,0,0:0:0:0:
192,192,155824,1,0,0:0:0:0:
320,192,155901,1,0,0:0:0:0:
64,192,155977,1,0,0:0:0:0:
192,192,156054,1,0,0:0:0:0:
320,192,156054,1,0,0:0:0:0:
448,192,156130,1,0,0:0:0:0:
320,192,156207,1,0,0:0:0:0:
192,192,156283,1,0,0:0:0:0:
320,192,156360,1,0,0:0:0:0:
448,192,156360,1,0,0:0:0:0:
192,192,156437,1,0,0:0:0:0:
64,192,156513,1,0,0:0:0:0:
192,192,156590,1,0,0:0:0:0:
320,192,156590,1,0,0:0:0:0:
448,192,156666,1,0,0:0:0:0:
320,192,156743,1,0,0:0:0:0:
192,192,156819,1,0,0:0:0:0:
320,192,156896,1,0,0:0:0:0:
448,192,156896,1,0,0:0:0:0:
64,192,156972,1,0,0:0:0:0:
448,192,157049,1,0,0:0:0:0:
320,192,157049,1,0,0:0:0:0:
192,192,157049,1,0,0:0:0:0:
64,192,157125,1,0,0:0:0:0:
192,192,157202,1,0,0:0:0:0:
320,192,157278,1,0,0:0:0:0:
448,192,157278,1,0,0:0:0:0:
192,192,157355,1,0,0:0:0:0:
64,192,157431,1,0,0:0:0:0:
192,192,157508,1,0,0:0:0:0:
320,192,157584,1,0,0:0:0:0:
192,192,157661,1,0,0:0:0:0:
320,192,157738,1,0,0:0:0:0:
448,192,157814,1,0,0:0:0:0:
320,192,157891,1,0,0:0:0:0:
192,192,157967,1,0,0:0:0:0:
64,192,157967,1,0,0:0:0:0:
320,192,158044,1,0,0:0:0:0:
192,192,158120,1,0,0:0:0:0:
320,192,158197,1,0,0:0:0:0:
448,192,158273,1,0,0:0:0:0:
320,192,158350,1,0,0:0:0:0:
192,192,158350,1,0,0:0:0:0:
64,192,158350,1,0,0:0:0:0:
448,192,158426,1,0,0:0:0:0:
320,192,158503,1,0,0:0:0:0:
192,192,158579,1,0,0:0:0:0:
64,192,158579,1,0,0:0:0:0:
320,192,158656,1,0,0:0:0:0:
448,192,158732,1,0,0:0:0:0:
320,192,158809,1,0,0:0:0:0:
192,192,158886,1,0,0:0:0:0:
320,192,158962,1,0,0:0:0:0:
64,192,158962,1,0,0:0:0:0:
448,192,159039,1,0,0:0:0:0:
320,192,159115,1,0,0:0:0:0:
192,192,159115,1,0,0:0:0:0:
64,192,159192,1,0,0:0:0:0:
192,192,159268,1,0,0:0:0:0:
448,192,159345,1,0,0:0:0:0:
320,192,159421,1,0,0:0:0:0:
192,192,159498,1,0,0:0:0:0:
448,192,159574,1,0,0:0:0:0:
320,192,159574,1,0,0:0:0:0:
64,192,159574,1,0,0:0:0:0:
192,192,159651,1,0,0:0:0:0:
320,192,159727,1,0,0:0:0:0:
192,192,159804,1,0,0:0:0:0:
64,192,159880,1,0,0:0:0:0:
192,192,159957,1,0,0:0:0:0:
320,192,159957,1,0,0:0:0:0:
448,192,160033,1,0,0:0:0:0:
320,192,160110,1,0,0:0:0:0:
64,192,160110,1,0,0:0:0:0:
192,192,160187,1,0,0:0:0:0:
320,192,160263,1,0,0:0:0:0:
448,192,160263,1,0,0:0:0:0:
192,192,160340,1,0,0:0:0:0:
320,192,160416,1,0,0:0:0:0:
192,192,160493,1,0,0:0:0:0:
64,192,160569,1,0,0:0:0:0:
192,192,160646,1,0,0:0:0:0:
320,192,160646,1,0,0:0:0:0:
448,192,160722,1,0,0:0:0:0:
320,192,160799,1,0,0:0:0:0:
64,192,160799,1,0,0:0:0:0:
192,192,160875,1,0,0:0:0:0:
320,192,160952,1,0,0:0:0:0:
192,192,161028,1,0,0:0:0:0:
64,192,161105,1,0,0:0:0:0:
192,192,161181,1,0,0:0:0:0:
320,192,161181,1,0,0:0:0:0:
448,192,161258,1,0,0:0:0:0:
320,192,161334,1,0,0:0:0:0:
64,192,161334,1,0,0:0:0:0:
448,192,161411,1,0,0:0:0:0:
320,192,161488,1,0,0:0:0:0:
192,192,161564,1,0,0:0:0:0:
64,192,161641,1,0,0:0:0:0:
448,192,161641,1,0,0:0:0:0:
320,192,161717,1,0,0:0:0:0:
192,192,161794,1,0,0:0:0:0:
64,192,161794,1,0,0:0:0:0:
320,192,161870,1,0,0:0:0:0:
448,192,161947,1,0,0:0:0:0:
64,192,162023,1,0,0:0:0:0:
320,192,162023,1,0,0:0:0:0:
192,192,162023,1,0,0:0:0:0:
448,192,162100,1,0,0:0:0:0:
320,192,162176,1,0,0:0:0:0:
192,192,162253,1,0,0:0:0:0:
448,192,162253,1,0,0:0:0:0:
64,192,162329,1,0,0:0:0:0:
192,192,162406,1,0,0:0:0:0:
320,192,162482,1,0,0:0:0:0:
192,192,162559,1,0,0:0:0:0:
320,192,162636,1,0,0:0:0:0:
448,192,162636,1,0,0:0:0:0:
192,192,162712,1,0,0:0:0:0:
64,192,162789,1,0,0:0:0:0:
192,192,162865,1,0,0:0:0:0:
320,192,162865,1,0,0:0:0:0:
448,192,162942,1,0,0:0:0:0:
320,192,163018,1,0,0:0:0:0:
64,192,163018,1,0,0:0:0:0:
448,192,163095,1,0,0:0:0:0:
320,192,163171,1,0,0:0:0:0:
192,192,163248,1,0,0:0:0:0:
64,192,163324,1,0,0:0:0:0:
448,192,163324,1,0,0:0:0:0:
192,192,163401,1,0,0:0:0:0:
320,192,163477,1,0,0:0:0:0:
448,192,163477,1,0,0:0:0:0:
192,192,163554,1,0,0:0:0:0:
64,192,163630,1,0,0:0:0:0:
320,192,163707,1,0,0:0:0:0:
448,192,163707,1,0,0:0:0:0:
192,192,163783,1,0,0:0:0:0:
64,192,163860,1,0,0:0:0:0:
192,192,163937,1,0,0:0:0:0:
320,192,164013,1,0,0:0:0:0:
448,192,164013,1,0,0:0:0:0:
192,192,164090,1,0,0:0:0:0:
64,192,164090,1,0,0:0:0:0:
320,192,164166,1,0,0:0:0:0:
192,192,164243,1,0,0:0:0:0:
320,192,164319,1,0,0:0:0:0:
448,192,164396,1,0,0:0:0:0:
320,192,164472,1,0,0:0:0:0:
192,192,164472,1,0,0:0:0:0:
64,192,164472,1,0,0:0:0:0:
448,192,164549,1,0,0:0:0:0:
320,192,164625,1,0,0:0:0:0:
192,192,164702,1,0,0:0:0:0:
64,192,164702,1,0,0:0:0:0:
320,192,164778,1,0,0:0:0:0:
448,192,164855,1,0,0:0:0:0:
192,192,164855,1,0,0:0:0:0:
64,192,164931,1,0,0:0:0:0:
192,192,165008,1,0,0:0:0:0:
320,192,165008,1,0,0:0:0:0:
448,192,165084,1,0,0:0:0:0:
320,192,165161,1,0,0:0:0:0:
64,192,165161,1,0,0:0:0:0:
192,192,165238,1,0,0:0:0:0:
320,192,165314,1,0,0:0:0:0:
448,192,165314,1,0,0:0:0:0:
192,192,165391,1,0,0:0:0:0:
64,192,165467,1,0,0:0:0:0:
192,192,165544,1,0,0:0:0:0:
64,192,165620,1,0,0:0:0:0:
192,192,165697,1,0,0:0:0:0:
320,192,165773,1,0,0:0:0:0:
448,192,165773,1,0,0:0:0:0:
192,192,165850,1,0,0:0:0:0:
64,192,165926,1,0,0:0:0:0:
192,192,166003,1,0,0:0:0:0:
320,192,166003,1,0,0:0:0:0:
64,192,166079,1,0,0:0:0:0:
192,192,166156,1,0,0:0:0:0:
320,192,166156,1,0,0:0:0:0:
448,192,166232,1,0,0:0:0:0:
320,192,166309,1,0,0:0:0:0:
64,192,166309,1,0,0:0:0:0:
192,192,166386,1,0,0:0:0:0:
320,192,166462,1,0,0:0:0:0:
448,192,166462,1,0,0:0:0:0:
192,192,166539,1,0,0:0:0:0:
64,192,166615,1,0,0:0:0:0:
448,192,166615,1,0,0:0:0:0:
192,192,166692,1,0,0:0:0:0:
320,192,166768,1,0,0:0:0:0:
448,192,166768,1,0,0:0:0:0:
192,192,166845,1,0,0:0:0:0:
320,192,166921,1,0,0:0:0:0:
64,192,166921,1,0,0:0:0:0:
448,192,166921,1,0,0:0:0:0:
192,192,166998,1,0,0:0:0:0:
320,192,167074,1,0,0:0:0:0:
448,192,167074,1,0,0:0:0:0:
192,192,167151,1,0,0:0:0:0:
64,192,167227,1,0,0:0:0:0:
192,192,167304,1,0,0:0:0:0:
320,192,167304,1,0,0:0:0:0:
448,192,167380,1,0,0:0:0:0:
320,192,167457,1,0,0:0:0:0:
192,192,167533,1,0,0:0:0:0:
64,192,167610,1,0,0:0:0:0:
192,192,167687,1,0,0:0:0:0:
448,192,167763,1,0,0:0:0:0:
320,192,167840,1,0,0:0:0:0:
192,192,167916,1,0,0:0:0:0:
448,192,167993,1,0,0:0:0:0:
192,192,168069,1,0,0:0:0:0:
320,192,168069,1,0,0:0:0:0:
64,192,168146,1,0,0:0:0:0:
192,192,168222,1,0,0:0:0:0:
320,192,168299,1,0,0:0:0:0:
448,192,168299,1,0,0:0:0:0:
64,192,168375,1,0,0:0:0:0:
192,192,168452,1,0,0:0:0:0:
320,192,168452,1,0,0:0:0:0:
448,192,168528,1,0,0:0:0:0:
320,192,168605,1,0,0:0:0:0:
64,192,168681,1,0,0:0:0:0:
192,192,168758,1,0,0:0:0:0:
320,192,168758,1,0,0:0:0:0:
448,192,168834,1,0,0:0:0:0:
320,192,168911,1,0,0:0:0:0:
192,192,168911,1,0,0:0:0:0:
448,192,168988,1,0,0:0:0:0:
64,192,168988,1,0,0:0:0:0:
192,192,169064,1,0,0:0:0:0:
320,192,169141,1,0,0:0:0:0:
192,192,169217,1,0,0:0:0:0:
320,192,169294,1,0,0:0:0:0:
448,192,169294,1,0,0:0:0:0:
192,192,169370,1,0,0:0:0:0:
448,192,169447,1,0,0:0:0:0:
320,192,169447,1,0,0:0:0:0:
64,192,169447,1,0,0:0:0:0:
192,192,169523,1,0,0:0:0:0:
320,192,169600,1,0,0:0:0:0:
192,192,169676,1,0,0:0:0:0:
320,192,169753,1,0,0:0:0:0:
448,192,169753,1,0,0:0:0:0:
192,192,169829,1,0,0:0:0:0:
64,192,169906,1,0,0:0:0:0:
192,192,169982,1,0,0:0:0:0:
320,192,169982,1,0,0:0:0:0:
448,192,170059,1,0,0:0:0:0:
192,192,170136,1,0,0:0:0:0:
64,192,170136,1,0,0:0:0:0:
448,192,170212,1,0,0:0:0:0:
320,192,170289,1,0,0:0:0:0:
192,192,170365,1,0,0:0:0:0:
320,192,170442,1,0,0:0:0:0:
192,192,170518,1,0,0:0:0:0:
64,192,170518,1,0,0:0:0:0:
320,192,170595,1,0,0:0:0:0:
448,192,170671,1,0,0:0:0:0:
320,192,170748,1,0,0:0:0:0:
192,192,170748,1,0,0:0:0:0:
64,192,170824,1,0,0:0:0:0:
192,192,170901,1,0,0:0:0:0:
320,192,170977,1,0,0:0:0:0:
448,192,171054,1,0,0:0:0:0:
320,192,171130,1,0,0:0:0:0:
192,192,171130,1,0,0:0:0:0:
64,192,171207,1,0,0:0:0:0:
192,192,171283,1,0,0:0:0:0:
320,192,171283,1,0,0:0:0:0:
448,192,171360,1,0,0:0:0:0:
320,192,171437,1,0,0:0:0:0:
448,192,171513,1,0,0:0:0:0:
320,192,171590,1,0,0:0:0:0:
192,192,171666,1,0,0:0:0:0:
64,192,171743,1,0,0:0:0:0:
320,192,171743,1,0,0:0:0:0:
448,192,171819,1,0,0:0:0:0:
320,192,171896,1,0,0:0:0:0:
64,192,171896,1,0,0:0:0:0:
192,192,171896,1,0,0:0:0:0:
448,192,171972,1,0,0:0:0:0:
320,192,172049,1,0,0:0:0:0:
64,192,172049,1,0,0:0:0:0:
192,192,172125,1,0,0:0:0:0:
320,192,172202,1,0,0:0:0:0:
448,192,172202,1,0,0:0:0:0:
192,192,172278,1,0,0:0:0:0:
64,192,172355,1,0,0:0:0:0:
448,192,172355,1,0,0:0:0:0:
192,192,172431,1,0,0:0:0:0:
320,192,172508,1,0,0:0:0:0:
448,192,172508,1,0,0:0:0:0:
192,192,172584,1,0,0:0:0:0:
320,192,172661,1,0,0:0:0:0:
64,192,172738,1,0,0:0:0:0:
192,192,172814,1,0,0:0:0:0:
320,192,172814,1,0,0:0:0:0:
448,192,172891,1,0,0:0:0:0:
320,192,172967,1,0,0:0:0:0:
64,192,172967,1,0,0:0:0:0:
192,192,173044,1,0,0:0:0:0:
320,192,173120,1,0,0:0:0:0:
64,192,173197,1,0,0:0:0:0:
192,192,173273,1,0,0:0:0:0:
320,192,173273,1,0,0:0:0:0:
448,192,173350,1,0,0:0:0:0:
320,192,173426,1,0,0:0:0:0:
192,192,173426,1,0,0:0:0:0:
64,192,173503,1,0,0:0:0:0:
192,192,173579,1,0,0:0:0:0:
448,192,173579,1,0,0:0:0:0:
320,192,173656,1,0,0:0:0:0:
192,192,173732,1,0,0:0:0:0:
64,192,173732,1,0,0:0:0:0:
320,192,173809,1,0,0:0:0:0:
448,192,173886,1,0,0:0:0:0:
192,192,173886,1,0,0:0:0:0:
64,192,173962,1,0,0:0:0:0:
192,192,174039,1,0,0:0:0:0:
320,192,174039,1,0,0:0:0:0:
448,192,174115,1,0,0:0:0:0:
320,192,174192,1,0,0:0:0:0:
64,192,174192,1,0,0:0:0:0:
192,192,174268,1,0,0:0:0:0:
320,192,174345,1,0,0:0:0:0:
448,192,174345,1,0,0:0:0:0:
64,192,174421,1,0,0:0:0:0:
192,192,174498,1,0,0:0:0:0:
448,192,174574,1,0,0:0:0:0:
320,192,174651,1,0,0:0:0:0:
64,192,174727,1,0,0:0:0:0:
192,192,174727,1,0,0:0:0:0:
448,192,174804,1,0,0:0:0:0:
320,192,174804,1,0,0:0:0:0:
64,192,174880,1,0,0:0:0:0:
192,192,174957,1,0,0:0:0:0:
448,192,175033,1,0,0:0:0:0:
320,192,175110,1,0,0:0:0:0:
64,192,175187,1,0,0:0:0:0:
192,192,175187,1,0,0:0:0:0:
320,192,175263,1,0,0:0:0:0:
448,192,175263,1,0,0:0:0:0:
64,192,175340,1,0,0:0:0:0:
192,192,175416,1,0,0:0:0:0:
448,192,175493,1,0,0:0:0:0:
320,192,175569,1,0,0:0:0:0:
64,192,175646,1,0,0:0:0:0:
192,192,175722,1,0,0:0:0:0:
320,192,175799,1,0,0:0:0:0:
448,192,175799,1,0,0:0:0:0:
192,192,175875,1,0,0:0:0:0:
64,192,175875,1,0,0:0:0:0:
448,192,175952,1,0,0:0:0:0:
320,192,176028,1,0,0:0:0:0:
64,192,176105,1,0,0:0:0:0:
448,192,176181,128,0,176794:0:0:0:0:
320,192,176258,128,0,176794:0:0:0:0:
64,192,176258,128,0,177329:0:0:0:0:
192,192,176334,128,0,177023:0:0:0:0:
320,192,176870,128,0,177023:0:0:0:0:
448,192,176870,128,0,177636:0:0:0:0:
192,192,177100,128,0,177329:0:0:0:0:
320,192,177100,128,0,177636:0:0:0:0:
64,192,177406,128,0,177636:0:0:0:0:
192,192,177406,128,0,177636:0:0:0:0:
448,192,177789,1,0,0:0:0:0:
64,192,177789,1,0,0:0:0:0:
192,192,177789,1,0,0:0:0:0:
448,192,177942,1,0,0:0:0:0:
320,192,177942,1,0,0:0:0:0:
192,192,177942,1,0,0:0:0:0:
192,192,178095,1,0,0:0:0:0:
64,192,178095,1,0,0:0:0:0:
448,192,178095,1,0,0:0:0:0:
320,192,178554,1,0,0:0:0:0:
192,192,178554,1,0,0:0:0:0:
448,192,178554,1,0,0:0:0:0:
192,192,178860,1,0,0:0:0:0:
64,192,178860,1,0,0:0:0:0:
448,192,178860,1,0,0:0:0:0:
448,192,179013,1,0,0:0:0:0:
320,192,179013,1,0,0:0:0:0:
192,192,179013,1,0,0:0:0:0:
320,192,179625,1,0,0:0:0:0:
64,192,179625,1,0,0:0:0:0:
448,192,179625,1,0,0:0:0:0:
64,192,179778,1,0,0:0:0:0:
192,192,179778,1,0,0:0:0:0:
320,192,179778,1,0,0:0:0:0:
192,192,179931,1,0,0:0:0:0:
320,192,179931,1,0,0:0:0:0:
448,192,179931,1,0,0:0:0:0:
64,192,180084,128,0,180467:0:0:0:0:
192,192,180084,128,0,180314:0:0:0:0:
320,192,180084,128,0,180314:0:0:0:0:
448,192,180084,128,0,180467:0:0:0:0:
448,192,190263,5,0,0:0:0:0:
192,192,190263,5,0,0:0:0:0:
64,192,190263,1,0,0:0:0:0:
64,192,191926,1,0,0:0:0:0:
320,192,191926,1,0,0:0:0:0:
448,192,191926,1,0,0:0:0:0:
64,192,193685,1,0,0:0:0:0:
192,192,193685,1,0,0:0:0:0:
320,192,193685,1,0,0:0:0:0:
320,192,195035,1,0,0:0:0:0:
192,192,195035,1,0,0:0:0:0:
448,192,195450,1,0,0:0:0:0:
320,192,195527,1,0,0:0:0:0:
192,192,195603,1,0,0:0:0:0:
64,192,195603,1,0,0:0:0:0:
320,192,195680,1,0,0:0:0:0:
448,192,195756,1,0,0:0:0:0:
320,192,195833,1,0,0:0:0:0:
192,192,195833,1,0,0:0:0:0:
64,192,195909,1,0,0:0:0:0:
192,192,195986,1,0,0:0:0:0:
320,192,195986,1,0,0:0:0:0:
448,192,196062,1,0,0:0:0:0:
320,192,196139,1,0,0:0:0:0:
192,192,196215,1,0,0:0:0:0:
64,192,196292,1,0,0:0:0:0:
192,192,196368,1,0,0:0:0:0:
320,192,196368,1,0,0:0:0:0:
448,192,196445,1,0,0:0:0:0:
320,192,196521,1,0,0:0:0:0:
448,192,196598,1,0,0:0:0:0:
320,192,196675,1,0,0:0:0:0:
64,192,196675,1,0,0:0:0:0:
192,192,196751,1,0,0:0:0:0:
320,192,196828,1,0,0:0:0:0:
192,192,196904,1,0,0:0:0:0:
64,192,196904,1,0,0:0:0:0:
320,192,196981,1,0,0:0:0:0:
448,192,197057,1,0,0:0:0:0:
320,192,197134,1,0,0:0:0:0:
192,192,197210,1,0,0:0:0:0:
64,192,197287,1,0,0:0:0:0:
192,192,197363,1,0,0:0:0:0:
448,192,197363,1,0,0:0:0:0:
320,192,197440,1,0,0:0:0:0:
64,192,197516,1,0,0:0:0:0:
192,192,197593,1,0,0:0:0:0:
448,192,197593,1,0,0:0:0:0:
320,192,197669,1,0,0:0:0:0:
192,192,197746,1,0,0:0:0:0:
64,192,197823,1,0,0:0:0:0:
448,192,197823,1,0,0:0:0:0:
320,192,197899,1,0,0:0:0:0:
64,192,197976,1,0,0:0:0:0:
192,192,198052,1,0,0:0:0:0:
320,192,198129,1,0,0:0:0:0:
64,192,198205,1,0,0:0:0:0:
192,192,198282,1,0,0:0:0:0:
448,192,198282,1,0,0:0:0:0:
320,192,198358,1,0,0:0:0:0:
192,192,198435,1,0,0:0:0:0:
64,192,198435,1,0,0:0:0:0:
320,192,198511,1,0,0:0:0:0:
448,192,198588,1,0,0:0:0:0:
192,192,198664,1,0,0:0:0:0:
64,192,198664,1,0,0:0:0:0:
320,192,198664,1,0,0:0:0:0:
448,192,198741,1,0,0:0:0:0:
320,192,198817,1,0,0:0:0:0:
192,192,198894,1,0,0:0:0:0:
320,192,198970,1,0,0:0:0:0:
448,192,198970,1,0,0:0:0:0:
64,192,199047,1,0,0:0:0:0:
192,192,199124,1,0,0:0:0:0:
320,192,199124,1,0,0:0:0:0:
64,192,199200,1,0,0:0:0:0:
320,192,199277,1,0,0:0:0:0:
448,192,199277,1,0,0:0:0:0:
192,192,199353,1,0,0:0:0:0:
64,192,199430,1,0,0:0:0:0:
192,192,199506,1,0,0:0:0:0:
448,192,199506,1,0,0:0:0:0:
320,192,199583,1,0,0:0:0:0:
192,192,199659,1,0,0:0:0:0:
64,192,199659,1,0,0:0:0:0:
320,192,199736,1,0,0:0:0:0:
192,192,199812,1,0,0:0:0:0:
448,192,199889,1,0,0:0:0:0:
320,192,199889,1,0,0:0:0:0:
192,192,199965,1,0,0:0:0:0:
64,192,199965,1,0,0:0:0:0:
320,192,200042,1,0,0:0:0:0:
448,192,200118,1,0,0:0:0:0:
192,192,200118,1,0,0:0:0:0:
64,192,200118,1,0,0:0:0:0:
320,192,200195,1,0,0:0:0:0:
192,192,200271,1,0,0:0:0:0:
320,192,200348,1,0,0:0:0:0:
448,192,200348,1,0,0:0:0:0:
192,192,200425,1,0,0:0:0:0:
64,192,200425,1,0,0:0:0:0:
320,192,200501,1,0,0:0:0:0:
192,192,200578,1,0,0:0:0:0:
64,192,200578,1,0,0:0:0:0:
320,192,200654,1,0,0:0:0:0:
448,192,200654,1,0,0:0:0:0:
192,192,200731,1,0,0:0:0:0:
64,192,200807,1,0,0:0:0:0:
192,192,200884,1,0,0:0:0:0:
320,192,200884,1,0,0:0:0:0:
448,192,200960,1,0,0:0:0:0:
320,192,201037,1,0,0:0:0:0:
192,192,201113,1,0,0:0:0:0:
64,192,201190,1,0,0:0:0:0:
448,192,201190,1,0,0:0:0:0:
320,192,201266,1,0,0:0:0:0:
64,192,201343,1,0,0:0:0:0:
192,192,201419,1,0,0:0:0:0:
320,192,201496,1,0,0:0:0:0:
448,192,201573,1,0,0:0:0:0:
192,192,201649,1,0,0:0:0:0:
64,192,201649,1,0,0:0:0:0:
320,192,201726,1,0,0:0:0:0:
448,192,201802,1,0,0:0:0:0:
192,192,201802,1,0,0:0:0:0:
64,192,201879,1,0,0:0:0:0:
192,192,201955,1,0,0:0:0:0:
320,192,201955,1,0,0:0:0:0:
448,192,202032,1,0,0:0:0:0:
320,192,202108,1,0,0:0:0:0:
64,192,202108,1,0,0:0:0:0:
192,192,202185,1,0,0:0:0:0:
320,192,202261,1,0,0:0:0:0:
448,192,202261,1,0,0:0:0:0:
64,192,202338,1,0,0:0:0:0:
192,192,202414,1,0,0:0:0:0:
320,192,202414,1,0,0:0:0:0:
448,192,202491,1,0,0:0:0:0:
320,192,202567,1,0,0:0:0:0:
192,192,202644,1,0,0:0:0:0:
64,192,202644,1,0,0:0:0:0:
320,192,202720,1,0,0:0:0:0:
64,192,202797,1,0,0:0:0:0:
192,192,202874,1,0,0:0:0:0:
448,192,202874,1,0,0:0:0:0:
320,192,202950,1,0,0:0:0:0:
192,192,203027,1,0,0:0:0:0:
448,192,203103,1,0,0:0:0:0:
320,192,203180,1,0,0:0:0:0:
64,192,203256,1,0,0:0:0:0:
192,192,203333,1,0,0:0:0:0:
320,192,203409,1,0,0:0:0:0:
448,192,203409,1,0,0:0:0:0:
64,192,203486,1,0,0:0:0:0:
192,192,203562,1,0,0:0:0:0:
320,192,203562,1,0,0:0:0:0:
448,192,203639,1,0,0:0:0:0:
320,192,203715,1,0,0:0:0:0:
448,192,203792,1,0,0:0:0:0:
320,192,203868,1,0,0:0:0:0:
64,192,203868,1,0,0:0:0:0:
192,192,203945,1,0,0:0:0:0:
320,192,204021,1,0,0:0:0:0:
448,192,204021,1,0,0:0:0:0:
192,192,204098,1,0,0:0:0:0:
64,192,204098,1,0,0:0:0:0:
320,192,204175,1,0,0:0:0:0:
448,192,204175,1,0,0:0:0:0:
64,192,204251,1,0,0:0:0:0:
192,192,204328,1,0,0:0:0:0:
448,192,204328,1,0,0:0:0:0:
320,192,204404,1,0,0:0:0:0:
64,192,204481,1,0,0:0:0:0:
448,192,204481,1,0,0:0:0:0:
320,192,204557,1,0,0:0:0:0:
192,192,204634,1,0,0:0:0:0:
64,192,204710,1,0,0:0:0:0:
320,192,204710,1,0,0:0:0:0:
192,192,204787,1,0,0:0:0:0:
448,192,204863,1,0,0:0:0:0:
320,192,204940,1,0,0:0:0:0:
192,192,204940,1,0,0:0:0:0:
64,192,205016,1,0,0:0:0:0:
192,192,205093,1,0,0:0:0:0:
448,192,205093,1,0,0:0:0:0:
320,192,205169,1,0,0:0:0:0:
64,192,205246,1,0,0:0:0:0:
192,192,205246,1,0,0:0:0:0:
320,192,205323,1,0,0:0:0:0:
448,192,205399,1,0,0:0:0:0:
64,192,205476,1,0,0:0:0:0:
192,192,205476,1,0,0:0:0:0:
448,192,205552,1,0,0:0:0:0:
320,192,205629,1,0,0:0:0:0:
64,192,205629,1,0,0:0:0:0:
192,192,205705,1,0,0:0:0:0:
320,192,205782,1,0,0:0:0:0:
448,192,205782,1,0,0:0:0:0:
192,192,205858,1,0,0:0:0:0:
320,192,205935,1,0,0:0:0:0:
64,192,205935,1,0,0:0:0:0:
192,192,206011,1,0,0:0:0:0:
320,192,206088,1,0,0:0:0:0:
448,192,206088,1,0,0:0:0:0:
192,192,206164,1,0,0:0:0:0:
64,192,206241,1,0,0:0:0:0:
448,192,206241,1,0,0:0:0:0:
320,192,206317,1,0,0:0:0:0:
192,192,206394,1,0,0:0:0:0:
320,192,206470,1,0,0:0:0:0:
448,192,206547,1,0,0:0:0:0:
192,192,206547,1,0,0:0:0:0:
64,192,206547,1,0,0:0:0:0:
320,192,206624,1,0,0:0:0:0:
192,192,206700,1,0,0:0:0:0:
64,192,206700,1,0,0:0:0:0:
448,192,206700,1,0,0:0:0:0:
64,192,206777,1,0,0:0:0:0:
320,192,206777,1,0,0:0:0:0:
192,192,206853,1,0,0:0:0:0:
448,192,206930,1,0,0:0:0:0:
320,192,207006,1,0,0:0:0:0:
192,192,207083,1,0,0:0:0:0:
320,192,207159,1,0,0:0:0:0:
64,192,207159,1,0,0:0:0:0:
448,192,207236,1,0,0:0:0:0:
320,192,207312,1,0,0:0:0:0:
192,192,207389,1,0,0:0:0:0:
64,192,207389,1,0,0:0:0:0:
320,192,207465,1,0,0:0:0:0:
448,192,207542,1,0,0:0:0:0:
320,192,207618,1,0,0:0:0:0:
192,192,207618,1,0,0:0:0:0:
64,192,207695,1,0,0:0:0:0:
192,192,207771,1,0,0:0:0:0:
320,192,207771,1,0,0:0:0:0:
448,192,207848,1,0,0:0:0:0:
320,192,207925,1,0,0:0:0:0:
64,192,207925,1,0,0:0:0:0:
192,192,208001,1,0,0:0:0:0:
320,192,208078,1,0,0:0:0:0:
448,192,208078,1,0,0:0:0:0:
192,192,208154,1,0,0:0:0:0:
64,192,208231,1,0,0:0:0:0:
448,192,208231,1,0,0:0:0:0:
320,192,208307,1,0,0:0:0:0:
192,192,208384,1,0,0:0:0:0:
64,192,208384,1,0,0:0:0:0:
320,192,208460,1,0,0:0:0:0:
448,192,208537,1,0,0:0:0:0:
320,192,208613,1,0,0:0:0:0:
192,192,208613,1,0,0:0:0:0:
448,192,208690,1,0,0:0:0:0:
64,192,208690,1,0,0:0:0:0:
192,192,208766,1,0,0:0:0:0:
320,192,208843,1,0,0:0:0:0:
448,192,208919,1,0,0:0:0:0:
320,192,208996,1,0,0:0:0:0:
192,192,208996,1,0,0:0:0:0:
64,192,209073,1,0,0:0:0:0:
448,192,209073,1,0,0:0:0:0:
192,192,209149,1,0,0:0:0:0:
320,192,209226,1,0,0:0:0:0:
448,192,209226,1,0,0:0:0:0:
192,192,209302,1,0,0:0:0:0:
64,192,209302,1,0,0:0:0:0:
448,192,209379,1,0,0:0:0:0:
320,192,209455,1,0,0:0:0:0:
192,192,209532,1,0,0:0:0:0:
320,192,209608,1,0,0:0:0:0:
448,192,209608,1,0,0:0:0:0:
64,192,209950,1,0,0:0:0:0:
448,192,209950,1,0,0:0:0:0:
320,192,209950,1,0,0:0:0:0:
448,192,210084,1,0,0:0:0:0:
320,192,210084,1,0,0:0:0:0:
64,192,210084,1,0,0:0:0:0:
448,192,210217,1,0,0:0:0:0:
320,192,210217,1,0,0:0:0:0:
64,192,210217,1,0,0:0:0:0:
64,192,210350,1,0,0:0:0:0:
320,192,210350,1,0,0:0:0:0:
448,192,210350,1,0,0:0:0:0:
448,192,210750,1,0,0:0:0:0:
192,192,210750,1,0,0:0:0:0:
64,192,210750,1,0,0:0:0:0:
448,192,210884,1,0,0:0:0:0:
64,192,210884,1,0,0:0:0:0:
192,192,210884,1,0,0:0:0:0:
64,192,211017,1,0,0:0:0:0:
192,192,211017,1,0,0:0:0:0:
448,192,211017,1,0,0:0:0:0:
64,192,211150,1,0,0:0:0:0:
448,192,211150,1,0,0:0:0:0:
192,192,211150,1,0,0:0:0:0:
320,192,211550,1,0,0:0:0:0:
448,192,211550,1,0,0:0:0:0:
192,192,211550,1,0,0:0:0:0:
320,192,211684,1,0,0:0:0:0:
192,192,211684,1,0,0:0:0:0:
448,192,211684,1,0,0:0:0:0:
192,192,211817,1,0,0:0:0:0:
448,192,211817,1,0,0:0:0:0:
320,192,211817,1,0,0:0:0:0:
448,192,211950,1,0,0:0:0:0:
192,192,211950,1,0,0:0:0:0:
320,192,211950,1,0,0:0:0:0:
448,192,212350,1,0,0:0:0:0:
320,192,212350,1,0,0:0:0:0:
64,192,212350,1,0,0:0:0:0:
64,192,212617,1,0,0:0:0:0:
192,192,212617,1,0,0:0:0:0:
320,192,212617,1,0,0:0:0:0:
448,192,212884,1,0,0:0:0:0:
320,192,212884,1,0,0:0:0:0:
64,192,212884,1,0,0:0:0:0:
448,192,213150,1,0,0:0:0:0:
192,192,213150,1,0,0:0:0:0:
64,192,213150,1,0,0:0:0:0:
448,192,213284,1,0,0:0:0:0:
64,192,213284,1,0,0:0:0:0:
192,192,213284,1,0,0:0:0:0:
64,192,213417,1,0,0:0:0:0:
320,192,213417,1,0,0:0:0:0:
448,192,213417,1,0,0:0:0:0:
320,192,213550,1,0,0:0:0:0:
64,192,213550,1,0,0:0:0:0:
448,192,213550,1,0,0:0:0:0:
64,192,214017,1,0,0:0:0:0:
192,192,214017,1,0,0:0:0:0:
320,192,214017,1,0,0:0:0:0:
64,192,214150,1,0,0:0:0:0:
320,192,214150,1,0,0:0:0:0:
192,192,214150,1,0,0:0:0:0:
320,192,214284,1,0,0:0:0:0:
192,192,214284,1,0,0:0:0:0:
448,192,214284,1,0,0:0:0:0:
320,192,214417,1,0,0:0:0:0:
192,192,214417,1,0,0:0:0:0:
448,192,214417,1,0,0:0:0:0:
448,192,214817,1,0,0:0:0:0:
192,192,214817,1,0,0:0:0:0:
320,192,214817,1,0,0:0:0:0:
448,192,214950,1,0,0:0:0:0:
320,192,214950,1,0,0:0:0:0:
192,192,214950,1,0,0:0:0:0:
320,192,215084,1,0,0:0:0:0:
192,192,215084,1,0,0:0:0:0:
448,192,215084,1,0,0:0:0:0:
320,192,215217,1,0,0:0:0:0:
448,192,215217,1,0,0:0:0:0:
192,192,215217,1,0,0:0:0:0:
64,192,215617,1,0,0:0:0:0:
448,192,215617,1,0,0:0:0:0:
320,192,215617,1,0,0:0:0:0:
448,192,215884,1,0,0:0:0:0:
192,192,215884,1,0,0:0:0:0:
64,192,215884,1,0,0:0:0:0:
64,192,216150,1,0,0:0:0:0:
192,192,216150,1,0,0:0:0:0:
320,192,216150,1,0,0:0:0:0:
64,192,216417,1,0,0:0:0:0:
448,192,216417,1,0,0:0:0:0:
192,192,216417,1,0,0:0:0:0:
192,192,216550,1,0,0:0:0:0:
448,192,216550,1,0,0:0:0:0:
64,192,216550,1,0,0:0:0:0:
192,192,216684,1,0,0:0:0:0:
448,192,216684,1,0,0:0:0:0:
64,192,216684,1,0,0:0:0:0:
448,192,216817,1,0,0:0:0:0:
192,192,216817,1,0,0:0:0:0:
64,192,216817,1,0,0:0:0:0:
448,192,217217,1,0,0:0:0:0:
192,192,217217,1,0,0:0:0:0:
320,192,217217,1,0,0:0:0:0:
448,192,217350,1,0,0:0:0:0:
320,192,217350,1,0,0:0:0:0:
192,192,217350,1,0,0:0:0:0:
320,192,217484,1,0,0:0:0:0:
192,192,217484,1,0,0:0:0:0:
64,192,217484,1,0,0:0:0:0:
320,192,217617,1,0,0:0:0:0:
64,192,217617,1,0,0:0:0:0:
192,192,217617,1,0,0:0:0:0:
64,192,218017,1,0,0:0:0:0:
320,192,218017,1,0,0:0:0:0:
448,192,218017,1,0,0:0:0:0:
320,192,218150,1,0,0:0:0:0:
448,192,218150,1,0,0:0:0:0:
64,192,218150,1,0,0:0:0:0:
448,192,218284,1,0,0:0:0:0:
320,192,218284,1,0,0:0:0:0:
192,192,218284,1,0,0:0:0:0:
448,192,218417,1,0,0:0:0:0:
192,192,218417,1,0,0:0:0:0:
320,192,218417,1,0,0:0:0:0:
64,192,218817,1,0,0:0:0:0:
192,192,218817,1,0,0:0:0:0:
448,192,218817,1,0,0:0:0:0:
448,192,219084,1,0,0:0:0:0:
320,192,219084,1,0,0:0:0:0:
64,192,219084,1,0,0:0:0:0:
192,192,219350,1,0,0:0:0:0:
448,192,219350,1,0,0:0:0:0:
64,192,219350,1,0,0:0:0:0:
192,192,219617,1,0,0:0:0:0:
64,192,219617,1,0,0:0:0:0:
320,192,219617,1,0,0:0:0:0:
64,192,219750,1,0,0:0:0:0:
320,192,219750,1,0,0:0:0:0:
192,192,219750,1,0,0:0:0:0:
64,192,219884,1,0,0:0:0:0:
320,192,219884,1,0,0:0:0:0:
192,192,219884,1,0,0:0:0:0:
320,192,220017,1,0,0:0:0:0:
64,192,220017,1,0,0:0:0:0:
192,192,220017,1,0,0:0:0:0:
64,192,220484,1,0,0:0:0:0:
320,192,220484,1,0,0:0:0:0:
448,192,220484,1,0,0:0:0:0:
320,192,220617,1,0,0:0:0:0:
448,192,220617,1,0,0:0:0:0:
64,192,220617,1,0,0:0:0:0:
448,192,220750,1,0,0:0:0:0:
64,192,220750,1,0,0:0:0:0:
320,192,220750,1,0,0:0:0:0:
448,192,220884,1,0,0:0:0:0:
320,192,220884,1,0,0:0:0:0:
64,192,220884,1,0,0:0:0:0:
448,192,221284,1,0,0:0:0:0:
192,192,221284,1,0,0:0:0:0:
320,192,221284,1,0,0:0:0:0:
448,192,221417,1,0,0:0:0:0:
320,192,221417,1,0,0:0:0:0:
192,192,221417,1,0,0:0:0:0:
64,192,221550,1,0,0:0:0:0:
192,192,221550,1,0,0:0:0:0:
448,192,221550,1,0,0:0:0:0:
64,192,221684,1,0,0:0:0:0:
448,192,221684,1,0,0:0:0:0:
192,192,221684,1,0,0:0:0:0:
192,192,222084,1,0,0:0:0:0:
64,192,222084,1,0,0:0:0:0:
64,192,222217,1,0,0:0:0:0:
192,192,222217,1,0,0:0:0:0:
64,192,222350,1,0,0:0:0:0:
192,192,222350,1,0,0:0:0:0:
320,192,222484,1,0,0:0:0:0:
448,192,222484,1,0,0:0:0:0:
320,192,222617,1,0,0:0:0:0:
448,192,222617,1,0,0:0:0:0:
320,192,222750,1,0,0:0:0:0:
448,192,222750,1,0,0:0:0:0:
64,192,222881,1,0,0:0:0:0:
192,192,222958,1,0,0:0:0:0:
320,192,222958,1,0,0:0:0:0:
448,192,223034,1,0,0:0:0:0:
320,192,223111,1,0,0:0:0:0:
192,192,223187,1,0,0:0:0:0:
64,192,223264,1,0,0:0:0:0:
192,192,223340,1,0,0:0:0:0:
320,192,223417,1,0,0:0:0:0:
448,192,223417,1,0,0:0:0:0:
192,192,223493,1,0,0:0:0:0:
64,192,223570,1,0,0:0:0:0:
192,192,223646,1,0,0:0:0:0:
320,192,223646,1,0,0:0:0:0:
448,192,223723,1,0,0:0:0:0:
320,192,223799,1,0,0:0:0:0:
64,192,223799,1,0,0:0:0:0:
192,192,223876,1,0,0:0:0:0:
320,192,223952,1,0,0:0:0:0:
448,192,223952,1,0,0:0:0:0:
192,192,224029,1,0,0:0:0:0:
320,192,224106,1,0,0:0:0:0:
64,192,224182,1,0,0:0:0:0:
192,192,224259,1,0,0:0:0:0:
320,192,224335,1,0,0:0:0:0:
448,192,224412,1,0,0:0:0:0:
320,192,224488,1,0,0:0:0:0:
192,192,224488,1,0,0:0:0:0:
64,192,224565,1,0,0:0:0:0:
192,192,224641,1,0,0:0:0:0:
320,192,224641,1,0,0:0:0:0:
64,192,224718,1,0,0:0:0:0:
192,192,224794,1,0,0:0:0:0:
448,192,224794,1,0,0:0:0:0:
320,192,224871,1,0,0:0:0:0:
192,192,224947,1,0,0:0:0:0:
64,192,224947,1,0,0:0:0:0:
320,192,225024,1,0,0:0:0:0:
448,192,225100,1,0,0:0:0:0:
64,192,225100,1,0,0:0:0:0:
192,192,225177,1,0,0:0:0:0:
320,192,225177,1,0,0:0:0:0:
64,192,225253,1,0,0:0:0:0:
192,192,225330,1,0,0:0:0:0:
320,192,225330,1,0,0:0:0:0:
448,192,225407,1,0,0:0:0:0:
320,192,225483,1,0,0:0:0:0:
192,192,225560,1,0,0:0:0:0:
64,192,225560,1,0,0:0:0:0:
320,192,225636,1,0,0:0:0:0:
448,192,225713,1,0,0:0:0:0:
64,192,225713,1,0,0:0:0:0:
192,192,225789,1,0,0:0:0:0:
320,192,225866,1,0,0:0:0:0:
64,192,225942,1,0,0:0:0:0:
448,192,225942,1,0,0:0:0:0:
192,192,226019,1,0,0:0:0:0:
320,192,226095,1,0,0:0:0:0:
448,192,226095,1,0,0:0:0:0:
192,192,226172,1,0,0:0:0:0:
448,192,226172,1,0,0:0:0:0:
64,192,226248,1,0,0:0:0:0:
192,192,226325,1,0,0:0:0:0:
320,192,226401,1,0,0:0:0:0:
64,192,226478,1,0,0:0:0:0:
192,192,226555,1,0,0:0:0:0:
448,192,226631,1,0,0:0:0:0:
320,192,226708,1,0,0:0:0:0:
192,192,226784,1,0,0:0:0:0:
448,192,226861,1,0,0:0:0:0:
320,192,226937,1,0,0:0:0:0:
192,192,227014,1,0,0:0:0:0:
64,192,227090,1,0,0:0:0:0:
192,192,227167,1,0,0:0:0:0:
320,192,227243,1,0,0:0:0:0:
192,192,227320,1,0,0:0:0:0:
320,192,227396,1,0,0:0:0:0:
448,192,227473,1,0,0:0:0:0:
320,192,227549,1,0,0:0:0:0:
192,192,227549,1,0,0:0:0:0:
64,192,227626,1,0,0:0:0:0:
192,192,227702,1,0,0:0:0:0:
448,192,227702,1,0,0:0:0:0:
320,192,227779,1,0,0:0:0:0:
64,192,227856,1,0,0:0:0:0:
192,192,227856,1,0,0:0:0:0:
320,192,227932,1,0,0:0:0:0:
448,192,228009,1,0,0:0:0:0:
64,192,228009,1,0,0:0:0:0:
192,192,228085,1,0,0:0:0:0:
320,192,228162,1,0,0:0:0:0:
448,192,228162,1,0,0:0:0:0:
192,192,228238,1,0,0:0:0:0:
64,192,228315,1,0,0:0:0:0:
192,192,228391,1,0,0:0:0:0:
320,192,228391,1,0,0:0:0:0:
448,192,228468,1,0,0:0:0:0:
320,192,228544,1,0,0:0:0:0:
64,192,228544,1,0,0:0:0:0:
192,192,228621,1,0,0:0:0:0:
320,192,228697,1,0,0:0:0:0:
448,192,228697,1,0,0:0:0:0:
192,192,228774,1,0,0:0:0:0:
64,192,228850,1,0,0:0:0:0:
192,192,228927,1,0,0:0:0:0:
320,192,228927,1,0,0:0:0:0:
448,192,229003,1,0,0:0:0:0:
320,192,229080,1,0,0:0:0:0:
64,192,229080,1,0,0:0:0:0:
192,192,229157,1,0,0:0:0:0:
320,192,229233,1,0,0:0:0:0:
448,192,229233,1,0,0:0:0:0:
192,192,229310,1,0,0:0:0:0:
64,192,229386,1,0,0:0:0:0:
192,192,229463,1,0,0:0:0:0:
320,192,229463,1,0,0:0:0:0:
448,192,229539,1,0,0:0:0:0:
320,192,229616,1,0,0:0:0:0:
64,192,229616,1,0,0:0:0:0:
192,192,229692,1,0,0:0:0:0:
320,192,229769,1,0,0:0:0:0:
448,192,229769,1,0,0:0:0:0:
192,192,229845,1,0,0:0:0:0:
64,192,229922,1,0,0:0:0:0:
192,192,229998,1,0,0:0:0:0:
320,192,230075,1,0,0:0:0:0:
192,192,230151,1,0,0:0:0:0:
64,192,230151,1,0,0:0:0:0:
320,192,230228,1,0,0:0:0:0:
448,192,230305,1,0,0:0:0:0:
320,192,230381,1,0,0:0:0:0:
192,192,230381,1,0,0:0:0:0:
64,192,230458,1,0,0:0:0:0:
192,192,230534,1,0,0:0:0:0:
448,192,230534,1,0,0:0:0:0:
320,192,230611,1,0,0:0:0:0:
192,192,230687,1,0,0:0:0:0:
64,192,230687,1,0,0:0:0:0:
320,192,230764,1,0,0:0:0:0:
448,192,230840,1,0,0:0:0:0:
320,192,230917,1,0,0:0:0:0:
64,192,230917,1,0,0:0:0:0:
192,192,230993,1,0,0:0:0:0:
320,192,231070,1,0,0:0:0:0:
448,192,231070,1,0,0:0:0:0:
192,192,231146,1,0,0:0:0:0:
64,192,231223,1,0,0:0:0:0:
192,192,231299,1,0,0:0:0:0:
320,192,231376,1,0,0:0:0:0:
448,192,231376,1,0,0:0:0:0:
192,192,231452,1,0,0:0:0:0:
64,192,231529,1,0,0:0:0:0:
192,192,231606,1,0,0:0:0:0:
320,192,231606,1,0,0:0:0:0:
448,192,231682,1,0,0:0:0:0:
320,192,231759,1,0,0:0:0:0:
192,192,231835,1,0,0:0:0:0:
64,192,231912,1,0,0:0:0:0:
192,192,231988,1,0,0:0:0:0:
320,192,231988,1,0,0:0:0:0:
448,192,232065,1,0,0:0:0:0:
320,192,232141,1,0,0:0:0:0:
64,192,232141,1,0,0:0:0:0:
192,192,232218,1,0,0:0:0:0:
320,192,232294,1,0,0:0:0:0:
448,192,232294,1,0,0:0:0:0:
192,192,232371,1,0,0:0:0:0:
64,192,232447,1,0,0:0:0:0:
192,192,232524,1,0,0:0:0:0:
320,192,232524,1,0,0:0:0:0:
448,192,232524,1,0,0:0:0:0:
64,192,232600,1,0,0:0:0:0:
192,192,232677,1,0,0:0:0:0:
320,192,232677,1,0,0:0:0:0:
448,192,232753,1,0,0:0:0:0:
320,192,232830,1,0,0:0:0:0:
192,192,232907,1,0,0:0:0:0:
64,192,232907,1,0,0:0:0:0:
320,192,232983,1,0,0:0:0:0:
448,192,233060,1,0,0:0:0:0:
192,192,233136,1,0,0:0:0:0:
64,192,233213,1,0,0:0:0:0:
192,192,233289,1,0,0:0:0:0:
320,192,233289,1,0,0:0:0:0:
448,192,233366,1,0,0:0:0:0:
64,192,233442,1,0,0:0:0:0:
192,192,233519,1,0,0:0:0:0:
320,192,233595,1,0,0:0:0:0:
448,192,233595,1,0,0:0:0:0:
192,192,233672,1,0,0:0:0:0:
64,192,233748,1,0,0:0:0:0:
448,192,233825,1,0,0:0:0:0:
320,192,233901,1,0,0:0:0:0:
64,192,233901,1,0,0:0:0:0:
192,192,233978,1,0,0:0:0:0:
320,192,234055,1,0,0:0:0:0:
448,192,234055,1,0,0:0:0:0:
192,192,234131,1,0,0:0:0:0:
64,192,234208,1,0,0:0:0:0:
192,192,234284,1,0,0:0:0:0:
320,192,234284,1,0,0:0:0:0:
448,192,234361,1,0,0:0:0:0:
320,192,234437,1,0,0:0:0:0:
64,192,234437,1,0,0:0:0:0:
192,192,234514,1,0,0:0:0:0:
320,192,234590,1,0,0:0:0:0:
448,192,234590,1,0,0:0:0:0:
192,192,234667,1,0,0:0:0:0:
448,192,234667,1,0,0:0:0:0:
64,192,234743,1,0,0:0:0:0:
192,192,234820,1,0,0:0:0:0:
320,192,234896,1,0,0:0:0:0:
448,192,234896,1,0,0:0:0:0:
192,192,234973,1,0,0:0:0:0:
64,192,235049,1,0,0:0:0:0:
192,192,235126,1,0,0:0:0:0:
320,192,235126,1,0,0:0:0:0:
448,192,235202,1,0,0:0:0:0:
320,192,235279,1,0,0:0:0:0:
64,192,235279,1,0,0:0:0:0:
192,192,235356,1,0,0:0:0:0:
320,192,235432,1,0,0:0:0:0:
448,192,235432,1,0,0:0:0:0:
192,192,235509,1,0,0:0:0:0:
64,192,235585,1,0,0:0:0:0:
192,192,235662,1,0,0:0:0:0:
320,192,235662,1,0,0:0:0:0:
448,192,235738,1,0,0:0:0:0:
320,192,235815,1,0,0:0:0:0:
192,192,235891,1,0,0:0:0:0:
64,192,235891,1,0,0:0:0:0:
320,192,235968,1,0,0:0:0:0:
448,192,236044,1,0,0:0:0:0:
192,192,236121,1,0,0:0:0:0:
320,192,236197,1,0,0:0:0:0:
64,192,236197,1,0,0:0:0:0:
448,192,236274,1,0,0:0:0:0:
320,192,236350,1,0,0:0:0:0:
192,192,236350,1,0,0:0:0:0:
64,192,236427,1,0,0:0:0:0:
192,192,236503,1,0,0:0:0:0:
448,192,236503,1,0,0:0:0:0:
320,192,236580,1,0,0:0:0:0:
192,192,236657,1,0,0:0:0:0:
64,192,236657,1,0,0:0:0:0:
320,192,236733,1,0,0:0:0:0:
448,192,236810,1,0,0:0:0:0:
64,192,236886,1,0,0:0:0:0:
320,192,236886,1,0,0:0:0:0:
192,192,236963,1,0,0:0:0:0:
320,192,237039,1,0,0:0:0:0:
448,192,237039,1,0,0:0:0:0:
192,192,237116,1,0,0:0:0:0:
64,192,237192,1,0,0:0:0:0:
192,192,237269,1,0,0:0:0:0:
320,192,237269,1,0,0:0:0:0:
448,192,237345,1,0,0:0:0:0:
320,192,237422,1,0,0:0:0:0:
64,192,237422,1,0,0:0:0:0:
192,192,237498,1,0,0:0:0:0:
320,192,237575,1,0,0:0:0:0:
448,192,237575,1,0,0:0:0:0:
192,192,237651,1,0,0:0:0:0:
64,192,237728,1,0,0:0:0:0:
192,192,237805,1,0,0:0:0:0:
320,192,237805,1,0,0:0:0:0:
448,192,237881,1,0,0:0:0:0:
320,192,237958,1,0,0:0:0:0:
448,192,238034,1,0,0:0:0:0:
320,192,238111,1,0,0:0:0:0:
192,192,238187,1,0,0:0:0:0:
64,192,238264,1,0,0:0:0:0:
448,192,238264,1,0,0:0:0:0:
320,192,238340,1,0,0:0:0:0:
192,192,238417,1,0,0:0:0:0:
320,192,238493,1,0,0:0:0:0:
448,192,238493,1,0,0:0:0:0:
64,192,238570,1,0,0:0:0:0:
192,192,238646,1,0,0:0:0:0:
320,192,238723,1,0,0:0:0:0:
448,192,238723,1,0,0:0:0:0:
64,192,238799,1,0,0:0:0:0:
192,192,238876,1,0,0:0:0:0:
448,192,238876,1,0,0:0:0:0:
320,192,238952,1,0,0:0:0:0:
448,192,239029,1,0,0:0:0:0:
320,192,239106,1,0,0:0:0:0:
64,192,239106,1,0,0:0:0:0:
192,192,239182,1,0,0:0:0:0:
64,192,239259,1,0,0:0:0:0:
192,192,239335,1,0,0:0:0:0:
448,192,239335,1,0,0:0:0:0:
320,192,239412,1,0,0:0:0:0:
64,192,239488,1,0,0:0:0:0:
448,192,239488,1,0,0:0:0:0:
192,192,239565,1,0,0:0:0:0:
320,192,239641,1,0,0:0:0:0:
448,192,239718,1,0,0:0:0:0:
320,192,239794,1,0,0:0:0:0:
64,192,239794,1,0,0:0:0:0:
448,192,239871,1,0,0:0:0:0:
320,192,239947,1,0,0:0:0:0:
192,192,239947,1,0,0:0:0:0:
448,192,240024,1,0,0:0:0:0:
64,192,240024,1,0,0:0:0:0:
192,192,240100,1,0,0:0:0:0:
64,192,240177,1,0,0:0:0:0:
192,192,240253,1,0,0:0:0:0:
320,192,240253,1,0,0:0:0:0:
448,192,240330,1,0,0:0:0:0:
320,192,240407,1,0,0:0:0:0:
448,192,240483,1,0,0:0:0:0:
64,192,240483,1,0,0:0:0:0:
192,192,240560,1,0,0:0:0:0:
320,192,240636,1,0,0:0:0:0:
448,192,240636,1,0,0:0:0:0:
192,192,240713,1,0,0:0:0:0:
64,192,240789,1,0,0:0:0:0:
320,192,240866,1,0,0:0:0:0:
192,192,240866,1,0,0:0:0:0:
448,192,240942,1,0,0:0:0:0:
320,192,241019,1,0,0:0:0:0:
64,192,241019,1,0,0:0:0:0:
192,192,241095,1,0,0:0:0:0:
448,192,241172,1,0,0:0:0:0:
320,192,241248,1,0,0:0:0:0:
64,192,241325,1,0,0:0:0:0:
192,192,241401,1,0,0:0:0:0:
448,192,241401,1,0,0:0:0:0:
320,192,241478,1,0,0:0:0:0:
64,192,241555,1,0,0:0:0:0:
192,192,241631,1,0,0:0:0:0:
448,192,241631,1,0,0:0:0:0:
320,192,241708,1,0,0:0:0:0:
64,192,241784,1,0,0:0:0:0:
192,192,241861,1,0,0:0:0:0:
320,192,241861,1,0,0:0:0:0:
448,192,241937,1,0,0:0:0:0:
320,192,242014,1,0,0:0:0:0:
192,192,242090,1,0,0:0:0:0:
64,192,242167,1,0,0:0:0:0:
192,192,242243,1,0,0:0:0:0:
320,192,242243,1,0,0:0:0:0:
448,192,242320,1,0,0:0:0:0:
320,192,242396,1,0,0:0:0:0:
64,192,242396,1,0,0:0:0:0:
192,192,242473,1,0,0:0:0:0:
320,192,242549,1,0,0:0:0:0:
448,192,242549,1,0,0:0:0:0:
192,192,242626,1,0,0:0:0:0:
64,192,242702,1,0,0:0:0:0:
192,192,242779,1,0,0:0:0:0:
448,192,242779,1,0,0:0:0:0:
320,192,242856,1,0,0:0:0:0:
192,192,242932,1,0,0:0:0:0:
64,192,243009,1,0,0:0:0:0:
192,192,243085,1,0,0:0:0:0:
320,192,243085,1,0,0:0:0:0:
448,192,243085,1,0,0:0:0:0:
64,192,243162,1,0,0:0:0:0:
192,192,243238,1,0,0:0:0:0:
320,192,243315,1,0,0:0:0:0:
192,192,243391,1,0,0:0:0:0:
64,192,243468,1,0,0:0:0:0:
448,192,243468,1,0,0:0:0:0:
320,192,243544,1,0,0:0:0:0:
192,192,243621,1,0,0:0:0:0:
64,192,243697,1,0,0:0:0:0:
192,192,243774,1,0,0:0:0:0:
320,192,243774,1,0,0:0:0:0:
448,192,243850,1,0,0:0:0:0:
320,192,243927,1,0,0:0:0:0:
192,192,244003,1,0,0:0:0:0:
64,192,244080,1,0,0:0:0:0:
320,192,244080,1,0,0:0:0:0:
192,192,244157,1,0,0:0:0:0:
448,192,244157,1,0,0:0:0:0:
320,192,244233,1,0,0:0:0:0:
192,192,244310,1,0,0:0:0:0:
64,192,244386,1,0,0:0:0:0:
320,192,244386,1,0,0:0:0:0:
192,192,244463,1,0,0:0:0:0:
320,192,244539,1,0,0:0:0:0:
448,192,244616,1,0,0:0:0:0:
320,192,244692,1,0,0:0:0:0:
192,192,244692,1,0,0:0:0:0:
64,192,244769,1,0,0:0:0:0:
192,192,244845,1,0,0:0:0:0:
448,192,244845,1,0,0:0:0:0:
320,192,244922,1,0,0:0:0:0:
192,192,244998,1,0,0:0:0:0:
64,192,245075,1,0,0:0:0:0:
192,192,245151,1,0,0:0:0:0:
320,192,245151,1,0,0:0:0:0:
448,192,245228,1,0,0:0:0:0:
320,192,245305,1,0,0:0:0:0:
64,192,245305,1,0,0:0:0:0:
192,192,245381,1,0,0:0:0:0:
320,192,245458,1,0,0:0:0:0:
448,192,245458,1,0,0:0:0:0:
192,192,245534,1,0,0:0:0:0:
64,192,245611,1,0,0:0:0:0:
192,192,245687,1,0,0:0:0:0:
448,192,245687,1,0,0:0:0:0:
320,192,245764,1,0,0:0:0:0:
192,192,245840,1,0,0:0:0:0:
64,192,245840,1,0,0:0:0:0:
320,192,245917,1,0,0:0:0:0:
448,192,245993,1,0,0:0:0:0:
320,192,246070,1,0,0:0:0:0:
192,192,246070,1,0,0:0:0:0:
64,192,246146,1,0,0:0:0:0:
192,192,246223,1,0,0:0:0:0:
448,192,246223,1,0,0:0:0:0:
320,192,246299,1,0,0:0:0:0:
192,192,246376,1,0,0:0:0:0:
64,192,246376,1,0,0:0:0:0:
320,192,246452,1,0,0:0:0:0:
448,192,246529,1,0,0:0:0:0:
320,192,246606,1,0,0:0:0:0:
64,192,246606,1,0,0:0:0:0:
192,192,246682,1,0,0:0:0:0:
320,192,246759,1,0,0:0:0:0:
448,192,246759,1,0,0:0:0:0:
192,192,246835,1,0,0:0:0:0:
64,192,246912,1,0,0:0:0:0:
192,192,246988,1,0,0:0:0:0:
320,192,246988,1,0,0:0:0:0:
448,192,247065,1,0,0:0:0:0:
320,192,247141,1,0,0:0:0:0:
192,192,247141,1,0,0:0:0:0:
64,192,247218,1,0,0:0:0:0:
192,192,247294,1,0,0:0:0:0:
448,192,247294,1,0,0:0:0:0:
320,192,247371,1,0,0:0:0:0:
64,192,247447,1,0,0:0:0:0:
448,192,247447,1,0,0:0:0:0:
192,192,247524,1,0,0:0:0:0:
448,192,247600,1,0,0:0:0:0:
320,192,247600,1,0,0:0:0:0:
64,192,247677,1,0,0:0:0:0:
192,192,247677,1,0,0:0:0:0:
320,192,247753,1,0,0:0:0:0:
448,192,247753,1,0,0:0:0:0:
192,192,247830,1,0,0:0:0:0:
64,192,247830,1,0,0:0:0:0:
320,192,247907,1,0,0:0:0:0:
448,192,247907,1,0,0:0:0:0:
192,192,247983,1,0,0:0:0:0:
64,192,247983,1,0,0:0:0:0:
320,192,248060,1,0,0:0:0:0:
448,192,248060,1,0,0:0:0:0:
192,192,248136,1,0,0:0:0:0:
64,192,248136,1,0,0:0:0:0:
320,192,248213,1,0,0:0:0:0:
448,192,248213,1,0,0:0:0:0:
192,192,248289,1,0,0:0:0:0:
64,192,248289,1,0,0:0:0:0:
320,192,248366,1,0,0:0:0:0:
448,192,248366,1,0,0:0:0:0:
64,192,248404,1,0,0:0:0:0:
192,192,248442,1,0,0:0:0:0:
320,192,248481,1,0,0:0:0:0:
64,192,248519,1,0,0:0:0:0:
448,192,248519,1,0,0:0:0:0:
192,192,248557,1,0,0:0:0:0:
320,192,248595,1,0,0:0:0:0:
64,192,248634,1,0,0:0:0:0:
448,192,248634,1,0,0:0:0:0:
192,192,248672,1,0,0:0:0:0:
320,192,248710,1,0,0:0:0:0:
448,192,248748,1,0,0:0:0:0:
64,192,248748,1,0,0:0:0:0:
192,192,248787,1,0,0:0:0:0:
320,192,248825,1,0,0:0:0:0:
448,192,248863,1,0,0:0:0:0:
64,192,248863,1,0,0:0:0:0:
192,192,248901,1,0,0:0:0:0:
320,192,248940,1,0,0:0:0:0:
64,192,248978,1,0,0:0:0:0:
448,192,248978,1,0,0:0:0:0:
192,192,249016,1,0,0:0:0:0:
320,192,249055,1,0,0:0:0:0:
448,192,249093,1,0,0:0:0:0:
64,192,249093,1,0,0:0:0:0:
192,192,249131,1,0,0:0:0:0:
320,192,249169,1,0,0:0:0:0:
448,192,249208,1,0,0:0:0:0:
