osu file format v14

[General]
AudioFilename: virtual
AudioLeadIn: 0
PreviewTime: -1
Countdown: 0
SampleSet: Normal
StackLeniency: 0.7
Mode: 3
LetterboxInBreaks: 0
SpecialStyle: 0
WidescreenStoryboard: 1

[Editor]
DistanceSpacing: 1.5
BeatDivisor: 4
GridSize: 4
TimelineZoom: 1

[Metadata]
Title:Piano Pack 2
TitleUnicode:Piano Pack 2
Artist:Various Artists
ArtistUnicode:Various Artists
Creator:Ramuchi
Version:Dai - You
Source:
Tags:
BeatmapID:1142418
BeatmapSetID:539124

[Difficulty]
HPDrainRate:8
CircleSize:7
OverallDifficulty:5
ApproachRate:5
SliderMultiplier:1.4
SliderTickRate:1

[Events]
//Background and Video events
0,0,"piano-1835179_1280.jpg",0,0
//Break Periods
2,158825,398800
//Storyboard Layer 0 (Background)
//Storyboard Layer 1 (Fail)
//Storyboard Layer 2 (Pass)
//Storyboard Layer 3 (Foreground)
//Storyboard Sound Samples

[TimingPoints]
3000,750,4,1,0,100,1,0

[HitObjects]
182,192,3000,5,0,0:0:0:70:A#3S_Bb3S.wav
329,192,3375,1,0,0:0:0:70:F4S.wav
475,192,3750,128,0,4500:0:0:0:70:G#4S_Ab4S.wav
36,192,4500,1,0,0:0:0:70:F#3S_Gb3S.wav
182,192,4875,1,0,0:0:0:70:C#4S_Db4S.wav
329,192,5250,128,0,6000:0:0:0:70:F4S.wav
109,192,6000,1,0,0:0:0:70:G#3S_Ab3S.wav
256,192,6375,1,0,0:0:0:70:D#4S_Eb4S.wav
402,192,6750,128,0,7500:0:0:0:70:F#4S_Gb4S.wav
182,192,7500,1,0,0:0:0:70:C#4S_Db4S.wav
256,192,7875,1,0,0:0:0:70:G#4S_Ab4S.wav
475,192,8250,128,0,9000:0:0:0:70:C5S.wav
329,192,9000,1,0,0:0:0:70:A#3S_Bb3S.wav
182,192,9375,1,0,0:0:0:70:F4S.wav
36,192,9750,128,0,10500:0:0:0:70:G#4S_Ab4S.wav
475,192,10500,1,0,0:0:0:70:F#3S_Gb3S.wav
329,192,10875,1,0,0:0:0:70:C#4S_Db4S.wav
182,192,11250,128,0,12000:0:0:0:70:F4S.wav
402,192,12000,1,0,0:0:0:70:G#3S_Ab3S.wav
256,192,12375,1,0,0:0:0:70:D#4S_Eb4S.wav
109,192,12750,128,0,13500:0:0:0:70:F#4S_Gb4S.wav
402,192,13500,1,0,0:0:0:70:C#4S_Db4S.wav
109,192,13875,1,0,0:0:0:70:G#4S_Ab4S.wav
256,192,14250,128,0,15000:0:0:0:70:C5S.wav
36,192,15000,1,0,0:0:0:70:A#3S_Bb3S.wav
475,192,15000,1,0,0:0:0:85:D#6S_Eb6S.wav
109,192,15375,1,0,0:0:0:70:F4S.wav
182,192,15750,128,0,16500:0:0:0:70:G#4S_Ab4S.wav
475,192,15750,1,0,0:0:0:85:F6S.wav
402,192,15937,1,0,0:0:0:85:D#6S_Eb6S.wav
329,192,16125,1,0,0:0:0:85:C#6S_Db6S.wav
109,192,16500,1,0,0:0:0:70:F#3S_Gb3S.wav
475,192,16500,1,0,0:0:0:85:D#6S_Eb6S.wav
36,192,16875,1,0,0:0:0:70:C#4S_Db4S.wav
256,192,16875,1,0,0:0:0:85:G#5S_Ab5S.wav
182,192,17250,128,0,18000:0:0:0:70:F4S.wav
475,192,17250,1,0,0:0:0:85:F6S.wav
402,192,17437,1,0,0:0:0:85:D#6S_Eb6S.wav
329,192,17625,1,0,0:0:0:85:C#6S_Db6S.wav
109,192,18000,1,0,0:0:0:70:G#3S_Ab3S.wav
402,192,18000,1,0,0:0:0:85:D#6S_Eb6S.wav
182,192,18375,1,0,0:0:0:70:D#4S_Eb4S.wav
36,192,18750,128,0,19500:0:0:0:70:F#4S_Gb4S.wav
475,192,18750,1,0,0:0:0:85:F6S.wav
329,192,18937,1,0,0:0:0:85:D#6S_Eb6S.wav
402,192,19125,1,0,0:0:0:85:C#6S_Db6S.wav
182,192,19500,1,0,0:0:0:70:C#4S_Db4S.wav
475,192,19500,1,0,0:0:0:85:C#6S_Db6S.wav
36,192,19875,1,0,0:0:0:70:G#4S_Ab4S.wav
256,192,19875,1,0,0:0:0:85:G#6S_Ab6S.wav
109,192,20250,128,0,21000:0:0:0:70:C5S.wav
329,192,20250,1,0,0:0:0:85:D#6S_Eb6S.wav
475,192,21000,1,0,0:0:0:70:A#3S_Bb3S.wav
36,192,21000,1,0,0:0:0:85:D#6S_Eb6S.wav
329,192,21375,1,0,0:0:0:70:F4S.wav
402,192,21750,128,0,22500:0:0:0:70:G#4S_Ab4S.wav
109,192,21750,1,0,0:0:0:85:F6S.wav
182,192,21937,1,0,0:0:0:85:D#6S_Eb6S.wav
256,192,22125,1,0,0:0:0:85:C#6S_Db6S.wav
475,192,22500,1,0,0:0:0:70:F#3S_Gb3S.wav
36,192,22500,1,0,0:0:0:85:D#6S_Eb6S.wav
329,192,22875,1,0,0:0:0:70:C#4S_Db4S.wav
182,192,22875,1,0,0:0:0:85:G#5S_Ab5S.wav
475,192,23250,128,0,24000:0:0:0:70:F4S.wav
36,192,23250,1,0,0:0:0:85:F6S.wav
109,192,23437,1,0,0:0:0:85:D#6S_Eb6S.wav
182,192,23625,1,0,0:0:0:85:C#6S_Db6S.wav
402,192,24000,1,0,0:0:0:70:G#3S_Ab3S.wav
256,192,24000,1,0,0:0:0:85:D#6S_Eb6S.wav
329,192,24375,1,0,0:0:0:70:D#4S_Eb4S.wav
256,192,24750,128,0,25500:0:0:0:70:F#4S_Gb4S.wav
36,192,24750,1,0,0:0:0:85:F6S.wav
109,192,24937,1,0,0:0:0:85:D#6S_Eb6S.wav
182,192,25125,1,0,0:0:0:85:C#6S_Db6S.wav
475,192,25500,1,0,0:0:0:70:C#4S_Db4S.wav
36,192,25500,1,0,0:0:0:85:C#6S_Db6S.wav
329,192,25875,1,0,0:0:0:70:G#4S_Ab4S.wav
182,192,26250,128,0,27000:0:0:0:70:C5S.wav
36,192,27000,1,0,0:0:0:70:A#3S_Bb3S.wav
256,192,27375,1,0,0:0:0:70:F4S.wav
402,192,27750,128,0,28500:0:0:0:70:G#4S_Ab4S.wav
36,192,28500,1,0,0:0:0:70:F#3S_Gb3S.wav
182,192,28875,1,0,0:0:0:70:C#4S_Db4S.wav
329,192,29250,128,0,30000:0:0:0:70:F4S.wav
109,192,30000,1,0,0:0:0:70:G#3S_Ab3S.wav
329,192,30375,1,0,0:0:0:70:D#4S_Eb4S.wav
402,192,30750,128,0,31500:0:0:0:70:F#4S_Gb4S.wav
36,192,31500,1,0,0:0:0:70:C#4S_Db4S.wav
256,192,31875,1,0,0:0:0:70:G#4S_Ab4S.wav
475,192,32250,128,0,33000:0:0:0:70:C5S.wav
329,192,33000,1,0,0:0:0:70:A#3S_Bb3S.wav
182,192,33375,1,0,0:0:0:70:F4S.wav
109,192,33750,128,0,34500:0:0:0:70:G#4S_Ab4S.wav
475,192,34500,1,0,0:0:0:70:F#3S_Gb3S.wav
329,192,34875,1,0,0:0:0:70:C#4S_Db4S.wav
182,192,35250,128,0,36000:0:0:0:70:F4S.wav
402,192,36000,1,0,0:0:0:70:G#3S_Ab3S.wav
329,192,36375,1,0,0:0:0:70:D#4S_Eb4S.wav
109,192,36750,128,0,37500:0:0:0:70:F#4S_Gb4S.wav
475,192,37500,1,0,0:0:0:70:C#4S_Db4S.wav
256,192,37875,1,0,0:0:0:70:G#4S_Ab4S.wav
36,192,38250,128,0,39000:0:0:0:70:C5S.wav
109,192,39000,1,0,0:0:0:70:A#3S_Bb3S.wav
402,192,39000,1,0,0:0:0:85:D#6S_Eb6S.wav
329,192,39000,1,0,0:0:0:85:A#5S_Bb5S.wav
256,192,39375,1,0,0:0:0:70:F4S.wav
182,192,39750,128,0,40500:0:0:0:70:G#4S_Ab4S.wav
475,192,39750,1,0,0:0:0:85:F6S.wav
402,192,39937,1,0,0:0:0:85:D#6S_Eb6S.wav
329,192,40125,1,0,0:0:0:85:C#6S_Db6S.wav
36,192,40500,1,0,0:0:0:70:F#3S_Gb3S.wav
109,192,40500,1,0,0:0:0:85:D#6S_Eb6S.wav
402,192,40875,1,0,0:0:0:70:C#4S_Db4S.wav
475,192,40875,1,0,0:0:0:85:G#5S_Ab5S.wav
329,192,41250,128,0,42000:0:0:0:70:F4S.wav
36,192,41250,1,0,0:0:0:85:F6S.wav
109,192,41437,1,0,0:0:0:85:D#6S_Eb6S.wav
182,192,41625,1,0,0:0:0:85:C#6S_Db6S.wav
36,192,42000,1,0,0:0:0:70:G#3S_Ab3S.wav
475,192,42000,1,0,0:0:0:85:D#6S_Eb6S.wav
256,192,42000,1,0,0:0:0:85:G#5S_Ab5S.wav
109,192,42375,1,0,0:0:0:70:D#4S_Eb4S.wav
182,192,42750,128,0,43500:0:0:0:70:F#4S_Gb4S.wav
475,192,42750,1,0,0:0:0:85:F6S.wav
402,192,42937,1,0,0:0:0:85:D#6S_Eb6S.wav
329,192,43125,1,0,0:0:0:85:C#6S_Db6S.wav
475,192,43500,1,0,0:0:0:70:C#4S_Db4S.wav
36,192,43500,1,0,0:0:0:85:C#6S_Db6S.wav
109,192,43500,1,0,0:0:0:85:G#5S_Ab5S.wav
402,192,43875,1,0,0:0:0:70:G#4S_Ab4S.wav
182,192,43875,1,0,0:0:0:85:G#6S_Ab6S.wav
475,192,44250,128,0,45000:0:0:0:70:C5S.wav
329,192,44250,1,0,0:0:0:85:D#6S_Eb6S.wav
109,192,45000,1,0,0:0:0:70:A#3S_Bb3S.wav
402,192,45000,1,0,0:0:0:85:D#6S_Eb6S.wav
256,192,45000,1,0,0:0:0:85:A#5S_Bb5S.wav
182,192,45375,1,0,0:0:0:70:F4S.wav
475,192,45750,128,0,46500:0:0:0:70:G#4S_Ab4S.wav
36,192,45750,1,0,0:0:0:85:F6S.wav
109,192,45937,1,0,0:0:0:85:D#6S_Eb6S.wav
182,192,46125,1,0,0:0:0:85:C#6S_Db6S.wav
36,192,46500,1,0,0:0:0:70:F#3S_Gb3S.wav
256,192,46500,1,0,0:0:0:85:D#6S_Eb6S.wav
182,192,46875,1,0,0:0:0:70:C#4S_Db4S.wav
329,192,46875,1,0,0:0:0:85:G#5S_Ab5S.wav
36,192,47250,128,0,48000:0:0:0:70:F4S.wav
475,192,47250,1,0,0:0:0:85:F6S.wav
402,192,47437,1,0,0:0:0:85:D#6S_Eb6S.wav
329,192,47625,1,0,0:0:0:85:C#6S_Db6S.wav
109,192,48000,1,0,0:0:0:70:G#3S_Ab3S.wav
475,192,48000,1,0,0:0:0:85:D#6S_Eb6S.wav
256,192,48000,1,0,0:0:0:85:G#5S_Ab5S.wav
36,192,48375,1,0,0:0:0:70:D#4S_Eb4S.wav
36,192,48750,128,0,49500:0:0:0:70:F#4S_Gb4S.wav
329,192,48750,1,0,0:0:0:85:F6S.wav
402,192,48937,1,0,0:0:0:85:D#6S_Eb6S.wav
475,192,49125,1,0,0:0:0:85:C#6S_Db6S.wav
109,192,49500,1,0,0:0:0:70:C#4S_Db4S.wav
182,192,49500,1,0,0:0:0:85:C#6S_Db6S.wav
329,192,49500,1,0,0:0:0:85:G#5S_Ab5S.wav
256,192,49875,1,0,0:0:0:70:G#4S_Ab4S.wav
402,192,50250,128,0,51000:0:0:0:70:C5S.wav
329,192,51000,1,0,0:0:0:85:D#6S_Eb6S.wav
182,192,51000,1,0,0:0:0:85:A#5S_Bb5S.wav
36,192,51000,1,0,0:0:0:70:A#3S_Bb3S.wav
36,192,51375,1,0,0:0:0:70:F4S.wav
475,192,51750,1,0,0:0:0:85:F6S.wav
109,192,51750,128,0,52500:0:0:0:70:G#4S_Ab4S.wav
475,192,51937,1,0,0:0:0:85:D#6S_Eb6S.wav
475,192,52125,1,0,0:0:0:85:C#6S_Db6S.wav
475,192,52500,1,0,0:0:0:85:D#6S_Eb6S.wav
36,192,52500,1,0,0:0:0:70:F#3S_Gb3S.wav
475,192,52875,1,0,0:0:0:85:G#5S_Ab5S.wav
36,192,52875,1,0,0:0:0:70:C#4S_Db4S.wav
475,192,53250,1,0,0:0:0:85:F6S.wav
109,192,53250,128,0,54000:0:0:0:70:F4S.wav
475,192,53437,1,0,0:0:0:85:D#6S_Eb6S.wav
475,192,53625,1,0,0:0:0:85:C#6S_Db6S.wav
475,192,54000,1,0,0:0:0:85:D#6S_Eb6S.wav
402,192,54000,1,0,0:0:0:85:G#5S_Ab5S.wav
36,192,54000,1,0,0:0:0:70:G#3S_Ab3S.wav
36,192,54375,1,0,0:0:0:70:D#4S_Eb4S.wav
475,192,54750,1,0,0:0:0:85:F6S.wav
109,192,54750,128,0,55500:0:0:0:70:F#4S_Gb4S.wav
475,192,54937,1,0,0:0:0:85:D#6S_Eb6S.wav
475,192,55125,1,0,0:0:0:85:C#6S_Db6S.wav
475,192,55500,1,0,0:0:0:85:C#6S_Db6S.wav
402,192,55500,1,0,0:0:0:85:G#5S_Ab5S.wav
36,192,55500,1,0,0:0:0:70:C#4S_Db4S.wav
475,192,55875,1,0,0:0:0:85:G#6S_Ab6S.wav
36,192,55875,1,0,0:0:0:70:G#4S_Ab4S.wav
475,192,56250,1,0,0:0:0:85:D#6S_Eb6S.wav
109,192,56250,128,0,57000:0:0:0:70:C5S.wav
475,192,57000,1,0,0:0:0:85:D#6S_Eb6S.wav
402,192,57000,1,0,0:0:0:85:A#5S_Bb5S.wav
36,192,57000,1,0,0:0:0:70:A#3S_Bb3S.wav
36,192,57375,1,0,0:0:0:70:F4S.wav
475,192,57750,1,0,0:0:0:85:F6S.wav
109,192,57750,128,0,58500:0:0:0:70:G#4S_Ab4S.wav
475,192,57937,1,0,0:0:0:85:D#6S_Eb6S.wav
475,192,58125,1,0,0:0:0:85:C#6S_Db6S.wav
475,192,58500,1,0,0:0:0:85:D#6S_Eb6S.wav
36,192,58500,1,0,0:0:0:70:F#3S_Gb3S.wav
475,192,58875,1,0,0:0:0:85:G#5S_Ab5S.wav
36,192,58875,1,0,0:0:0:70:C#4S_Db4S.wav
475,192,59250,1,0,0:0:0:85:F6S.wav
109,192,59250,128,0,60000:0:0:0:70:F4S.wav
475,192,59437,1,0,0:0:0:85:D#6S_Eb6S.wav
475,192,59625,1,0,0:0:0:85:C#6S_Db6S.wav
475,192,60000,1,0,0:0:0:85:D#6S_Eb6S.wav
402,192,60000,1,0,0:0:0:85:G#5S_Ab5S.wav
36,192,60000,1,0,0:0:0:70:G#3S_Ab3S.wav
36,192,60375,1,0,0:0:0:70:D#4S_Eb4S.wav
475,192,60750,1,0,0:0:0:85:F6S.wav
109,192,60750,128,0,61500:0:0:0:70:F#4S_Gb4S.wav
475,192,60937,1,0,0:0:0:85:D#6S_Eb6S.wav
475,192,61125,1,0,0:0:0:85:C#6S_Db6S.wav
475,192,61500,1,0,0:0:0:85:C#6S_Db6S.wav
402,192,61500,1,0,0:0:0:85:G#5S_Ab5S.wav
36,192,61500,1,0,0:0:0:70:C#4S_Db4S.wav
36,192,61875,1,0,0:0:0:70:G#4S_Ab4S.wav
109,192,62250,128,0,63000:0:0:0:70:C5S.wav
475,192,62625,1,0,0:0:0:85:G#5S_Ab5S.wav
475,192,63000,1,0,0:0:0:85:G#5S_Ab5S.wav
36,192,63000,1,0,0:0:0:70:A#3S_Bb3S.wav
36,192,63375,1,0,0:0:0:70:F4S.wav
475,192,63375,1,0,0:0:0:85:F5S.wav
109,192,63750,128,0,64500:0:0:0:70:G#4S_Ab4S.wav
475,192,64125,1,0,0:0:0:85:G#5S_Ab5S.wav
36,192,64500,1,0,0:0:0:70:F#3S_Gb3S.wav
402,192,64500,128,0,65625:0:0:0:85:C#6S_Db6S.wav
36,192,64875,1,0,0:0:0:70:C#4S_Db4S.wav
109,192,65250,128,0,66000:0:0:0:70:F4S.wav
475,192,65625,1,0,0:0:0:85:C#6S_Db6S.wav
36,192,66000,1,0,0:0:0:70:G#3S_Ab3S.wav
475,192,66000,1,0,0:0:0:85:D#6S_Eb6S.wav
36,192,66375,1,0,0:0:0:70:D#4S_Eb4S.wav
475,192,66375,1,0,0:0:0:85:D#6S_Eb6S.wav
109,192,66750,128,0,67500:0:0:0:70:F#4S_Gb4S.wav
475,192,66750,1,0,0:0:0:85:D#6S_Eb6S.wav
475,192,67125,1,0,0:0:0:85:F6S.wav
36,192,67500,1,0,0:0:0:70:C#4S_Db4S.wav
475,192,67500,1,0,0:0:0:85:F6S.wav
36,192,67875,1,0,0:0:0:70:G#4S_Ab4S.wav
109,192,68250,128,0,69000:0:0:0:70:C5S.wav
475,192,68625,1,0,0:0:0:85:G#5S_Ab5S.wav
36,192,69000,1,0,0:0:0:70:A#3S_Bb3S.wav
475,192,69000,1,0,0:0:0:85:G#5S_Ab5S.wav
36,192,69375,1,0,0:0:0:70:F4S.wav
475,192,69375,1,0,0:0:0:85:F5S.wav
109,192,69750,128,0,70500:0:0:0:70:G#4S_Ab4S.wav
475,192,70125,1,0,0:0:0:85:G#5S_Ab5S.wav
36,192,70500,1,0,0:0:0:70:F#3S_Gb3S.wav
36,192,70875,1,0,0:0:0:70:C#4S_Db4S.wav
475,192,70875,1,0,0:0:0:85:C#6S_Db6S.wav
109,192,71250,128,0,72000:0:0:0:70:F4S.wav
475,192,71250,1,0,0:0:0:85:C#6S_Db6S.wav
475,192,71625,1,0,0:0:0:85:D#6S_Eb6S.wav
36,192,72000,1,0,0:0:0:70:G#3S_Ab3S.wav
475,192,72000,1,0,0:0:0:85:D#6S_Eb6S.wav
36,192,72375,1,0,0:0:0:70:D#4S_Eb4S.wav
475,192,72375,1,0,0:0:0:85:D#6S_Eb6S.wav
109,192,72750,128,0,73500:0:0:0:70:F#4S_Gb4S.wav
475,192,72750,1,0,0:0:0:85:D#6S_Eb6S.wav
475,192,73125,1,0,0:0:0:85:G#6S_Ab6S.wav
36,192,73500,1,0,0:0:0:70:C#4S_Db4S.wav
475,192,73500,1,0,0:0:0:85:F6S.wav
36,192,73875,1,0,0:0:0:70:G#4S_Ab4S.wav
109,192,74250,128,0,75000:0:0:0:70:C5S.wav
36,192,75000,1,0,0:0:0:70:A#3S_Bb3S.wav
475,192,75000,1,0,0:0:0:85:G#5S_Ab5S.wav
36,192,75375,1,0,0:0:0:70:F4S.wav
475,192,75375,1,0,0:0:0:85:F5S.wav
109,192,75750,128,0,76500:0:0:0:70:G#4S_Ab4S.wav
475,192,76125,1,0,0:0:0:85:G#5S_Ab5S.wav
36,192,76500,1,0,0:0:0:70:F#3S_Gb3S.wav
475,192,76500,1,0,0:0:0:85:C#6S_Db6S.wav
36,192,76875,1,0,0:0:0:70:C#4S_Db4S.wav
475,192,76875,1,0,0:0:0:85:C#6S_Db6S.wav
109,192,77250,128,0,78000:0:0:0:70:F4S.wav
475,192,77250,1,0,0:0:0:85:C#6S_Db6S.wav
475,192,77625,1,0,0:0:0:85:C#6S_Db6S.wav
36,192,78000,1,0,0:0:0:70:G#3S_Ab3S.wav
475,192,78000,1,0,0:0:0:85:D#6S_Eb6S.wav
36,192,78375,1,0,0:0:0:70:D#4S_Eb4S.wav
475,192,78375,1,0,0:0:0:85:D#6S_Eb6S.wav
109,192,78750,128,0,79500:0:0:0:70:F#4S_Gb4S.wav
475,192,78750,1,0,0:0:0:85:D#6S_Eb6S.wav
475,192,79125,1,0,0:0:0:85:F6S.wav
36,192,79500,1,0,0:0:0:70:C#4S_Db4S.wav
475,192,79500,1,0,0:0:0:85:F6S.wav
36,192,79875,1,0,0:0:0:70:G#4S_Ab4S.wav
109,192,80250,128,0,81000:0:0:0:70:C5S.wav
475,192,80625,1,0,0:0:0:85:G#5S_Ab5S.wav
36,192,81000,1,0,0:0:0:70:A#3S_Bb3S.wav
475,192,81000,1,0,0:0:0:85:G#5S_Ab5S.wav
36,192,81375,1,0,0:0:0:70:F4S.wav
475,192,81375,1,0,0:0:0:85:F5S.wav
109,192,81750,128,0,82500:0:0:0:70:G#4S_Ab4S.wav
475,192,81750,1,0,0:0:0:85:G#5S_Ab5S.wav
36,192,82500,1,0,0:0:0:70:F#3S_Gb3S.wav
36,192,82875,1,0,0:0:0:70:C#4S_Db4S.wav
475,192,82875,1,0,0:0:0:85:C#6S_Db6S.wav
109,192,83250,128,0,84000:0:0:0:70:F4S.wav
475,192,83250,1,0,0:0:0:85:C#6S_Db6S.wav
475,192,83625,1,0,0:0:0:85:D#6S_Eb6S.wav
36,192,84000,1,0,0:0:0:70:G#3S_Ab3S.wav
475,192,84000,1,0,0:0:0:85:D#6S_Eb6S.wav
36,192,84375,1,0,0:0:0:70:D#4S_Eb4S.wav
475,192,84375,1,0,0:0:0:85:D#6S_Eb6S.wav
109,192,84750,128,0,85500:0:0:0:70:F#4S_Gb4S.wav
475,192,84750,1,0,0:0:0:85:D#6S_Eb6S.wav
475,192,85125,1,0,0:0:0:85:G#6S_Ab6S.wav
36,192,85500,1,0,0:0:0:70:C#4S_Db4S.wav
475,192,85500,1,0,0:0:0:85:F6S.wav
36,192,85875,1,0,0:0:0:70:G#4S_Ab4S.wav
109,192,86250,128,0,87000:0:0:0:70:C5S.wav
475,192,86625,1,0,0:0:0:85:G#6S_Ab6S.wav
36,192,87000,1,0,0:0:0:70:A#3S_Bb3S.wav
475,192,87000,1,0,0:0:0:85:G#6S_Ab6S.wav
36,192,87375,1,0,0:0:0:70:F4S.wav
475,192,87375,1,0,0:0:0:85:F6S.wav
109,192,87750,128,0,88500:0:0:0:70:G#4S_Ab4S.wav
475,192,88125,1,0,0:0:0:85:G#6S_Ab6S.wav
36,192,88500,1,0,0:0:0:70:F#3S_Gb3S.wav
475,192,88500,1,0,0:0:0:85:G#6S_Ab6S.wav
36,192,88875,1,0,0:0:0:70:C#4S_Db4S.wav
475,192,88875,1,0,0:0:0:85:C#6S_Db6S.wav
109,192,89250,128,0,90000:0:0:0:70:F4S.wav
475,192,89625,1,0,0:0:0:85:D#6S_Eb6S.wav
36,192,90000,1,0,0:0:0:70:G#3S_Ab3S.wav
475,192,90000,1,0,0:0:0:85:D#6S_Eb6S.wav
36,192,90375,1,0,0:0:0:70:D#4S_Eb4S.wav
475,192,90375,1,0,0:0:0:85:C#6S_Db6S.wav
109,192,90750,128,0,91500:0:0:0:70:F#4S_Gb4S.wav
475,192,90750,1,0,0:0:0:85:D#6S_Eb6S.wav
36,192,91500,1,0,0:0:0:70:C#4S_Db4S.wav
475,192,91500,1,0,0:0:0:85:F6S.wav
36,192,91875,1,0,0:0:0:70:G#4S_Ab4S.wav
475,192,91875,1,0,0:0:0:85:D#6S_Eb6S.wav
109,192,92250,128,0,93000:0:0:0:70:C5S.wav
475,192,92250,1,0,0:0:0:85:F6S.wav
475,192,92625,1,0,0:0:0:85:G#6S_Ab6S.wav
36,192,93000,1,0,0:0:0:70:A#3S_Bb3S.wav
475,192,93000,1,0,0:0:0:85:G#6S_Ab6S.wav
36,192,93375,1,0,0:0:0:70:F4S.wav
475,192,93375,1,0,0:0:0:85:F6S.wav
109,192,93750,128,0,94500:0:0:0:70:G#4S_Ab4S.wav
475,192,94125,1,0,0:0:0:85:G#6S_Ab6S.wav
36,192,94500,1,0,0:0:0:70:F#3S_Gb3S.wav
475,192,94500,1,0,0:0:0:85:G#6S_Ab6S.wav
36,192,94875,1,0,0:0:0:70:C#4S_Db4S.wav
475,192,94875,1,0,0:0:0:85:C#6S_Db6S.wav
109,192,95250,128,0,96000:0:0:0:70:F4S.wav
475,192,95625,1,0,0:0:0:85:D#6S_Eb6S.wav
36,192,96000,1,0,0:0:0:70:G#3S_Ab3S.wav
475,192,96000,1,0,0:0:0:85:D#6S_Eb6S.wav
36,192,96375,1,0,0:0:0:70:D#4S_Eb4S.wav
475,192,96375,1,0,0:0:0:85:C#6S_Db6S.wav
109,192,96750,128,0,97500:0:0:0:70:F#4S_Gb4S.wav
475,192,97125,1,0,0:0:0:85:D#6S_Eb6S.wav
36,192,97500,1,0,0:0:0:70:C#4S_Db4S.wav
475,192,97500,1,0,0:0:0:85:C#6S_Db6S.wav
36,192,97875,1,0,0:0:0:70:G#4S_Ab4S.wav
109,192,98250,128,0,99000:0:0:0:70:C5S.wav
475,192,98625,1,0,0:0:0:85:C#6S_Db6S.wav
36,192,99000,1,0,0:0:0:70:A#3S_Bb3S.wav
475,192,99000,1,0,0:0:0:85:D#6S_Eb6S.wav
402,192,99000,1,0,0:0:0:85:A#5S_Bb5S.wav
36,192,99375,1,0,0:0:0:70:F4S.wav
36,192,99750,1,0,0:0:0:70:G#4S_Ab4S.wav
475,192,99750,1,0,0:0:0:85:F6S.wav
475,192,99937,1,0,0:0:0:85:D#6S_Eb6S.wav
36,192,100125,1,0,0:0:0:70:F4S.wav
475,192,100125,1,0,0:0:0:85:C#6S_Db6S.wav
36,192,100500,1,0,0:0:0:70:F#3S_Gb3S.wav
475,192,100500,1,0,0:0:0:85:D#6S_Eb6S.wav
36,192,100875,1,0,0:0:0:70:C#4S_Db4S.wav
475,192,100875,1,0,0:0:0:85:G#5S_Ab5S.wav
36,192,101250,1,0,0:0:0:70:F4S.wav
475,192,101250,1,0,0:0:0:85:F6S.wav
475,192,101437,1,0,0:0:0:85:D#6S_Eb6S.wav
36,192,101625,1,0,0:0:0:70:C#4S_Db4S.wav
475,192,101625,1,0,0:0:0:85:C#6S_Db6S.wav
36,192,102000,1,0,0:0:0:70:G#3S_Ab3S.wav
475,192,102000,1,0,0:0:0:85:D#6S_Eb6S.wav
402,192,102000,1,0,0:0:0:85:G#5S_Ab5S.wav
36,192,102375,1,0,0:0:0:70:D#4S_Eb4S.wav
36,192,102750,1,0,0:0:0:70:F#4S_Gb4S.wav
475,192,102750,1,0,0:0:0:85:F6S.wav
475,192,102937,1,0,0:0:0:85:D#6S_Eb6S.wav
36,192,103125,1,0,0:0:0:70:D#4S_Eb4S.wav
475,192,103125,1,0,0:0:0:85:C#6S_Db6S.wav
36,192,103500,1,0,0:0:0:70:C#4S_Db4S.wav
475,192,103500,1,0,0:0:0:85:C#6S_Db6S.wav
402,192,103500,1,0,0:0:0:85:G#5S_Ab5S.wav
36,192,103875,1,0,0:0:0:70:G#4S_Ab4S.wav
475,192,103875,1,0,0:0:0:85:G#6S_Ab6S.wav
36,192,104250,1,0,0:0:0:70:C5S.wav
475,192,104250,1,0,0:0:0:85:D#6S_Eb6S.wav
36,192,104625,1,0,0:0:0:70:G#4S_Ab4S.wav
36,192,105000,1,0,0:0:0:70:A#3S_Bb3S.wav
475,192,105000,1,0,0:0:0:85:D#6S_Eb6S.wav
402,192,105000,1,0,0:0:0:85:A#5S_Bb5S.wav
36,192,105375,1,0,0:0:0:70:F4S.wav
36,192,105750,1,0,0:0:0:70:G#4S_Ab4S.wav
475,192,105750,1,0,0:0:0:85:F6S.wav
475,192,105937,1,0,0:0:0:85:D#6S_Eb6S.wav
36,192,106125,1,0,0:0:0:70:F4S.wav
475,192,106125,1,0,0:0:0:85:C#6S_Db6S.wav
36,192,106500,1,0,0:0:0:70:F#3S_Gb3S.wav
475,192,106500,1,0,0:0:0:85:D#6S_Eb6S.wav
36,192,106875,1,0,0:0:0:70:C#4S_Db4S.wav
475,192,106875,1,0,0:0:0:85:G#5S_Ab5S.wav
36,192,107250,1,0,0:0:0:70:F4S.wav
475,192,107250,1,0,0:0:0:85:F6S.wav
475,192,107437,1,0,0:0:0:85:D#6S_Eb6S.wav
36,192,107625,1,0,0:0:0:70:C#4S_Db4S.wav
475,192,107625,1,0,0:0:0:85:C#6S_Db6S.wav
36,192,108000,1,0,0:0:0:70:G#3S_Ab3S.wav
475,192,108000,1,0,0:0:0:85:D#6S_Eb6S.wav
402,192,108000,1,0,0:0:0:85:G#5S_Ab5S.wav
36,192,108375,1,0,0:0:0:70:D#4S_Eb4S.wav
36,192,108750,1,0,0:0:0:70:F#4S_Gb4S.wav
475,192,108750,1,0,0:0:0:85:F6S.wav
475,192,108937,1,0,0:0:0:85:D#6S_Eb6S.wav
36,192,109125,1,0,0:0:0:70:D#4S_Eb4S.wav
475,192,109125,1,0,0:0:0:85:C#6S_Db6S.wav
36,192,109500,1,0,0:0:0:70:C#4S_Db4S.wav
402,192,109500,128,0,110812:0:0:0:85:G#5S_Ab5S.wav
475,192,109500,128,0,110812:0:0:0:85:C#6S_Db6S.wav
36,192,109875,1,0,0:0:0:70:G#4S_Ab4S.wav
36,192,110250,1,0,0:0:0:70:C5S.wav
36,192,110625,1,0,0:0:0:70:G#4S_Ab4S.wav
36,192,111000,1,0,0:0:0:70:A#3S_Bb3S.wav
475,192,111000,1,0,0:0:0:85:D#6S_Eb6S.wav
402,192,111000,1,0,0:0:0:85:A#5S_Bb5S.wav
36,192,111375,1,0,0:0:0:70:F4S.wav
36,192,111750,1,0,0:0:0:70:G#4S_Ab4S.wav
475,192,111750,1,0,0:0:0:85:F6S.wav
475,192,111937,1,0,0:0:0:85:D#6S_Eb6S.wav
36,192,112125,1,0,0:0:0:70:F4S.wav
475,192,112125,1,0,0:0:0:85:C#6S_Db6S.wav
36,192,112500,1,0,0:0:0:70:F#3S_Gb3S.wav
475,192,112500,1,0,0:0:0:85:D#6S_Eb6S.wav
36,192,112875,1,0,0:0:0:70:C#4S_Db4S.wav
475,192,112875,1,0,0:0:0:85:G#5S_Ab5S.wav
36,192,113250,1,0,0:0:0:70:F4S.wav
475,192,113250,1,0,0:0:0:85:F6S.wav
475,192,113437,1,0,0:0:0:85:D#6S_Eb6S.wav
36,192,113625,1,0,0:0:0:70:C#4S_Db4S.wav
475,192,113625,1,0,0:0:0:85:C#6S_Db6S.wav
36,192,114000,1,0,0:0:0:70:G#3S_Ab3S.wav
475,192,114000,1,0,0:0:0:85:D#6S_Eb6S.wav
402,192,114000,1,0,0:0:0:85:G#5S_Ab5S.wav
36,192,114375,1,0,0:0:0:70:D#4S_Eb4S.wav
36,192,114750,1,0,0:0:0:70:F#4S_Gb4S.wav
475,192,114750,1,0,0:0:0:85:F6S.wav
475,192,114937,1,0,0:0:0:85:D#6S_Eb6S.wav
36,192,115125,1,0,0:0:0:70:D#4S_Eb4S.wav
475,192,115125,1,0,0:0:0:85:C#6S_Db6S.wav
36,192,115500,1,0,0:0:0:70:C#4S_Db4S.wav
475,192,115500,1,0,0:0:0:85:C#6S_Db6S.wav
402,192,115500,1,0,0:0:0:85:G#5S_Ab5S.wav
36,192,115875,1,0,0:0:0:70:G#4S_Ab4S.wav
475,192,115875,1,0,0:0:0:85:G#6S_Ab6S.wav
36,192,116250,1,0,0:0:0:70:C5S.wav
475,192,116250,1,0,0:0:0:85:D#6S_Eb6S.wav
36,192,116625,1,0,0:0:0:70:G#4S_Ab4S.wav
36,192,117000,1,0,0:0:0:70:A#3S_Bb3S.wav
475,192,117000,1,0,0:0:0:85:D#6S_Eb6S.wav
402,192,117000,1,0,0:0:0:85:A#5S_Bb5S.wav
36,192,117375,1,0,0:0:0:70:F4S.wav
36,192,117750,1,0,0:0:0:70:G#4S_Ab4S.wav
475,192,117750,1,0,0:0:0:85:F6S.wav
475,192,117937,1,0,0:0:0:85:D#6S_Eb6S.wav
36,192,118125,1,0,0:0:0:70:F4S.wav
475,192,118125,1,0,0:0:0:85:C#6S_Db6S.wav
36,192,118500,1,0,0:0:0:70:F#3S_Gb3S.wav
475,192,118500,1,0,0:0:0:85:D#6S_Eb6S.wav
36,192,118875,1,0,0:0:0:70:C#4S_Db4S.wav
475,192,118875,1,0,0:0:0:85:G#5S_Ab5S.wav
36,192,119250,1,0,0:0:0:70:F4S.wav
475,192,119250,1,0,0:0:0:85:F6S.wav
475,192,119437,1,0,0:0:0:85:D#6S_Eb6S.wav
36,192,119625,1,0,0:0:0:70:C#4S_Db4S.wav
475,192,119625,1,0,0:0:0:85:C#6S_Db6S.wav
36,192,120000,1,0,0:0:0:70:G#3S_Ab3S.wav
475,192,120000,1,0,0:0:0:85:D#6S_Eb6S.wav
402,192,120000,1,0,0:0:0:85:G#5S_Ab5S.wav
36,192,120375,1,0,0:0:0:70:D#4S_Eb4S.wav
36,192,120750,1,0,0:0:0:70:F#4S_Gb4S.wav
475,192,120750,1,0,0:0:0:85:F6S.wav
475,192,120937,1,0,0:0:0:85:D#6S_Eb6S.wav
36,192,121125,1,0,0:0:0:70:D#4S_Eb4S.wav
475,192,121125,1,0,0:0:0:85:C#6S_Db6S.wav
36,192,121500,1,0,0:0:0:70:C#4S_Db4S.wav
402,192,121500,1,0,0:0:0:85:G#5S_Ab5S.wav
475,192,121500,1,0,0:0:0:85:C#6S_Db6S.wav
36,192,121875,1,0,0:0:0:70:G#4S_Ab4S.wav
36,192,122250,1,0,0:0:0:70:C5S.wav
475,192,122250,1,0,0:0:0:85:C#6S_Db6S.wav
475,192,122437,1,0,0:0:0:85:D#6S_Eb6S.wav
36,192,122625,1,0,0:0:0:70:G#4S_Ab4S.wav
475,192,122625,1,0,0:0:0:85:F6S.wav
475,192,122812,1,0,0:0:0:85:F#6S_Gb6S.wav
475,192,123000,1,0,0:0:0:85:G#6S_Ab6S.wav
36,192,123000,1,0,0:0:0:70:A#3S_Bb3S.wav
36,192,123375,1,0,0:0:0:70:F4S.wav
475,192,123375,1,0,0:0:0:85:C#7S_Db7S.wav
36,192,123750,1,0,0:0:0:70:G#4S_Ab4S.wav
475,192,123750,1,0,0:0:0:85:C#7S_Db7S.wav
36,192,124125,1,0,0:0:0:70:F4S.wav
36,192,124500,1,0,0:0:0:70:F#3S_Gb3S.wav
475,192,124500,1,0,0:0:0:85:D#7S_Eb7S.wav
36,192,124875,1,0,0:0:0:70:C#4S_Db4S.wav
475,192,124875,1,0,0:0:0:85:C#7S_Db7S.wav
36,192,125250,1,0,0:0:0:70:F4S.wav
36,192,125625,1,0,0:0:0:70:C#4S_Db4S.wav
475,192,125625,1,0,0:0:0:85:C#7S_Db7S.wav
36,192,126000,1,0,0:0:0:70:G#3S_Ab3S.wav
475,192,126000,1,0,0:0:0:85:F6S.wav
475,192,126187,1,0,0:0:0:85:F#6S_Gb6S.wav
36,192,126375,1,0,0:0:0:70:D#4S_Eb4S.wav
475,192,126375,1,0,0:0:0:85:C6S.wav
475,192,126562,1,0,0:0:0:85:C#6S_Db6S.wav
36,192,126750,1,0,0:0:0:70:F#4S_Gb4S.wav
475,192,126750,1,0,0:0:0:85:D#6S_Eb6S.wav
402,192,126750,1,0,0:0:0:85:C6S.wav
402,192,127125,1,0,0:0:0:85:C#6S_Db6S.wav
36,192,127125,1,0,0:0:0:70:D#4S_Eb4S.wav
475,192,127125,1,0,0:0:0:85:F6S.wav
36,192,127500,1,0,0:0:0:70:C#4S_Db4S.wav
475,192,127500,1,0,0:0:0:85:F6S.wav
402,192,127500,1,0,0:0:0:85:C#6S_Db6S.wav
36,192,127875,1,0,0:0:0:70:G#4S_Ab4S.wav
36,192,128250,1,0,0:0:0:70:C5S.wav
475,192,128250,1,0,0:0:0:85:C#7S_Db7S.wav
36,192,128625,1,0,0:0:0:70:G#4S_Ab4S.wav
475,192,128625,1,0,0:0:0:85:C7S.wav
36,192,129000,1,0,0:0:0:70:A#3S_Bb3S.wav
475,192,129000,1,0,0:0:0:85:C#7S_Db7S.wav
36,192,129375,1,0,0:0:0:70:F4S.wav
475,192,129375,1,0,0:0:0:85:A#6S_Bb6S.wav
36,192,129750,1,0,0:0:0:70:G#4S_Ab4S.wav
36,192,130125,1,0,0:0:0:70:F4S.wav
475,192,130125,1,0,0:0:0:85:C#7S_Db7S.wav
36,192,130500,1,0,0:0:0:70:F#3S_Gb3S.wav
475,192,130500,1,0,0:0:0:85:C#7S_Db7S.wav
36,192,130875,1,0,0:0:0:70:C#4S_Db4S.wav
475,192,130875,1,0,0:0:0:85:A#6S_Bb6S.wav
36,192,131250,1,0,0:0:0:70:F4S.wav
36,192,131625,1,0,0:0:0:70:C#4S_Db4S.wav
475,192,131625,1,0,0:0:0:85:C#7S_Db7S.wav
36,192,132000,1,0,0:0:0:70:G#3S_Ab3S.wav
475,192,132000,1,0,0:0:0:85:C7S.wav
475,192,132187,1,0,0:0:0:85:C#7S_Db7S.wav
36,192,132375,1,0,0:0:0:70:D#4S_Eb4S.wav
475,192,132375,1,0,0:0:0:85:D#7S_Eb7S.wav
36,192,132750,1,0,0:0:0:70:F#4S_Gb4S.wav
475,192,132750,1,0,0:0:0:85:D#7S_Eb7S.wav
36,192,133125,1,0,0:0:0:70:D#4S_Eb4S.wav
475,192,133125,1,0,0:0:0:85:G#6S_Ab6S.wav
36,192,133500,1,0,0:0:0:70:C#4S_Db4S.wav
475,192,133500,1,0,0:0:0:85:F7S.wav
475,192,133687,1,0,0:0:0:85:F#7S_Gb7S.wav
36,192,133875,1,0,0:0:0:70:G#4S_Ab4S.wav
475,192,133875,1,0,0:0:0:85:G#7S_Ab7S.wav
36,192,134250,1,0,0:0:0:70:C5S.wav
475,192,134250,1,0,0:0:0:85:G#7S_Ab7S.wav
36,192,134625,1,0,0:0:0:70:G#4S_Ab4S.wav
475,192,134625,1,0,0:0:0:85:F7S.wav
36,192,135000,1,0,0:0:0:70:A#3S_Bb3S.wav
475,192,135000,1,0,0:0:0:85:G#7S_Ab7S.wav
36,192,135375,1,0,0:0:0:70:F4S.wav
475,192,135375,1,0,0:0:0:85:F7S.wav
36,192,135750,1,0,0:0:0:70:G#4S_Ab4S.wav
36,192,136125,1,0,0:0:0:70:F4S.wav
475,192,136125,1,0,0:0:0:85:D#7S_Eb7S.wav
36,192,136500,1,0,0:0:0:70:F#3S_Gb3S.wav
475,192,136500,1,0,0:0:0:85:D#7S_Eb7S.wav
36,192,136875,1,0,0:0:0:70:C#4S_Db4S.wav
475,192,136875,1,0,0:0:0:85:A#6S_Bb6S.wav
36,192,137250,1,0,0:0:0:70:F4S.wav
36,192,137625,1,0,0:0:0:70:C#4S_Db4S.wav
475,192,137625,1,0,0:0:0:85:C#7S_Db7S.wav
36,192,138000,1,0,0:0:0:70:G#3S_Ab3S.wav
475,192,138000,1,0,0:0:0:85:C7S.wav
475,192,138187,1,0,0:0:0:85:C#7S_Db7S.wav
36,192,138375,1,0,0:0:0:70:D#4S_Eb4S.wav
475,192,138375,1,0,0:0:0:85:D#7S_Eb7S.wav
36,192,138750,1,0,0:0:0:70:F#4S_Gb4S.wav
475,192,138750,1,0,0:0:0:85:D#7S_Eb7S.wav
36,192,139125,1,0,0:0:0:70:D#4S_Eb4S.wav
475,192,139125,1,0,0:0:0:85:F#7S_Gb7S.wav
36,192,139500,1,0,0:0:0:70:C#4S_Db4S.wav
475,192,139500,1,0,0:0:0:85:F7S.wav
36,192,139875,1,0,0:0:0:70:G#4S_Ab4S.wav
36,192,140250,1,0,0:0:0:70:C5S.wav
475,192,140250,1,0,0:0:0:85:F7S.wav
36,192,140625,1,0,0:0:0:70:G#4S_Ab4S.wav
475,192,140625,1,0,0:0:0:85:D#7S_Eb7S.wav
36,192,141000,1,0,0:0:0:70:A#3S_Bb3S.wav
475,192,141000,1,0,0:0:0:85:F7S.wav
36,192,141375,1,0,0:0:0:70:F4S.wav
475,192,141375,1,0,0:0:0:85:A#7S_Bb7S.wav
36,192,141750,1,0,0:0:0:70:G#4S_Ab4S.wav
36,192,142125,1,0,0:0:0:70:F4S.wav
475,192,142125,1,0,0:0:0:85:F7S.wav
36,192,142500,1,0,0:0:0:70:F#3S_Gb3S.wav
475,192,142500,1,0,0:0:0:85:D#7S_Eb7S.wav
36,192,142875,1,0,0:0:0:70:C#4S_Db4S.wav
475,192,142875,1,0,0:0:0:85:A#6S_Bb6S.wav
36,192,143250,1,0,0:0:0:70:F4S.wav
36,192,143625,1,0,0:0:0:70:C#4S_Db4S.wav
475,192,143625,1,0,0:0:0:85:C#7S_Db7S.wav
36,192,144000,1,0,0:0:0:70:G#3S_Ab3S.wav
475,192,144000,1,0,0:0:0:0:
36,192,144375,1,0,0:0:0:70:D#4S_Eb4S.wav
475,192,144375,1,0,0:0:0:0:
36,192,144750,1,0,0:0:0:70:F#4S_Gb4S.wav
36,192,145125,1,0,0:0:0:70:D#4S_Eb4S.wav
475,192,145125,1,0,0:0:0:0:
36,192,145500,1,0,0:0:0:70:C#4S_Db4S.wav
475,192,145500,1,0,0:0:0:0:
36,192,145875,1,0,0:0:0:70:G#4S_Ab4S.wav
36,192,146250,1,0,0:0:0:70:C5S.wav
36,192,146625,1,0,0:0:0:70:G#4S_Ab4S.wav
36,192,147000,1,0,0:0:0:70:A#3S_Bb3S.wav
36,192,147375,1,0,0:0:0:70:F4S.wav
36,192,147750,1,0,0:0:0:70:G#4S_Ab4S.wav
36,192,148125,1,0,0:0:0:70:F4S.wav
36,192,148500,1,0,0:0:0:70:F#3S_Gb3S.wav
36,192,148875,1,0,0:0:0:70:C#4S_Db4S.wav
36,192,149250,1,0,0:0:0:70:F4S.wav
36,192,149625,1,0,0:0:0:70:C#4S_Db4S.wav
36,192,150000,1,0,0:0:0:70:G#3S_Ab3S.wav
36,192,150375,1,0,0:0:0:70:D#4S_Eb4S.wav
36,192,150750,1,0,0:0:0:70:F#4S_Gb4S.wav
36,192,151125,1,0,0:0:0:70:D#4S_Eb4S.wav
36,192,151500,1,0,0:0:0:70:C#4S_Db4S.wav
36,192,151875,1,0,0:0:0:70:G#4S_Ab4S.wav
36,192,152250,1,0,0:0:0:70:C5S.wav
36,192,152625,1,0,0:0:0:70:G#4S_Ab4S.wav
36,192,153000,1,0,0:0:0:70:A#3S_Bb3S.wav
36,192,153375,1,0,0:0:0:70:F4S.wav
36,192,153750,1,0,0:0:0:70:G#4S_Ab4S.wav
36,192,154125,1,0,0:0:0:70:F4S.wav
36,192,154500,1,0,0:0:0:70:F#3S_Gb3S.wav
36,192,154875,1,0,0:0:0:70:C#4S_Db4S.wav
36,192,155250,1,0,0:0:0:70:F4S.wav
36,192,155625,1,0,0:0:0:70:C#4S_Db4S.wav
36,192,156000,1,0,0:0:0:70:G#3S_Ab3S.wav
36,192,156375,1,0,0:0:0:70:D#4S_Eb4S.wav
36,192,156750,1,0,0:0:0:70:F#4S_Gb4S.wav
36,192,157125,1,0,0:0:0:70:D#4S_Eb4S.wav
36,192,157500,1,0,0:0:0:70:C#4S_Db4S.wav
36,192,157875,1,0,0:0:0:70:G#4S_Ab4S.wav
36,192,158250,1,0,0:0:0:70:C5S.wav
36,192,158625,1,0,0:0:0:70:G#4S_Ab4S.wav
182,192,400000,5,0,0:0:0:0:
