osu file format v14

[General]
AudioFilename: audio.mp3
AudioLeadIn: 0
PreviewTime: 0
Countdown: 0
SampleSet: None
StackLeniency: 0.7
Mode: 1
LetterboxInBreaks: 0
WidescreenStoryboard: 1

[Editor]
DistanceSpacing: 0.7
BeatDivisor: 4
GridSize: 32
TimelineZoom: 3.299999

[Metadata]
Title:PEPPY FIX TAIKO STAR RATING PLEASE for a happier
TitleUnicode:PEPPY FIX TAIKO STAR RATING PLEASE for a happier
Artist:Various Artists
ArtistUnicode:Various Artists
Creator:ARGENTINE DREAM
Version:pp 4 us
Source:
Tags:kasai harcores esti round wave crusher d abe3 slash dot dash cycle hit helix maniera axer backfire hikikochan hikiko- _yu68 surono alchyr nifty brames consified lno skull kid skid brasil luckysonicghz kqrth trapmaniac agu ppus zigizigiefe nwolf -kazu- idealism babysnakes astolfo vrnl yea jarvisgaming chichinya poii hirok _dusk_ nishizumi ulqui coryn faputa rhytoly dudetm meovvcat jhowm gaston_2199 kbludoh blackener mtdex kuron kuron-kun tyistiana xtrem3x ghm12 davidminh0111 -gn junior aspirin whats skill metalstream whosthebox grimbow duski ozzyozrock foxerus endymion vulkin taiko pp compilation
BeatmapID:1716492
BeatmapSetID:794048

[Difficulty]
HPDrainRate:2
CircleSize:4.2
OverallDifficulty:7
ApproachRate:10
SliderMultiplier:1.4
SliderTickRate:1

[Events]
//Background and Video events
0,0,"pipifarm.jpg",0,0
//Break Periods
//Storyboard Layer 0 (Background)
//Storyboard Layer 1 (Fail)
//Storyboard Layer 2 (Pass)
//Storyboard Layer 3 (Foreground)
//Storyboard Sound Samples

[TimingPoints]
6,300,4,1,0,80,1,0
13806,-117.647058823529,4,1,0,80,0,0
13956,-142.857142857143,4,1,0,80,0,0
14106,-100,4,1,0,80,0,0
14256,-76.9230769230769,4,1,0,80,0,1
14407,30,4,1,0,80,1,8
14407,-25,4,1,0,80,0,0
14408,300,4,1,0,80,1,8
15606,300,4,1,0,80,1,0
18606,-133.333333333333,4,1,0,80,0,0
18756,-80,4,1,0,80,0,1
18906,-133.333333333333,4,1,0,80,0,0
19056,-80,4,1,0,80,0,1
19206,-100,4,1,0,80,0,0
19207,3000,4,1,0,80,1,8
19207,-333.333333333333,4,1,0,80,0,0
19208,300,4,1,0,80,1,8
20406,300,4,1,0,80,1,0
26556,-76.9230769230769,4,1,0,80,0,1
26706,-100,4,1,0,80,0,0
26856,-76.9230769230769,4,1,0,80,0,1
27006,-100,4,1,0,80,0,0
27156,-76.9230769230769,4,1,0,80,0,1
27306,-100,4,1,0,80,0,0
27456,-76.9230769230769,4,1,0,80,0,1
27606,-100,4,1,0,80,0,0
28806,-98.0392156862745,4,1,0,80,0,0
28881,-96.1538461538461,4,1,0,80,0,0
28956,-94.3396226415094,4,1,0,80,0,0
29031,-92.5925925925926,4,1,0,80,0,0
29106,-90.9090909090909,4,1,0,80,0,0
29256,-95.2380952380952,4,1,0,80,0,0
29406,-100,4,1,0,80,0,0
29481,-96.1538461538461,4,1,0,80,0,0
29556,-92.5925925925926,4,1,0,80,0,0
29631,-89.2857142857143,4,1,0,80,0,0
29706,-86.2068965517241,4,1,0,80,0,0
29856,-92.5925925925926,4,1,0,80,0,0
30006,-100,4,1,0,80,0,0
30081,-98.0392156862745,4,1,0,80,0,0
30156,-96.1538461538461,4,1,0,80,0,0
30231,-94.3396226415094,4,1,0,80,0,0
30306,-92.5925925925926,4,1,0,80,0,0
30381,-90.9090909090909,4,1,0,80,0,0
30456,-89.2857142857143,4,1,0,80,0,0
30531,-87.719298245614,4,1,0,80,0,0
30606,-86.2068965517241,4,1,0,80,0,0
30681,-84.7457627118644,4,1,0,80,0,0
30756,-83.3333333333333,4,1,0,80,0,0
30831,-81.9672131147541,4,1,0,80,0,0
30906,-80.6451612903226,4,1,0,80,0,0
31056,-89.2857142857143,4,1,0,80,0,0
31206,-96.1538461538461,4,1,0,80,0,0
31281,-92.5925925925926,4,1,0,80,0,0
31356,-89.2857142857143,4,1,0,80,0,0
31431,-86.2068965517241,4,1,0,80,0,0
31506,-83.3333333333333,4,1,0,80,0,0
31656,-90.9090909090909,4,1,0,80,0,0
31806,-100,4,1,0,80,0,0
31881,-94.3396226415094,4,1,0,80,0,0
31956,-89.2857142857143,4,1,0,80,0,0
32031,-84.7457627118644,4,1,0,80,0,0
32106,-80.6451612903226,4,1,0,80,0,0
32256,-76.9230769230769,4,1,0,80,0,0
32306,-73.2064421669107,4,1,0,80,0,0
32356,-69.7836706210747,4,1,0,80,0,0
32406,-66.6666666666667,4,1,0,80,0,0
32481,-67.7966101694915,4,1,0,80,0,0
32556,-68.9655172413793,4,1,0,80,0,0
32631,-70.1754385964912,4,1,0,80,0,0
32706,-71.4285714285714,4,1,0,80,0,0
32781,-72.7272727272727,4,1,0,80,0,0
32856,-74.0740740740741,4,1,0,80,0,0
32931,-75.4716981132076,4,1,0,80,0,0
33006,-76.9230769230769,4,1,0,80,0,0
33081,-78.4313725490196,4,1,0,80,0,0
33156,-80,4,1,0,80,0,0
33231,-81.6326530612245,4,1,0,80,0,0
33306,-83.3333333333333,4,1,0,80,0,0
33456,-90.9090909090909,4,1,0,80,0,0
33606,-94.3396226415094,4,1,0,80,0,0
33681,-89.2857142857143,4,1,0,80,0,0
33756,-84.7457627118644,4,1,0,80,0,0
33831,-80.6451612903226,4,1,0,80,0,0
33906,-76.9230769230769,4,1,0,80,0,0
34056,-86.9565217391304,4,1,0,80,0,0
34206,-100,4,1,0,80,0,0
34281,-92.5925925925926,4,1,0,80,0,0
34356,-86.2068965517241,4,1,0,80,0,0
34431,-80.6451612903226,4,1,0,80,0,0
34506,-75.7575757575758,4,1,0,80,0,0
34656,-86.2068965517241,4,1,0,80,0,0
34806,-100,4,1,0,80,0,0
34956,-90.9090909090909,4,1,0,80,0,0
35106,-83.3333333333333,4,1,0,80,0,0
35256,-76.9230769230769,4,1,0,80,0,0
35406,-71.4285714285714,4,1,0,80,0,0
35556,-66.6666666666667,4,1,0,80,0,0
35706,-58.8235294117647,4,1,0,80,0,0
35856,-62.5,4,1,0,80,0,0
36006,-92.5925925925926,4,1,0,80,0,0
36081,-86.2068965517241,4,1,0,80,0,0
36156,-80.6451612903226,4,1,0,80,0,0
36231,-75.7575757575758,4,1,0,80,0,0
36306,-71.4285714285714,4,1,0,80,0,0
36456,-83.3333333333333,4,1,0,80,0,0
36606,-90.9090909090909,4,1,0,80,0,0
36681,-83.3333333333333,4,1,0,80,0,0
36756,-76.9230769230769,4,1,0,80,0,0
36831,-71.4285714285714,4,1,0,80,0,0
36906,-66.6666666666667,4,1,0,80,0,0
37056,-80,4,1,0,80,0,0
37206,-62.5,4,1,0,80,0,1
37356,-83.3333333333333,4,1,0,80,0,0
37506,-86.9565217391304,4,1,0,80,0,0
37656,-90.9090909090909,4,1,0,80,0,0
37806,-95.2380952380952,4,1,0,80,0,0
37956,-100,4,1,0,80,0,0
38106,-105.263157894737,4,1,0,80,0,0
38256,-111.111111111111,4,1,0,80,0,0
38406,-66.6666666666667,4,1,0,80,0,1
38556,-117.647058823529,4,1,0,80,0,0
38706,-125,4,1,0,80,0,0
38856,-133.333333333333,4,1,0,80,0,0
39006,-142.857142857143,4,1,0,80,0,0
39156,-153.846153846154,4,1,0,80,0,0
39306,-166.666666666667,4,1,0,80,0,0
39456,-181.818181818182,4,1,0,80,0,0
39606,-71.4285714285714,4,1,0,80,0,1
39756,-150.15015015015,4,1,0,80,0,0
39906,-136.425648021828,4,1,0,80,0,0
40056,-125,4,1,0,80,0,0
40206,-76.9230769230769,4,1,0,80,0,1
40356,-115.473441108545,4,1,0,80,0,0
40506,-107.181136120043,4,1,0,80,0,0
40656,-100,4,1,0,80,0,0
40806,-66.6666666666667,4,1,0,80,0,1
40956,-100,4,1,0,80,0,0
41106,-66.6666666666667,4,1,0,80,0,1
41256,-100,4,1,0,80,0,0
41406,-66.6666666666667,4,1,0,80,0,1
41556,-100,4,1,0,80,0,0
41706,-66.6666666666667,4,1,0,80,0,1
41856,-100,4,1,0,80,0,0
42006,-66.6666666666667,4,1,0,80,0,1
42306,-100,4,1,0,80,0,0
43206,-99.009900990099,4,1,0,80,0,0
43281,-98.0392156862745,4,1,0,80,0,0
43356,-97.0873786407767,4,1,0,80,0,0
43406,-96.1538461538461,4,1,0,80,0,0
43456,-95.2380952380952,4,1,0,80,0,0
43506,-94.3396226415094,4,1,0,80,0,0
43581,-93.4579439252336,4,1,0,80,0,0
43656,-92.5925925925926,4,1,0,80,0,0
43706,-91.743119266055,4,1,0,80,0,0
43756,-90.9090909090909,4,1,0,80,0,0
43806,-90.0900900900901,4,1,0,80,0,0
43881,-89.2857142857143,4,1,0,80,0,0
43956,-88.4955752212389,4,1,0,80,0,0
44006,-87.719298245614,4,1,0,80,0,0
44056,-86.9565217391304,4,1,0,80,0,0
44106,-86.2068965517241,4,1,0,80,0,0
44181,-85.4700854700855,4,1,0,80,0,0
44256,-84.7457627118644,4,1,0,80,0,0
44331,-84.0336134453781,4,1,0,80,0,0
44406,-83.3333333333333,4,1,0,80,0,1
48156,-125,4,1,0,80,0,1
49206,-62.5,4,1,0,80,0,1
49506,-71.4285714285714,4,1,0,80,0,1
49656,-83.3333333333333,4,1,0,80,0,1
52256,-83.3333333333333,4,1,0,80,0,1
52306,-84.0336134453781,4,1,0,80,0,1
52356,-84.7457627118644,4,1,0,80,0,1
52431,-86.2068965517241,4,1,0,80,0,1
52506,-86.9565217391304,4,1,0,80,0,1
52556,-88.8888888888889,4,1,0,80,0,1
52606,-90.9090909090909,4,1,0,80,0,1
52656,-93.0232558139535,4,1,0,80,0,1
52731,-97.5609756097561,4,1,0,80,0,1
52806,-100,4,1,0,80,0,0
52881,-102.564102564103,4,1,0,80,0,0
52956,-105.263157894737,4,1,0,80,0,0
53031,-108.108108108108,4,1,0,80,0,0
53106,-111.111111111111,4,1,0,80,0,0
53181,-114.285714285714,4,1,0,80,0,0
53256,-117.647058823529,4,1,0,80,0,0
53331,-121.212121212121,4,1,0,80,0,0
53406,-125,4,1,0,80,0,0
53481,-129.032258064516,4,1,0,80,0,0
53556,-133.333333333333,4,1,0,80,0,0
53631,-137.931034482759,4,1,0,80,0,0
53706,-142.857142857143,4,1,0,80,0,0
53756,-117.647058823529,4,1,0,80,0,0
53806,-100,4,1,0,80,0,0
53856,-86.9565217391304,4,1,0,80,0,0
54006,-76.9230769230769,4,1,0,80,0,1
57906,-80,4,1,0,80,0,1
57981,-81.6326530612245,4,1,0,80,0,1
58131,-85.1063829787234,4,1,0,80,0,1
58281,-88.8888888888889,4,1,0,80,0,1
58356,-90.9090909090909,4,1,0,80,0,1
58506,-95.2380952380952,4,1,0,80,0,1
58581,-97.5609756097561,4,1,0,80,0,1
58806,-71.4285714285714,4,1,0,80,0,1
62406,-70.9219858156028,4,1,0,80,0,1
62456,-70.4225352112676,4,1,0,80,0,1
62506,-69.9300699300699,4,1,0,80,0,1
62556,-69.4444444444444,4,1,0,80,0,1
62631,-68.9655172413793,4,1,0,80,0,1
62706,-68.4931506849315,4,1,0,80,0,1
62756,-68.0272108843537,4,1,0,80,0,1
62806,-67.5675675675676,4,1,0,80,0,1
62856,-67.1140939597315,4,1,0,80,0,1
62931,-66.6666666666667,4,1,0,80,0,1
63006,-66.2251655629139,4,1,0,80,0,1
63056,-65.7894736842105,4,1,0,80,0,1
63106,-65.359477124183,4,1,0,80,0,1
63156,-64.9350649350649,4,1,0,80,0,1
63231,-64.5161290322581,4,1,0,80,0,1
63306,-64.1025641025641,4,1,0,80,0,1
63356,-63.6942675159236,4,1,0,80,0,1
63406,-63.2911392405063,4,1,0,80,0,1
63456,-62.8930817610063,4,1,0,80,0,1
63506,-62.5,4,1,0,80,0,1
63556,-62.111801242236,4,1,0,80,0,1
63606,-61.7283950617284,4,1,0,80,0,0
63906,-64.5161290322581,4,1,0,80,0,0
64056,-66.6666666666667,4,1,0,80,0,0
64356,-68.9655172413793,4,1,0,80,0,0
64506,-71.4285714285714,4,1,0,80,0,0
64806,-74.0740740740741,4,1,0,80,0,0
64956,-76.9230769230769,4,1,0,80,0,0
65106,-80,4,1,0,80,0,0
65181,-81.6326530612245,4,1,0,80,0,0
65256,-83.3333333333333,4,1,0,80,0,0
65406,-86.9565217391304,4,1,0,80,0,0
65556,-90.9090909090909,4,1,0,80,0,0
65631,-93.0232558139535,4,1,0,80,0,0
65706,-95.2380952380952,4,1,0,80,0,0
65856,-97.5609756097561,4,1,0,80,0,0
66006,-100,4,1,0,80,0,0
73206,-100,4,1,0,80,0,1
73656,-95.2380952380952,4,1,0,80,0,1
73806,-90.9090909090909,4,1,0,80,0,1
73956,-86.9565217391304,4,1,0,80,0,1
74106,-83.3333333333333,4,1,0,80,0,1
74256,-80,4,1,0,80,0,1
74406,-76.9230769230769,4,1,0,80,0,1
74556,-74.0740740740741,4,1,0,80,0,1
74706,-71.4285714285714,4,1,0,80,0,1
74856,-68.9655172413793,4,1,0,80,0,1
75006,-66.6666666666667,4,1,0,80,0,1
75156,-71.4285714285714,4,1,0,80,0,1
75231,-76.9230769230769,4,1,0,80,0,1
75306,-83.3333333333333,4,1,0,80,0,1
75456,-90.9090909090909,4,1,0,80,0,1
75606,-100,4,1,0,80,0,1
76056,-93.0232558139535,4,1,0,80,0,1
76206,-86.9565217391304,4,1,0,80,0,1
76356,-81.6326530612245,4,1,0,80,0,1
76506,-76.9230769230769,4,1,0,80,0,1
76656,-72.7272727272727,4,1,0,80,0,1
76731,-70.1754385964912,4,1,0,80,0,1
76806,-67.7966101694915,4,1,0,80,0,1
76956,-64.5161290322581,4,1,0,80,0,1
77106,-61.5384615384615,4,1,0,80,0,1
77256,-58.8235294117647,4,1,0,80,0,1
77406,-57.1428571428571,4,1,0,80,0,1
77456,-60.6060606060606,4,1,0,80,0,1
77506,-64.5161290322581,4,1,0,80,0,1
77556,-68.9655172413793,4,1,0,80,0,1
77631,-75.4716981132076,4,1,0,80,0,1
77706,-83.3333333333333,4,1,0,80,0,1
77781,-88.261253309797,4,1,0,80,0,1
77856,-93.8086303939962,4,1,0,80,0,1
78006,-100,4,1,0,80,0,1
78456,-95.2380952380952,4,1,0,80,0,1
78606,-90.9090909090909,4,1,0,80,0,1
78756,-86.9565217391304,4,1,0,80,0,1
78906,-83.3333333333333,4,1,0,80,0,1
79056,-80,4,1,0,80,0,1
79131,-78.4313725490196,4,1,0,80,0,1
79206,-76.9230769230769,4,1,0,80,0,1
79356,-74.0740740740741,4,1,0,80,0,1
79506,-71.4285714285714,4,1,0,80,0,1
79656,-68.9655172413793,4,1,0,80,0,1
79806,-66.6666666666667,4,1,0,80,0,1
79956,-71.4285714285714,4,1,0,80,0,1
80031,-76.9230769230769,4,1,0,80,0,1
80106,-83.3333333333333,4,1,0,80,0,1
80256,-90.9090909090909,4,1,0,80,0,1
80406,-100,4,1,0,80,0,1
80856,-90.9090909090909,4,1,0,80,0,1
81006,-83.3333333333333,4,1,0,80,0,1
81156,-76.9230769230769,4,1,0,80,0,1
81306,-71.4285714285714,4,1,0,80,0,1
81456,-66.6666666666667,4,1,0,80,0,1
81531,-64.5161290322581,4,1,0,80,0,1
81606,-62.5,4,1,0,80,0,1
81756,-58.8235294117647,4,1,0,80,0,1
81906,-55.5555555555556,4,1,0,80,0,1
82056,-52.6315789473684,4,1,0,80,0,1
82206,-50,4,1,0,80,0,1
82356,-55.5555555555556,4,1,0,80,0,1
82431,-62.5,4,1,0,80,0,1
82506,-71.4285714285714,4,1,0,80,0,1
82656,-83.3333333333333,4,1,0,80,0,1
82806,-100,4,1,0,80,0,1
83856,-98.0392156862745,4,1,0,80,0,1
83931,-97.0873786407767,4,1,0,80,0,1
84006,-96.1538461538461,4,1,0,80,0,1
84081,-95.2380952380952,4,1,0,80,0,1
84156,-94.3396226415094,4,1,0,80,0,1
84231,-93.4579439252336,4,1,0,80,0,1
84306,-92.5925925925926,4,1,0,80,0,1
84381,-91.743119266055,4,1,0,80,0,1
84456,-90.9090909090909,4,1,0,80,0,1
84531,-90.0900900900901,4,1,0,80,0,1
84606,-89.2857142857143,4,1,0,80,0,1
84756,-87.719298245614,4,1,0,80,0,1
84831,-86.9565217391304,4,1,0,80,0,1
84906,-86.2068965517241,4,1,0,80,0,1
84981,-85.4700854700855,4,1,0,80,0,1
85056,-84.7457627118644,4,1,0,80,0,1
85206,-83.3333333333333,4,1,0,80,0,1
87606,-83.3333333333333,4,1,0,80,0,0
87756,-62.5,4,1,0,80,0,1
87906,-83.3333333333333,4,1,0,80,0,0
88056,-62.5,4,1,0,80,0,1
88206,-83.3333333333333,4,1,0,80,0,0
88356,-62.5,4,1,0,80,0,1
88506,-83.3333333333333,4,1,0,80,0,0
88656,-62.5,4,1,0,80,0,1
88806,-83.3333333333333,4,1,0,80,0,0
88956,-62.5,4,1,0,80,0,1
89106,-83.3333333333333,4,1,0,80,0,0
89256,-62.5,4,1,0,80,0,1
89406,-83.3333333333333,4,1,0,80,0,0
89556,-62.5,4,1,0,80,0,1
89706,-76.9230769230769,4,1,0,80,0,1
89856,-83.3333333333333,4,1,0,80,0,0
90006,-83.3333333333333,4,1,0,80,0,1
92181,-81.6326530612245,4,1,0,80,0,1
92256,-80,4,1,0,80,0,1
92331,-78.4313725490196,4,1,0,80,0,1
92406,-76.9230769230769,4,1,0,80,0,1
92518,-83.3333333333333,4,1,0,80,0,0
92556,-76.9230769230769,4,1,0,80,0,1
92668,-83.3333333333333,4,1,0,80,0,0
92706,-76.9230769230769,4,1,0,80,0,1
92818,-83.3333333333333,4,1,0,80,0,0
92856,-76.9230769230769,4,1,0,80,0,1
92968,-83.3333333333333,4,1,0,80,0,0
93006,-76.9230769230769,4,1,0,80,0,1
93118,-83.3333333333333,4,1,0,80,0,0
93156,-76.9230769230769,4,1,0,80,0,1
93268,-83.3333333333333,4,1,0,80,0,0
93306,-76.9230769230769,4,1,0,80,0,1
93418,-83.3333333333333,4,1,0,80,0,0
93456,-76.9230769230769,4,1,0,80,0,1
93606,-76.9230769230769,4,1,0,80,0,0
94206,-75.7575757575758,4,1,0,80,0,0
94256,-74.6268656716418,4,1,0,80,0,0
94306,-73.5294117647059,4,1,0,80,0,0
94356,-72.463768115942,4,1,0,80,0,0
94406,-71.4285714285714,4,1,0,80,0,0
94456,-70.4225352112676,4,1,0,80,0,0
94506,-69.4444444444444,4,1,0,80,0,1
94556,-68.4931506849315,4,1,0,80,0,1
94806,-83.3333333333333,4,1,0,80,0,0
95706,-83.3333333333333,4,1,0,80,0,0
95856,-66.6666666666667,4,1,0,80,0,1
96006,-83.3333333333333,4,1,0,80,0,0
96906,-66.6666666666667,4,1,0,80,0,1
97056,-83.3333333333333,4,1,0,80,0,0
99006,-66.6666666666667,4,1,0,80,0,1
99606,-83.3333333333333,4,1,0,80,0,0
101781,-86.9565217391304,4,1,0,80,0,0
101856,-90.9090909090909,4,1,0,80,0,0
101931,-95.2380952380952,4,1,0,80,0,0
102006,-100,4,1,0,80,0,1
102156,-103.51966873706,4,1,0,80,0,0
102306,-107.181136120043,4,1,0,80,0,0
102456,-111.111111111111,4,1,0,80,0,0
102606,-115.473441108545,4,1,0,80,0,0
102756,-120.048019207683,4,1,0,80,0,0
102906,-125,4,1,0,80,0,0
103056,-130.548302872063,4,1,0,80,0,0
103206,-136.425648021828,4,1,0,80,0,0
103356,-142.857142857143,4,1,0,80,0,0
103656,-136.425648021828,4,1,0,80,0,0
103806,-130.548302872063,4,1,0,80,0,0
103881,-120.048019207683,4,1,0,80,0,0
103956,-111.111111111111,4,1,0,80,0,0
104031,-103.51966873706,4,1,0,80,0,0
104106,-96.8054211035818,4,1,0,80,0,0
104181,-90.9090909090909,4,1,0,80,0,0
104256,-85.7632933104631,4,1,0,80,0,0
104331,-81.10300081103,4,1,0,80,0,0
104406,-76.9230769230769,4,1,0,80,0,1
108906,-75.7575757575758,4,1,0,80,0,1
108981,-74.6268656716418,4,1,0,80,0,1
109056,-73.5294117647059,4,1,0,80,0,1
109131,-72.463768115942,4,1,0,80,0,1
109206,-71.4285714285714,4,1,0,80,0,1
111606,-70.9219858156028,4,1,0,80,0,1
111656,-70.4225352112676,4,1,0,80,0,1
111706,-69.9300699300699,4,1,0,80,0,1
111756,-69.4444444444444,4,1,0,80,0,1
111831,-68.9655172413793,4,1,0,80,0,1
111906,-68.4931506849315,4,1,0,80,0,1
111956,-68.0272108843537,4,1,0,80,0,1
112006,-67.5675675675676,4,1,0,80,0,1
112056,-67.1140939597315,4,1,0,80,0,1
112131,-66.6666666666667,4,1,0,80,0,1
112206,-66.2251655629139,4,1,0,80,0,1
112256,-65.7894736842105,4,1,0,80,0,1
112306,-65.359477124183,4,1,0,80,0,1
112356,-64.9350649350649,4,1,0,80,0,1
112431,-64.5161290322581,4,1,0,80,0,1
112506,-63.4920634920635,4,1,0,80,0,1
112556,-62.5,4,1,0,80,0,1
112606,-61.5384615384615,4,1,0,80,0,1
112656,-60.6060606060606,4,1,0,80,0,1
112706,-59.7014925373134,4,1,0,80,0,1
112756,-58.8235294117647,4,1,0,80,0,1
112806,-57.9710144927536,4,1,0,80,0,1
113706,-37.7358490566038,4,1,0,80,0,1
114006,-100,4,1,0,80,0,0
116406,-66.6666666666667,4,1,0,80,0,1
116556,-100,4,1,0,80,0,1
117006,-66.6666666666667,4,1,0,80,0,1
117306,-57.1428571428571,4,1,0,80,0,1
117606,-50,4,1,0,80,0,0

[HitObjects]
256,192,6,5,8,0:0:0:0:
256,192,456,1,0,0:0:0:0:
256,192,531,1,8,0:0:0:0:
256,192,606,1,0,0:0:0:0:
256,192,756,1,0,0:0:0:0:
256,192,906,1,8,0:0:0:0:
256,192,1056,1,0,0:0:0:0:
256,192,1206,1,8,0:0:0:0:
256,192,1506,1,8,0:0:0:0:
256,192,1656,1,8,0:0:0:0:
256,192,1806,1,0,0:0:0:0:
256,192,2406,1,8,0:0:0:0:
256,192,2856,1,0,0:0:0:0:
256,192,2931,1,8,0:0:0:0:
256,192,3006,1,0,0:0:0:0:
256,192,3156,1,0,0:0:0:0:
256,192,3306,1,8,0:0:0:0:
256,192,3456,1,0,0:0:0:0:
256,192,3606,1,0,0:0:0:0:
256,192,3756,1,8,0:0:0:0:
256,192,3906,1,8,0:0:0:0:
256,192,4056,1,0,0:0:0:0:
256,192,4206,1,8,0:0:0:0:
256,192,4506,1,0,0:0:0:0:
256,192,4806,1,8,0:0:0:0:
256,192,5106,1,0,0:0:0:0:
256,192,5256,1,8,0:0:0:0:
256,192,5331,1,8,0:0:0:0:
256,192,5406,1,0,0:0:0:0:
256,192,5556,1,0,0:0:0:0:
256,192,5706,1,8,0:0:0:0:
256,192,5856,1,8,0:0:0:0:
256,192,6006,1,8,0:0:0:0:
256,192,6306,1,8,0:0:0:0:
256,192,6456,1,8,0:0:0:0:
256,192,6606,1,0,0:0:0:0:
256,192,6906,1,0,0:0:0:0:
256,192,7056,1,0,0:0:0:0:
256,192,7206,1,8,0:0:0:0:
256,192,7281,1,8,0:0:0:0:
256,192,7356,1,0,0:0:0:0:
256,192,7431,1,0,0:0:0:0:
256,192,7506,1,8,0:0:0:0:
256,192,7606,1,8,0:0:0:0:
256,192,7706,1,8,0:0:0:0:
256,192,7806,1,0,0:0:0:0:
256,192,7881,1,0,0:0:0:0:
256,192,7956,1,8,0:0:0:0:
256,192,8006,1,8,0:0:0:0:
256,192,8056,1,8,0:0:0:0:
256,192,8106,1,0,0:0:0:0:
256,192,8181,1,0,0:0:0:0:
256,192,8256,1,8,0:0:0:0:
256,192,8306,1,8,0:0:0:0:
256,192,8356,1,8,0:0:0:0:
256,192,8406,1,0,0:0:0:0:
256,192,8481,1,0,0:0:0:0:
256,192,8556,1,8,0:0:0:0:
256,192,8631,1,0,0:0:0:0:
256,192,8706,1,8,0:0:0:0:
256,192,8781,1,8,0:0:0:0:
256,192,8856,1,0,0:0:0:0:
256,192,8931,1,0,0:0:0:0:
256,192,9006,1,8,0:0:0:0:
256,192,9056,1,8,0:0:0:0:
256,192,9106,1,8,0:0:0:0:
256,192,9156,1,8,0:0:0:0:
256,192,9206,1,8,0:0:0:0:
256,192,9256,1,8,0:0:0:0:
256,192,9306,1,0,0:0:0:0:
256,192,9356,1,0,0:0:0:0:
256,192,9406,1,0,0:0:0:0:
256,192,9456,1,8,0:0:0:0:
256,192,9531,1,8,0:0:0:0:
256,192,9606,1,4,0:0:0:0:
256,192,9756,1,0,0:0:0:0:
256,192,9831,1,0,0:0:0:0:
256,192,9906,1,8,0:0:0:0:
256,192,10056,1,0,0:0:0:0:
256,192,10206,1,0,0:0:0:0:
256,192,10281,1,0,0:0:0:0:
256,192,10356,1,0,0:0:0:0:
256,192,10506,1,8,0:0:0:0:
256,192,10656,1,0,0:0:0:0:
256,192,10731,1,0,0:0:0:0:
256,192,10806,1,0,0:0:0:0:
256,192,10956,1,0,0:0:0:0:
256,192,11031,1,0,0:0:0:0:
256,192,11106,1,8,0:0:0:0:
256,192,11181,1,0,0:0:0:0:
256,192,11256,1,0,0:0:0:0:
256,192,11406,1,0,0:0:0:0:
256,192,11481,1,8,0:0:0:0:
256,192,11556,1,0,0:0:0:0:
256,192,11631,1,8,0:0:0:0:
256,192,11706,1,8,0:0:0:0:
256,192,11781,1,0,0:0:0:0:
256,192,11856,1,0,0:0:0:0:
256,192,12006,1,0,0:0:0:0:
256,192,12156,1,0,0:0:0:0:
256,192,12231,1,0,0:0:0:0:
256,192,12306,1,8,0:0:0:0:
256,192,12381,1,8,0:0:0:0:
256,192,12456,1,0,0:0:0:0:
256,192,12606,1,0,0:0:0:0:
256,192,12756,1,8,0:0:0:0:
256,192,12831,1,0,0:0:0:0:
256,192,12906,1,8,0:0:0:0:
256,192,13056,1,0,0:0:0:0:
256,192,13131,1,0,0:0:0:0:
256,192,13206,1,8,0:0:0:0:
256,192,13281,1,8,0:0:0:0:
256,192,13356,1,0,0:0:0:0:
256,192,13506,1,8,0:0:0:0:
256,192,13581,1,0,0:0:0:0:
256,192,13656,1,0,0:0:0:0:
394,309,13806,5,0,0:0:0:0:
307,107,13843,1,0,0:0:0:0:
318,284,13956,5,0,0:0:0:0:
405,74,13993,1,8,0:0:0:0:
145,259,14106,5,0,0:0:0:0:
470,203,14143,1,0,0:0:0:0:
269,348,14256,5,8,0:0:0:0:
210,32,14293,1,8,0:0:0:0:
256,192,14406,1,4,0:0:0:0:
256,192,14407,2,4,B|318:84|425:101|448:192|448:192|416:64|224:32|288:352|96:320|64:192,2,770
256,192,14556,1,0,0:0:0:0:
256,192,14631,1,0,0:0:0:0:
256,192,14706,1,8,0:0:0:0:
256,192,14781,1,0,0:0:0:0:
256,192,14856,1,0,0:0:0:0:
256,192,15006,1,0,0:0:0:0:
256,192,15156,1,0,0:0:0:0:
256,192,15231,1,0,0:0:0:0:
256,192,15306,1,8,0:0:0:0:
256,192,15456,1,0,0:0:0:0:
256,192,15606,1,0,0:0:0:0:
256,192,15681,1,0,0:0:0:0:
256,192,15756,1,0,0:0:0:0:
256,192,15906,1,8,0:0:0:0:
256,192,15981,1,8,0:0:0:0:
256,192,16056,1,0,0:0:0:0:
256,192,16131,1,0,0:0:0:0:
256,192,16206,1,8,0:0:0:0:
256,192,16281,1,0,0:0:0:0:
256,192,16356,1,8,0:0:0:0:
256,192,16431,1,8,0:0:0:0:
256,192,16506,1,0,0:0:0:0:
256,192,16581,1,0,0:0:0:0:
256,192,16656,1,8,0:0:0:0:
256,192,16731,1,8,0:0:0:0:
256,192,16806,1,0,0:0:0:0:
256,192,16956,1,0,0:0:0:0:
256,192,17031,1,8,0:0:0:0:
256,192,17106,1,8,0:0:0:0:
256,192,17181,1,0,0:0:0:0:
256,192,17256,1,0,0:0:0:0:
256,192,17406,1,0,0:0:0:0:
256,192,17556,1,0,0:0:0:0:
256,192,17631,1,8,0:0:0:0:
256,192,17706,1,0,0:0:0:0:
256,192,17781,1,8,0:0:0:0:
256,192,17856,1,0,0:0:0:0:
256,192,18006,1,8,0:0:0:0:
256,192,18081,1,0,0:0:0:0:
256,192,18156,1,0,0:0:0:0:
256,192,18306,1,8,0:0:0:0:
256,192,18381,1,8,0:0:0:0:
256,192,18456,1,0,0:0:0:0:
391,278,18606,5,0,0:0:0:0:
215,257,18643,1,0,0:0:0:0:
448,209,18756,5,8,0:0:0:0:
165,341,18793,1,8,0:0:0:0:
323,137,18906,5,0,0:0:0:0:
362,367,18943,1,0,0:0:0:0:
143,285,18981,1,0,0:0:0:0:
428,292,19056,5,8,0:0:0:0:
63,353,19093,1,8,0:0:0:0:
193,7,19131,1,8,0:0:0:0:
256,192,19206,1,4,0:0:0:0:
256,192,19207,2,4,L|256:193,1,1.75
256,192,19356,1,0,0:0:0:0:
256,192,19431,1,0,0:0:0:0:
256,192,19506,1,8,0:0:0:0:
256,192,19581,1,0,0:0:0:0:
256,192,19656,1,8,0:0:0:0:
256,192,19731,1,8,0:0:0:0:
256,192,19806,1,0,0:0:0:0:
256,192,19956,1,0,0:0:0:0:
256,192,20031,1,0,0:0:0:0:
256,192,20106,1,8,0:0:0:0:
256,192,20181,1,0,0:0:0:0:
256,192,20256,1,0,0:0:0:0:
256,192,20406,1,0,0:0:0:0:
256,192,20556,1,0,0:0:0:0:
256,192,20631,1,0,0:0:0:0:
256,192,20706,1,8,0:0:0:0:
256,192,20781,1,8,0:0:0:0:
256,192,20856,1,0,0:0:0:0:
256,192,21006,1,8,0:0:0:0:
256,192,21081,1,8,0:0:0:0:
256,192,21156,1,8,0:0:0:0:
256,192,21231,1,8,0:0:0:0:
256,192,21306,1,0,0:0:0:0:
256,192,21381,1,0,0:0:0:0:
256,192,21456,1,8,0:0:0:0:
256,192,21531,1,8,0:0:0:0:
256,192,21606,1,0,0:0:0:0:
256,192,21756,1,0,0:0:0:0:
256,192,21831,1,0,0:0:0:0:
256,192,21906,1,8,0:0:0:0:
256,192,21981,1,0,0:0:0:0:
256,192,22056,1,0,0:0:0:0:
256,192,22206,1,0,0:0:0:0:
256,192,22356,1,0,0:0:0:0:
256,192,22431,1,8,0:0:0:0:
256,192,22506,1,8,0:0:0:0:
256,192,22581,1,8,0:0:0:0:
256,192,22656,1,0,0:0:0:0:
256,192,22806,1,0,0:0:0:0:
256,192,22881,1,0,0:0:0:0:
256,192,22956,1,8,0:0:0:0:
256,192,23106,1,8,0:0:0:0:
256,192,23181,1,8,0:0:0:0:
256,192,23256,1,0,0:0:0:0:
256,192,23406,1,8,0:0:0:0:
256,192,23556,1,0,0:0:0:0:
256,192,23856,1,0,0:0:0:0:
256,192,24006,1,4,0:0:0:0:
256,192,24156,1,0,0:0:0:0:
256,192,24231,1,0,0:0:0:0:
256,192,24306,1,8,0:0:0:0:
256,192,24381,1,8,0:0:0:0:
256,192,24456,1,0,0:0:0:0:
256,192,24531,1,0,0:0:0:0:
256,192,24606,1,0,0:0:0:0:
256,192,24756,1,0,0:0:0:0:
256,192,24831,1,0,0:0:0:0:
256,192,24906,1,8,0:0:0:0:
256,192,24981,1,0,0:0:0:0:
256,192,25056,1,0,0:0:0:0:
256,192,25131,1,8,0:0:0:0:
256,192,25206,1,0,0:0:0:0:
256,192,25356,1,0,0:0:0:0:
256,192,25431,1,0,0:0:0:0:
256,192,25506,1,8,0:0:0:0:
256,192,25581,1,8,0:0:0:0:
256,192,25656,1,0,0:0:0:0:
256,192,25731,1,0,0:0:0:0:
256,192,25806,1,8,0:0:0:0:
256,192,25881,1,8,0:0:0:0:
256,192,25956,1,8,0:0:0:0:
256,192,26031,1,0,0:0:0:0:
256,192,26106,1,8,0:0:0:0:
256,192,26181,1,8,0:0:0:0:
256,192,26256,1,0,0:0:0:0:
256,192,26331,1,0,0:0:0:0:
288,320,26406,5,0,0:0:0:0:
321,89,26556,1,12,0:0:0:0:
396,344,26706,5,0,0:0:0:0:
237,102,26856,1,12,0:0:0:0:
333,371,27006,5,0,0:0:0:0:
405,106,27156,1,12,0:0:0:0:
214,343,27306,5,0,0:0:0:0:
494,213,27456,1,12,0:0:0:0:
256,192,27606,1,0,0:0:0:0:
256,192,27656,1,8,0:0:0:0:
256,192,27706,1,8,0:0:0:0:
256,192,27756,1,0,0:0:0:0:
256,192,27831,1,0,0:0:0:0:
256,192,27906,1,8,0:0:0:0:
256,192,27956,1,8,0:0:0:0:
256,192,28006,1,8,0:0:0:0:
256,192,28056,1,0,0:0:0:0:
256,192,28131,1,8,0:0:0:0:
256,192,28206,1,0,0:0:0:0:
256,192,28281,1,0,0:0:0:0:
256,192,28356,1,0,0:0:0:0:
256,192,28431,1,8,0:0:0:0:
256,192,28806,1,0,0:0:0:0:
256,192,28881,1,0,0:0:0:0:
256,192,28956,1,0,0:0:0:0:
256,192,29031,1,8,0:0:0:0:
256,192,29106,1,8,0:0:0:0:
256,192,29256,1,0,0:0:0:0:
256,192,29406,1,0,0:0:0:0:
256,192,29481,1,0,0:0:0:0:
256,192,29556,1,8,0:0:0:0:
256,192,29631,1,8,0:0:0:0:
256,192,29706,1,8,0:0:0:0:
256,192,29856,1,0,0:0:0:0:
256,192,30006,1,0,0:0:0:0:
256,192,30081,1,0,0:0:0:0:
256,192,30156,1,0,0:0:0:0:
256,192,30231,1,8,0:0:0:0:
256,192,30306,1,0,0:0:0:0:
256,192,30381,1,0,0:0:0:0:
256,192,30456,1,8,0:0:0:0:
256,192,30531,1,8,0:0:0:0:
256,192,30606,1,0,0:0:0:0:
256,192,30681,1,8,0:0:0:0:
256,192,30756,1,8,0:0:0:0:
256,192,30831,1,8,0:0:0:0:
256,192,30906,1,8,0:0:0:0:
256,192,31056,1,0,0:0:0:0:
256,192,31206,1,0,0:0:0:0:
256,192,31281,1,0,0:0:0:0:
256,192,31356,1,8,0:0:0:0:
256,192,31431,1,8,0:0:0:0:
256,192,31506,1,8,0:0:0:0:
256,192,31656,1,0,0:0:0:0:
256,192,31806,1,0,0:0:0:0:
256,192,31881,1,8,0:0:0:0:
256,192,31956,1,8,0:0:0:0:
256,192,32031,1,0,0:0:0:0:
256,192,32106,1,8,0:0:0:0:
256,192,32256,1,0,0:0:0:0:
256,192,32306,1,0,0:0:0:0:
256,192,32356,1,0,0:0:0:0:
256,192,32406,1,8,0:0:0:0:
256,192,32481,1,8,0:0:0:0:
256,192,32556,1,8,0:0:0:0:
256,192,32631,1,8,0:0:0:0:
256,192,32706,1,0,0:0:0:0:
256,192,32781,1,8,0:0:0:0:
256,192,32856,1,0,0:0:0:0:
256,192,32931,1,0,0:0:0:0:
256,192,33006,1,8,0:0:0:0:
256,192,33081,1,8,0:0:0:0:
256,192,33156,1,0,0:0:0:0:
256,192,33231,1,8,0:0:0:0:
256,192,33306,1,0,0:0:0:0:
256,192,33456,1,0,0:0:0:0:
256,192,33493,1,8,0:0:0:0:
256,192,33606,1,0,0:0:0:0:
256,192,33681,1,8,0:0:0:0:
256,192,33756,1,8,0:0:0:0:
256,192,33831,1,0,0:0:0:0:
256,192,33906,1,8,0:0:0:0:
256,192,34056,1,0,0:0:0:0:
256,192,34206,1,0,0:0:0:0:
256,192,34281,1,8,0:0:0:0:
256,192,34356,1,0,0:0:0:0:
256,192,34431,1,8,0:0:0:0:
256,192,34506,1,8,0:0:0:0:
256,192,34543,1,8,0:0:0:0:
256,192,34656,1,0,0:0:0:0:
256,192,34806,1,0,0:0:0:0:
256,192,34843,1,0,0:0:0:0:
256,192,34956,1,0,0:0:0:0:
256,192,34993,1,8,0:0:0:0:
256,192,35106,1,0,0:0:0:0:
256,192,35143,1,0,0:0:0:0:
256,192,35256,1,8,0:0:0:0:
256,192,35293,1,8,0:0:0:0:
256,192,35406,1,0,0:0:0:0:
256,192,35443,1,0,0:0:0:0:
256,192,35556,1,8,0:0:0:0:
256,192,35593,1,0,0:0:0:0:
256,192,35706,1,8,0:0:0:0:
256,192,35743,1,8,0:0:0:0:
256,192,35856,1,0,0:0:0:0:
256,192,35893,1,0,0:0:0:0:
256,192,36006,1,0,0:0:0:0:
256,192,36081,1,8,0:0:0:0:
256,192,36156,1,0,0:0:0:0:
256,192,36231,1,8,0:0:0:0:
256,192,36306,1,8,0:0:0:0:
256,192,36456,1,0,0:0:0:0:
256,192,36606,1,8,0:0:0:0:
256,192,36681,1,8,0:0:0:0:
256,192,36756,1,0,0:0:0:0:
256,192,36831,1,8,0:0:0:0:
256,192,36906,1,8,0:0:0:0:
256,192,37056,1,0,0:0:0:0:
256,192,37093,1,0,0:0:0:0:
256,192,37206,1,8,0:0:0:0:
256,192,37243,1,8,0:0:0:0:
256,192,37356,1,8,0:0:0:0:
256,192,37393,1,8,0:0:0:0:
256,192,37506,1,0,0:0:0:0:
256,192,37543,1,8,0:0:0:0:
256,192,37656,1,0,0:0:0:0:
256,192,37693,1,8,0:0:0:0:
256,192,37806,1,0,0:0:0:0:
256,192,37843,1,0,0:0:0:0:
256,192,37956,1,0,0:0:0:0:
256,192,37993,1,0,0:0:0:0:
256,192,38106,1,8,0:0:0:0:
256,192,38143,1,8,0:0:0:0:
256,192,38256,1,0,0:0:0:0:
256,192,38293,1,0,0:0:0:0:
256,192,38406,1,8,0:0:0:0:
256,192,38443,1,8,0:0:0:0:
256,192,38556,1,8,0:0:0:0:
256,192,38593,1,8,0:0:0:0:
256,192,38706,1,0,0:0:0:0:
256,192,38743,1,0,0:0:0:0:
256,192,38856,1,8,0:0:0:0:
256,192,38893,1,8,0:0:0:0:
256,192,39006,1,0,0:0:0:0:
256,192,39043,1,0,0:0:0:0:
256,192,39156,1,0,0:0:0:0:
256,192,39193,1,0,0:0:0:0:
256,192,39306,1,0,0:0:0:0:
256,192,39343,1,8,0:0:0:0:
256,192,39456,1,0,0:0:0:0:
256,192,39493,1,0,0:0:0:0:
256,192,39606,1,8,0:0:0:0:
256,192,39643,1,8,0:0:0:0:
256,192,39756,1,0,0:0:0:0:
256,192,39793,1,8,0:0:0:0:
256,192,39906,1,0,0:0:0:0:
256,192,39943,1,0,0:0:0:0:
256,192,40056,1,8,0:0:0:0:
256,192,40093,1,0,0:0:0:0:
256,192,40206,1,8,0:0:0:0:
256,192,40243,1,8,0:0:0:0:
256,192,40356,1,0,0:0:0:0:
256,192,40393,1,8,0:0:0:0:
256,192,40506,1,0,0:0:0:0:
256,192,40543,1,0,0:0:0:0:
256,192,40656,1,0,0:0:0:0:
256,192,40693,1,0,0:0:0:0:
256,192,40806,1,12,0:0:0:0:
256,192,40956,1,0,0:0:0:0:
256,192,41106,1,12,0:0:0:0:
256,192,41256,1,0,0:0:0:0:
256,192,41406,1,12,0:0:0:0:
256,192,41556,1,0,0:0:0:0:
256,192,41706,1,12,0:0:0:0:
256,192,41856,1,0,0:0:0:0:
256,192,42006,1,12,0:0:0:0:
256,192,42306,1,4,0:0:0:0:
256,192,42606,1,0,0:0:0:0:
256,192,42681,1,0,0:0:0:0:
256,192,42756,1,0,0:0:0:0:
256,192,43056,1,0,0:0:0:0:
256,192,43206,1,0,0:0:0:0:
256,192,43281,1,0,0:0:0:0:
256,192,43356,1,0,0:0:0:0:
256,192,43406,1,0,0:0:0:0:
256,192,43456,1,0,0:0:0:0:
256,192,43506,1,8,0:0:0:0:
256,192,43581,1,8,0:0:0:0:
256,192,43656,1,0,0:0:0:0:
256,192,43706,1,0,0:0:0:0:
256,192,43756,1,0,0:0:0:0:
256,192,43806,1,8,0:0:0:0:
256,192,43881,1,8,0:0:0:0:
256,192,43956,1,0,0:0:0:0:
256,192,44006,1,0,0:0:0:0:
256,192,44056,1,0,0:0:0:0:
256,192,44106,1,8,0:0:0:0:
256,192,44181,1,8,0:0:0:0:
256,192,44256,1,8,0:0:0:0:
256,192,44331,1,8,0:0:0:0:
256,192,44406,1,4,0:0:0:0:
256,192,44706,1,8,0:0:0:0:
256,192,44856,1,0,0:0:0:0:
256,192,44931,1,0,0:0:0:0:
256,192,45006,1,8,0:0:0:0:
256,192,45056,1,8,0:0:0:0:
256,192,45106,1,8,0:0:0:0:
256,192,45156,1,0,0:0:0:0:
256,192,45231,1,0,0:0:0:0:
256,192,45306,1,8,0:0:0:0:
256,192,45356,1,8,0:0:0:0:
256,192,45406,1,0,0:0:0:0:
256,192,45456,1,0,0:0:0:0:
256,192,45531,1,0,0:0:0:0:
256,192,45606,1,8,0:0:0:0:
256,192,45756,1,8,0:0:0:0:
256,192,45793,1,8,0:0:0:0:
256,192,45981,1,0,0:0:0:0:
256,192,46056,1,0,0:0:0:0:
256,192,46106,1,0,0:0:0:0:
256,192,46156,1,0,0:0:0:0:
256,192,46206,1,8,0:0:0:0:
256,192,46281,1,8,0:0:0:0:
256,192,46356,1,0,0:0:0:0:
256,192,46406,1,0,0:0:0:0:
256,192,46456,1,0,0:0:0:0:
256,192,46506,1,8,0:0:0:0:
256,192,46581,1,8,0:0:0:0:
256,192,46656,1,8,0:0:0:0:
256,192,46731,1,8,0:0:0:0:
256,192,46806,1,0,0:0:0:0:
256,192,46843,1,0,0:0:0:0:
256,192,46956,1,0,0:0:0:0:
256,192,47031,1,8,0:0:0:0:
256,192,47106,1,0,0:0:0:0:
256,192,47143,1,0,0:0:0:0:
256,192,47256,1,0,0:0:0:0:
256,192,47293,1,0,0:0:0:0:
256,192,47406,1,8,0:0:0:0:
256,192,47456,1,8,0:0:0:0:
256,192,47506,1,8,0:0:0:0:
256,192,47556,1,0,0:0:0:0:
256,192,47631,1,8,0:0:0:0:
256,192,47706,1,8,0:0:0:0:
256,192,47756,1,8,0:0:0:0:
256,192,47806,1,8,0:0:0:0:
256,192,47856,1,0,0:0:0:0:
256,192,47931,1,0,0:0:0:0:
256,192,48156,1,8,0:0:0:0:
256,192,48193,1,0,0:0:0:0:
256,192,48231,1,0,0:0:0:0:
256,192,48306,1,8,0:0:0:0:
256,192,48343,1,0,0:0:0:0:
256,192,48381,1,0,0:0:0:0:
256,192,48456,1,8,0:0:0:0:
256,192,48493,1,0,0:0:0:0:
256,192,48531,1,0,0:0:0:0:
256,192,48606,1,4,0:0:0:0:
256,192,48756,1,8,0:0:0:0:
256,192,48793,1,0,0:0:0:0:
256,192,48831,1,0,0:0:0:0:
256,192,48906,1,8,0:0:0:0:
256,192,49206,1,4,0:0:0:0:
256,192,49506,1,12,0:0:0:0:
256,192,49656,1,0,0:0:0:0:
256,192,49706,1,0,0:0:0:0:
256,192,49756,1,0,0:0:0:0:
256,192,49806,1,8,0:0:0:0:
256,192,49881,1,8,0:0:0:0:
256,192,49956,1,0,0:0:0:0:
256,192,50006,1,0,0:0:0:0:
256,192,50056,1,8,0:0:0:0:
256,192,50106,1,8,0:0:0:0:
256,192,50181,1,0,0:0:0:0:
256,192,50256,1,8,0:0:0:0:
256,192,50331,1,8,0:0:0:0:
256,192,50406,1,0,0:0:0:0:
256,192,50443,1,0,0:0:0:0:
256,192,50706,1,8,0:0:0:0:
256,192,50743,1,8,0:0:0:0:
256,192,50856,1,0,0:0:0:0:
256,192,50906,1,0,0:0:0:0:
256,192,50956,1,8,0:0:0:0:
256,192,51006,1,8,0:0:0:0:
256,192,51081,1,8,0:0:0:0:
256,192,51156,1,0,0:0:0:0:
256,192,51206,1,0,0:0:0:0:
256,192,51256,1,0,0:0:0:0:
256,192,51306,1,8,0:0:0:0:
256,192,51381,1,8,0:0:0:0:
256,192,51456,1,0,0:0:0:0:
256,192,51531,1,0,0:0:0:0:
256,192,51606,1,0,0:0:0:0:
256,192,51643,1,0,0:0:0:0:
256,192,51756,1,0,0:0:0:0:
256,192,51831,1,8,0:0:0:0:
256,192,51906,1,0,0:0:0:0:
256,192,51943,1,8,0:0:0:0:
256,192,52056,1,0,0:0:0:0:
256,192,52093,1,0,0:0:0:0:
256,192,52206,1,8,0:0:0:0:
256,192,52256,1,8,0:0:0:0:
256,192,52306,1,8,0:0:0:0:
256,192,52356,1,0,0:0:0:0:
256,192,52431,1,0,0:0:0:0:
256,192,52506,1,8,0:0:0:0:
256,192,52556,1,8,0:0:0:0:
256,192,52606,1,0,0:0:0:0:
256,192,52656,1,0,0:0:0:0:
256,192,52731,1,0,0:0:0:0:
256,192,52806,1,0,0:0:0:0:
256,192,52881,1,8,0:0:0:0:
256,192,52956,1,0,0:0:0:0:
256,192,53031,1,8,0:0:0:0:
256,192,53106,1,0,0:0:0:0:
256,192,53181,1,0,0:0:0:0:
256,192,53256,1,0,0:0:0:0:
256,192,53331,1,8,0:0:0:0:
256,192,53406,1,0,0:0:0:0:
256,192,53481,1,0,0:0:0:0:
256,192,53556,1,8,0:0:0:0:
256,192,53631,1,8,0:0:0:0:
256,192,53706,1,0,0:0:0:0:
256,192,53756,1,8,0:0:0:0:
256,192,53806,1,8,0:0:0:0:
256,192,53856,1,8,0:0:0:0:
256,192,54006,1,4,0:0:0:0:
256,192,54231,1,0,0:0:0:0:
256,192,54306,1,8,0:0:0:0:
256,192,54456,1,0,0:0:0:0:
256,192,54506,1,0,0:0:0:0:
256,192,54556,1,0,0:0:0:0:
256,192,54606,1,8,0:0:0:0:
256,192,54681,1,8,0:0:0:0:
256,192,54756,1,8,0:0:0:0:
256,192,54831,1,8,0:0:0:0:
256,192,54906,1,0,0:0:0:0:
256,192,54981,1,8,0:0:0:0:
256,192,55056,1,8,0:0:0:0:
256,192,55131,1,8,0:0:0:0:
256,192,55206,1,0,0:0:0:0:
256,192,55256,1,0,0:0:0:0:
256,192,55306,1,0,0:0:0:0:
256,192,55356,1,0,0:0:0:0:
256,192,55506,1,8,0:0:0:0:
256,192,55581,1,0,0:0:0:0:
256,192,55656,1,0,0:0:0:0:
256,192,55706,1,0,0:0:0:0:
256,192,55756,1,0,0:0:0:0:
256,192,55806,1,8,0:0:0:0:
256,192,55881,1,8,0:0:0:0:
256,192,55956,1,8,0:0:0:0:
256,192,56031,1,8,0:0:0:0:
256,192,56106,1,0,0:0:0:0:
256,192,56181,1,8,0:0:0:0:
256,192,56256,1,8,0:0:0:0:
256,192,56331,1,8,0:0:0:0:
256,192,56406,1,0,0:0:0:0:
256,192,56443,1,0,0:0:0:0:
256,192,56556,1,8,0:0:0:0:
256,192,56631,1,8,0:0:0:0:
256,192,56706,1,0,0:0:0:0:
256,192,56743,1,0,0:0:0:0:
256,192,56856,1,8,0:0:0:0:
256,192,56893,1,8,0:0:0:0:
256,192,57006,1,8,0:0:0:0:
256,192,57081,1,8,0:0:0:0:
256,192,57156,1,8,0:0:0:0:
256,192,57231,1,8,0:0:0:0:
256,192,57306,1,0,0:0:0:0:
256,192,57381,1,8,0:0:0:0:
256,192,57456,1,8,0:0:0:0:
256,192,57531,1,8,0:0:0:0:
256,192,57606,1,4,0:0:0:0:
256,192,57906,1,8,0:0:0:0:
256,192,57981,1,0,0:0:0:0:
256,192,58131,1,8,0:0:0:0:
256,192,58281,1,0,0:0:0:0:
256,192,58356,1,8,0:0:0:0:
256,192,58506,1,0,0:0:0:0:
256,192,58581,1,8,0:0:0:0:
256,192,58806,1,4,0:0:0:0:
256,192,59031,1,0,0:0:0:0:
256,192,59106,1,8,0:0:0:0:
256,192,59181,1,8,0:0:0:0:
256,192,59256,1,0,0:0:0:0:
256,192,59306,1,0,0:0:0:0:
256,192,59356,1,0,0:0:0:0:
256,192,59406,1,8,0:0:0:0:
256,192,59481,1,8,0:0:0:0:
256,192,59556,1,0,0:0:0:0:
256,192,59606,1,0,0:0:0:0:
256,192,59656,1,0,0:0:0:0:
256,192,59706,1,8,0:0:0:0:
256,192,59781,1,8,0:0:0:0:
256,192,59856,1,8,0:0:0:0:
256,192,59931,1,8,0:0:0:0:
256,192,60006,1,0,0:0:0:0:
256,192,60056,1,0,0:0:0:0:
256,192,60106,1,0,0:0:0:0:
256,192,60156,1,0,0:0:0:0:
256,192,60306,1,0,0:0:0:0:
256,192,60381,1,0,0:0:0:0:
256,192,60456,1,8,0:0:0:0:
256,192,60506,1,0,0:0:0:0:
256,192,60556,1,0,0:0:0:0:
256,192,60606,1,8,0:0:0:0:
256,192,60681,1,8,0:0:0:0:
256,192,60756,1,0,0:0:0:0:
256,192,60806,1,0,0:0:0:0:
256,192,60856,1,0,0:0:0:0:
256,192,60906,1,8,0:0:0:0:
256,192,60981,1,8,0:0:0:0:
256,192,61056,1,8,0:0:0:0:
256,192,61131,1,8,0:0:0:0:
256,192,61206,1,0,0:0:0:0:
256,192,61256,1,0,0:0:0:0:
256,192,61306,1,0,0:0:0:0:
256,192,61356,1,0,0:0:0:0:
256,192,61431,1,8,0:0:0:0:
256,192,61506,1,0,0:0:0:0:
256,192,61543,1,0,0:0:0:0:
256,192,61656,1,0,0:0:0:0:
256,192,61693,1,0,0:0:0:0:
256,192,61806,1,8,0:0:0:0:
256,192,61856,1,8,0:0:0:0:
256,192,61906,1,8,0:0:0:0:
256,192,61956,1,8,0:0:0:0:
256,192,62031,1,8,0:0:0:0:
256,192,62106,1,0,0:0:0:0:
256,192,62156,1,8,0:0:0:0:
256,192,62206,1,8,0:0:0:0:
256,192,62256,1,8,0:0:0:0:
256,192,62331,1,8,0:0:0:0:
256,192,62406,1,0,0:0:0:0:
256,192,62456,1,0,0:0:0:0:
256,192,62506,1,0,0:0:0:0:
256,192,62556,1,8,0:0:0:0:
256,192,62631,1,8,0:0:0:0:
256,192,62706,1,0,0:0:0:0:
256,192,62756,1,0,0:0:0:0:
256,192,62806,1,8,0:0:0:0:
256,192,62856,1,8,0:0:0:0:
256,192,62931,1,8,0:0:0:0:
256,192,63006,1,8,0:0:0:0:
256,192,63056,1,0,0:0:0:0:
256,192,63106,1,0,0:0:0:0:
256,192,63156,1,8,0:0:0:0:
256,192,63231,1,0,0:0:0:0:
256,192,63306,1,8,0:0:0:0:
256,192,63356,1,8,0:0:0:0:
256,192,63406,1,8,0:0:0:0:
256,192,63456,1,8,0:0:0:0:
256,192,63506,1,8,0:0:0:0:
256,192,63556,1,8,0:0:0:0:
256,192,63606,1,4,0:0:0:0:
256,192,63906,1,8,0:0:0:0:
256,192,64056,1,0,0:0:0:0:
256,192,64356,1,0,0:0:0:0:
256,192,64506,1,8,0:0:0:0:
256,192,64806,1,0,0:0:0:0:
256,192,64956,1,8,0:0:0:0:
256,192,65106,1,0,0:0:0:0:
256,192,65181,1,0,0:0:0:0:
256,192,65256,1,8,0:0:0:0:
256,192,65406,1,0,0:0:0:0:
256,192,65556,1,8,0:0:0:0:
256,192,65631,1,8,0:0:0:0:
256,192,65706,1,0,0:0:0:0:
256,192,65856,1,8,0:0:0:0:
256,192,66006,1,0,0:0:0:0:
256,192,66306,1,0,0:0:0:0:
256,192,66456,1,8,0:0:0:0:
256,192,66531,1,8,0:0:0:0:
256,192,66606,1,8,0:0:0:0:
256,192,66756,1,0,0:0:0:0:
256,192,66906,1,8,0:0:0:0:
256,192,67056,1,8,0:0:0:0:
256,192,67206,1,0,0:0:0:0:
256,192,67356,1,8,0:0:0:0:
256,192,67506,1,0,0:0:0:0:
256,192,67581,1,0,0:0:0:0:
256,192,67656,1,8,0:0:0:0:
256,192,67806,1,8,0:0:0:0:
256,192,67956,1,0,0:0:0:0:
256,192,68106,1,8,0:0:0:0:
256,192,68256,1,8,0:0:0:0:
256,192,68406,1,0,0:0:0:0:
256,192,68706,1,0,0:0:0:0:
256,192,68856,1,8,0:0:0:0:
256,192,69156,1,0,0:0:0:0:
256,192,69306,1,8,0:0:0:0:
256,192,69606,1,0,0:0:0:0:
256,192,69756,1,8,0:0:0:0:
256,192,69831,1,8,0:0:0:0:
256,192,69906,1,0,0:0:0:0:
256,192,70056,1,8,0:0:0:0:
256,192,70206,1,0,0:0:0:0:
256,192,70281,1,0,0:0:0:0:
256,192,70356,1,8,0:0:0:0:
256,192,70431,1,8,0:0:0:0:
256,192,70506,1,0,0:0:0:0:
256,192,70656,1,8,0:0:0:0:
256,192,70806,1,0,0:0:0:0:
256,192,71106,1,8,0:0:0:0:
256,192,71181,1,8,0:0:0:0:
256,192,71256,1,8,0:0:0:0:
256,192,71406,1,0,0:0:0:0:
256,192,71556,1,8,0:0:0:0:
256,192,71631,1,0,0:0:0:0:
256,192,71706,1,8,0:0:0:0:
256,192,71856,1,0,0:0:0:0:
256,192,71931,1,0,0:0:0:0:
256,192,72006,1,8,0:0:0:0:
256,192,72081,1,8,0:0:0:0:
256,192,72156,1,0,0:0:0:0:
256,192,72231,1,0,0:0:0:0:
256,192,72306,1,8,0:0:0:0:
256,192,72381,1,0,0:0:0:0:
256,192,72456,1,0,0:0:0:0:
256,192,72531,1,0,0:0:0:0:
256,192,72606,1,8,0:0:0:0:
256,192,72656,1,0,0:0:0:0:
256,192,72706,1,0,0:0:0:0:
256,192,72756,1,8,0:0:0:0:
256,192,72806,1,0,0:0:0:0:
256,192,72856,1,0,0:0:0:0:
256,192,72906,1,8,0:0:0:0:
256,192,72956,1,8,0:0:0:0:
256,192,73006,1,8,0:0:0:0:
256,192,73056,1,0,0:0:0:0:
256,192,73131,1,0,0:0:0:0:
256,192,73206,1,4,0:0:0:0:
256,192,73506,1,0,0:0:0:0:
369,282,73656,5,8,0:0:0:0:
354,61,73693,1,0,0:0:0:0:
267,332,73806,5,8,0:0:0:0:
417,144,73843,1,0,0:0:0:0:
162,267,73956,5,8,0:0:0:0:
466,260,73993,5,0,0:0:0:0:
228,71,74106,5,8,0:0:0:0:
343,359,74143,1,0,0:0:0:0:
403,49,74256,5,8,0:0:0:0:
161,354,74293,1,8,0:0:0:0:
459,304,74406,5,0,0:0:0:0:
152,180,74443,1,8,0:0:0:0:
487,166,74556,5,8,0:0:0:0:
95,304,74593,1,8,0:0:0:0:
415,366,74706,5,0,0:0:0:0:
226,150,74743,1,0,0:0:0:0:
264,364,74856,5,8,0:0:0:0:
329,73,74893,1,8,0:0:0:0:
477,377,75006,5,8,0:0:0:0:
228,258,75156,1,0,0:0:0:0:
280,251,75231,1,0,0:0:0:0:
332,245,75306,1,8,0:0:0:0:
157,373,75456,1,8,0:0:0:0:
197,58,75606,1,4,0:0:0:0:
282,308,75906,1,0,0:0:0:0:
104,185,76056,5,8,0:0:0:0:
386,257,76093,1,0,0:0:0:0:
341,68,76206,5,8,0:0:0:0:
282,308,76243,1,8,0:0:0:0:
197,58,76356,5,0,0:0:0:0:
468,205,76393,1,8,0:0:0:0:
157,289,76506,5,8,0:0:0:0:
268,22,76543,1,8,0:0:0:0:
464,367,76656,1,8,0:0:0:0:
412,357,76731,1,8,0:0:0:0:
360,348,76806,5,8,0:0:0:0:
421,93,76843,1,0,0:0:0:0:
412,357,76956,5,8,0:0:0:0:
341,68,76993,1,0,0:0:0:0:
464,367,77106,5,0,0:0:0:0:
265,108,77143,1,0,0:0:0:0:
360,348,77256,5,8,0:0:0:0:
400,15,77293,1,0,0:0:0:0:
365,265,77406,1,8,0:0:0:0:
330,269,77456,1,0,0:0:0:0:
295,274,77506,1,0,0:0:0:0:
260,279,77556,1,8,0:0:0:0:
224,242,77631,1,0,0:0:0:0:
209,193,77706,1,8,0:0:0:0:
219,142,77781,1,8,0:0:0:0:
253,102,77856,1,0,0:0:0:0:
447,309,78006,5,4,0:0:0:0:
224,242,78306,1,0,0:0:0:0:
318,151,78456,5,8,0:0:0:0:
194,233,78493,1,0,0:0:0:0:
348,157,78606,5,8,0:0:0:0:
164,227,78643,1,8,0:0:0:0:
308,304,78756,5,8,0:0:0:0:
204,80,78793,1,0,0:0:0:0:
403,238,78906,5,0,0:0:0:0:
164,227,78943,1,0,0:0:0:0:
371,49,79056,1,8,0:0:0:0:
377,101,79131,1,8,0:0:0:0:
384,153,79206,5,8,0:0:0:0:
389,327,79243,1,0,0:0:0:0:
295,120,79356,5,8,0:0:0:0:
470,305,79393,1,0,0:0:0:0:
248,268,79506,1,0,0:0:0:0:
486,220,79543,1,0,0:0:0:0:
195,353,79656,1,8,0:0:0:0:
460,146,79693,1,0,0:0:0:0:
178,138,79806,5,8,0:0:0:0:
337,369,79956,1,0,0:0:0:0:
325,316,80031,1,8,0:0:0:0:
286,353,80106,1,0,0:0:0:0:
459,281,80256,1,8,0:0:0:0:
177,190,80406,1,4,0:0:0:0:
177,190,80706,1,0,0:0:0:0:
419,352,80856,5,8,0:0:0:0:
394,106,80893,1,8,0:0:0:0:
332,366,81006,5,8,0:0:0:0:
459,178,81043,1,0,0:0:0:0:
225,351,81156,5,8,0:0:0:0:
495,306,81193,1,8,0:0:0:0:
101,273,81306,5,8,0:0:0:0:
485,380,81343,1,0,0:0:0:0:
321,137,81456,5,8,0:0:0:0:
314,284,81531,1,8,0:0:0:0:
459,178,81606,5,0,0:0:0:0:
188,201,81643,1,8,0:0:0:0:
466,274,81756,5,0,0:0:0:0:
224,107,81793,1,8,0:0:0:0:
385,326,81906,5,0,0:0:0:0:
402,82,81943,1,0,0:0:0:0:
221,30,82056,5,8,0:0:0:0:
314,284,82093,1,0,0:0:0:0:
321,137,82206,1,8,0:0:0:0:
113,306,82356,1,0,0:0:0:0:
165,312,82431,1,0,0:0:0:0:
217,319,82506,5,8,0:0:0:0:
435,279,82656,1,8,0:0:0:0:
256,192,82806,5,4,0:0:0:0:
256,192,82956,1,0,0:0:0:0:
256,192,83031,1,0,0:0:0:0:
256,192,83106,1,8,0:0:0:0:
256,192,83256,1,8,0:0:0:0:
256,192,83406,1,0,0:0:0:0:
256,192,83481,1,8,0:0:0:0:
256,192,83556,1,0,0:0:0:0:
256,192,83706,1,8,0:0:0:0:
256,192,83856,1,0,0:0:0:0:
256,192,83931,1,0,0:0:0:0:
256,192,84006,1,8,0:0:0:0:
256,192,84081,1,8,0:0:0:0:
256,192,84156,1,0,0:0:0:0:
256,192,84231,1,8,0:0:0:0:
256,192,84306,1,0,0:0:0:0:
256,192,84381,1,0,0:0:0:0:
256,192,84456,1,8,0:0:0:0:
256,192,84531,1,8,0:0:0:0:
256,192,84606,1,0,0:0:0:0:
256,192,84756,1,0,0:0:0:0:
256,192,84831,1,0,0:0:0:0:
256,192,84906,1,8,0:0:0:0:
256,192,84981,1,8,0:0:0:0:
256,192,85056,1,8,0:0:0:0:
256,192,85206,1,4,0:0:0:0:
256,192,85356,1,0,0:0:0:0:
256,192,85431,1,0,0:0:0:0:
256,192,85506,1,8,0:0:0:0:
256,192,85581,1,8,0:0:0:0:
256,192,85656,1,8,0:0:0:0:
256,192,85731,1,8,0:0:0:0:
256,192,85806,1,0,0:0:0:0:
256,192,85881,1,0,0:0:0:0:
256,192,85956,1,0,0:0:0:0:
256,192,86031,1,0,0:0:0:0:
256,192,86106,1,8,0:0:0:0:
256,192,86181,1,8,0:0:0:0:
256,192,86256,1,0,0:0:0:0:
256,192,86331,1,8,0:0:0:0:
256,192,86406,1,0,0:0:0:0:
256,192,86481,1,0,0:0:0:0:
256,192,86556,1,0,0:0:0:0:
256,192,86631,1,0,0:0:0:0:
256,192,86706,1,8,0:0:0:0:
256,192,86781,1,8,0:0:0:0:
256,192,86856,1,0,0:0:0:0:
256,192,86931,1,0,0:0:0:0:
256,192,87006,1,8,0:0:0:0:
256,192,87081,1,8,0:0:0:0:
256,192,87156,1,0,0:0:0:0:
256,192,87231,1,0,0:0:0:0:
256,192,87306,1,8,0:0:0:0:
256,192,87381,1,0,0:0:0:0:
256,192,87456,1,8,0:0:0:0:
256,192,87531,1,8,0:0:0:0:
256,192,87606,1,0,0:0:0:0:
256,192,87756,1,8,0:0:0:0:
256,192,87793,1,8,0:0:0:0:
256,192,87906,1,0,0:0:0:0:
256,192,88056,1,8,0:0:0:0:
256,192,88093,1,8,0:0:0:0:
256,192,88206,1,0,0:0:0:0:
256,192,88356,1,8,0:0:0:0:
256,192,88393,1,8,0:0:0:0:
256,192,88506,1,0,0:0:0:0:
256,192,88543,1,0,0:0:0:0:
256,192,88656,1,8,0:0:0:0:
256,192,88693,1,8,0:0:0:0:
256,192,88806,1,0,0:0:0:0:
256,192,88881,1,0,0:0:0:0:
256,192,88956,1,8,0:0:0:0:
256,192,88993,1,8,0:0:0:0:
256,192,89106,1,0,0:0:0:0:
256,192,89256,1,8,0:0:0:0:
256,192,89293,1,8,0:0:0:0:
256,192,89406,1,0,0:0:0:0:
256,192,89556,1,8,0:0:0:0:
256,192,89593,1,8,0:0:0:0:
256,192,89706,1,0,0:0:0:0:
256,192,89756,1,0,0:0:0:0:
256,192,89806,1,0,0:0:0:0:
256,192,89856,1,8,0:0:0:0:
256,192,90006,1,4,0:0:0:0:
256,192,90156,1,0,0:0:0:0:
256,192,90231,1,0,0:0:0:0:
256,192,90306,1,8,0:0:0:0:
256,192,90381,1,0,0:0:0:0:
256,192,90456,1,0,0:0:0:0:
256,192,90531,1,8,0:0:0:0:
256,192,90606,1,0,0:0:0:0:
256,192,90681,1,0,0:0:0:0:
256,192,90756,1,0,0:0:0:0:
256,192,90831,1,0,0:0:0:0:
256,192,90906,1,8,0:0:0:0:
256,192,90981,1,8,0:0:0:0:
256,192,91056,1,0,0:0:0:0:
256,192,91131,1,8,0:0:0:0:
256,192,91206,1,0,0:0:0:0:
256,192,91281,1,0,0:0:0:0:
256,192,91356,1,0,0:0:0:0:
256,192,91431,1,0,0:0:0:0:
256,192,91506,1,8,0:0:0:0:
256,192,91581,1,8,0:0:0:0:
256,192,91656,1,0,0:0:0:0:
256,192,91731,1,0,0:0:0:0:
256,192,91806,1,8,0:0:0:0:
256,192,91881,1,8,0:0:0:0:
256,192,91956,1,8,0:0:0:0:
256,192,92031,1,0,0:0:0:0:
256,192,92106,1,8,0:0:0:0:
256,192,92181,1,0,0:0:0:0:
256,192,92256,1,0,0:0:0:0:
256,192,92331,1,0,0:0:0:0:
256,192,92406,1,8,0:0:0:0:
256,192,92518,1,0,0:0:0:0:
256,192,92556,1,8,0:0:0:0:
256,192,92668,1,0,0:0:0:0:
256,192,92706,1,8,0:0:0:0:
256,192,92818,1,0,0:0:0:0:
256,192,92856,1,8,0:0:0:0:
256,192,92968,1,0,0:0:0:0:
256,192,93006,1,8,0:0:0:0:
256,192,93118,1,0,0:0:0:0:
256,192,93156,1,8,0:0:0:0:
256,192,93268,1,0,0:0:0:0:
256,192,93306,1,8,0:0:0:0:
256,192,93418,1,0,0:0:0:0:
256,192,93456,1,8,0:0:0:0:
22,223,93606,1,4,0:0:0:0:
22,223,93906,1,4,0:0:0:0:
22,223,94206,1,0,0:0:0:0:
1,229,94256,1,0,0:0:0:0:
22,223,94306,1,0,0:0:0:0:
1,229,94356,1,0,0:0:0:0:
22,223,94406,1,0,0:0:0:0:
1,229,94456,1,0,0:0:0:0:
22,223,94506,1,8,0:0:0:0:
1,229,94556,1,8,0:0:0:0:
256,192,94806,1,4,0:0:0:0:
256,192,94956,1,0,0:0:0:0:
256,192,95031,1,0,0:0:0:0:
256,192,95106,1,8,0:0:0:0:
256,192,95181,1,8,0:0:0:0:
256,192,95256,1,8,0:0:0:0:
256,192,95331,1,8,0:0:0:0:
256,192,95406,1,0,0:0:0:0:
256,192,95481,1,0,0:0:0:0:
256,192,95556,1,0,0:0:0:0:
256,192,95631,1,0,0:0:0:0:
256,192,95706,1,0,0:0:0:0:
256,192,95743,1,0,0:0:0:0:
256,192,95856,1,8,0:0:0:0:
256,192,95893,1,8,0:0:0:0:
256,192,96006,1,4,0:0:0:0:
256,192,96156,1,0,0:0:0:0:
256,192,96231,1,0,0:0:0:0:
256,192,96306,1,8,0:0:0:0:
256,192,96381,1,8,0:0:0:0:
256,192,96456,1,0,0:0:0:0:
256,192,96531,1,8,0:0:0:0:
256,192,96606,1,0,0:0:0:0:
256,192,96681,1,0,0:0:0:0:
256,192,96756,1,0,0:0:0:0:
256,192,96906,1,8,0:0:0:0:
256,192,96943,1,8,0:0:0:0:
256,192,97056,1,0,0:0:0:0:
256,192,97206,1,4,0:0:0:0:
256,192,97356,1,0,0:0:0:0:
256,192,97431,1,0,0:0:0:0:
256,192,97506,1,8,0:0:0:0:
256,192,97581,1,8,0:0:0:0:
256,192,97656,1,8,0:0:0:0:
256,192,97731,1,8,0:0:0:0:
256,192,97806,1,0,0:0:0:0:
256,192,97881,1,8,0:0:0:0:
256,192,97956,1,0,0:0:0:0:
256,192,98031,1,8,0:0:0:0:
256,192,98106,1,8,0:0:0:0:
256,192,98181,1,0,0:0:0:0:
256,192,98256,1,0,0:0:0:0:
256,192,98331,1,8,0:0:0:0:
256,192,98406,1,0,0:0:0:0:
256,192,98481,1,0,0:0:0:0:
256,192,98556,1,0,0:0:0:0:
256,192,98631,1,0,0:0:0:0:
256,192,98706,1,8,0:0:0:0:
256,192,98781,1,8,0:0:0:0:
256,192,98856,1,0,0:0:0:0:
256,192,99006,1,8,0:0:0:0:
256,192,99043,1,8,0:0:0:0:
256,192,99156,1,8,0:0:0:0:
256,192,99193,1,8,0:0:0:0:
256,192,99306,1,8,0:0:0:0:
256,192,99343,1,8,0:0:0:0:
256,192,99456,1,8,0:0:0:0:
256,192,99493,1,8,0:0:0:0:
256,192,99606,1,4,0:0:0:0:
256,192,99756,1,0,0:0:0:0:
256,192,99831,1,0,0:0:0:0:
256,192,99906,1,8,0:0:0:0:
256,192,99981,1,8,0:0:0:0:
256,192,100056,1,0,0:0:0:0:
256,192,100131,1,0,0:0:0:0:
256,192,100206,1,0,0:0:0:0:
256,192,100281,1,8,0:0:0:0:
256,192,100356,1,0,0:0:0:0:
256,192,100431,1,0,0:0:0:0:
256,192,100506,1,8,0:0:0:0:
256,192,100581,1,0,0:0:0:0:
256,192,100656,1,8,0:0:0:0:
256,192,100731,1,8,0:0:0:0:
256,192,100806,1,0,0:0:0:0:
256,192,100881,1,0,0:0:0:0:
256,192,100956,1,0,0:0:0:0:
256,192,101031,1,0,0:0:0:0:
256,192,101106,1,8,0:0:0:0:
256,192,101181,1,8,0:0:0:0:
256,192,101256,1,0,0:0:0:0:
256,192,101331,1,0,0:0:0:0:
256,192,101406,1,8,0:0:0:0:
256,192,101481,1,8,0:0:0:0:
256,192,101556,1,0,0:0:0:0:
256,192,101631,1,0,0:0:0:0:
256,192,101706,1,8,0:0:0:0:
256,192,101781,1,8,0:0:0:0:
256,192,101856,1,8,0:0:0:0:
256,192,101931,1,8,0:0:0:0:
256,192,102006,1,4,0:0:0:0:
256,192,102156,1,8,0:0:0:0:
256,192,102306,1,8,0:0:0:0:
256,192,102456,1,0,0:0:0:0:
256,192,102606,1,0,0:0:0:0:
256,192,102756,1,8,0:0:0:0:
256,192,102906,1,8,0:0:0:0:
256,192,103056,1,0,0:0:0:0:
256,192,103206,1,0,0:0:0:0:
256,192,103356,1,8,0:0:0:0:
256,192,103393,1,8,0:0:0:0:
256,192,103656,1,0,0:0:0:0:
256,192,103806,1,8,0:0:0:0:
256,192,103881,1,8,0:0:0:0:
256,192,103956,1,8,0:0:0:0:
256,192,104031,1,8,0:0:0:0:
256,192,104106,1,8,0:0:0:0:
256,192,104181,1,8,0:0:0:0:
256,192,104256,1,8,0:0:0:0:
256,192,104331,1,8,0:0:0:0:
256,192,104406,1,4,0:0:0:0:
256,192,104556,1,8,0:0:0:0:
256,192,104631,1,8,0:0:0:0:
256,192,104706,1,0,0:0:0:0:
256,192,104756,1,0,0:0:0:0:
256,192,104806,1,0,0:0:0:0:
256,192,104856,1,8,0:0:0:0:
256,192,104931,1,8,0:0:0:0:
256,192,105006,1,0,0:0:0:0:
256,192,105056,1,0,0:0:0:0:
256,192,105106,1,0,0:0:0:0:
256,192,105156,1,8,0:0:0:0:
256,192,105231,1,8,0:0:0:0:
256,192,105306,1,0,0:0:0:0:
256,192,105381,1,0,0:0:0:0:
256,192,105456,1,8,0:0:0:0:
256,192,105531,1,8,0:0:0:0:
256,192,105606,1,0,0:0:0:0:
256,192,105643,1,0,0:0:0:0:
256,192,105756,1,8,0:0:0:0:
256,192,105831,1,8,0:0:0:0:
256,192,105906,1,0,0:0:0:0:
256,192,105956,1,0,0:0:0:0:
256,192,106006,1,8,0:0:0:0:
256,192,106056,1,8,0:0:0:0:
256,192,106131,1,8,0:0:0:0:
256,192,106206,1,0,0:0:0:0:
256,192,106256,1,0,0:0:0:0:
256,192,106306,1,0,0:0:0:0:
256,192,106356,1,8,0:0:0:0:
256,192,106431,1,8,0:0:0:0:
256,192,106506,1,0,0:0:0:0:
256,192,106581,1,8,0:0:0:0:
256,192,106656,1,8,0:0:0:0:
256,192,106731,1,0,0:0:0:0:
256,192,106806,1,0,0:0:0:0:
256,192,106843,1,0,0:0:0:0:
256,192,106956,1,0,0:0:0:0:
256,192,107106,1,8,0:0:0:0:
256,192,107143,1,8,0:0:0:0:
256,192,107256,1,0,0:0:0:0:
256,192,107293,1,0,0:0:0:0:
256,192,107331,1,0,0:0:0:0:
256,192,107406,1,8,0:0:0:0:
256,192,107456,1,8,0:0:0:0:
256,192,107506,1,8,0:0:0:0:
256,192,107556,1,0,0:0:0:0:
256,192,107631,1,0,0:0:0:0:
256,192,107706,1,8,0:0:0:0:
256,192,107756,1,8,0:0:0:0:
256,192,107806,1,0,0:0:0:0:
256,192,107856,1,0,0:0:0:0:
256,192,107931,1,0,0:0:0:0:
256,192,108006,1,8,0:0:0:0:
256,192,108056,1,8,0:0:0:0:
256,192,108106,1,8,0:0:0:0:
256,192,108156,1,0,0:0:0:0:
256,192,108306,1,0,0:0:0:0:
256,192,108381,1,0,0:0:0:0:
256,192,108456,1,0,0:0:0:0:
256,192,108506,1,0,0:0:0:0:
256,192,108556,1,0,0:0:0:0:
256,192,108606,1,8,0:0:0:0:
256,192,108656,1,8,0:0:0:0:
256,192,108706,1,8,0:0:0:0:
256,192,108756,1,0,0:0:0:0:
256,192,108831,1,0,0:0:0:0:
256,192,108906,1,8,0:0:0:0:
256,192,108981,1,0,0:0:0:0:
256,192,109056,1,0,0:0:0:0:
256,192,109131,1,0,0:0:0:0:
256,192,109206,1,8,0:0:0:0:
256,192,109256,1,8,0:0:0:0:
256,192,109306,1,8,0:0:0:0:
256,192,109356,1,0,0:0:0:0:
256,192,109431,1,0,0:0:0:0:
256,192,109506,1,8,0:0:0:0:
256,192,109556,1,8,0:0:0:0:
256,192,109606,1,8,0:0:0:0:
256,192,109656,1,0,0:0:0:0:
256,192,109731,1,0,0:0:0:0:
256,192,109806,1,8,0:0:0:0:
256,192,109856,1,8,0:0:0:0:
256,192,109906,1,8,0:0:0:0:
256,192,109956,1,0,0:0:0:0:
256,192,110031,1,0,0:0:0:0:
256,192,110106,1,8,0:0:0:0:
256,192,110181,1,8,0:0:0:0:
256,192,110256,1,0,0:0:0:0:
256,192,110331,1,0,0:0:0:0:
256,192,110406,1,8,0:0:0:0:
256,192,110456,1,8,0:0:0:0:
256,192,110506,1,8,0:0:0:0:
256,192,110556,1,0,0:0:0:0:
256,192,110631,1,0,0:0:0:0:
256,192,110706,1,8,0:0:0:0:
256,192,110756,1,0,0:0:0:0:
256,192,110806,1,0,0:0:0:0:
256,192,110856,1,8,0:0:0:0:
256,192,110931,1,0,0:0:0:0:
256,192,111006,1,8,0:0:0:0:
256,192,111056,1,8,0:0:0:0:
256,192,111106,1,8,0:0:0:0:
256,192,111156,1,0,0:0:0:0:
256,192,111231,1,0,0:0:0:0:
256,192,111306,1,8,0:0:0:0:
256,192,111381,1,0,0:0:0:0:
256,192,111456,1,0,0:0:0:0:
256,192,111531,1,0,0:0:0:0:
256,192,111606,1,8,0:0:0:0:
256,192,111656,1,0,0:0:0:0:
256,192,111706,1,0,0:0:0:0:
256,192,111756,1,8,0:0:0:0:
256,192,111831,1,0,0:0:0:0:
256,192,111906,1,8,0:0:0:0:
256,192,111956,1,8,0:0:0:0:
256,192,112006,1,8,0:0:0:0:
256,192,112056,1,0,0:0:0:0:
256,192,112131,1,0,0:0:0:0:
256,192,112206,1,8,0:0:0:0:
256,192,112256,1,0,0:0:0:0:
256,192,112306,1,0,0:0:0:0:
256,192,112356,1,8,0:0:0:0:
256,192,112431,1,0,0:0:0:0:
256,192,112506,1,8,0:0:0:0:
256,192,112556,1,8,0:0:0:0:
256,192,112606,1,8,0:0:0:0:
256,192,112656,1,8,0:0:0:0:
256,192,112706,1,8,0:0:0:0:
256,192,112756,1,8,0:0:0:0:
256,192,112806,1,4,0:0:0:0:
256,192,113106,1,4,0:0:0:0:
256,192,113406,1,0,0:0:0:0:
256,192,113706,1,12,0:0:0:0:
256,192,114006,1,4,0:0:0:0:
256,192,114456,1,0,0:0:0:0:
256,192,114531,1,8,0:0:0:0:
256,192,114606,1,0,0:0:0:0:
256,192,114756,1,0,0:0:0:0:
256,192,114906,1,8,0:0:0:0:
256,192,115056,1,0,0:0:0:0:
256,192,115206,1,0,0:0:0:0:
256,192,115506,1,8,0:0:0:0:
256,192,115656,1,8,0:0:0:0:
256,192,115806,1,0,0:0:0:0:
256,192,116106,1,0,0:0:0:0:
256,192,116256,1,8,0:0:0:0:
256,192,116406,1,4,0:0:0:0:
256,192,116556,1,0,0:0:0:0:
256,192,116706,1,8,0:0:0:0:
256,192,116856,1,8,0:0:0:0:
256,192,117006,1,4,0:0:0:0:
256,192,117306,1,12,0:0:0:0:
256,192,117606,1,4,0:0:0:0:
