osu file format v14

[General]
AudioFilename: audio.mp3
AudioLeadIn: 0
PreviewTime: 0
Countdown: 0
SampleSet: Normal
StackLeniency: 0.2
Mode: 1
LetterboxInBreaks: 0
WidescreenStoryboard: 1

[Editor]
Bookmarks: 531
DistanceSpacing: 1.1
BeatDivisor: 1
GridSize: 4
TimelineZoom: 2.100006

[Metadata]
Title:PEPPY FIX TAIKO STAR RATING PLEASE for a happier
TitleUnicode:PEPPY FIX TAIKO STAR RATING PLEASE for a happier
Artist:Various Artists
ArtistUnicode:Various Artists
Creator:ARGENTINE DREAM
Version:World Tour
Source:
Tags:kasai harcores esti round wave crusher d abe3 slash dot dash cycle hit helix maniera axer backfire hikikochan hikiko- _yu68 surono alchyr nifty brames consified lno skull kid skid brasil luckysonicghz kqrth trapmaniac agu ppus zigizigiefe nwolf -kazu- idealism babysnakes astolfo vrnl yea jarvisgaming chichinya poii hirok _dusk_ nishizumi ulqui coryn faputa rhytoly dudetm meovvcat jhowm gaston_2199 kbludoh blackener mtdex kuron kuron-kun tyistiana xtrem3x ghm12 davidminh0111 -gn junior aspirin whats skill metalstream whosthebox grimbow duski ozzyozrock foxerus endymion vulkin taiko pp compilation
BeatmapID:1725941
BeatmapSetID:794048

[Difficulty]
HPDrainRate:1
CircleSize:10
OverallDifficulty:8
ApproachRate:10
SliderMultiplier:1.4
SliderTickRate:1

[Events]
//Background and Video events
0,0,"2018.jpg",0,0
//Break Periods
//Storyboard Layer 0 (Background)
//Storyboard Layer 1 (Fail)
//Storyboard Layer 2 (Pass)
//Storyboard Layer 3 (Foreground)
//Storyboard Sound Samples

[TimingPoints]
6,300,4,1,0,80,1,0
44406,-100,4,1,0,80,0,1
52806,-108.695652173913,4,1,0,80,0,0
54006,-86.9565217391304,4,1,0,80,0,1
63606,-83.3333333333333,4,1,0,80,0,0
73206,-100,4,1,0,80,0,1
85206,-90.9090909090909,4,1,0,80,0,0
104406,-83.3333333333333,4,1,0,80,0,1
113856,-90.9090909090909,4,1,0,80,0,1
114006,-100,4,1,0,80,0,0
117906,30,4,1,0,80,1,0
117906,-25,4,1,0,80,0,0

[HitObjects]
256,192,6,5,12,0:0:0:0:
256,192,456,1,0,0:0:0:0:
256,192,531,1,0,0:0:0:0:
256,192,606,1,8,0:0:0:0:
256,192,756,1,8,0:0:0:0:
256,192,906,1,0,0:0:0:0:
256,192,1056,1,0,0:0:0:0:
256,192,1206,1,8,0:0:0:0:
256,192,1506,1,8,0:0:0:0:
256,192,1656,1,8,0:0:0:0:
256,192,1806,1,0,0:0:0:0:
256,192,2406,1,8,0:0:0:0:
256,192,2856,1,0,0:0:0:0:
256,192,2931,1,0,0:0:0:0:
256,192,3006,1,8,0:0:0:0:
256,192,3156,1,0,0:0:0:0:
256,192,3306,1,8,0:0:0:0:
256,192,3456,1,0,0:0:0:0:
256,192,3606,1,8,0:0:0:0:
256,192,3756,1,8,0:0:0:0:
256,192,3906,1,0,0:0:0:0:
256,192,4056,1,0,0:0:0:0:
256,192,4206,1,8,0:0:0:0:
256,192,4506,1,0,0:0:0:0:
256,192,4806,1,8,0:0:0:0:
256,192,5256,1,0,0:0:0:0:
256,192,5331,1,0,0:0:0:0:
256,192,5406,1,8,0:0:0:0:
256,192,5556,1,0,0:0:0:0:
256,192,5706,1,8,0:0:0:0:
256,192,5856,1,0,0:0:0:0:
256,192,6006,1,8,0:0:0:0:
256,192,6306,1,8,0:0:0:0:
256,192,6456,1,8,0:0:0:0:
256,192,6606,1,0,0:0:0:0:
256,192,6906,1,8,0:0:0:0:
256,192,7056,1,0,0:0:0:0:
256,192,7206,1,8,0:0:0:0:
256,192,7256,1,8,0:0:0:0:
256,192,7306,1,8,0:0:0:0:
256,192,7356,1,0,0:0:0:0:
256,192,7431,1,0,0:0:0:0:
256,192,7506,1,8,0:0:0:0:
256,192,7606,1,0,0:0:0:0:
256,192,7706,1,0,0:0:0:0:
256,192,7806,1,8,0:0:0:0:
256,192,7881,1,8,0:0:0:0:
256,192,7956,1,0,0:0:0:0:
256,192,8031,1,0,0:0:0:0:
256,192,8106,1,8,0:0:0:0:
256,192,8181,1,0,0:0:0:0:
256,192,8256,1,0,0:0:0:0:
256,192,8331,1,0,0:0:0:0:
256,192,8406,1,12,0:0:0:0:
256,192,8556,1,0,0:0:0:0:
256,192,8631,1,0,0:0:0:0:
256,192,8706,1,8,0:0:0:0:
256,192,8781,1,8,0:0:0:0:
256,192,8856,1,0,0:0:0:0:
256,192,8931,1,0,0:0:0:0:
256,192,9006,1,8,0:0:0:0:
256,192,9056,1,8,0:0:0:0:
256,192,9106,1,8,0:0:0:0:
256,192,9156,1,0,0:0:0:0:
256,192,9231,1,0,0:0:0:0:
256,192,9306,1,8,0:0:0:0:
256,192,9356,1,8,0:0:0:0:
256,192,9406,1,8,0:0:0:0:
256,192,9456,1,0,0:0:0:0:
256,192,9531,1,0,0:0:0:0:
256,192,9606,1,12,0:0:0:0:
256,192,9756,1,0,0:0:0:0:
256,192,9831,1,0,0:0:0:0:
256,192,9906,1,8,0:0:0:0:
256,192,10056,1,0,0:0:0:0:
256,192,10206,1,8,0:0:0:0:
256,192,10356,1,0,0:0:0:0:
256,192,10431,1,0,0:0:0:0:
256,192,10506,1,8,0:0:0:0:
256,192,10656,1,0,0:0:0:0:
256,192,10806,1,8,0:0:0:0:
256,192,10956,1,0,0:0:0:0:
256,192,11031,1,0,0:0:0:0:
256,192,11106,1,8,0:0:0:0:
256,192,11256,1,0,0:0:0:0:
256,192,11406,1,8,0:0:0:0:
256,192,11481,1,8,0:0:0:0:
256,192,11556,1,0,0:0:0:0:
256,192,11631,1,0,0:0:0:0:
256,192,11706,1,8,0:0:0:0:
256,192,11781,1,0,0:0:0:0:
256,192,11856,1,8,0:0:0:0:
256,192,11931,1,0,0:0:0:0:
256,192,12006,1,8,0:0:0:0:
256,192,12156,1,0,0:0:0:0:
256,192,12231,1,0,0:0:0:0:
256,192,12306,1,8,0:0:0:0:
256,192,12456,1,0,0:0:0:0:
256,192,12606,1,8,0:0:0:0:
256,192,12756,1,0,0:0:0:0:
256,192,12831,1,0,0:0:0:0:
256,192,12906,1,8,0:0:0:0:
256,192,13056,1,0,0:0:0:0:
256,192,13206,1,8,0:0:0:0:
256,192,13356,1,0,0:0:0:0:
256,192,13431,1,0,0:0:0:0:
256,192,13506,1,8,0:0:0:0:
256,192,13656,1,0,0:0:0:0:
256,192,13806,1,8,0:0:0:0:
256,192,13843,1,8,0:0:0:0:
256,192,13956,1,8,0:0:0:0:
256,192,13993,1,8,0:0:0:0:
256,192,14106,1,0,0:0:0:0:
256,192,14143,1,0,0:0:0:0:
256,192,14256,1,8,0:0:0:0:
256,192,14306,1,8,0:0:0:0:
256,192,14356,1,8,0:0:0:0:
256,192,14406,1,8,0:0:0:0:
256,192,14556,1,0,0:0:0:0:
256,192,14631,1,0,0:0:0:0:
256,192,14706,1,8,0:0:0:0:
256,192,14856,1,0,0:0:0:0:
256,192,15006,1,8,0:0:0:0:
256,192,15156,1,0,0:0:0:0:
256,192,15231,1,0,0:0:0:0:
256,192,15306,1,8,0:0:0:0:
256,192,15456,1,0,0:0:0:0:
256,192,15606,1,8,0:0:0:0:
256,192,15756,1,0,0:0:0:0:
256,192,15831,1,0,0:0:0:0:
256,192,15906,1,8,0:0:0:0:
256,192,16056,1,0,0:0:0:0:
256,192,16206,1,8,0:0:0:0:
256,192,16281,1,8,0:0:0:0:
256,192,16356,1,0,0:0:0:0:
256,192,16431,1,0,0:0:0:0:
256,192,16506,1,8,0:0:0:0:
256,192,16581,1,0,0:0:0:0:
256,192,16656,1,8,0:0:0:0:
256,192,16731,1,0,0:0:0:0:
256,192,16806,1,8,0:0:0:0:
256,192,16956,1,0,0:0:0:0:
256,192,17031,1,0,0:0:0:0:
256,192,17106,1,8,0:0:0:0:
256,192,17256,1,0,0:0:0:0:
256,192,17406,1,8,0:0:0:0:
256,192,17556,1,0,0:0:0:0:
256,192,17631,1,0,0:0:0:0:
256,192,17706,1,8,0:0:0:0:
256,192,17856,1,0,0:0:0:0:
256,192,18006,1,8,0:0:0:0:
256,192,18156,1,0,0:0:0:0:
256,192,18231,1,0,0:0:0:0:
256,192,18306,1,8,0:0:0:0:
256,192,18456,1,0,0:0:0:0:
256,192,18606,1,0,0:0:0:0:
256,192,18643,1,0,0:0:0:0:
256,192,18756,1,8,0:0:0:0:
256,192,18793,1,8,0:0:0:0:
256,192,18906,1,0,0:0:0:0:
256,192,18943,1,0,0:0:0:0:
256,192,19056,1,8,0:0:0:0:
256,192,19093,1,8,0:0:0:0:
256,192,19206,1,4,0:0:0:0:
256,192,19356,1,0,0:0:0:0:
256,192,19431,1,0,0:0:0:0:
256,192,19506,1,8,0:0:0:0:
256,192,19656,1,0,0:0:0:0:
256,192,19806,1,8,0:0:0:0:
256,192,19956,1,0,0:0:0:0:
256,192,20031,1,0,0:0:0:0:
256,192,20106,1,8,0:0:0:0:
256,192,20256,1,0,0:0:0:0:
256,192,20406,1,8,0:0:0:0:
256,192,20556,1,0,0:0:0:0:
256,192,20631,1,0,0:0:0:0:
256,192,20706,1,8,0:0:0:0:
256,192,20856,1,0,0:0:0:0:
256,192,21006,1,8,0:0:0:0:
256,192,21081,1,8,0:0:0:0:
256,192,21156,1,0,0:0:0:0:
256,192,21231,1,0,0:0:0:0:
256,192,21306,1,8,0:0:0:0:
256,192,21381,1,0,0:0:0:0:
256,192,21456,1,8,0:0:0:0:
256,192,21531,1,0,0:0:0:0:
256,192,21606,1,8,0:0:0:0:
256,192,21756,1,0,0:0:0:0:
256,192,21831,1,0,0:0:0:0:
256,192,21906,1,8,0:0:0:0:
256,192,22056,1,0,0:0:0:0:
256,192,22206,1,8,0:0:0:0:
256,192,22356,1,0,0:0:0:0:
256,192,22431,1,0,0:0:0:0:
256,192,22506,1,8,0:0:0:0:
256,192,22656,1,0,0:0:0:0:
256,192,22806,1,8,0:0:0:0:
256,192,22956,1,0,0:0:0:0:
256,192,23031,1,0,0:0:0:0:
256,192,23106,1,8,0:0:0:0:
256,192,23256,1,0,0:0:0:0:
256,192,23406,1,8,0:0:0:0:
256,192,23706,1,8,0:0:0:0:
256,192,23856,1,8,0:0:0:0:
256,192,24006,1,4,0:0:0:0:
256,192,24306,1,8,0:0:0:0:
256,192,24456,1,0,0:0:0:0:
256,192,24531,1,0,0:0:0:0:
256,192,24606,1,8,0:0:0:0:
256,192,24756,1,0,0:0:0:0:
256,192,24906,1,8,0:0:0:0:
256,192,25056,1,0,0:0:0:0:
256,192,25131,1,0,0:0:0:0:
256,192,25206,1,8,0:0:0:0:
256,192,25356,1,0,0:0:0:0:
256,192,25506,1,8,0:0:0:0:
256,192,25656,1,0,0:0:0:0:
256,192,25731,1,0,0:0:0:0:
256,192,25806,1,8,0:0:0:0:
256,192,25881,1,8,0:0:0:0:
256,192,25956,1,0,0:0:0:0:
256,192,26031,1,0,0:0:0:0:
256,192,26106,1,8,0:0:0:0:
256,192,26181,1,0,0:0:0:0:
256,192,26256,1,8,0:0:0:0:
256,192,26406,1,0,0:0:0:0:
256,192,26443,1,0,0:0:0:0:
256,192,26556,1,8,0:0:0:0:
256,192,26593,1,0,0:0:0:0:
256,192,26706,1,0,0:0:0:0:
256,192,26743,1,0,0:0:0:0:
256,192,26856,1,8,0:0:0:0:
256,192,26893,1,0,0:0:0:0:
256,192,27006,1,0,0:0:0:0:
256,192,27043,1,0,0:0:0:0:
256,192,27156,1,8,0:0:0:0:
256,192,27193,1,0,0:0:0:0:
256,192,27306,1,0,0:0:0:0:
256,192,27343,1,0,0:0:0:0:
256,192,27456,1,8,0:0:0:0:
256,192,27493,1,0,0:0:0:0:
256,192,27606,1,8,0:0:0:0:
256,192,27656,1,8,0:0:0:0:
256,192,27706,1,8,0:0:0:0:
256,192,27756,1,8,0:0:0:0:
256,192,27906,1,8,0:0:0:0:
256,192,27956,1,8,0:0:0:0:
256,192,28006,1,8,0:0:0:0:
256,192,28056,1,8,0:0:0:0:
256,192,28206,1,0,0:0:0:0:
256,192,28243,1,0,0:0:0:0:
256,192,28356,1,8,0:0:0:0:
256,192,28393,1,8,0:0:0:0:
256,192,28506,1,0,0:0:0:0:
256,192,28543,1,0,0:0:0:0:
256,192,28806,1,12,0:0:0:0:
256,192,28956,1,0,0:0:0:0:
256,192,29031,1,0,0:0:0:0:
256,192,29106,1,8,0:0:0:0:
256,192,29406,1,0,0:0:0:0:
256,192,29556,1,0,0:0:0:0:
256,192,29631,1,0,0:0:0:0:
256,192,29706,1,8,0:0:0:0:
256,192,30006,1,0,0:0:0:0:
256,192,30081,1,0,0:0:0:0:
256,192,30156,1,8,0:0:0:0:
256,192,30231,1,0,0:0:0:0:
256,192,30306,1,8,0:0:0:0:
256,192,30381,1,8,0:0:0:0:
256,192,30456,1,8,0:0:0:0:
256,192,30531,1,0,0:0:0:0:
256,192,30606,1,8,0:0:0:0:
256,192,30681,1,8,0:0:0:0:
256,192,30756,1,0,0:0:0:0:
256,192,30831,1,0,0:0:0:0:
256,192,30906,1,8,0:0:0:0:
256,192,31056,1,0,0:0:0:0:
256,192,31206,1,8,0:0:0:0:
256,192,31356,1,0,0:0:0:0:
256,192,31431,1,0,0:0:0:0:
256,192,31506,1,8,0:0:0:0:
256,192,31806,1,8,0:0:0:0:
256,192,31956,1,0,0:0:0:0:
256,192,32031,1,0,0:0:0:0:
256,192,32106,1,8,0:0:0:0:
256,192,32256,1,0,0:0:0:0:
256,192,32306,1,0,0:0:0:0:
256,192,32356,1,0,0:0:0:0:
256,192,32406,1,8,0:0:0:0:
256,192,32481,1,0,0:0:0:0:
256,192,32556,1,0,0:0:0:0:
256,192,32631,1,0,0:0:0:0:
256,192,32706,1,8,0:0:0:0:
256,192,32781,1,8,0:0:0:0:
256,192,32856,1,0,0:0:0:0:
256,192,32931,1,0,0:0:0:0:
256,192,33006,1,8,0:0:0:0:
256,192,33156,1,0,0:0:0:0:
256,192,33306,1,8,0:0:0:0:
256,192,33456,1,8,0:0:0:0:
256,192,33606,1,0,0:0:0:0:
256,192,33756,1,0,0:0:0:0:
256,192,33831,1,0,0:0:0:0:
256,192,33906,1,8,0:0:0:0:
256,192,34206,1,0,0:0:0:0:
256,192,34356,1,0,0:0:0:0:
256,192,34431,1,0,0:0:0:0:
256,192,34506,1,8,0:0:0:0:
256,192,34656,1,8,0:0:0:0:
256,192,34806,1,0,0:0:0:0:
256,192,34843,1,0,0:0:0:0:
256,192,34956,1,8,0:0:0:0:
256,192,34993,1,8,0:0:0:0:
256,192,35106,1,0,0:0:0:0:
256,192,35143,1,0,0:0:0:0:
256,192,35256,1,8,0:0:0:0:
256,192,35293,1,8,0:0:0:0:
256,192,35406,1,0,0:0:0:0:
256,192,35443,1,0,0:0:0:0:
256,192,35556,1,8,0:0:0:0:
256,192,35593,1,8,0:0:0:0:
256,192,35706,1,8,0:0:0:0:
256,192,35743,1,8,0:0:0:0:
256,192,35856,1,8,0:0:0:0:
256,192,35893,1,8,0:0:0:0:
256,192,36006,1,0,0:0:0:0:
256,192,36156,1,0,0:0:0:0:
256,192,36231,1,0,0:0:0:0:
256,192,36306,1,8,0:0:0:0:
256,192,36606,1,0,0:0:0:0:
256,192,36756,1,0,0:0:0:0:
256,192,36831,1,0,0:0:0:0:
256,192,36906,1,8,0:0:0:0:
256,192,37056,1,0,0:0:0:0:
256,192,37093,1,0,0:0:0:0:
256,192,37206,1,8,0:0:0:0:
256,192,37243,1,8,0:0:0:0:
256,192,37356,1,8,0:0:0:0:
256,192,37393,1,8,0:0:0:0:
256,192,37506,1,8,0:0:0:0:
256,192,37543,1,8,0:0:0:0:
256,192,37656,1,0,0:0:0:0:
256,192,37693,1,0,0:0:0:0:
256,192,37806,1,8,0:0:0:0:
256,192,37843,1,8,0:0:0:0:
256,192,37956,1,8,0:0:0:0:
256,192,37993,1,8,0:0:0:0:
256,192,38106,1,8,0:0:0:0:
256,192,38143,1,8,0:0:0:0:
256,192,38256,1,0,0:0:0:0:
256,192,38293,1,0,0:0:0:0:
256,192,38406,1,8,0:0:0:0:
256,192,38443,1,8,0:0:0:0:
256,192,38556,1,8,0:0:0:0:
256,192,38593,1,8,0:0:0:0:
256,192,38706,1,8,0:0:0:0:
256,192,38743,1,8,0:0:0:0:
256,192,38856,1,0,0:0:0:0:
256,192,38893,1,0,0:0:0:0:
256,192,39006,1,8,0:0:0:0:
256,192,39043,1,8,0:0:0:0:
256,192,39156,1,8,0:0:0:0:
256,192,39193,1,8,0:0:0:0:
256,192,39306,1,8,0:0:0:0:
256,192,39343,1,8,0:0:0:0:
256,192,39456,1,0,0:0:0:0:
256,192,39493,1,0,0:0:0:0:
256,192,39606,1,8,0:0:0:0:
256,192,39643,1,8,0:0:0:0:
256,192,39756,1,0,0:0:0:0:
256,192,39793,1,0,0:0:0:0:
256,192,39906,1,8,0:0:0:0:
256,192,39943,1,8,0:0:0:0:
256,192,40056,1,0,0:0:0:0:
256,192,40093,1,0,0:0:0:0:
256,192,40206,1,8,0:0:0:0:
256,192,40243,1,8,0:0:0:0:
256,192,40356,1,0,0:0:0:0:
256,192,40393,1,0,0:0:0:0:
256,192,40506,1,8,0:0:0:0:
256,192,40543,1,8,0:0:0:0:
256,192,40656,1,0,0:0:0:0:
256,192,40693,1,0,0:0:0:0:
256,192,40806,1,8,0:0:0:0:
256,192,40843,1,8,0:0:0:0:
256,192,40956,1,8,0:0:0:0:
256,192,40993,1,8,0:0:0:0:
256,192,41106,1,0,0:0:0:0:
256,192,41143,1,0,0:0:0:0:
256,192,41256,1,0,0:0:0:0:
256,192,41293,1,0,0:0:0:0:
256,192,41406,1,8,0:0:0:0:
256,192,41443,1,8,0:0:0:0:
256,192,41556,1,8,0:0:0:0:
256,192,41593,1,8,0:0:0:0:
256,192,41706,1,0,0:0:0:0:
256,192,41743,1,0,0:0:0:0:
256,192,41856,1,0,0:0:0:0:
256,192,41893,1,0,0:0:0:0:
256,192,42006,1,12,0:0:0:0:
256,192,42306,1,4,0:0:0:0:
256,192,42606,1,8,0:0:0:0:
256,192,42756,1,0,0:0:0:0:
256,192,42906,1,8,0:0:0:0:
256,192,43056,1,0,0:0:0:0:
256,192,43131,1,0,0:0:0:0:
256,192,43206,1,8,0:0:0:0:
256,192,43356,1,0,0:0:0:0:
256,192,43506,1,8,0:0:0:0:
256,192,43581,1,0,0:0:0:0:
256,192,43656,1,0,0:0:0:0:
256,192,43731,1,0,0:0:0:0:
256,192,43806,1,8,0:0:0:0:
256,192,43881,1,8,0:0:0:0:
256,192,43956,1,0,0:0:0:0:
256,192,44031,1,0,0:0:0:0:
256,192,44106,1,8,0:0:0:0:
256,192,44181,1,8,0:0:0:0:
256,192,44256,1,8,0:0:0:0:
256,192,44331,1,0,0:0:0:0:
256,192,44406,1,12,0:0:0:0:
256,192,44556,1,0,0:0:0:0:
256,192,44706,1,8,0:0:0:0:
256,192,44856,1,0,0:0:0:0:
256,192,44906,1,0,0:0:0:0:
256,192,44956,1,0,0:0:0:0:
256,192,45006,1,8,0:0:0:0:
256,192,45081,1,8,0:0:0:0:
256,192,45156,1,8,0:0:0:0:
256,192,45231,1,0,0:0:0:0:
256,192,45306,1,8,0:0:0:0:
256,192,45381,1,8,0:0:0:0:
256,192,45456,1,0,0:0:0:0:
256,192,45531,1,0,0:0:0:0:
256,192,45606,1,8,0:0:0:0:
256,192,45756,1,0,0:0:0:0:
256,192,45906,1,8,0:0:0:0:
256,192,46056,1,0,0:0:0:0:
256,192,46106,1,0,0:0:0:0:
256,192,46156,1,0,0:0:0:0:
256,192,46206,1,8,0:0:0:0:
256,192,46281,1,8,0:0:0:0:
256,192,46356,1,8,0:0:0:0:
256,192,46431,1,0,0:0:0:0:
256,192,46506,1,8,0:0:0:0:
256,192,46581,1,8,0:0:0:0:
256,192,46656,1,0,0:0:0:0:
256,192,46731,1,0,0:0:0:0:
256,192,46806,1,8,0:0:0:0:
256,192,46956,1,0,0:0:0:0:
256,192,47031,1,8,0:0:0:0:
256,192,47106,1,0,0:0:0:0:
256,192,47256,1,0,0:0:0:0:
256,192,47406,1,8,0:0:0:0:
256,192,47481,1,8,0:0:0:0:
256,192,47556,1,8,0:0:0:0:
256,192,47631,1,0,0:0:0:0:
256,192,47706,1,8,0:0:0:0:
256,192,47781,1,8,0:0:0:0:
256,192,47856,1,8,0:0:0:0:
256,192,47931,1,0,0:0:0:0:
256,192,48006,1,8,0:0:0:0:
256,192,48156,1,0,0:0:0:0:
256,192,48193,1,0,0:0:0:0:
256,192,48306,1,8,0:0:0:0:
256,192,48343,1,8,0:0:0:0:
256,192,48456,1,8,0:0:0:0:
256,192,48493,1,8,0:0:0:0:
256,192,48606,1,0,0:0:0:0:
256,192,48756,1,8,0:0:0:0:
256,192,48793,1,8,0:0:0:0:
256,192,48906,1,8,0:0:0:0:
256,192,48943,1,8,0:0:0:0:
256,192,49206,1,4,0:0:0:0:
256,192,49356,1,8,0:0:0:0:
256,192,49506,1,0,0:0:0:0:
256,192,49656,1,0,0:0:0:0:
256,192,49706,1,0,0:0:0:0:
256,192,49756,1,0,0:0:0:0:
256,192,49806,1,8,0:0:0:0:
256,192,49881,1,8,0:0:0:0:
256,192,49956,1,0,0:0:0:0:
256,192,50031,1,0,0:0:0:0:
256,192,50106,1,8,0:0:0:0:
256,192,50181,1,8,0:0:0:0:
256,192,50256,1,8,0:0:0:0:
256,192,50331,1,0,0:0:0:0:
256,192,50406,1,8,0:0:0:0:
256,192,50556,1,0,0:0:0:0:
256,192,50706,1,8,0:0:0:0:
256,192,50856,1,0,0:0:0:0:
256,192,50906,1,0,0:0:0:0:
256,192,50956,1,0,0:0:0:0:
256,192,51006,1,8,0:0:0:0:
256,192,51081,1,8,0:0:0:0:
256,192,51156,1,0,0:0:0:0:
256,192,51231,1,0,0:0:0:0:
256,192,51306,1,8,0:0:0:0:
256,192,51381,1,8,0:0:0:0:
256,192,51456,1,8,0:0:0:0:
256,192,51531,1,0,0:0:0:0:
256,192,51606,1,8,0:0:0:0:
256,192,51756,1,0,0:0:0:0:
256,192,51831,1,8,0:0:0:0:
256,192,51906,1,0,0:0:0:0:
256,192,52056,1,0,0:0:0:0:
256,192,52206,1,8,0:0:0:0:
256,192,52281,1,8,0:0:0:0:
256,192,52356,1,0,0:0:0:0:
256,192,52431,1,0,0:0:0:0:
256,192,52506,1,8,0:0:0:0:
256,192,52581,1,8,0:0:0:0:
256,192,52656,1,8,0:0:0:0:
256,192,52731,1,0,0:0:0:0:
256,192,52806,1,12,0:0:0:0:
256,192,52956,1,0,0:0:0:0:
256,192,53031,1,0,0:0:0:0:
256,192,53106,1,8,0:0:0:0:
256,192,53181,1,8,0:0:0:0:
256,192,53256,1,0,0:0:0:0:
256,192,53331,1,0,0:0:0:0:
256,192,53406,1,8,0:0:0:0:
256,192,53481,1,0,0:0:0:0:
256,192,53556,1,8,0:0:0:0:
256,192,53631,1,0,0:0:0:0:
256,192,53706,1,8,0:0:0:0:
256,192,53781,1,8,0:0:0:0:
256,192,53856,1,0,0:0:0:0:
256,192,53931,1,0,0:0:0:0:
256,192,54006,1,12,0:0:0:0:
256,192,54156,1,0,0:0:0:0:
256,192,54306,1,8,0:0:0:0:
256,192,54456,1,0,0:0:0:0:
256,192,54506,1,0,0:0:0:0:
256,192,54556,1,0,0:0:0:0:
256,192,54606,1,8,0:0:0:0:
256,192,54681,1,8,0:0:0:0:
256,192,54756,1,0,0:0:0:0:
256,192,54831,1,0,0:0:0:0:
256,192,54906,1,8,0:0:0:0:
256,192,54981,1,8,0:0:0:0:
256,192,55056,1,0,0:0:0:0:
256,192,55131,1,0,0:0:0:0:
256,192,55206,1,8,0:0:0:0:
256,192,55356,1,0,0:0:0:0:
256,192,55506,1,8,0:0:0:0:
256,192,55656,1,0,0:0:0:0:
256,192,55706,1,0,0:0:0:0:
256,192,55756,1,0,0:0:0:0:
256,192,55806,1,8,0:0:0:0:
256,192,55881,1,8,0:0:0:0:
256,192,55956,1,0,0:0:0:0:
256,192,56031,1,0,0:0:0:0:
256,192,56106,1,8,0:0:0:0:
256,192,56181,1,8,0:0:0:0:
256,192,56256,1,0,0:0:0:0:
256,192,56331,1,0,0:0:0:0:
256,192,56406,1,8,0:0:0:0:
256,192,56556,1,0,0:0:0:0:
256,192,56631,1,8,0:0:0:0:
256,192,56706,1,0,0:0:0:0:
256,192,56856,1,0,0:0:0:0:
256,192,57006,1,8,0:0:0:0:
256,192,57081,1,8,0:0:0:0:
256,192,57156,1,0,0:0:0:0:
256,192,57231,1,0,0:0:0:0:
256,192,57306,1,8,0:0:0:0:
256,192,57381,1,8,0:0:0:0:
256,192,57456,1,0,0:0:0:0:
256,192,57531,1,0,0:0:0:0:
256,192,57606,1,8,0:0:0:0:
256,192,57756,1,0,0:0:0:0:
256,192,57906,1,12,0:0:0:0:
256,192,58131,1,12,0:0:0:0:
256,192,58356,1,4,0:0:0:0:
256,192,58581,1,4,0:0:0:0:
256,192,58806,1,12,0:0:0:0:
256,192,58956,1,0,0:0:0:0:
256,192,59106,1,8,0:0:0:0:
256,192,59256,1,0,0:0:0:0:
256,192,59306,1,0,0:0:0:0:
256,192,59356,1,0,0:0:0:0:
256,192,59406,1,8,0:0:0:0:
256,192,59481,1,8,0:0:0:0:
256,192,59556,1,8,0:0:0:0:
256,192,59631,1,0,0:0:0:0:
256,192,59706,1,8,0:0:0:0:
256,192,59781,1,8,0:0:0:0:
256,192,59856,1,8,0:0:0:0:
256,192,59931,1,0,0:0:0:0:
256,192,60006,1,8,0:0:0:0:
256,192,60156,1,0,0:0:0:0:
256,192,60306,1,8,0:0:0:0:
256,192,60456,1,0,0:0:0:0:
256,192,60506,1,0,0:0:0:0:
256,192,60556,1,0,0:0:0:0:
256,192,60606,1,8,0:0:0:0:
256,192,60681,1,8,0:0:0:0:
256,192,60756,1,8,0:0:0:0:
256,192,60831,1,0,0:0:0:0:
256,192,60906,1,8,0:0:0:0:
256,192,60981,1,8,0:0:0:0:
256,192,61056,1,8,0:0:0:0:
256,192,61131,1,0,0:0:0:0:
256,192,61206,1,8,0:0:0:0:
256,192,61356,1,0,0:0:0:0:
256,192,61431,1,8,0:0:0:0:
256,192,61506,1,0,0:0:0:0:
256,192,61656,1,0,0:0:0:0:
256,192,61806,1,8,0:0:0:0:
256,192,61881,1,8,0:0:0:0:
256,192,61956,1,0,0:0:0:0:
256,192,62031,1,0,0:0:0:0:
256,192,62106,1,8,0:0:0:0:
256,192,62181,1,8,0:0:0:0:
256,192,62256,1,0,0:0:0:0:
256,192,62331,1,0,0:0:0:0:
256,192,62406,1,8,0:0:0:0:
256,192,62456,1,0,0:0:0:0:
256,192,62506,1,0,0:0:0:0:
256,192,62556,1,8,0:0:0:0:
256,192,62606,1,0,0:0:0:0:
256,192,62656,1,0,0:0:0:0:
256,192,62706,1,8,0:0:0:0:
256,192,62756,1,0,0:0:0:0:
256,192,62806,1,0,0:0:0:0:
256,192,62856,1,8,0:0:0:0:
256,192,62906,1,0,0:0:0:0:
256,192,62956,1,0,0:0:0:0:
256,192,63006,1,8,0:0:0:0:
256,192,63056,1,0,0:0:0:0:
256,192,63106,1,0,0:0:0:0:
256,192,63156,1,8,0:0:0:0:
256,192,63206,1,0,0:0:0:0:
256,192,63256,1,0,0:0:0:0:
256,192,63306,1,8,0:0:0:0:
256,192,63356,1,0,0:0:0:0:
256,192,63406,1,0,0:0:0:0:
256,192,63456,1,8,0:0:0:0:
256,192,63506,1,0,0:0:0:0:
256,192,63556,1,0,0:0:0:0:
256,192,63606,1,12,0:0:0:0:
256,192,63906,1,8,0:0:0:0:
256,192,64056,1,0,0:0:0:0:
256,192,64356,1,0,0:0:0:0:
256,192,64506,1,8,0:0:0:0:
256,192,64806,1,0,0:0:0:0:
256,192,64956,1,0,0:0:0:0:
256,192,65031,1,0,0:0:0:0:
256,192,65106,1,8,0:0:0:0:
256,192,65256,1,0,0:0:0:0:
256,192,65406,1,8,0:0:0:0:
256,192,65481,1,8,0:0:0:0:
256,192,65556,1,0,0:0:0:0:
256,192,65631,1,0,0:0:0:0:
256,192,65706,1,8,0:0:0:0:
256,192,65856,1,8,0:0:0:0:
256,192,66006,1,0,0:0:0:0:
256,192,66306,1,0,0:0:0:0:
256,192,66456,1,0,0:0:0:0:
256,192,66531,1,0,0:0:0:0:
256,192,66606,1,8,0:0:0:0:
256,192,66756,1,0,0:0:0:0:
256,192,66906,1,8,0:0:0:0:
256,192,67056,1,0,0:0:0:0:
256,192,67206,1,0,0:0:0:0:
256,192,67356,1,8,0:0:0:0:
256,192,67506,1,8,0:0:0:0:
256,192,67656,1,0,0:0:0:0:
256,192,67806,1,8,0:0:0:0:
256,192,68106,1,0,0:0:0:0:
256,192,68256,1,0,0:0:0:0:
256,192,68406,1,8,0:0:0:0:
256,192,68706,1,0,0:0:0:0:
256,192,68856,1,8,0:0:0:0:
256,192,68931,1,0,0:0:0:0:
256,192,69006,1,8,0:0:0:0:
256,192,69156,1,8,0:0:0:0:
256,192,69306,1,0,0:0:0:0:
256,192,69456,1,0,0:0:0:0:
256,192,69606,1,8,0:0:0:0:
256,192,69906,1,0,0:0:0:0:
256,192,70056,1,0,0:0:0:0:
256,192,70206,1,8,0:0:0:0:
256,192,70506,1,0,0:0:0:0:
256,192,70656,1,8,0:0:0:0:
256,192,70806,1,8,0:0:0:0:
256,192,70956,1,0,0:0:0:0:
256,192,71106,1,0,0:0:0:0:
256,192,71256,1,8,0:0:0:0:
256,192,71556,1,0,0:0:0:0:
256,192,71706,1,8,0:0:0:0:
256,192,72006,1,8,0:0:0:0:
256,192,72081,1,0,0:0:0:0:
256,192,72156,1,0,0:0:0:0:
256,192,72231,1,8,0:0:0:0:
256,192,72306,1,0,0:0:0:0:
256,192,72381,1,0,0:0:0:0:
256,192,72456,1,8,0:0:0:0:
256,192,72531,1,0,0:0:0:0:
256,192,72606,1,8,0:0:0:0:
256,192,72681,1,8,0:0:0:0:
256,192,72756,1,0,0:0:0:0:
256,192,72831,1,0,0:0:0:0:
256,192,72906,1,8,0:0:0:0:
256,192,72981,1,0,0:0:0:0:
256,192,73056,1,0,0:0:0:0:
256,192,73131,1,0,0:0:0:0:
256,192,73206,1,12,0:0:0:0:
256,192,73506,1,0,0:0:0:0:
256,192,73656,1,8,0:0:0:0:
256,192,73693,1,8,0:0:0:0:
256,192,73806,1,8,0:0:0:0:
256,192,73843,1,8,0:0:0:0:
256,192,73956,1,0,0:0:0:0:
256,192,73993,1,0,0:0:0:0:
256,192,74106,1,8,0:0:0:0:
256,192,74143,1,8,0:0:0:0:
256,192,74256,1,0,0:0:0:0:
256,192,74293,1,0,0:0:0:0:
256,192,74406,1,8,0:0:0:0:
256,192,74443,1,8,0:0:0:0:
256,192,74556,1,8,0:0:0:0:
256,192,74593,1,8,0:0:0:0:
256,192,74706,1,0,0:0:0:0:
256,192,74743,1,0,0:0:0:0:
256,192,74856,1,8,0:0:0:0:
256,192,74893,1,8,0:0:0:0:
256,192,75006,1,8,0:0:0:0:
256,192,75043,1,8,0:0:0:0:
256,192,75156,1,0,0:0:0:0:
256,192,75306,1,8,0:0:0:0:
256,192,75381,1,0,0:0:0:0:
256,192,75456,1,8,0:0:0:0:
256,192,75531,1,8,0:0:0:0:
256,192,75606,1,0,0:0:0:0:
256,192,75906,1,0,0:0:0:0:
256,192,76056,1,8,0:0:0:0:
256,192,76093,1,8,0:0:0:0:
256,192,76206,1,8,0:0:0:0:
256,192,76243,1,8,0:0:0:0:
256,192,76356,1,0,0:0:0:0:
256,192,76393,1,0,0:0:0:0:
256,192,76506,1,8,0:0:0:0:
256,192,76543,1,8,0:0:0:0:
256,192,76656,1,0,0:0:0:0:
256,192,76731,1,0,0:0:0:0:
256,192,76806,1,8,0:0:0:0:
256,192,76843,1,8,0:0:0:0:
256,192,76956,1,8,0:0:0:0:
256,192,76993,1,8,0:0:0:0:
256,192,77106,1,0,0:0:0:0:
256,192,77143,1,0,0:0:0:0:
256,192,77256,1,0,0:0:0:0:
256,192,77293,1,0,0:0:0:0:
256,192,77406,1,8,0:0:0:0:
256,192,77443,1,8,0:0:0:0:
256,192,77556,1,0,0:0:0:0:
256,192,77706,1,8,0:0:0:0:
256,192,77781,1,0,0:0:0:0:
256,192,77856,1,8,0:0:0:0:
256,192,77931,1,8,0:0:0:0:
256,192,78006,1,0,0:0:0:0:
256,192,78306,1,0,0:0:0:0:
256,192,78456,1,8,0:0:0:0:
256,192,78493,1,8,0:0:0:0:
256,192,78606,1,0,0:0:0:0:
256,192,78643,1,0,0:0:0:0:
256,192,78756,1,8,0:0:0:0:
256,192,78793,1,8,0:0:0:0:
256,192,78906,1,8,0:0:0:0:
256,192,78943,1,8,0:0:0:0:
256,192,79056,1,0,0:0:0:0:
256,192,79131,1,0,0:0:0:0:
256,192,79206,1,8,0:0:0:0:
256,192,79243,1,8,0:0:0:0:
256,192,79356,1,0,0:0:0:0:
256,192,79393,1,0,0:0:0:0:
256,192,79506,1,8,0:0:0:0:
256,192,79543,1,8,0:0:0:0:
256,192,79656,1,8,0:0:0:0:
256,192,79693,1,8,0:0:0:0:
256,192,79806,1,0,0:0:0:0:
256,192,79843,1,0,0:0:0:0:
256,192,79956,1,8,0:0:0:0:
256,192,80106,1,0,0:0:0:0:
256,192,80181,1,8,0:0:0:0:
256,192,80256,1,0,0:0:0:0:
256,192,80331,1,0,0:0:0:0:
256,192,80406,1,8,0:0:0:0:
256,192,80706,1,0,0:0:0:0:
256,192,80856,1,8,0:0:0:0:
256,192,80893,1,8,0:0:0:0:
256,192,81006,1,0,0:0:0:0:
256,192,81043,1,0,0:0:0:0:
256,192,81156,1,8,0:0:0:0:
256,192,81193,1,8,0:0:0:0:
256,192,81306,1,8,0:0:0:0:
256,192,81343,1,8,0:0:0:0:
256,192,81456,1,0,0:0:0:0:
256,192,81531,1,0,0:0:0:0:
256,192,81606,1,8,0:0:0:0:
256,192,81643,1,8,0:0:0:0:
256,192,81756,1,0,0:0:0:0:
256,192,81793,1,0,0:0:0:0:
256,192,81906,1,8,0:0:0:0:
256,192,81943,1,8,0:0:0:0:
256,192,82056,1,0,0:0:0:0:
256,192,82093,1,0,0:0:0:0:
256,192,82206,1,8,0:0:0:0:
256,192,82243,1,8,0:0:0:0:
256,192,82356,1,0,0:0:0:0:
256,192,82506,1,8,0:0:0:0:
256,192,82581,1,0,0:0:0:0:
256,192,82656,1,0,0:0:0:0:
256,192,82731,1,0,0:0:0:0:
256,192,82806,1,8,0:0:0:0:
256,192,82856,1,8,0:0:0:0:
256,192,82906,1,8,0:0:0:0:
256,192,82956,1,0,0:0:0:0:
256,192,83031,1,0,0:0:0:0:
256,192,83106,1,8,0:0:0:0:
256,192,83181,1,8,0:0:0:0:
256,192,83256,1,8,0:0:0:0:
256,192,83331,1,0,0:0:0:0:
256,192,83406,1,0,0:0:0:0:
256,192,83481,1,0,0:0:0:0:
256,192,83556,1,8,0:0:0:0:
256,192,83631,1,8,0:0:0:0:
256,192,83706,1,8,0:0:0:0:
256,192,83781,1,0,0:0:0:0:
256,192,83856,1,0,0:0:0:0:
256,192,83931,1,0,0:0:0:0:
256,192,84006,1,12,0:0:0:0:
256,192,84156,1,0,0:0:0:0:
256,192,84306,1,0,0:0:0:0:
256,192,84456,1,0,0:0:0:0:
256,192,84606,1,12,0:0:0:0:
256,192,84756,1,0,0:0:0:0:
256,192,84906,1,0,0:0:0:0:
256,192,85056,1,0,0:0:0:0:
256,192,85206,1,12,0:0:0:0:
256,192,85356,1,0,0:0:0:0:
256,192,85431,1,0,0:0:0:0:
256,192,85506,1,8,0:0:0:0:
256,192,85656,1,0,0:0:0:0:
256,192,85806,1,8,0:0:0:0:
256,192,85881,1,8,0:0:0:0:
256,192,85956,1,0,0:0:0:0:
256,192,86031,1,0,0:0:0:0:
256,192,86106,1,8,0:0:0:0:
256,192,86256,1,0,0:0:0:0:
256,192,86406,1,8,0:0:0:0:
256,192,86556,1,0,0:0:0:0:
256,192,86631,1,0,0:0:0:0:
256,192,86706,1,8,0:0:0:0:
256,192,86856,1,0,0:0:0:0:
256,192,87006,1,8,0:0:0:0:
256,192,87081,1,0,0:0:0:0:
256,192,87156,1,0,0:0:0:0:
256,192,87231,1,0,0:0:0:0:
256,192,87306,1,8,0:0:0:0:
256,192,87456,1,8,0:0:0:0:
256,192,87606,1,0,0:0:0:0:
256,192,87643,1,0,0:0:0:0:
256,192,87756,1,0,0:0:0:0:
256,192,87793,1,8,0:0:0:0:
256,192,87906,1,0,0:0:0:0:
256,192,87943,1,0,0:0:0:0:
256,192,88056,1,0,0:0:0:0:
256,192,88093,1,8,0:0:0:0:
256,192,88206,1,0,0:0:0:0:
256,192,88243,1,0,0:0:0:0:
256,192,88356,1,0,0:0:0:0:
256,192,88393,1,8,0:0:0:0:
256,192,88506,1,0,0:0:0:0:
256,192,88543,1,0,0:0:0:0:
256,192,88656,1,0,0:0:0:0:
256,192,88693,1,8,0:0:0:0:
256,192,88806,1,0,0:0:0:0:
256,192,88843,1,0,0:0:0:0:
256,192,88956,1,0,0:0:0:0:
256,192,88993,1,8,0:0:0:0:
256,192,89106,1,0,0:0:0:0:
256,192,89143,1,0,0:0:0:0:
256,192,89256,1,0,0:0:0:0:
256,192,89293,1,8,0:0:0:0:
256,192,89406,1,0,0:0:0:0:
256,192,89443,1,0,0:0:0:0:
256,192,89556,1,0,0:0:0:0:
256,192,89593,1,8,0:0:0:0:
256,192,89706,1,0,0:0:0:0:
256,192,89743,1,0,0:0:0:0:
256,192,89856,1,0,0:0:0:0:
256,192,89893,1,8,0:0:0:0:
256,192,90006,1,4,0:0:0:0:
256,192,90156,1,0,0:0:0:0:
256,192,90231,1,0,0:0:0:0:
256,192,90306,1,8,0:0:0:0:
256,192,90456,1,0,0:0:0:0:
256,192,90606,1,8,0:0:0:0:
256,192,90681,1,8,0:0:0:0:
256,192,90756,1,0,0:0:0:0:
256,192,90831,1,0,0:0:0:0:
256,192,90906,1,8,0:0:0:0:
256,192,91056,1,0,0:0:0:0:
256,192,91206,1,8,0:0:0:0:
256,192,91356,1,0,0:0:0:0:
256,192,91431,1,0,0:0:0:0:
256,192,91506,1,8,0:0:0:0:
256,192,91656,1,0,0:0:0:0:
256,192,91731,1,8,0:0:0:0:
256,192,91806,1,0,0:0:0:0:
256,192,91881,1,8,0:0:0:0:
256,192,91956,1,0,0:0:0:0:
256,192,92031,1,0,0:0:0:0:
256,192,92106,1,8,0:0:0:0:
256,192,92256,1,0,0:0:0:0:
256,192,92406,1,8,0:0:0:0:
256,192,92443,1,0,0:0:0:0:
256,192,92556,1,0,0:0:0:0:
256,192,92593,1,0,0:0:0:0:
256,192,92706,1,8,0:0:0:0:
256,192,92743,1,0,0:0:0:0:
256,192,92856,1,0,0:0:0:0:
256,192,92893,1,0,0:0:0:0:
256,192,93006,1,8,0:0:0:0:
256,192,93043,1,0,0:0:0:0:
256,192,93156,1,0,0:0:0:0:
256,192,93193,1,0,0:0:0:0:
256,192,93306,1,8,0:0:0:0:
256,192,93343,1,0,0:0:0:0:
256,192,93456,1,0,0:0:0:0:
256,192,93493,1,0,0:0:0:0:
256,192,93606,1,12,0:0:0:0:
256,192,93756,1,0,0:0:0:0:
256,192,93831,1,0,0:0:0:0:
256,192,93906,1,8,0:0:0:0:
256,192,94056,1,0,0:0:0:0:
256,192,94206,1,8,0:0:0:0:
256,192,94281,1,8,0:0:0:0:
256,192,94356,1,0,0:0:0:0:
256,192,94431,1,0,0:0:0:0:
256,192,94506,1,8,0:0:0:0:
256,192,94556,1,8,0:0:0:0:
256,192,94606,1,8,0:0:0:0:
256,192,94656,1,0,0:0:0:0:
256,192,94806,1,12,0:0:0:0:
256,192,94956,1,0,0:0:0:0:
256,192,95031,1,0,0:0:0:0:
256,192,95106,1,8,0:0:0:0:
256,192,95256,1,0,0:0:0:0:
256,192,95406,1,8,0:0:0:0:
256,192,95481,1,8,0:0:0:0:
256,192,95556,1,0,0:0:0:0:
256,192,95631,1,0,0:0:0:0:
256,192,95706,1,8,0:0:0:0:
256,192,95743,1,0,0:0:0:0:
256,192,95856,1,0,0:0:0:0:
256,192,95893,1,0,0:0:0:0:
256,192,96006,1,8,0:0:0:0:
256,192,96156,1,0,0:0:0:0:
256,192,96231,1,0,0:0:0:0:
256,192,96306,1,8,0:0:0:0:
256,192,96456,1,0,0:0:0:0:
256,192,96606,1,8,0:0:0:0:
256,192,96681,1,8,0:0:0:0:
256,192,96756,1,0,0:0:0:0:
256,192,96831,1,0,0:0:0:0:
256,192,96906,1,8,0:0:0:0:
256,192,96943,1,0,0:0:0:0:
256,192,97056,1,0,0:0:0:0:
256,192,97206,1,8,0:0:0:0:
256,192,97356,1,0,0:0:0:0:
256,192,97431,1,0,0:0:0:0:
256,192,97506,1,8,0:0:0:0:
256,192,97656,1,0,0:0:0:0:
256,192,97806,1,8,0:0:0:0:
256,192,97881,1,8,0:0:0:0:
256,192,97956,1,0,0:0:0:0:
256,192,98031,1,0,0:0:0:0:
256,192,98106,1,8,0:0:0:0:
256,192,98256,1,0,0:0:0:0:
256,192,98406,1,8,0:0:0:0:
256,192,98556,1,0,0:0:0:0:
256,192,98631,1,0,0:0:0:0:
256,192,98706,1,8,0:0:0:0:
256,192,98856,1,0,0:0:0:0:
256,192,99006,1,8,0:0:0:0:
256,192,99043,1,0,0:0:0:0:
256,192,99156,1,0,0:0:0:0:
256,192,99193,1,0,0:0:0:0:
256,192,99306,1,8,0:0:0:0:
256,192,99343,1,0,0:0:0:0:
256,192,99456,1,0,0:0:0:0:
256,192,99493,1,0,0:0:0:0:
256,192,99606,1,12,0:0:0:0:
256,192,99756,1,0,0:0:0:0:
256,192,99831,1,0,0:0:0:0:
256,192,99906,1,8,0:0:0:0:
256,192,100056,1,0,0:0:0:0:
256,192,100206,1,8,0:0:0:0:
256,192,100281,1,8,0:0:0:0:
256,192,100356,1,0,0:0:0:0:
256,192,100431,1,0,0:0:0:0:
256,192,100506,1,8,0:0:0:0:
256,192,100656,1,0,0:0:0:0:
256,192,100806,1,8,0:0:0:0:
256,192,100956,1,0,0:0:0:0:
256,192,101031,1,0,0:0:0:0:
256,192,101106,1,8,0:0:0:0:
256,192,101256,1,0,0:0:0:0:
256,192,101331,1,8,0:0:0:0:
256,192,101406,1,0,0:0:0:0:
256,192,101481,1,8,0:0:0:0:
256,192,101556,1,0,0:0:0:0:
256,192,101631,1,0,0:0:0:0:
256,192,101706,1,8,0:0:0:0:
256,192,101856,1,0,0:0:0:0:
256,192,102006,1,12,0:0:0:0:
256,192,102306,1,0,0:0:0:0:
256,192,102456,1,0,0:0:0:0:
256,192,102531,1,0,0:0:0:0:
256,192,102606,1,8,0:0:0:0:
256,192,102756,1,0,0:0:0:0:
256,192,102906,1,8,0:0:0:0:
256,192,103056,1,8,0:0:0:0:
256,192,103206,1,0,0:0:0:0:
256,192,103356,1,8,0:0:0:0:
256,192,103656,1,0,0:0:0:0:
256,192,103806,1,8,0:0:0:0:
256,192,103881,1,8,0:0:0:0:
256,192,103956,1,0,0:0:0:0:
256,192,104031,1,0,0:0:0:0:
256,192,104106,1,8,0:0:0:0:
256,192,104181,1,8,0:0:0:0:
256,192,104256,1,0,0:0:0:0:
256,192,104331,1,0,0:0:0:0:
256,192,104406,1,12,0:0:0:0:
256,192,104556,1,0,0:0:0:0:
256,192,104706,1,8,0:0:0:0:
256,192,104781,1,8,0:0:0:0:
256,192,104856,1,0,0:0:0:0:
256,192,104931,1,0,0:0:0:0:
256,192,105006,1,8,0:0:0:0:
256,192,105081,1,8,0:0:0:0:
256,192,105156,1,0,0:0:0:0:
256,192,105231,1,0,0:0:0:0:
256,192,105306,1,8,0:0:0:0:
256,192,105381,1,8,0:0:0:0:
256,192,105456,1,8,0:0:0:0:
256,192,105531,1,0,0:0:0:0:
256,192,105606,1,8,0:0:0:0:
256,192,105681,1,0,0:0:0:0:
256,192,105756,1,0,0:0:0:0:
256,192,105831,1,0,0:0:0:0:
256,192,105906,1,8,0:0:0:0:
256,192,105981,1,8,0:0:0:0:
256,192,106056,1,0,0:0:0:0:
256,192,106131,1,0,0:0:0:0:
256,192,106206,1,8,0:0:0:0:
256,192,106281,1,8,0:0:0:0:
256,192,106356,1,0,0:0:0:0:
256,192,106431,1,0,0:0:0:0:
256,192,106506,1,8,0:0:0:0:
256,192,106581,1,8,0:0:0:0:
256,192,106656,1,8,0:0:0:0:
256,192,106731,1,0,0:0:0:0:
256,192,106806,1,8,0:0:0:0:
256,192,106881,1,0,0:0:0:0:
256,192,106956,1,0,0:0:0:0:
256,192,107031,1,0,0:0:0:0:
256,192,107106,1,8,0:0:0:0:
256,192,107181,1,8,0:0:0:0:
256,192,107256,1,0,0:0:0:0:
256,192,107306,1,0,0:0:0:0:
256,192,107356,1,0,0:0:0:0:
256,192,107406,1,8,0:0:0:0:
256,192,107481,1,0,0:0:0:0:
256,192,107556,1,8,0:0:0:0:
256,192,107631,1,0,0:0:0:0:
256,192,107706,1,8,0:0:0:0:
256,192,107781,1,8,0:0:0:0:
256,192,107856,1,0,0:0:0:0:
256,192,107931,1,0,0:0:0:0:
256,192,108006,1,8,0:0:0:0:
256,192,108081,1,0,0:0:0:0:
256,192,108156,1,0,0:0:0:0:
256,192,108231,1,0,0:0:0:0:
256,192,108306,1,8,0:0:0:0:
256,192,108381,1,8,0:0:0:0:
256,192,108456,1,0,0:0:0:0:
256,192,108506,1,0,0:0:0:0:
256,192,108556,1,0,0:0:0:0:
256,192,108606,1,8,0:0:0:0:
256,192,108681,1,0,0:0:0:0:
256,192,108756,1,8,0:0:0:0:
256,192,108831,1,0,0:0:0:0:
256,192,108906,1,8,0:0:0:0:
256,192,108981,1,8,0:0:0:0:
256,192,109056,1,0,0:0:0:0:
256,192,109131,1,0,0:0:0:0:
256,192,109206,1,8,0:0:0:0:
256,192,109281,1,0,0:0:0:0:
256,192,109356,1,8,0:0:0:0:
256,192,109431,1,8,0:0:0:0:
256,192,109506,1,0,0:0:0:0:
256,192,109581,1,0,0:0:0:0:
256,192,109656,1,8,0:0:0:0:
256,192,109731,1,0,0:0:0:0:
256,192,109806,1,8,0:0:0:0:
256,192,109881,1,0,0:0:0:0:
256,192,109956,1,8,0:0:0:0:
256,192,110031,1,0,0:0:0:0:
256,192,110106,1,8,0:0:0:0:
256,192,110181,1,8,0:0:0:0:
256,192,110256,1,0,0:0:0:0:
256,192,110331,1,0,0:0:0:0:
256,192,110406,1,8,0:0:0:0:
256,192,110481,1,0,0:0:0:0:
256,192,110556,1,8,0:0:0:0:
256,192,110631,1,8,0:0:0:0:
256,192,110706,1,0,0:0:0:0:
256,192,110781,1,0,0:0:0:0:
256,192,110856,1,8,0:0:0:0:
256,192,110931,1,0,0:0:0:0:
256,192,111006,1,8,0:0:0:0:
256,192,111081,1,0,0:0:0:0:
256,192,111156,1,8,0:0:0:0:
256,192,111231,1,0,0:0:0:0:
256,192,111306,1,8,0:0:0:0:
256,192,111381,1,8,0:0:0:0:
256,192,111456,1,0,0:0:0:0:
256,192,111531,1,0,0:0:0:0:
256,192,111606,1,8,0:0:0:0:
256,192,111656,1,0,0:0:0:0:
256,192,111706,1,0,0:0:0:0:
256,192,111756,1,8,0:0:0:0:
256,192,111806,1,0,0:0:0:0:
256,192,111856,1,0,0:0:0:0:
256,192,111906,1,8,0:0:0:0:
256,192,111956,1,0,0:0:0:0:
256,192,112006,1,0,0:0:0:0:
256,192,112056,1,8,0:0:0:0:
256,192,112106,1,0,0:0:0:0:
256,192,112156,1,0,0:0:0:0:
256,192,112206,1,8,0:0:0:0:
256,192,112256,1,0,0:0:0:0:
256,192,112306,1,0,0:0:0:0:
256,192,112356,1,8,0:0:0:0:
256,192,112406,1,0,0:0:0:0:
256,192,112456,1,0,0:0:0:0:
256,192,112506,1,8,0:0:0:0:
256,192,112556,1,0,0:0:0:0:
256,192,112606,1,0,0:0:0:0:
256,192,112656,1,8,0:0:0:0:
256,192,112706,1,0,0:0:0:0:
256,192,112756,1,0,0:0:0:0:
256,192,112806,1,12,0:0:0:0:
256,192,113106,1,8,0:0:0:0:
256,192,113406,1,8,0:0:0:0:
256,192,113706,1,0,0:0:0:0:
256,192,113856,1,0,0:0:0:0:
256,192,114006,1,8,0:0:0:0:
256,192,114456,1,0,0:0:0:0:
256,192,114531,1,0,0:0:0:0:
256,192,114606,1,8,0:0:0:0:
256,192,114756,1,8,0:0:0:0:
256,192,114906,1,0,0:0:0:0:
256,192,115056,1,0,0:0:0:0:
256,192,115206,1,8,0:0:0:0:
256,192,115506,1,0,0:0:0:0:
256,192,115656,1,0,0:0:0:0:
256,192,115806,1,8,0:0:0:0:
256,192,116106,1,4,0:0:0:0:
256,192,116256,1,4,0:0:0:0:
256,192,116406,1,12,0:0:0:0:
256,192,116556,1,12,0:0:0:0:
256,192,116706,1,4,0:0:0:0:
256,192,116856,1,4,0:0:0:0:
256,192,117006,1,12,0:0:0:0:
256,192,117306,1,4,0:0:0:0:
256,192,117606,1,12,0:0:0:0:
256,192,117756,12,0,119706,0:0:0:0:
