osu file format v14

[General]
AudioFilename: audio.mp3
AudioLeadIn: 0
PreviewTime: 0
Countdown: 0
SampleSet: Normal
StackLeniency: 0.7
Mode: 1
LetterboxInBreaks: 0
WidescreenStoryboard: 1

[Editor]
DistanceSpacing: 0.7
BeatDivisor: 2
GridSize: 32
TimelineZoom: 2

[Metadata]
Title:PEPPY FIX TAIKO STAR RATING PLEASE for a happier
TitleUnicode:PEPPY FIX TAIKO STAR RATING PLEASE for a happier
Artist:Various Artists
ArtistUnicode:Various Artists
Creator:ARGENTINE DREAM
Version:Vulkin's begging for a low diff FOR LIKE A MONTH REEE
Source:
Tags:kasai harcores esti round wave crusher d abe3 slash dot dash cycle hit helix maniera axer backfire hikikochan hikiko- _yu68 surono alchyr nifty brames consified lno skull kid skid brasil luckysonicghz kqrth trapmaniac agu ppus zigizigiefe nwolf -kazu- idealism babysnakes astolfo vrnl yea jarvisgaming chichinya poii hirok _dusk_ nishizumi ulqui coryn faputa rhytoly dudetm meovvcat jhowm gaston_2199 kbludoh blackener mtdex kuron kuron-kun tyistiana xtrem3x ghm12 davidminh0111 -gn junior aspirin whats skill metalstream whosthebox grimbow duski ozzyozrock foxerus endymion vulkin taiko pp compilation
BeatmapID:1721389
BeatmapSetID:794048

[Difficulty]
HPDrainRate:8
CircleSize:7
OverallDifficulty:3
ApproachRate:10
SliderMultiplier:1.4
SliderTickRate:1

[Events]
//Background and Video events
0,0,"pipifarm.jpg",0,0
//Break Periods
//Storyboard Layer 0 (Background)
//Storyboard Layer 1 (Fail)
//Storyboard Layer 2 (Pass)
//Storyboard Layer 3 (Foreground)
//Storyboard Sound Samples

[TimingPoints]
6,300,4,1,0,80,1,0
6,-125,4,1,0,80,0,0
44406,-125,4,1,0,80,0,1
52806,-125,4,1,0,80,0,0
54006,-125,4,1,0,80,0,1
63606,-125,4,1,0,80,0,0
73206,-125,4,1,0,80,0,1
102006,-125,4,1,0,80,0,0
104406,-125,4,1,0,80,0,1
114006,-125,4,1,0,80,0,0

[HitObjects]
256,192,6,5,8,0:0:0:0:
256,192,1206,1,8,0:0:0:0:
256,192,1806,1,0,0:0:0:0:
256,192,2406,1,8,0:0:0:0:
256,192,3606,1,0,0:0:0:0:
256,192,3906,1,8,0:0:0:0:
256,192,4206,1,8,0:0:0:0:
256,192,4806,1,8,0:0:0:0:
256,192,6006,1,8,0:0:0:0:
256,192,6606,1,0,0:0:0:0:
256,192,7206,1,8,0:0:0:0:
256,192,8406,1,0,0:0:0:0:
256,192,8706,1,0,0:0:0:0:
256,192,9006,1,0,0:0:0:0:
256,192,9606,1,12,0:0:0:0:
256,192,10806,1,0,0:0:0:0:
256,192,11406,1,0,0:0:0:0:
256,192,12006,1,8,0:0:0:0:
256,192,13206,1,0,0:0:0:0:
256,192,13806,1,0,0:0:0:0:
256,192,14106,1,8,0:0:0:0:
256,192,14406,1,0,0:0:0:0:
256,192,15606,1,0,0:0:0:0:
256,192,16206,1,0,0:0:0:0:
256,192,16506,1,0,0:0:0:0:
256,192,16806,1,8,0:0:0:0:
256,192,18006,1,0,0:0:0:0:
256,192,18606,1,8,0:0:0:0:
256,192,18906,1,8,0:0:0:0:
256,192,19206,1,0,0:0:0:0:
256,192,19956,1,8,0:0:0:0:
256,192,20406,1,0,0:0:0:0:
256,192,21006,1,8,0:0:0:0:
256,192,21606,1,0,0:0:0:0:
256,192,22356,1,8,0:0:0:0:
256,192,22806,1,0,0:0:0:0:
256,192,23106,1,0,0:0:0:0:
256,192,23406,1,8,0:0:0:0:
256,192,23706,1,8,0:0:0:0:
256,192,24006,1,0,0:0:0:0:
256,192,24756,1,8,0:0:0:0:
256,192,25206,1,0,0:0:0:0:
256,192,25506,1,0,0:0:0:0:
256,192,25806,1,8,0:0:0:0:
256,192,26406,1,0,0:0:0:0:
256,192,26706,1,8,0:0:0:0:
256,192,27006,1,0,0:0:0:0:
256,192,27306,1,8,0:0:0:0:
256,192,27606,1,0,0:0:0:0:
256,192,28806,1,0,0:0:0:0:
256,192,29406,1,0,0:0:0:0:
256,192,30006,1,8,0:0:0:0:
256,192,31206,1,0,0:0:0:0:
256,192,31806,1,8,0:0:0:0:
256,192,32406,1,0,0:0:0:0:
256,192,33606,1,8,0:0:0:0:
256,192,34206,1,0,0:0:0:0:
256,192,34806,1,0,0:0:0:0:
256,192,36006,1,8,0:0:0:0:
256,192,36606,1,0,0:0:0:0:
256,192,37206,1,12,0:0:0:0:
256,192,37806,1,0,0:0:0:0:
256,192,38406,1,12,0:0:0:0:
256,192,39606,1,12,0:0:0:0:
256,192,40206,1,12,0:0:0:0:
256,192,40806,1,8,0:0:0:0:
256,192,41106,1,8,0:0:0:0:
256,192,41406,1,8,0:0:0:0:
256,192,42006,1,8,0:0:0:0:
256,192,42306,1,4,0:0:0:0:
256,192,44406,1,4,0:0:0:0:
256,192,45006,1,8,0:0:0:0:
256,192,45306,1,8,0:0:0:0:
256,192,45606,1,8,0:0:0:0:
256,192,46206,1,8,0:0:0:0:
256,192,46506,1,8,0:0:0:0:
256,192,46806,1,0,0:0:0:0:
256,192,47406,1,8,0:0:0:0:
256,192,47706,1,8,0:0:0:0:
256,192,48906,1,8,0:0:0:0:
256,192,49206,1,0,0:0:0:0:
256,192,49806,1,8,0:0:0:0:
256,192,50106,1,8,0:0:0:0:
256,192,50406,1,8,0:0:0:0:
256,192,51006,1,8,0:0:0:0:
256,192,51306,1,8,0:0:0:0:
256,192,51606,1,0,0:0:0:0:
256,192,52206,1,8,0:0:0:0:
256,192,52506,1,8,0:0:0:0:
256,192,54006,1,0,0:0:0:0:
256,192,54606,1,0,0:0:0:0:
256,192,54906,1,8,0:0:0:0:
256,192,55206,1,0,0:0:0:0:
256,192,55806,1,0,0:0:0:0:
256,192,56106,1,8,0:0:0:0:
256,192,56406,1,0,0:0:0:0:
256,192,57006,1,0,0:0:0:0:
256,192,57306,1,8,0:0:0:0:
256,192,58806,1,4,0:0:0:0:
256,192,60006,1,12,0:0:0:0:
256,192,61206,1,0,0:0:0:0:
256,192,61806,1,8,0:0:0:0:
256,192,62406,1,0,0:0:0:0:
256,192,63606,1,12,0:0:0:0:
256,192,64956,1,8,0:0:0:0:
256,192,65406,1,8,0:0:0:0:
256,192,65706,1,8,0:0:0:0:
256,192,66006,1,0,0:0:0:0:
256,192,67206,1,0,0:0:0:0:
256,192,67806,1,8,0:0:0:0:
256,192,68106,1,8,0:0:0:0:
256,192,68406,1,0,0:0:0:0:
256,192,69756,1,8,0:0:0:0:
256,192,70206,1,8,0:0:0:0:
256,192,70506,1,8,0:0:0:0:
256,192,70806,1,0,0:0:0:0:
256,192,71256,1,8,0:0:0:0:
256,192,71706,1,0,0:0:0:0:
256,192,72156,1,8,0:0:0:0:
256,192,72606,1,8,0:0:0:0:
256,192,72906,1,8,0:0:0:0:
256,192,73206,1,4,0:0:0:0:
256,192,73806,1,8,0:0:0:0:
256,192,74106,1,8,0:0:0:0:
256,192,74406,1,8,0:0:0:0:
256,192,74706,1,8,0:0:0:0:
256,192,75006,1,8,0:0:0:0:
256,192,75606,1,0,0:0:0:0:
256,192,76206,1,8,0:0:0:0:
256,192,76506,1,8,0:0:0:0:
256,192,76806,1,8,0:0:0:0:
256,192,77106,1,8,0:0:0:0:
256,192,77406,1,8,0:0:0:0:
256,192,78006,1,0,0:0:0:0:
256,192,78606,1,8,0:0:0:0:
256,192,78906,1,8,0:0:0:0:
256,192,79206,1,8,0:0:0:0:
256,192,79506,1,8,0:0:0:0:
256,192,79806,1,8,0:0:0:0:
256,192,80406,1,0,0:0:0:0:
256,192,81006,1,8,0:0:0:0:
256,192,81306,1,8,0:0:0:0:
256,192,81606,1,8,0:0:0:0:
256,192,81906,1,0,0:0:0:0:
256,192,82206,1,8,0:0:0:0:
256,192,82806,1,0,0:0:0:0:
256,192,83406,1,8,0:0:0:0:
256,192,84006,1,0,0:0:0:0:
256,192,84306,1,8,0:0:0:0:
256,192,84606,1,0,0:0:0:0:
256,192,85206,1,4,0:0:0:0:
256,192,86406,1,0,0:0:0:0:
256,192,87006,1,8,0:0:0:0:
256,192,87606,1,0,0:0:0:0:
256,192,87906,1,0,0:0:0:0:
256,192,88206,1,0,0:0:0:0:
256,192,88806,1,0,0:0:0:0:
256,192,89106,1,0,0:0:0:0:
256,192,89406,1,0,0:0:0:0:
256,192,89706,1,8,0:0:0:0:
256,192,90006,1,0,0:0:0:0:
256,192,91206,1,0,0:0:0:0:
256,192,91806,1,8,0:0:0:0:
256,192,92406,1,8,0:0:0:0:
256,192,92706,1,8,0:0:0:0:
256,192,93006,1,8,0:0:0:0:
256,192,93306,1,8,0:0:0:0:
256,192,93606,1,8,0:0:0:0:
256,192,94806,1,4,0:0:0:0:
256,192,95706,1,8,0:0:0:0:
256,192,96006,1,0,0:0:0:0:
256,192,96606,1,0,0:0:0:0:
256,192,97506,1,8,0:0:0:0:
256,192,97806,1,0,0:0:0:0:
256,192,98406,1,8,0:0:0:0:
256,192,99006,1,0,0:0:0:0:
256,192,99606,1,8,0:0:0:0:
256,192,100206,1,0,0:0:0:0:
256,192,100806,1,8,0:0:0:0:
256,192,101106,1,8,0:0:0:0:
256,192,101406,1,0,0:0:0:0:
256,192,102006,1,8,0:0:0:0:
256,192,104406,1,0,0:0:0:0:
256,192,105006,1,8,0:0:0:0:
256,192,105306,1,8,0:0:0:0:
256,192,105606,1,8,0:0:0:0:
256,192,106206,1,8,0:0:0:0:
256,192,106506,1,8,0:0:0:0:
256,192,106806,1,8,0:0:0:0:
256,192,107406,1,0,0:0:0:0:
256,192,107706,1,0,0:0:0:0:
256,192,108006,1,8,0:0:0:0:
256,192,108606,1,0,0:0:0:0:
256,192,108906,1,0,0:0:0:0:
256,192,109206,1,8,0:0:0:0:
256,192,109806,1,0,0:0:0:0:
256,192,110406,1,8,0:0:0:0:
256,192,111006,1,0,0:0:0:0:
256,192,111306,1,0,0:0:0:0:
256,192,111606,1,8,0:0:0:0:
256,192,111906,1,0,0:0:0:0:
256,192,112206,1,0,0:0:0:0:
256,192,112806,1,8,0:0:0:0:
256,192,114006,1,4,0:0:0:0:
256,192,115806,1,0,0:0:0:0:
256,192,116406,1,12,0:0:0:0:
256,192,117006,1,12,0:0:0:0:
256,192,117606,1,4,0:0:0:0:
256,192,117906,12,0,121206,0:0:0:0:
