osu file format v14

[General]
AudioFilename: audio.mp3
AudioLeadIn: 0
PreviewTime: 0
Countdown: 0
SampleSet: None
StackLeniency: 0.7
Mode: 1
LetterboxInBreaks: 0
WidescreenStoryboard: 0

[Editor]
DistanceSpacing: 0.7
BeatDivisor: 4
GridSize: 32
TimelineZoom: 2

[Metadata]
Title:PEPPY FIX TAIKO STAR RATING PLEASE for a happier
TitleUnicode:PEPPY FIX TAIKO STAR RATING PLEASE for a happier
Artist:Various Artists
ArtistUnicode:Various Artists
Creator:ARGENTINE DREAM
Version:Sur's EZ PP (yes')not only for pro and (no) lag user
Source:
Tags:kasai harcores esti round wave crusher d abe3 slash dot dash cycle hit helix maniera axer backfire hikikochan hikiko- _yu68 surono alchyr nifty brames consified lno skull kid skid brasil luckysonicghz kqrth trapmaniac agu ppus zigizigiefe nwolf -kazu- idealism babysnakes astolfo vrnl yea jarvisgaming chichinya poii hirok _dusk_ nishizumi ulqui coryn faputa rhytoly dudetm meovvcat jhowm gaston_2199 kbludoh blackener mtdex kuron kuron-kun tyistiana xtrem3x ghm12 davidminh0111 -gn junior aspirin whats skill metalstream whosthebox grimbow duski ozzyozrock foxerus endymion vulkin taiko pp compilation
BeatmapID:1716506
BeatmapSetID:794048

[Difficulty]
HPDrainRate:10
CircleSize:2
OverallDifficulty:2
ApproachRate:0
SliderMultiplier:1.4
SliderTickRate:1

[Events]
//Background and Video events
0,0,"pipifarmindeed.jpg",0,0
//Break Periods
//Storyboard Layer 0 (Background)
//Storyboard Layer 1 (Fail)
//Storyboard Layer 2 (Pass)
//Storyboard Layer 3 (Foreground)
//Storyboard Sound Samples

[TimingPoints]
6,300,4,1,0,80,1,0
44406,-100,4,1,0,80,0,1
52806,-100,4,1,0,80,0,0
54006,-100,4,1,0,80,0,1
63606,-100,4,1,0,80,0,0
73206,-100,4,1,0,80,0,1
102006,-100,4,1,0,80,0,0
104406,-100,4,1,0,80,0,1
114006,-100,4,1,0,80,0,0
117756,4000,4,1,0,5,1,0
117756,-1000,4,1,0,5,0,0

[HitObjects]
256,192,6,5,0,0:0:0:0:
256,192,456,1,0,0:0:0:0:
256,192,531,1,0,0:0:0:0:
256,192,606,1,0,0:0:0:0:
256,192,756,1,0,0:0:0:0:
256,192,906,1,0,0:0:0:0:
256,192,1056,1,0,0:0:0:0:
256,192,1206,1,0,0:0:0:0:
256,192,1506,1,0,0:0:0:0:
256,192,1656,1,0,0:0:0:0:
256,192,1806,1,0,0:0:0:0:
256,192,2406,1,0,0:0:0:0:
256,192,2856,1,0,0:0:0:0:
256,192,2931,1,0,0:0:0:0:
256,192,3006,1,0,0:0:0:0:
256,192,3156,1,0,0:0:0:0:
256,192,3306,1,0,0:0:0:0:
256,192,3456,1,0,0:0:0:0:
256,192,3606,1,0,0:0:0:0:
256,192,3756,1,0,0:0:0:0:
256,192,3906,1,0,0:0:0:0:
256,192,4056,1,0,0:0:0:0:
256,192,4206,1,0,0:0:0:0:
256,192,4506,1,0,0:0:0:0:
256,192,4806,1,0,0:0:0:0:
256,192,5256,1,0,0:0:0:0:
256,192,5331,1,0,0:0:0:0:
256,192,5406,1,0,0:0:0:0:
256,192,5556,1,0,0:0:0:0:
256,192,5706,1,0,0:0:0:0:
256,192,5856,1,0,0:0:0:0:
256,192,6006,1,0,0:0:0:0:
256,192,6306,1,0,0:0:0:0:
256,192,6456,1,0,0:0:0:0:
256,192,6606,1,0,0:0:0:0:
256,192,6906,1,0,0:0:0:0:
256,192,7056,1,0,0:0:0:0:
256,192,7206,12,8,9606,0:0:0:0:
256,192,7356,5,8,0:0:0:0:
256,192,7431,1,0,0:0:0:0:
256,192,7506,1,8,0:0:0:0:
256,192,7581,1,0,0:0:0:0:
256,192,7656,1,8,0:0:0:0:
256,192,7731,1,0,0:0:0:0:
256,192,7806,1,8,0:0:0:0:
256,192,7881,1,0,0:0:0:0:
256,192,7956,1,8,0:0:0:0:
256,192,8106,1,0,0:0:0:0:
256,192,8256,1,8,0:0:0:0:
256,192,8331,1,0,0:0:0:0:
256,192,8406,5,0,0:0:0:0:
256,192,8556,5,8,0:0:0:0:
256,192,8631,1,0,0:0:0:0:
256,192,8706,1,8,0:0:0:0:
256,192,8781,1,0,0:0:0:0:
256,192,8856,1,8,0:0:0:0:
256,192,9006,2,0,L|0:32,1,280
256,192,9906,1,0,0:0:0:0:
256,192,10206,1,0,0:0:0:0:
256,192,10506,1,0,0:0:0:0:
256,192,10806,1,0,0:0:0:0:
256,192,10956,1,8,0:0:0:0:
256,192,11406,1,8,0:0:0:0:
256,192,11706,1,8,0:0:0:0:
256,192,12006,1,0,0:0:0:0:
256,192,12306,1,0,0:0:0:0:
256,192,12606,1,0,0:0:0:0:
256,192,12906,1,0,0:0:0:0:
256,192,13206,1,0,0:0:0:0:
256,192,13356,1,8,0:0:0:0:
256,192,13806,1,8,0:0:0:0:
256,192,14106,2,0,L|272:192,1,1
256,192,14256,2,0,L|272:192,1,1
256,192,14406,1,0,0:0:0:0:
256,192,14706,1,0,0:0:0:0:
256,192,15006,1,0,0:0:0:0:
256,192,15306,1,0,0:0:0:0:
256,192,15606,1,0,0:0:0:0:
256,192,15756,1,8,0:0:0:0:
256,192,16206,1,8,0:0:0:0:
256,192,16506,1,8,0:0:0:0:
256,192,16806,1,0,0:0:0:0:
256,192,17106,1,0,0:0:0:0:
256,192,17406,1,0,0:0:0:0:
256,192,17706,1,0,0:0:0:0:
256,192,18006,1,0,0:0:0:0:
256,192,18156,1,8,0:0:0:0:
256,192,18456,1,8,0:0:0:0:
256,192,18606,2,0,L|272:192,1,1
256,192,18756,2,0,L|272:192,1,1
256,192,18906,2,0,L|272:192,1,1
256,192,19056,2,0,L|272:192,1,1
256,192,19206,1,0,0:0:0:0:
256,192,19506,1,0,0:0:0:0:
256,192,19806,1,0,0:0:0:0:
256,192,20106,1,0,0:0:0:0:
256,192,20406,1,0,0:0:0:0:
256,192,20556,1,8,0:0:0:0:
256,192,21006,1,8,0:0:0:0:
256,192,21306,1,8,0:0:0:0:
256,192,21606,1,0,0:0:0:0:
256,192,21756,1,8,0:0:0:0:
256,192,21906,1,0,0:0:0:0:
256,192,22206,1,0,0:0:0:0:
256,192,22506,1,0,0:0:0:0:
256,192,22806,1,0,0:0:0:0:
256,192,23106,1,0,0:0:0:0:
256,192,23406,1,0,0:0:0:0:
256,192,23706,1,8,0:0:0:0:
256,192,23856,1,8,0:0:0:0:
256,192,24006,1,0,0:0:0:0:
256,192,24306,1,0,0:0:0:0:
256,192,24606,1,0,0:0:0:0:
256,192,24906,1,0,0:0:0:0:
256,192,25206,1,0,0:0:0:0:
256,192,25356,1,8,0:0:0:0:
256,192,25806,1,8,0:0:0:0:
256,192,26106,1,8,0:0:0:0:
256,192,26406,2,4,L|272:192,1,1
256,192,26556,2,4,L|272:192,1,1
256,192,26706,2,4,L|272:192,1,1
256,192,26856,2,4,L|272:192,1,1
256,192,27006,2,4,L|272:192,1,1
256,192,27156,2,4,L|272:192,1,1
256,192,27306,2,4,L|272:192,1,1
256,192,27456,2,4,L|272:192,1,1
256,192,27606,2,0,L|272:192,1,1
256,192,27756,2,0,L|272:192,1,1
256,192,27906,2,0,L|272:192,1,1
256,192,28056,2,0,L|272:192,1,1
256,192,28206,2,0,L|272:192,1,1
256,192,28356,2,0,L|272:192,1,1
256,192,28506,2,0,L|272:192,1,1
256,192,28806,12,0,28807,0:0:0:0:
256,192,28807,12,0,28808,0:0:0:0:
256,192,28809,12,0,28810,0:0:0:0:
256,192,28811,12,0,28812,0:0:0:0:
256,192,28813,12,0,28814,0:0:0:0:
256,192,28815,12,0,28816,0:0:0:0:
256,192,28817,12,0,28818,0:0:0:0:
256,192,28819,12,0,28820,0:0:0:0:
256,192,28821,12,0,28822,0:0:0:0:
256,192,28822,12,0,28823,0:0:0:0:
256,192,28824,12,0,28825,0:0:0:0:
256,192,28826,12,0,28827,0:0:0:0:
256,192,28828,12,0,28829,0:0:0:0:
256,192,28830,12,0,28831,0:0:0:0:
256,192,28832,12,0,28833,0:0:0:0:
256,192,28834,12,0,28835,0:0:0:0:
256,192,28836,12,0,28837,0:0:0:0:
256,192,28839,12,0,28840,0:0:0:0:
256,192,28840,12,0,28841,0:0:0:0:
256,192,28842,12,0,28843,0:0:0:0:
256,192,28844,12,0,28845,0:0:0:0:
256,192,28846,12,0,28847,0:0:0:0:
256,192,28848,12,0,28849,0:0:0:0:
256,192,28850,12,0,28851,0:0:0:0:
256,192,28852,12,0,28853,0:0:0:0:
256,192,28854,12,0,28855,0:0:0:0:
256,192,28855,12,0,28856,0:0:0:0:
256,192,28857,12,0,28858,0:0:0:0:
256,192,28859,12,0,28860,0:0:0:0:
256,192,28861,12,0,28862,0:0:0:0:
256,192,28863,12,0,28864,0:0:0:0:
256,192,28865,12,0,28866,0:0:0:0:
256,192,28867,12,0,28868,0:0:0:0:
256,192,28869,12,0,28870,0:0:0:0:
256,192,28873,12,0,28874,0:0:0:0:
256,192,28874,12,0,28875,0:0:0:0:
256,192,28876,12,0,28877,0:0:0:0:
256,192,28878,12,0,28879,0:0:0:0:
256,192,28880,12,0,28881,0:0:0:0:
256,192,28882,12,0,28883,0:0:0:0:
256,192,28884,12,0,28885,0:0:0:0:
256,192,28886,12,0,28887,0:0:0:0:
256,192,28888,12,0,28889,0:0:0:0:
256,192,28889,12,0,28890,0:0:0:0:
256,192,28891,12,0,28892,0:0:0:0:
256,192,28893,12,0,28894,0:0:0:0:
256,192,28895,12,0,28896,0:0:0:0:
256,192,28897,12,0,28898,0:0:0:0:
256,192,28899,12,0,28900,0:0:0:0:
256,192,28901,12,0,28902,0:0:0:0:
256,192,28903,12,0,28904,0:0:0:0:
256,192,28906,12,0,28907,0:0:0:0:
256,192,28907,12,0,28908,0:0:0:0:
256,192,28909,12,0,28910,0:0:0:0:
256,192,28911,12,0,28912,0:0:0:0:
256,192,28913,12,0,28914,0:0:0:0:
256,192,28915,12,0,28916,0:0:0:0:
256,192,28917,12,0,28918,0:0:0:0:
256,192,28919,12,0,28920,0:0:0:0:
256,192,28921,12,0,28922,0:0:0:0:
256,192,28922,12,0,28923,0:0:0:0:
256,192,28924,12,0,28925,0:0:0:0:
256,192,28926,12,0,28927,0:0:0:0:
256,192,28928,12,0,28929,0:0:0:0:
256,192,28929,12,0,28930,0:0:0:0:
256,192,28930,12,0,28931,0:0:0:0:
256,192,28932,12,0,28933,0:0:0:0:
256,192,28934,12,0,28935,0:0:0:0:
256,192,28936,12,0,28937,0:0:0:0:
256,192,28937,12,0,28938,0:0:0:0:
256,192,28938,12,0,28939,0:0:0:0:
256,192,28940,12,0,28941,0:0:0:0:
256,192,28942,12,0,28943,0:0:0:0:
256,192,28944,12,0,28945,0:0:0:0:
256,192,28945,12,0,28946,0:0:0:0:
256,192,28946,12,0,28947,0:0:0:0:
256,192,28947,12,0,28948,0:0:0:0:
256,192,28948,12,0,28949,0:0:0:0:
256,192,28949,12,0,28950,0:0:0:0:
256,192,28950,12,0,28951,0:0:0:0:
256,192,28951,12,0,28952,0:0:0:0:
256,192,28952,12,0,28953,0:0:0:0:
256,192,28953,12,0,28954,0:0:0:0:
256,192,28955,12,0,28956,0:0:0:0:
256,192,28957,12,0,28958,0:0:0:0:
256,192,28959,12,0,28960,0:0:0:0:
256,192,28961,12,0,28962,0:0:0:0:
256,192,28962,12,0,28963,0:0:0:0:
256,192,28963,12,0,28964,0:0:0:0:
256,192,28965,12,0,28966,0:0:0:0:
256,192,28967,12,0,28968,0:0:0:0:
256,192,28969,12,0,28970,0:0:0:0:
256,192,28970,12,0,28971,0:0:0:0:
256,192,28971,12,0,28972,0:0:0:0:
256,192,28973,12,0,28974,0:0:0:0:
256,192,28975,12,0,28976,0:0:0:0:
256,192,28977,12,0,28978,0:0:0:0:
256,192,28978,12,0,28979,0:0:0:0:
256,192,28979,12,0,28980,0:0:0:0:
256,192,28980,12,0,28981,0:0:0:0:
256,192,28981,12,0,28982,0:0:0:0:
256,192,28982,12,0,28983,0:0:0:0:
256,192,28983,12,0,28984,0:0:0:0:
256,192,28984,12,0,28985,0:0:0:0:
256,192,28985,12,0,28986,0:0:0:0:
256,192,28986,12,0,28987,0:0:0:0:
256,192,28988,12,0,28989,0:0:0:0:
256,192,28990,12,0,28991,0:0:0:0:
256,192,28992,12,0,28993,0:0:0:0:
256,192,28994,12,0,28995,0:0:0:0:
256,192,28996,12,0,28997,0:0:0:0:
256,192,28997,12,0,28998,0:0:0:0:
256,192,28998,12,0,28999,0:0:0:0:
256,192,28999,12,0,29000,0:0:0:0:
256,192,29000,12,0,29001,0:0:0:0:
256,192,29001,12,0,29002,0:0:0:0:
256,192,29003,12,0,29004,0:0:0:0:
256,192,29004,12,0,29005,0:0:0:0:
256,192,29005,12,0,29006,0:0:0:0:
256,192,29007,12,0,29008,0:0:0:0:
256,192,29009,12,0,29010,0:0:0:0:
256,192,29011,12,0,29012,0:0:0:0:
256,192,29012,12,0,29013,0:0:0:0:
256,192,29013,12,0,29014,0:0:0:0:
256,192,29014,12,0,29015,0:0:0:0:
256,192,29015,12,0,29016,0:0:0:0:
256,192,29016,12,0,29017,0:0:0:0:
256,192,29017,12,0,29018,0:0:0:0:
256,192,29018,12,0,29019,0:0:0:0:
256,192,29019,12,0,29020,0:0:0:0:
256,192,29020,12,0,29021,0:0:0:0:
256,192,29022,12,0,29023,0:0:0:0:
256,192,29024,12,0,29025,0:0:0:0:
256,192,29026,12,0,29027,0:0:0:0:
256,192,29028,12,0,29029,0:0:0:0:
256,192,29029,12,0,29030,0:0:0:0:
256,192,29030,12,0,29031,0:0:0:0:
256,192,29032,12,0,29033,0:0:0:0:
256,192,29034,12,0,29035,0:0:0:0:
256,192,29036,12,0,29037,0:0:0:0:
256,192,29037,12,0,29038,0:0:0:0:
256,192,29038,12,0,29039,0:0:0:0:
256,192,29040,12,0,29041,0:0:0:0:
256,192,29042,12,0,29043,0:0:0:0:
256,192,29044,12,0,29045,0:0:0:0:
256,192,29045,12,0,29046,0:0:0:0:
256,192,29046,12,0,29047,0:0:0:0:
256,192,29047,12,0,29048,0:0:0:0:
256,192,29048,12,0,29049,0:0:0:0:
256,192,29049,12,0,29050,0:0:0:0:
256,192,29050,12,0,29051,0:0:0:0:
256,192,29051,12,0,29052,0:0:0:0:
256,192,29052,12,0,29053,0:0:0:0:
256,192,29053,12,0,29054,0:0:0:0:
256,192,29055,12,0,29056,0:0:0:0:
256,192,29057,12,0,29058,0:0:0:0:
256,192,29059,12,0,29060,0:0:0:0:
256,192,29061,12,0,29062,0:0:0:0:
256,192,29063,12,0,29064,0:0:0:0:
256,192,29064,12,0,29065,0:0:0:0:
256,192,29065,12,0,29066,0:0:0:0:
256,192,29067,12,0,29068,0:0:0:0:
256,192,29069,12,0,29070,0:0:0:0:
256,192,29071,12,0,29072,0:0:0:0:
256,192,29073,12,0,29074,0:0:0:0:
256,192,29075,12,0,29076,0:0:0:0:
256,192,29077,12,0,29078,0:0:0:0:
256,192,29079,12,0,29080,0:0:0:0:
256,192,29080,12,0,29081,0:0:0:0:
256,192,29082,12,0,29083,0:0:0:0:
256,192,29084,12,0,29085,0:0:0:0:
256,192,29086,12,0,29087,0:0:0:0:
256,192,29088,12,0,29106,0:0:0:0:
256,192,29124,12,0,29125,0:0:0:0:
256,192,29126,12,0,29127,0:0:0:0:
256,192,29128,12,0,29129,0:0:0:0:
256,192,29130,12,0,29131,0:0:0:0:
256,192,29132,12,0,29133,0:0:0:0:
256,192,29134,12,0,29135,0:0:0:0:
256,192,29136,12,0,29137,0:0:0:0:
256,192,29139,12,0,29140,0:0:0:0:
256,192,29140,12,0,29141,0:0:0:0:
256,192,29142,12,0,29143,0:0:0:0:
256,192,29144,12,0,29145,0:0:0:0:
256,192,29146,12,0,29147,0:0:0:0:
256,192,29148,12,0,29149,0:0:0:0:
256,192,29150,12,0,29151,0:0:0:0:
256,192,29152,12,0,29153,0:0:0:0:
256,192,29154,12,0,29155,0:0:0:0:
256,192,29155,12,0,29156,0:0:0:0:
256,192,29157,12,0,29158,0:0:0:0:
256,192,29159,12,0,29160,0:0:0:0:
256,192,29161,12,0,29162,0:0:0:0:
256,192,29163,12,0,29164,0:0:0:0:
256,192,29165,12,0,29166,0:0:0:0:
256,192,29167,12,0,29168,0:0:0:0:
256,192,29169,12,0,29170,0:0:0:0:
256,192,29173,12,0,29174,0:0:0:0:
256,192,29174,12,0,29175,0:0:0:0:
256,192,29176,12,0,29177,0:0:0:0:
256,192,29178,12,0,29179,0:0:0:0:
256,192,29180,12,0,29181,0:0:0:0:
256,192,29182,12,0,29183,0:0:0:0:
256,192,29184,12,0,29185,0:0:0:0:
256,192,29186,12,0,29187,0:0:0:0:
256,192,29188,12,0,29189,0:0:0:0:
256,192,29189,12,0,29190,0:0:0:0:
256,192,29191,12,0,29192,0:0:0:0:
256,192,29193,12,0,29194,0:0:0:0:
256,192,29195,12,0,29196,0:0:0:0:
256,192,29197,12,0,29198,0:0:0:0:
256,192,29199,12,0,29200,0:0:0:0:
256,192,29201,12,0,29202,0:0:0:0:
256,192,29203,12,0,29204,0:0:0:0:
256,192,29206,12,0,29207,0:0:0:0:
256,192,29207,12,0,29208,0:0:0:0:
256,192,29209,12,0,29210,0:0:0:0:
256,192,29211,12,0,29212,0:0:0:0:
256,192,29213,12,0,29214,0:0:0:0:
256,192,29215,12,0,29216,0:0:0:0:
256,192,29217,12,0,29218,0:0:0:0:
256,192,29219,12,0,29220,0:0:0:0:
256,192,29221,12,0,29222,0:0:0:0:
256,192,29222,12,0,29223,0:0:0:0:
256,192,29224,12,0,29225,0:0:0:0:
256,192,29226,12,0,29227,0:0:0:0:
256,192,29228,12,0,29229,0:0:0:0:
256,192,29229,12,0,29230,0:0:0:0:
256,192,29230,12,0,29231,0:0:0:0:
256,192,29232,12,0,29233,0:0:0:0:
256,192,29234,12,0,29235,0:0:0:0:
256,192,29236,12,0,29237,0:0:0:0:
256,192,29237,12,0,29238,0:0:0:0:
256,192,29238,12,0,29239,0:0:0:0:
256,192,29240,12,0,29241,0:0:0:0:
256,192,29242,12,0,29243,0:0:0:0:
256,192,29244,12,0,29245,0:0:0:0:
256,192,29245,12,0,29246,0:0:0:0:
256,192,29246,12,0,29247,0:0:0:0:
256,192,29247,12,0,29248,0:0:0:0:
256,192,29248,12,0,29249,0:0:0:0:
256,192,29249,12,0,29250,0:0:0:0:
256,192,29250,12,0,29251,0:0:0:0:
256,192,29251,12,0,29252,0:0:0:0:
256,192,29252,12,0,29253,0:0:0:0:
256,192,29253,12,0,29254,0:0:0:0:
256,192,29255,12,0,29256,0:0:0:0:
256,192,29257,12,0,29258,0:0:0:0:
256,192,29259,12,0,29260,0:0:0:0:
256,192,29261,12,0,29262,0:0:0:0:
256,192,29262,12,0,29263,0:0:0:0:
256,192,29263,12,0,29264,0:0:0:0:
256,192,29265,12,0,29266,0:0:0:0:
256,192,29267,12,0,29268,0:0:0:0:
256,192,29269,12,0,29270,0:0:0:0:
256,192,29270,12,0,29271,0:0:0:0:
256,192,29271,12,0,29272,0:0:0:0:
256,192,29273,12,0,29274,0:0:0:0:
256,192,29275,12,0,29276,0:0:0:0:
256,192,29277,12,0,29278,0:0:0:0:
256,192,29278,12,0,29279,0:0:0:0:
256,192,29279,12,0,29280,0:0:0:0:
256,192,29280,12,0,29281,0:0:0:0:
256,192,29281,12,0,29282,0:0:0:0:
256,192,29282,12,0,29283,0:0:0:0:
256,192,29283,12,0,29284,0:0:0:0:
256,192,29284,12,0,29285,0:0:0:0:
256,192,29285,12,0,29286,0:0:0:0:
256,192,29286,12,0,29287,0:0:0:0:
256,192,29288,12,0,29289,0:0:0:0:
256,192,29290,12,0,29291,0:0:0:0:
256,192,29292,12,0,29293,0:0:0:0:
256,192,29294,12,0,29295,0:0:0:0:
256,192,29296,12,0,29297,0:0:0:0:
256,192,29297,12,0,29298,0:0:0:0:
256,192,29298,12,0,29299,0:0:0:0:
256,192,29299,12,0,29300,0:0:0:0:
256,192,29300,12,0,29301,0:0:0:0:
256,192,29301,12,0,29302,0:0:0:0:
256,192,29303,12,0,29304,0:0:0:0:
256,192,29304,12,0,29305,0:0:0:0:
256,192,29305,12,0,29306,0:0:0:0:
256,192,29307,12,0,29308,0:0:0:0:
256,192,29309,12,0,29310,0:0:0:0:
256,192,29311,12,0,29312,0:0:0:0:
256,192,29312,12,0,29313,0:0:0:0:
256,192,29313,12,0,29314,0:0:0:0:
256,192,29314,12,0,29315,0:0:0:0:
256,192,29315,12,0,29316,0:0:0:0:
256,192,29316,12,0,29317,0:0:0:0:
256,192,29317,12,0,29318,0:0:0:0:
256,192,29318,12,0,29319,0:0:0:0:
256,192,29319,12,0,29320,0:0:0:0:
256,192,29320,12,0,29321,0:0:0:0:
256,192,29322,12,0,29323,0:0:0:0:
256,192,29324,12,0,29325,0:0:0:0:
256,192,29326,12,0,29327,0:0:0:0:
256,192,29328,12,0,29329,0:0:0:0:
256,192,29329,12,0,29330,0:0:0:0:
256,192,29330,12,0,29331,0:0:0:0:
256,192,29332,12,0,29333,0:0:0:0:
256,192,29334,12,0,29335,0:0:0:0:
256,192,29336,12,0,29337,0:0:0:0:
256,192,29337,12,0,29338,0:0:0:0:
256,192,29338,12,0,29339,0:0:0:0:
256,192,29340,12,0,29341,0:0:0:0:
256,192,29342,12,0,29343,0:0:0:0:
256,192,29344,12,0,29345,0:0:0:0:
256,192,29345,12,0,29346,0:0:0:0:
256,192,29346,12,0,29347,0:0:0:0:
256,192,29347,12,0,29348,0:0:0:0:
256,192,29348,12,0,29349,0:0:0:0:
256,192,29349,12,0,29350,0:0:0:0:
256,192,29350,12,0,29351,0:0:0:0:
256,192,29351,12,0,29352,0:0:0:0:
256,192,29352,12,0,29353,0:0:0:0:
256,192,29353,12,0,29354,0:0:0:0:
256,192,29355,12,0,29356,0:0:0:0:
256,192,29357,12,0,29358,0:0:0:0:
256,192,29359,12,0,29360,0:0:0:0:
256,192,29361,12,0,29362,0:0:0:0:
256,192,29363,12,0,29364,0:0:0:0:
256,192,29364,12,0,29365,0:0:0:0:
256,192,29365,12,0,29366,0:0:0:0:
256,192,29367,12,0,29368,0:0:0:0:
256,192,29369,12,0,29370,0:0:0:0:
256,192,29371,12,0,29372,0:0:0:0:
256,192,29373,12,0,29374,0:0:0:0:
256,192,29375,12,0,29376,0:0:0:0:
256,192,29377,12,0,29378,0:0:0:0:
256,192,29379,12,0,29380,0:0:0:0:
256,192,29380,12,0,29381,0:0:0:0:
256,192,29382,12,0,29383,0:0:0:0:
256,192,29384,12,0,29385,0:0:0:0:
256,192,29386,12,0,29387,0:0:0:0:
256,192,29387,12,0,29388,0:0:0:0:
256,192,29388,12,0,29389,0:0:0:0:
256,192,29390,12,0,29391,0:0:0:0:
256,192,29391,12,0,29392,0:0:0:0:
256,192,29393,12,0,29394,0:0:0:0:
256,192,29395,12,0,29396,0:0:0:0:
256,192,29397,12,0,29398,0:0:0:0:
256,192,29399,12,0,29400,0:0:0:0:
256,192,29401,12,0,29402,0:0:0:0:
256,192,29403,12,0,29404,0:0:0:0:
256,192,29405,12,0,29406,0:0:0:0:
256,192,29406,12,0,29407,0:0:0:0:
256,192,29408,12,0,29409,0:0:0:0:
256,192,29410,12,0,29411,0:0:0:0:
256,192,29412,12,0,29413,0:0:0:0:
256,192,29413,12,0,29414,0:0:0:0:
256,192,29414,12,0,29415,0:0:0:0:
256,192,29416,12,0,29417,0:0:0:0:
256,192,29418,12,0,29419,0:0:0:0:
256,192,29420,12,0,29421,0:0:0:0:
256,192,29421,12,0,29422,0:0:0:0:
256,192,29422,12,0,29423,0:0:0:0:
256,192,29424,12,0,29425,0:0:0:0:
256,192,29426,12,0,29427,0:0:0:0:
256,192,29428,12,0,29429,0:0:0:0:
256,192,29429,12,0,29430,0:0:0:0:
256,192,29430,12,0,29431,0:0:0:0:
256,192,29431,12,0,29432,0:0:0:0:
256,192,29432,12,0,29433,0:0:0:0:
256,192,29433,12,0,29434,0:0:0:0:
256,192,29434,12,0,29435,0:0:0:0:
256,192,29435,12,0,29436,0:0:0:0:
256,192,29436,12,0,29437,0:0:0:0:
256,192,29437,12,0,29438,0:0:0:0:
256,192,29439,12,0,29440,0:0:0:0:
256,192,29441,12,0,29442,0:0:0:0:
256,192,29443,12,0,29444,0:0:0:0:
256,192,29445,12,0,29446,0:0:0:0:
256,192,29446,12,0,29447,0:0:0:0:
256,192,29447,12,0,29448,0:0:0:0:
256,192,29449,12,0,29450,0:0:0:0:
256,192,29451,12,0,29452,0:0:0:0:
256,192,29453,12,0,29454,0:0:0:0:
256,192,29454,12,0,29455,0:0:0:0:
256,192,29455,12,0,29456,0:0:0:0:
256,192,29457,12,0,29458,0:0:0:0:
256,192,29459,12,0,29460,0:0:0:0:
256,192,29461,12,0,29462,0:0:0:0:
256,192,29462,12,0,29463,0:0:0:0:
256,192,29463,12,0,29464,0:0:0:0:
256,192,29464,12,0,29465,0:0:0:0:
256,192,29465,12,0,29466,0:0:0:0:
256,192,29466,12,0,29467,0:0:0:0:
256,192,29467,12,0,29468,0:0:0:0:
256,192,29468,12,0,29469,0:0:0:0:
256,192,29469,12,0,29470,0:0:0:0:
256,192,29470,12,0,29471,0:0:0:0:
256,192,29472,12,0,29473,0:0:0:0:
256,192,29474,12,0,29475,0:0:0:0:
256,192,29476,12,0,29477,0:0:0:0:
256,192,29478,12,0,29479,0:0:0:0:
256,192,29480,12,0,29481,0:0:0:0:
256,192,29481,12,0,29482,0:0:0:0:
256,192,29482,12,0,29483,0:0:0:0:
256,192,29483,12,0,29484,0:0:0:0:
256,192,29484,12,0,29485,0:0:0:0:
256,192,29485,12,0,29486,0:0:0:0:
256,192,29487,12,0,29488,0:0:0:0:
256,192,29488,12,0,29489,0:0:0:0:
256,192,29489,12,0,29490,0:0:0:0:
256,192,29491,12,0,29492,0:0:0:0:
256,192,29493,12,0,29494,0:0:0:0:
256,192,29495,12,0,29496,0:0:0:0:
256,192,29496,12,0,29497,0:0:0:0:
256,192,29497,12,0,29498,0:0:0:0:
256,192,29498,12,0,29499,0:0:0:0:
256,192,29499,12,0,29500,0:0:0:0:
256,192,29500,12,0,29501,0:0:0:0:
256,192,29501,12,0,29502,0:0:0:0:
256,192,29502,12,0,29503,0:0:0:0:
256,192,29503,12,0,29504,0:0:0:0:
256,192,29504,12,0,29505,0:0:0:0:
256,192,29506,12,0,29507,0:0:0:0:
256,192,29508,12,0,29509,0:0:0:0:
256,192,29510,12,0,29511,0:0:0:0:
256,192,29512,12,0,29513,0:0:0:0:
256,192,29513,12,0,29514,0:0:0:0:
256,192,29514,12,0,29515,0:0:0:0:
256,192,29516,12,0,29517,0:0:0:0:
256,192,29518,12,0,29519,0:0:0:0:
256,192,29520,12,0,29521,0:0:0:0:
256,192,29521,12,0,29522,0:0:0:0:
256,192,29522,12,0,29523,0:0:0:0:
256,192,29524,12,0,29525,0:0:0:0:
256,192,29526,12,0,29527,0:0:0:0:
256,192,29528,12,0,29529,0:0:0:0:
256,192,29529,12,0,29530,0:0:0:0:
256,192,29530,12,0,29531,0:0:0:0:
256,192,29531,12,0,29532,0:0:0:0:
256,192,29532,12,0,29533,0:0:0:0:
256,192,29533,12,0,29534,0:0:0:0:
256,192,29534,12,0,29535,0:0:0:0:
256,192,29535,12,0,29536,0:0:0:0:
256,192,29536,12,0,29537,0:0:0:0:
256,192,29537,12,0,29538,0:0:0:0:
256,192,29540,12,0,29541,0:0:0:0:
256,192,29541,12,0,29542,0:0:0:0:
256,192,29543,12,0,29544,0:0:0:0:
256,192,29545,12,0,29546,0:0:0:0:
256,192,29547,12,0,29548,0:0:0:0:
256,192,29549,12,0,29550,0:0:0:0:
256,192,29551,12,0,29552,0:0:0:0:
256,192,29553,12,0,29554,0:0:0:0:
256,192,29555,12,0,29556,0:0:0:0:
256,192,29556,12,0,29557,0:0:0:0:
256,192,29558,12,0,29559,0:0:0:0:
256,192,29560,12,0,29561,0:0:0:0:
256,192,29562,12,0,29563,0:0:0:0:
256,192,29563,12,0,29564,0:0:0:0:
256,192,29564,12,0,29565,0:0:0:0:
256,192,29566,12,0,29567,0:0:0:0:
256,192,29568,12,0,29569,0:0:0:0:
256,192,29570,12,0,29571,0:0:0:0:
256,192,29571,12,0,29572,0:0:0:0:
256,192,29572,12,0,29573,0:0:0:0:
256,192,29574,12,0,29575,0:0:0:0:
256,192,29576,12,0,29577,0:0:0:0:
256,192,29578,12,0,29579,0:0:0:0:
256,192,29579,12,0,29580,0:0:0:0:
256,192,29580,12,0,29581,0:0:0:0:
256,192,29581,12,0,29582,0:0:0:0:
256,192,29582,12,0,29583,0:0:0:0:
256,192,29583,12,0,29584,0:0:0:0:
256,192,29584,12,0,29585,0:0:0:0:
256,192,29585,12,0,29586,0:0:0:0:
256,192,29586,12,0,29587,0:0:0:0:
256,192,29587,12,0,29588,0:0:0:0:
256,192,29589,12,0,29590,0:0:0:0:
256,192,29591,12,0,29592,0:0:0:0:
256,192,29593,12,0,29594,0:0:0:0:
256,192,29595,12,0,29596,0:0:0:0:
256,192,29596,12,0,29597,0:0:0:0:
256,192,29597,12,0,29598,0:0:0:0:
256,192,29599,12,0,29600,0:0:0:0:
256,192,29601,12,0,29602,0:0:0:0:
256,192,29603,12,0,29604,0:0:0:0:
256,192,29604,12,0,29605,0:0:0:0:
256,192,29605,12,0,29606,0:0:0:0:
256,192,29607,12,0,29608,0:0:0:0:
256,192,29609,12,0,29610,0:0:0:0:
256,192,29611,12,0,29612,0:0:0:0:
256,192,29612,12,0,29613,0:0:0:0:
256,192,29613,12,0,29614,0:0:0:0:
256,192,29614,12,0,29615,0:0:0:0:
256,192,29615,12,0,29616,0:0:0:0:
256,192,29616,12,0,29617,0:0:0:0:
256,192,29617,12,0,29618,0:0:0:0:
256,192,29618,12,0,29619,0:0:0:0:
256,192,29619,12,0,29620,0:0:0:0:
256,192,29620,12,0,29621,0:0:0:0:
256,192,29622,12,0,29623,0:0:0:0:
256,192,29624,12,0,29625,0:0:0:0:
256,192,29626,12,0,29627,0:0:0:0:
256,192,29628,12,0,29629,0:0:0:0:
256,192,29630,12,0,29631,0:0:0:0:
256,192,29631,12,0,29632,0:0:0:0:
256,192,29632,12,0,29633,0:0:0:0:
256,192,29633,12,0,29634,0:0:0:0:
256,192,29634,12,0,29635,0:0:0:0:
256,192,29635,12,0,29636,0:0:0:0:
256,192,29637,12,0,29638,0:0:0:0:
256,192,29638,12,0,29639,0:0:0:0:
256,192,29639,12,0,29640,0:0:0:0:
256,192,29641,12,0,29642,0:0:0:0:
256,192,29643,12,0,29644,0:0:0:0:
256,192,29645,12,0,29646,0:0:0:0:
256,192,29646,12,0,29647,0:0:0:0:
256,192,29647,12,0,29648,0:0:0:0:
256,192,29648,12,0,29649,0:0:0:0:
256,192,29649,12,0,29650,0:0:0:0:
256,192,29650,12,0,29651,0:0:0:0:
256,192,29651,12,0,29652,0:0:0:0:
256,192,29652,12,0,29653,0:0:0:0:
256,192,29653,12,0,29654,0:0:0:0:
256,192,29654,12,0,29655,0:0:0:0:
256,192,29656,12,0,29657,0:0:0:0:
256,192,29658,12,0,29659,0:0:0:0:
256,192,29660,12,0,29661,0:0:0:0:
256,192,29662,12,0,29663,0:0:0:0:
256,192,29663,12,0,29664,0:0:0:0:
256,192,29664,12,0,29665,0:0:0:0:
256,192,29666,12,0,29667,0:0:0:0:
256,192,29668,12,0,29669,0:0:0:0:
256,192,29670,12,0,29671,0:0:0:0:
256,192,29671,12,0,29672,0:0:0:0:
256,192,29672,12,0,29673,0:0:0:0:
256,192,29674,12,0,29675,0:0:0:0:
256,192,29676,12,0,29677,0:0:0:0:
256,192,29678,12,0,29679,0:0:0:0:
256,192,29679,12,0,29680,0:0:0:0:
256,192,29680,12,0,29681,0:0:0:0:
256,192,29681,12,0,29682,0:0:0:0:
256,192,29682,12,0,29683,0:0:0:0:
256,192,29683,12,0,29684,0:0:0:0:
256,192,29684,12,0,29685,0:0:0:0:
256,192,29685,12,0,29686,0:0:0:0:
256,192,29686,12,0,29687,0:0:0:0:
256,192,29687,12,0,29688,0:0:0:0:
256,192,29690,12,0,29691,0:0:0:0:
256,192,29691,12,0,29692,0:0:0:0:
256,192,29693,12,0,29694,0:0:0:0:
256,192,29695,12,0,29696,0:0:0:0:
256,192,29697,12,0,29698,0:0:0:0:
256,192,29699,12,0,29700,0:0:0:0:
256,192,29701,12,0,29702,0:0:0:0:
256,192,29703,12,0,29704,0:0:0:0:
256,192,29705,12,0,29706,0:0:0:0:
256,192,29706,12,0,29707,0:0:0:0:
256,192,29708,12,0,29709,0:0:0:0:
256,192,29710,12,0,29711,0:0:0:0:
256,192,29712,12,0,29713,0:0:0:0:
256,192,29713,12,0,29714,0:0:0:0:
256,192,29714,12,0,29715,0:0:0:0:
256,192,29716,12,0,29717,0:0:0:0:
256,192,29718,12,0,29719,0:0:0:0:
256,192,29720,12,0,29721,0:0:0:0:
256,192,29721,12,0,29722,0:0:0:0:
256,192,29722,12,0,29723,0:0:0:0:
256,192,29724,12,0,29725,0:0:0:0:
256,192,29726,12,0,29727,0:0:0:0:
256,192,29728,12,0,29729,0:0:0:0:
256,192,29729,12,0,29730,0:0:0:0:
256,192,29730,12,0,29731,0:0:0:0:
256,192,29731,12,0,29732,0:0:0:0:
256,192,29732,12,0,29733,0:0:0:0:
256,192,29733,12,0,29734,0:0:0:0:
256,192,29734,12,0,29735,0:0:0:0:
256,192,29735,12,0,29736,0:0:0:0:
256,192,29736,12,0,29737,0:0:0:0:
256,192,29737,12,0,29738,0:0:0:0:
256,192,29739,12,0,29740,0:0:0:0:
256,192,29741,12,0,29742,0:0:0:0:
256,192,29743,12,0,29744,0:0:0:0:
256,192,29745,12,0,29746,0:0:0:0:
256,192,29746,12,0,29747,0:0:0:0:
256,192,29747,12,0,29748,0:0:0:0:
256,192,29749,12,0,29750,0:0:0:0:
256,192,29751,12,0,29752,0:0:0:0:
256,192,29753,12,0,29754,0:0:0:0:
256,192,29754,12,0,29755,0:0:0:0:
256,192,29755,12,0,29756,0:0:0:0:
256,192,29757,12,0,29758,0:0:0:0:
256,192,29759,12,0,29760,0:0:0:0:
256,192,29761,12,0,29762,0:0:0:0:
256,192,29762,12,0,29763,0:0:0:0:
256,192,29763,12,0,29764,0:0:0:0:
256,192,29764,12,0,29765,0:0:0:0:
256,192,29765,12,0,29766,0:0:0:0:
256,192,29766,12,0,29767,0:0:0:0:
256,192,29767,12,0,29768,0:0:0:0:
256,192,29768,12,0,29769,0:0:0:0:
256,192,29769,12,0,29770,0:0:0:0:
256,192,29770,12,0,29771,0:0:0:0:
256,192,29772,12,0,29773,0:0:0:0:
256,192,29774,12,0,29775,0:0:0:0:
256,192,29776,12,0,29777,0:0:0:0:
256,192,29778,12,0,29779,0:0:0:0:
256,192,29780,12,0,29781,0:0:0:0:
256,192,29781,12,0,29782,0:0:0:0:
256,192,29782,12,0,29783,0:0:0:0:
256,192,29783,12,0,29784,0:0:0:0:
256,192,29784,12,0,29785,0:0:0:0:
256,192,29785,12,0,29786,0:0:0:0:
256,192,29787,12,0,29788,0:0:0:0:
256,192,29788,12,0,29789,0:0:0:0:
256,192,29789,12,0,29790,0:0:0:0:
256,192,29791,12,0,29792,0:0:0:0:
256,192,29793,12,0,29794,0:0:0:0:
256,192,29795,12,0,29796,0:0:0:0:
256,192,29796,12,0,29797,0:0:0:0:
256,192,29797,12,0,29798,0:0:0:0:
256,192,29798,12,0,29799,0:0:0:0:
256,192,29799,12,0,29800,0:0:0:0:
256,192,29800,12,0,29801,0:0:0:0:
256,192,29801,12,0,29802,0:0:0:0:
256,192,29802,12,0,29803,0:0:0:0:
256,192,29803,12,0,29804,0:0:0:0:
256,192,29804,12,0,29805,0:0:0:0:
256,192,29806,12,0,29807,0:0:0:0:
256,192,29808,12,0,29809,0:0:0:0:
256,192,29810,12,0,29811,0:0:0:0:
256,192,29812,12,0,29813,0:0:0:0:
256,192,29813,12,0,29814,0:0:0:0:
256,192,29814,12,0,29815,0:0:0:0:
256,192,29816,12,0,29817,0:0:0:0:
256,192,29818,12,0,29819,0:0:0:0:
256,192,29820,12,0,29821,0:0:0:0:
256,192,29821,12,0,29822,0:0:0:0:
256,192,29822,12,0,29823,0:0:0:0:
256,192,29824,12,0,29825,0:0:0:0:
256,192,29826,12,0,29827,0:0:0:0:
256,192,29828,12,0,29829,0:0:0:0:
256,192,29829,12,0,29830,0:0:0:0:
256,192,29830,12,0,29831,0:0:0:0:
256,192,29831,12,0,29832,0:0:0:0:
256,192,29832,12,0,29833,0:0:0:0:
256,192,29833,12,0,29834,0:0:0:0:
256,192,29834,12,0,29835,0:0:0:0:
256,192,29835,12,0,29836,0:0:0:0:
256,192,29836,12,0,29837,0:0:0:0:
256,192,29837,12,0,29838,0:0:0:0:
256,192,29839,12,0,29840,0:0:0:0:
256,192,29841,12,0,29842,0:0:0:0:
256,192,29843,12,0,29844,0:0:0:0:
256,192,29845,12,0,29846,0:0:0:0:
256,192,29847,12,0,29848,0:0:0:0:
256,192,29849,12,0,29850,0:0:0:0:
256,192,29851,12,0,29852,0:0:0:0:
256,192,29852,12,0,29853,0:0:0:0:
256,192,29854,12,0,29855,0:0:0:0:
256,192,29856,12,0,29857,0:0:0:0:
256,192,29858,12,0,29859,0:0:0:0:
256,192,29859,12,0,29860,0:0:0:0:
256,192,29860,12,0,29861,0:0:0:0:
256,192,29862,12,0,29863,0:0:0:0:
256,192,29864,12,0,29865,0:0:0:0:
256,192,29866,12,0,29867,0:0:0:0:
256,192,29867,12,0,29868,0:0:0:0:
256,192,29868,12,0,29869,0:0:0:0:
256,192,29870,12,0,29871,0:0:0:0:
256,192,29872,12,0,29873,0:0:0:0:
256,192,29874,12,0,29875,0:0:0:0:
256,192,29875,12,0,29876,0:0:0:0:
256,192,29876,12,0,29877,0:0:0:0:
256,192,29877,12,0,29878,0:0:0:0:
256,192,29878,12,0,29879,0:0:0:0:
256,192,29879,12,0,29880,0:0:0:0:
256,192,29880,12,0,29881,0:0:0:0:
256,192,29881,12,0,29882,0:0:0:0:
256,192,29882,12,0,29883,0:0:0:0:
256,192,29883,12,0,29884,0:0:0:0:
256,192,29885,12,0,29886,0:0:0:0:
256,192,29887,12,0,29888,0:0:0:0:
256,192,29889,12,0,29890,0:0:0:0:
256,192,29891,12,0,29892,0:0:0:0:
256,192,29892,12,0,29893,0:0:0:0:
256,192,29893,12,0,29894,0:0:0:0:
256,192,29895,12,0,29896,0:0:0:0:
256,192,29897,12,0,29898,0:0:0:0:
256,192,29899,12,0,29900,0:0:0:0:
256,192,29900,12,0,29901,0:0:0:0:
256,192,29901,12,0,29902,0:0:0:0:
256,192,29903,12,0,29904,0:0:0:0:
256,192,29905,12,0,29906,0:0:0:0:
256,192,29907,12,0,29908,0:0:0:0:
256,192,29908,12,0,29909,0:0:0:0:
256,192,29909,12,0,29910,0:0:0:0:
256,192,29910,12,0,29911,0:0:0:0:
256,192,29911,12,0,29912,0:0:0:0:
256,192,29912,12,0,29913,0:0:0:0:
256,192,29913,12,0,29914,0:0:0:0:
256,192,29914,12,0,29915,0:0:0:0:
256,192,29915,12,0,29916,0:0:0:0:
256,192,29916,12,0,29917,0:0:0:0:
256,192,29918,12,0,29919,0:0:0:0:
256,192,29920,12,0,29921,0:0:0:0:
256,192,29922,12,0,29923,0:0:0:0:
256,192,29924,12,0,29925,0:0:0:0:
256,192,29926,12,0,29927,0:0:0:0:
256,192,29927,12,0,29928,0:0:0:0:
256,192,29928,12,0,29929,0:0:0:0:
256,192,29929,12,0,29930,0:0:0:0:
256,192,29930,12,0,29931,0:0:0:0:
256,192,29931,12,0,29932,0:0:0:0:
256,192,29933,12,0,29934,0:0:0:0:
256,192,29934,12,0,29935,0:0:0:0:
256,192,29935,12,0,29936,0:0:0:0:
256,192,29937,12,0,29938,0:0:0:0:
256,192,29939,12,0,29940,0:0:0:0:
256,192,29941,12,0,29942,0:0:0:0:
256,192,29942,12,0,29943,0:0:0:0:
256,192,29943,12,0,29944,0:0:0:0:
256,192,29944,12,0,29945,0:0:0:0:
256,192,29945,12,0,29946,0:0:0:0:
256,192,29946,12,0,29947,0:0:0:0:
256,192,29947,12,0,29948,0:0:0:0:
256,192,29948,12,0,29949,0:0:0:0:
256,192,29949,12,0,29950,0:0:0:0:
256,192,29950,12,0,29951,0:0:0:0:
256,192,29951,12,0,29952,0:0:0:0:
256,192,29952,12,0,29953,0:0:0:0:
256,192,29953,12,0,29954,0:0:0:0:
256,192,29955,12,0,29956,0:0:0:0:
256,192,29957,12,0,29958,0:0:0:0:
256,192,29959,12,0,29960,0:0:0:0:
256,192,29961,12,0,29962,0:0:0:0:
256,192,29962,12,0,29963,0:0:0:0:
256,192,29963,12,0,29964,0:0:0:0:
256,192,29965,12,0,29966,0:0:0:0:
256,192,29967,12,0,29968,0:0:0:0:
256,192,29969,12,0,29970,0:0:0:0:
256,192,29970,12,0,29971,0:0:0:0:
256,192,29971,12,0,29972,0:0:0:0:
256,192,29973,12,0,29974,0:0:0:0:
256,192,29975,12,0,29976,0:0:0:0:
256,192,29977,12,0,29978,0:0:0:0:
256,192,29978,12,0,29979,0:0:0:0:
256,192,29979,12,0,29980,0:0:0:0:
256,192,29980,12,0,29981,0:0:0:0:
256,192,29981,12,0,29982,0:0:0:0:
256,192,29982,12,0,29983,0:0:0:0:
256,192,29983,12,0,29984,0:0:0:0:
256,192,29984,12,0,29985,0:0:0:0:
256,192,29985,12,0,29986,0:0:0:0:
256,192,29986,12,0,29987,0:0:0:0:
448,288,30006,6,0,L|128:64,1,385
256,192,30906,5,0,0:0:0:0:
256,192,31206,12,0,31207,0:0:0:0:
256,192,31207,12,0,31208,0:0:0:0:
256,192,31209,12,0,31210,0:0:0:0:
256,192,31211,12,0,31212,0:0:0:0:
256,192,31213,12,0,31214,0:0:0:0:
256,192,31215,12,0,31216,0:0:0:0:
256,192,31217,12,0,31218,0:0:0:0:
256,192,31219,12,0,31220,0:0:0:0:
256,192,31221,12,0,31222,0:0:0:0:
256,192,31222,12,0,31223,0:0:0:0:
256,192,31224,12,0,31225,0:0:0:0:
256,192,31226,12,0,31227,0:0:0:0:
256,192,31228,12,0,31229,0:0:0:0:
256,192,31230,12,0,31231,0:0:0:0:
256,192,31232,12,0,31233,0:0:0:0:
256,192,31234,12,0,31235,0:0:0:0:
256,192,31236,12,0,31237,0:0:0:0:
256,192,31239,12,0,31240,0:0:0:0:
256,192,31240,12,0,31241,0:0:0:0:
256,192,31242,12,0,31243,0:0:0:0:
256,192,31244,12,0,31245,0:0:0:0:
256,192,31246,12,0,31247,0:0:0:0:
256,192,31248,12,0,31249,0:0:0:0:
256,192,31250,12,0,31251,0:0:0:0:
256,192,31252,12,0,31253,0:0:0:0:
256,192,31254,12,0,31255,0:0:0:0:
256,192,31255,12,0,31256,0:0:0:0:
256,192,31257,12,0,31258,0:0:0:0:
256,192,31259,12,0,31260,0:0:0:0:
256,192,31261,12,0,31262,0:0:0:0:
256,192,31263,12,0,31264,0:0:0:0:
256,192,31265,12,0,31266,0:0:0:0:
256,192,31267,12,0,31268,0:0:0:0:
256,192,31269,12,0,31270,0:0:0:0:
256,192,31273,12,0,31274,0:0:0:0:
256,192,31274,12,0,31275,0:0:0:0:
256,192,31276,12,0,31277,0:0:0:0:
256,192,31278,12,0,31279,0:0:0:0:
256,192,31280,12,0,31281,0:0:0:0:
256,192,31282,12,0,31283,0:0:0:0:
256,192,31284,12,0,31285,0:0:0:0:
256,192,31286,12,0,31287,0:0:0:0:
256,192,31288,12,0,31289,0:0:0:0:
256,192,31289,12,0,31290,0:0:0:0:
256,192,31291,12,0,31292,0:0:0:0:
256,192,31293,12,0,31294,0:0:0:0:
256,192,31295,12,0,31296,0:0:0:0:
256,192,31297,12,0,31298,0:0:0:0:
256,192,31299,12,0,31300,0:0:0:0:
256,192,31301,12,0,31302,0:0:0:0:
256,192,31303,12,0,31304,0:0:0:0:
256,192,31306,12,0,31307,0:0:0:0:
256,192,31307,12,0,31308,0:0:0:0:
256,192,31309,12,0,31310,0:0:0:0:
256,192,31311,12,0,31312,0:0:0:0:
256,192,31313,12,0,31314,0:0:0:0:
256,192,31315,12,0,31316,0:0:0:0:
256,192,31317,12,0,31318,0:0:0:0:
256,192,31319,12,0,31320,0:0:0:0:
256,192,31321,12,0,31322,0:0:0:0:
256,192,31322,12,0,31323,0:0:0:0:
256,192,31324,12,0,31325,0:0:0:0:
256,192,31326,12,0,31327,0:0:0:0:
256,192,31328,12,0,31329,0:0:0:0:
256,192,31329,12,0,31330,0:0:0:0:
256,192,31330,12,0,31331,0:0:0:0:
256,192,31332,12,0,31333,0:0:0:0:
256,192,31334,12,0,31335,0:0:0:0:
256,192,31336,12,0,31337,0:0:0:0:
256,192,31337,12,0,31338,0:0:0:0:
256,192,31338,12,0,31339,0:0:0:0:
256,192,31340,12,0,31341,0:0:0:0:
256,192,31342,12,0,31343,0:0:0:0:
256,192,31344,12,0,31345,0:0:0:0:
256,192,31345,12,0,31346,0:0:0:0:
256,192,31346,12,0,31347,0:0:0:0:
256,192,31347,12,0,31348,0:0:0:0:
256,192,31348,12,0,31349,0:0:0:0:
256,192,31349,12,0,31350,0:0:0:0:
256,192,31350,12,0,31351,0:0:0:0:
256,192,31351,12,0,31352,0:0:0:0:
256,192,31352,12,0,31353,0:0:0:0:
256,192,31353,12,0,31354,0:0:0:0:
256,192,31355,12,0,31356,0:0:0:0:
256,192,31357,12,0,31358,0:0:0:0:
256,192,31359,12,0,31360,0:0:0:0:
256,192,31361,12,0,31362,0:0:0:0:
256,192,31362,12,0,31363,0:0:0:0:
256,192,31363,12,0,31364,0:0:0:0:
256,192,31365,12,0,31366,0:0:0:0:
256,192,31367,12,0,31368,0:0:0:0:
256,192,31369,12,0,31370,0:0:0:0:
256,192,31370,12,0,31371,0:0:0:0:
256,192,31371,12,0,31372,0:0:0:0:
256,192,31373,12,0,31374,0:0:0:0:
256,192,31375,12,0,31376,0:0:0:0:
256,192,31377,12,0,31378,0:0:0:0:
256,192,31378,12,0,31379,0:0:0:0:
256,192,31379,12,0,31380,0:0:0:0:
256,192,31380,12,0,31381,0:0:0:0:
256,192,31381,12,0,31382,0:0:0:0:
256,192,31382,12,0,31383,0:0:0:0:
256,192,31383,12,0,31384,0:0:0:0:
256,192,31384,12,0,31385,0:0:0:0:
256,192,31385,12,0,31386,0:0:0:0:
256,192,31386,12,0,31387,0:0:0:0:
256,192,31388,12,0,31389,0:0:0:0:
256,192,31390,12,0,31391,0:0:0:0:
256,192,31392,12,0,31393,0:0:0:0:
256,192,31394,12,0,31395,0:0:0:0:
256,192,31396,12,0,31397,0:0:0:0:
256,192,31397,12,0,31398,0:0:0:0:
256,192,31398,12,0,31399,0:0:0:0:
256,192,31399,12,0,31400,0:0:0:0:
256,192,31400,12,0,31401,0:0:0:0:
256,192,31401,12,0,31402,0:0:0:0:
256,192,31403,12,0,31404,0:0:0:0:
256,192,31404,12,0,31405,0:0:0:0:
256,192,31405,12,0,31406,0:0:0:0:
256,192,31407,12,0,31408,0:0:0:0:
256,192,31409,12,0,31410,0:0:0:0:
256,192,31411,12,0,31412,0:0:0:0:
256,192,31412,12,0,31413,0:0:0:0:
256,192,31413,12,0,31414,0:0:0:0:
256,192,31414,12,0,31415,0:0:0:0:
256,192,31415,12,0,31416,0:0:0:0:
256,192,31416,12,0,31417,0:0:0:0:
256,192,31417,12,0,31418,0:0:0:0:
256,192,31418,12,0,31419,0:0:0:0:
256,192,31419,12,0,31420,0:0:0:0:
256,192,31420,12,0,31421,0:0:0:0:
256,192,31422,12,0,31423,0:0:0:0:
256,192,31424,12,0,31425,0:0:0:0:
256,192,31426,12,0,31427,0:0:0:0:
256,192,31428,12,0,31429,0:0:0:0:
256,192,31429,12,0,31430,0:0:0:0:
256,192,31430,12,0,31431,0:0:0:0:
256,192,31432,12,0,31433,0:0:0:0:
256,192,31434,12,0,31435,0:0:0:0:
256,192,31436,12,0,31437,0:0:0:0:
256,192,31437,12,0,31438,0:0:0:0:
256,192,31438,12,0,31439,0:0:0:0:
256,192,31440,12,0,31441,0:0:0:0:
256,192,31442,12,0,31443,0:0:0:0:
256,192,31444,12,0,31445,0:0:0:0:
256,192,31445,12,0,31446,0:0:0:0:
256,192,31446,12,0,31447,0:0:0:0:
256,192,31447,12,0,31448,0:0:0:0:
256,192,31448,12,0,31449,0:0:0:0:
256,192,31449,12,0,31450,0:0:0:0:
256,192,31450,12,0,31451,0:0:0:0:
256,192,31451,12,0,31452,0:0:0:0:
256,192,31452,12,0,31453,0:0:0:0:
256,192,31453,12,0,31454,0:0:0:0:
256,192,31455,12,0,31456,0:0:0:0:
256,192,31457,12,0,31458,0:0:0:0:
256,192,31459,12,0,31460,0:0:0:0:
256,192,31461,12,0,31462,0:0:0:0:
256,192,31463,12,0,31464,0:0:0:0:
256,192,31464,12,0,31465,0:0:0:0:
256,192,31465,12,0,31466,0:0:0:0:
256,192,31467,12,0,31468,0:0:0:0:
256,192,31469,12,0,31470,0:0:0:0:
256,192,31471,12,0,31472,0:0:0:0:
256,192,31473,12,0,31474,0:0:0:0:
256,192,31475,12,0,31476,0:0:0:0:
256,192,31477,12,0,31478,0:0:0:0:
256,192,31479,12,0,31480,0:0:0:0:
256,192,31480,12,0,31481,0:0:0:0:
256,192,31482,12,0,31483,0:0:0:0:
256,192,31484,12,0,31485,0:0:0:0:
256,192,31486,12,0,31487,0:0:0:0:
256,192,31488,12,0,31506,0:0:0:0:
256,192,31524,12,0,31525,0:0:0:0:
256,192,31526,12,0,31527,0:0:0:0:
256,192,31528,12,0,31529,0:0:0:0:
256,192,31530,12,0,31531,0:0:0:0:
256,192,31532,12,0,31533,0:0:0:0:
256,192,31534,12,0,31535,0:0:0:0:
256,192,31536,12,0,31537,0:0:0:0:
256,192,31539,12,0,31540,0:0:0:0:
256,192,31540,12,0,31541,0:0:0:0:
256,192,31542,12,0,31543,0:0:0:0:
256,192,31544,12,0,31545,0:0:0:0:
256,192,31546,12,0,31547,0:0:0:0:
256,192,31548,12,0,31549,0:0:0:0:
256,192,31550,12,0,31551,0:0:0:0:
256,192,31552,12,0,31553,0:0:0:0:
256,192,31554,12,0,31555,0:0:0:0:
256,192,31555,12,0,31556,0:0:0:0:
256,192,31557,12,0,31558,0:0:0:0:
256,192,31559,12,0,31560,0:0:0:0:
256,192,31561,12,0,31562,0:0:0:0:
256,192,31563,12,0,31564,0:0:0:0:
256,192,31565,12,0,31566,0:0:0:0:
256,192,31567,12,0,31568,0:0:0:0:
256,192,31569,12,0,31570,0:0:0:0:
256,192,31573,12,0,31574,0:0:0:0:
256,192,31574,12,0,31575,0:0:0:0:
256,192,31576,12,0,31577,0:0:0:0:
256,192,31578,12,0,31579,0:0:0:0:
256,192,31580,12,0,31581,0:0:0:0:
256,192,31582,12,0,31583,0:0:0:0:
256,192,31584,12,0,31585,0:0:0:0:
256,192,31586,12,0,31587,0:0:0:0:
256,192,31588,12,0,31589,0:0:0:0:
256,192,31589,12,0,31590,0:0:0:0:
256,192,31591,12,0,31592,0:0:0:0:
256,192,31593,12,0,31594,0:0:0:0:
256,192,31595,12,0,31596,0:0:0:0:
256,192,31597,12,0,31598,0:0:0:0:
256,192,31599,12,0,31600,0:0:0:0:
256,192,31601,12,0,31602,0:0:0:0:
256,192,31603,12,0,31604,0:0:0:0:
256,192,31606,12,0,31607,0:0:0:0:
256,192,31607,12,0,31608,0:0:0:0:
256,192,31609,12,0,31610,0:0:0:0:
256,192,31611,12,0,31612,0:0:0:0:
256,192,31613,12,0,31614,0:0:0:0:
256,192,31615,12,0,31616,0:0:0:0:
256,192,31617,12,0,31618,0:0:0:0:
256,192,31619,12,0,31620,0:0:0:0:
256,192,31621,12,0,31622,0:0:0:0:
256,192,31622,12,0,31623,0:0:0:0:
256,192,31624,12,0,31625,0:0:0:0:
256,192,31626,12,0,31627,0:0:0:0:
256,192,31628,12,0,31629,0:0:0:0:
256,192,31629,12,0,31630,0:0:0:0:
256,192,31630,12,0,31631,0:0:0:0:
256,192,31632,12,0,31633,0:0:0:0:
256,192,31634,12,0,31635,0:0:0:0:
256,192,31636,12,0,31637,0:0:0:0:
256,192,31637,12,0,31638,0:0:0:0:
256,192,31638,12,0,31639,0:0:0:0:
256,192,31640,12,0,31641,0:0:0:0:
256,192,31642,12,0,31643,0:0:0:0:
256,192,31644,12,0,31645,0:0:0:0:
256,192,31645,12,0,31646,0:0:0:0:
256,192,31646,12,0,31647,0:0:0:0:
256,192,31647,12,0,31648,0:0:0:0:
256,192,31648,12,0,31649,0:0:0:0:
256,192,31649,12,0,31650,0:0:0:0:
256,192,31650,12,0,31651,0:0:0:0:
256,192,31651,12,0,31652,0:0:0:0:
256,192,31652,12,0,31653,0:0:0:0:
256,192,31653,12,0,31654,0:0:0:0:
256,192,31655,12,0,31656,0:0:0:0:
256,192,31657,12,0,31658,0:0:0:0:
256,192,31659,12,0,31660,0:0:0:0:
256,192,31661,12,0,31662,0:0:0:0:
256,192,31662,12,0,31663,0:0:0:0:
256,192,31663,12,0,31664,0:0:0:0:
256,192,31665,12,0,31666,0:0:0:0:
256,192,31667,12,0,31668,0:0:0:0:
256,192,31669,12,0,31670,0:0:0:0:
256,192,31670,12,0,31671,0:0:0:0:
256,192,31671,12,0,31672,0:0:0:0:
256,192,31673,12,0,31674,0:0:0:0:
256,192,31675,12,0,31676,0:0:0:0:
256,192,31677,12,0,31678,0:0:0:0:
256,192,31678,12,0,31679,0:0:0:0:
256,192,31679,12,0,31680,0:0:0:0:
256,192,31680,12,0,31681,0:0:0:0:
256,192,31681,12,0,31682,0:0:0:0:
256,192,31682,12,0,31683,0:0:0:0:
256,192,31683,12,0,31684,0:0:0:0:
256,192,31684,12,0,31685,0:0:0:0:
256,192,31685,12,0,31686,0:0:0:0:
256,192,31686,12,0,31687,0:0:0:0:
256,192,31688,12,0,31689,0:0:0:0:
256,192,31690,12,0,31691,0:0:0:0:
256,192,31692,12,0,31693,0:0:0:0:
256,192,31694,12,0,31695,0:0:0:0:
256,192,31696,12,0,31697,0:0:0:0:
256,192,31697,12,0,31698,0:0:0:0:
256,192,31698,12,0,31699,0:0:0:0:
256,192,31699,12,0,31700,0:0:0:0:
256,192,31700,12,0,31701,0:0:0:0:
256,192,31701,12,0,31702,0:0:0:0:
256,192,31703,12,0,31704,0:0:0:0:
256,192,31704,12,0,31705,0:0:0:0:
256,192,31705,12,0,31706,0:0:0:0:
256,192,31707,12,0,31708,0:0:0:0:
256,192,31709,12,0,31710,0:0:0:0:
256,192,31711,12,0,31712,0:0:0:0:
256,192,31712,12,0,31713,0:0:0:0:
256,192,31713,12,0,31714,0:0:0:0:
256,192,31714,12,0,31715,0:0:0:0:
256,192,31715,12,0,31716,0:0:0:0:
256,192,31716,12,0,31717,0:0:0:0:
256,192,31717,12,0,31718,0:0:0:0:
256,192,31718,12,0,31719,0:0:0:0:
256,192,31719,12,0,31720,0:0:0:0:
256,192,31720,12,0,31721,0:0:0:0:
256,192,31722,12,0,31723,0:0:0:0:
256,192,31724,12,0,31725,0:0:0:0:
256,192,31726,12,0,31727,0:0:0:0:
256,192,31728,12,0,31729,0:0:0:0:
256,192,31729,12,0,31730,0:0:0:0:
256,192,31730,12,0,31731,0:0:0:0:
256,192,31732,12,0,31733,0:0:0:0:
256,192,31734,12,0,31735,0:0:0:0:
256,192,31736,12,0,31737,0:0:0:0:
256,192,31737,12,0,31738,0:0:0:0:
256,192,31738,12,0,31739,0:0:0:0:
256,192,31740,12,0,31741,0:0:0:0:
256,192,31742,12,0,31743,0:0:0:0:
256,192,31744,12,0,31745,0:0:0:0:
256,192,31745,12,0,31746,0:0:0:0:
256,192,31746,12,0,31747,0:0:0:0:
256,192,31747,12,0,31748,0:0:0:0:
256,192,31748,12,0,31749,0:0:0:0:
256,192,31749,12,0,31750,0:0:0:0:
256,192,31750,12,0,31751,0:0:0:0:
256,192,31751,12,0,31752,0:0:0:0:
256,192,31752,12,0,31753,0:0:0:0:
256,192,31753,12,0,31754,0:0:0:0:
256,192,31755,12,0,31756,0:0:0:0:
256,192,31757,12,0,31758,0:0:0:0:
256,192,31759,12,0,31760,0:0:0:0:
256,192,31761,12,0,31762,0:0:0:0:
256,192,31763,12,0,31764,0:0:0:0:
256,192,31764,12,0,31765,0:0:0:0:
256,192,31765,12,0,31766,0:0:0:0:
256,192,31767,12,0,31768,0:0:0:0:
256,192,31769,12,0,31770,0:0:0:0:
256,192,31771,12,0,31772,0:0:0:0:
256,192,31773,12,0,31774,0:0:0:0:
256,192,31775,12,0,31776,0:0:0:0:
256,192,31777,12,0,31778,0:0:0:0:
256,192,31779,12,0,31780,0:0:0:0:
256,192,31780,12,0,31781,0:0:0:0:
256,192,31782,12,0,31783,0:0:0:0:
256,192,31784,12,0,31785,0:0:0:0:
256,192,31786,12,0,31787,0:0:0:0:
256,192,31787,12,0,31788,0:0:0:0:
256,192,31788,12,0,31789,0:0:0:0:
256,192,31790,12,0,31791,0:0:0:0:
256,192,31791,12,0,31792,0:0:0:0:
256,192,31793,12,0,31794,0:0:0:0:
256,192,31795,12,0,31796,0:0:0:0:
256,192,31797,12,0,31798,0:0:0:0:
256,192,31799,12,0,31800,0:0:0:0:
256,192,31801,12,0,31802,0:0:0:0:
256,192,31803,12,0,31804,0:0:0:0:
256,192,31805,12,0,31806,0:0:0:0:
256,192,31806,12,0,31807,0:0:0:0:
256,192,31808,12,0,31809,0:0:0:0:
256,192,31810,12,0,31811,0:0:0:0:
256,192,31812,12,0,31813,0:0:0:0:
256,192,31813,12,0,31814,0:0:0:0:
256,192,31814,12,0,31815,0:0:0:0:
256,192,31816,12,0,31817,0:0:0:0:
256,192,31818,12,0,31819,0:0:0:0:
256,192,31820,12,0,31821,0:0:0:0:
256,192,31821,12,0,31822,0:0:0:0:
256,192,31822,12,0,31823,0:0:0:0:
256,192,31824,12,0,31825,0:0:0:0:
256,192,31826,12,0,31827,0:0:0:0:
256,192,31828,12,0,31829,0:0:0:0:
256,192,31829,12,0,31830,0:0:0:0:
256,192,31830,12,0,31831,0:0:0:0:
256,192,31831,12,0,31832,0:0:0:0:
256,192,31832,12,0,31833,0:0:0:0:
256,192,31833,12,0,31834,0:0:0:0:
256,192,31834,12,0,31835,0:0:0:0:
256,192,31835,12,0,31836,0:0:0:0:
256,192,31836,12,0,31837,0:0:0:0:
256,192,31837,12,0,31838,0:0:0:0:
256,192,31839,12,0,31840,0:0:0:0:
256,192,31841,12,0,31842,0:0:0:0:
256,192,31843,12,0,31844,0:0:0:0:
256,192,31845,12,0,31846,0:0:0:0:
256,192,31846,12,0,31847,0:0:0:0:
256,192,31847,12,0,31848,0:0:0:0:
256,192,31849,12,0,31850,0:0:0:0:
256,192,31851,12,0,31852,0:0:0:0:
256,192,31853,12,0,31854,0:0:0:0:
256,192,31854,12,0,31855,0:0:0:0:
256,192,31855,12,0,31856,0:0:0:0:
256,192,31857,12,0,31858,0:0:0:0:
256,192,31859,12,0,31860,0:0:0:0:
256,192,31861,12,0,31862,0:0:0:0:
256,192,31862,12,0,31863,0:0:0:0:
256,192,31863,12,0,31864,0:0:0:0:
256,192,31864,12,0,31865,0:0:0:0:
256,192,31865,12,0,31866,0:0:0:0:
256,192,31866,12,0,31867,0:0:0:0:
256,192,31867,12,0,31868,0:0:0:0:
256,192,31868,12,0,31869,0:0:0:0:
256,192,31869,12,0,31870,0:0:0:0:
256,192,31870,12,0,31871,0:0:0:0:
256,192,31872,12,0,31873,0:0:0:0:
256,192,31874,12,0,31875,0:0:0:0:
256,192,31876,12,0,31877,0:0:0:0:
256,192,31878,12,0,31879,0:0:0:0:
256,192,31880,12,0,31881,0:0:0:0:
256,192,31881,12,0,31882,0:0:0:0:
256,192,31882,12,0,31883,0:0:0:0:
256,192,31883,12,0,31884,0:0:0:0:
256,192,31884,12,0,31885,0:0:0:0:
256,192,31885,12,0,31886,0:0:0:0:
256,192,31887,12,0,31888,0:0:0:0:
256,192,31888,12,0,31889,0:0:0:0:
256,192,31889,12,0,31890,0:0:0:0:
256,192,31891,12,0,31892,0:0:0:0:
256,192,31893,12,0,31894,0:0:0:0:
256,192,31895,12,0,31896,0:0:0:0:
256,192,31896,12,0,31897,0:0:0:0:
256,192,31897,12,0,31898,0:0:0:0:
256,192,31898,12,0,31899,0:0:0:0:
256,192,31899,12,0,31900,0:0:0:0:
256,192,31900,12,0,31901,0:0:0:0:
256,192,31901,12,0,31902,0:0:0:0:
256,192,31902,12,0,31903,0:0:0:0:
256,192,31903,12,0,31904,0:0:0:0:
256,192,31904,12,0,31905,0:0:0:0:
256,192,31906,12,0,31907,0:0:0:0:
256,192,31908,12,0,31909,0:0:0:0:
256,192,31910,12,0,31911,0:0:0:0:
256,192,31912,12,0,31913,0:0:0:0:
256,192,31913,12,0,31914,0:0:0:0:
256,192,31914,12,0,31915,0:0:0:0:
256,192,31916,12,0,31917,0:0:0:0:
256,192,31918,12,0,31919,0:0:0:0:
256,192,31920,12,0,31921,0:0:0:0:
256,192,31921,12,0,31922,0:0:0:0:
256,192,31922,12,0,31923,0:0:0:0:
256,192,31924,12,0,31925,0:0:0:0:
256,192,31926,12,0,31927,0:0:0:0:
256,192,31928,12,0,31929,0:0:0:0:
256,192,31929,12,0,31930,0:0:0:0:
256,192,31930,12,0,31931,0:0:0:0:
256,192,31931,12,0,31932,0:0:0:0:
256,192,31932,12,0,31933,0:0:0:0:
256,192,31933,12,0,31934,0:0:0:0:
256,192,31934,12,0,31935,0:0:0:0:
256,192,31935,12,0,31936,0:0:0:0:
256,192,31936,12,0,31937,0:0:0:0:
256,192,31937,12,0,31938,0:0:0:0:
256,192,31940,12,0,31941,0:0:0:0:
256,192,31941,12,0,31942,0:0:0:0:
256,192,31943,12,0,31944,0:0:0:0:
256,192,31945,12,0,31946,0:0:0:0:
256,192,31947,12,0,31948,0:0:0:0:
256,192,31949,12,0,31950,0:0:0:0:
256,192,31951,12,0,31952,0:0:0:0:
256,192,31953,12,0,31954,0:0:0:0:
256,192,31955,12,0,31956,0:0:0:0:
256,192,31956,12,0,31957,0:0:0:0:
256,192,31958,12,0,31959,0:0:0:0:
256,192,31960,12,0,31961,0:0:0:0:
256,192,31962,12,0,31963,0:0:0:0:
256,192,31963,12,0,31964,0:0:0:0:
256,192,31964,12,0,31965,0:0:0:0:
256,192,31966,12,0,31967,0:0:0:0:
256,192,31968,12,0,31969,0:0:0:0:
256,192,31970,12,0,31971,0:0:0:0:
256,192,31971,12,0,31972,0:0:0:0:
256,192,31972,12,0,31973,0:0:0:0:
256,192,31974,12,0,31975,0:0:0:0:
256,192,31976,12,0,31977,0:0:0:0:
256,192,31978,12,0,31979,0:0:0:0:
256,192,31979,12,0,31980,0:0:0:0:
256,192,31980,12,0,31981,0:0:0:0:
256,192,31981,12,0,31982,0:0:0:0:
256,192,31982,12,0,31983,0:0:0:0:
256,192,31983,12,0,31984,0:0:0:0:
256,192,31984,12,0,31985,0:0:0:0:
256,192,31985,12,0,31986,0:0:0:0:
256,192,31986,12,0,31987,0:0:0:0:
256,192,31987,12,0,31988,0:0:0:0:
256,192,31989,12,0,31990,0:0:0:0:
256,192,31991,12,0,31992,0:0:0:0:
256,192,31993,12,0,31994,0:0:0:0:
256,192,31995,12,0,31996,0:0:0:0:
256,192,31996,12,0,31997,0:0:0:0:
256,192,31997,12,0,31998,0:0:0:0:
256,192,31999,12,0,32000,0:0:0:0:
256,192,32001,12,0,32002,0:0:0:0:
256,192,32003,12,0,32004,0:0:0:0:
256,192,32004,12,0,32005,0:0:0:0:
256,192,32005,12,0,32006,0:0:0:0:
256,192,32007,12,0,32008,0:0:0:0:
256,192,32009,12,0,32010,0:0:0:0:
256,192,32011,12,0,32012,0:0:0:0:
256,192,32012,12,0,32013,0:0:0:0:
256,192,32013,12,0,32014,0:0:0:0:
256,192,32014,12,0,32015,0:0:0:0:
256,192,32015,12,0,32016,0:0:0:0:
256,192,32016,12,0,32017,0:0:0:0:
256,192,32017,12,0,32018,0:0:0:0:
256,192,32018,12,0,32019,0:0:0:0:
256,192,32019,12,0,32020,0:0:0:0:
256,192,32020,12,0,32021,0:0:0:0:
256,192,32022,12,0,32023,0:0:0:0:
256,192,32024,12,0,32025,0:0:0:0:
256,192,32026,12,0,32027,0:0:0:0:
256,192,32028,12,0,32029,0:0:0:0:
256,192,32030,12,0,32031,0:0:0:0:
256,192,32031,12,0,32032,0:0:0:0:
256,192,32032,12,0,32033,0:0:0:0:
256,192,32033,12,0,32034,0:0:0:0:
256,192,32034,12,0,32035,0:0:0:0:
256,192,32035,12,0,32036,0:0:0:0:
256,192,32037,12,0,32038,0:0:0:0:
256,192,32038,12,0,32039,0:0:0:0:
256,192,32039,12,0,32040,0:0:0:0:
256,192,32041,12,0,32042,0:0:0:0:
256,192,32043,12,0,32044,0:0:0:0:
256,192,32045,12,0,32046,0:0:0:0:
256,192,32046,12,0,32047,0:0:0:0:
256,192,32047,12,0,32048,0:0:0:0:
256,192,32048,12,0,32049,0:0:0:0:
256,192,32049,12,0,32050,0:0:0:0:
256,192,32050,12,0,32051,0:0:0:0:
256,192,32051,12,0,32052,0:0:0:0:
256,192,32052,12,0,32053,0:0:0:0:
256,192,32053,12,0,32054,0:0:0:0:
256,192,32054,12,0,32055,0:0:0:0:
256,192,32056,12,0,32057,0:0:0:0:
256,192,32058,12,0,32059,0:0:0:0:
256,192,32060,12,0,32061,0:0:0:0:
256,192,32062,12,0,32063,0:0:0:0:
256,192,32063,12,0,32064,0:0:0:0:
256,192,32064,12,0,32065,0:0:0:0:
256,192,32066,12,0,32067,0:0:0:0:
256,192,32068,12,0,32069,0:0:0:0:
256,192,32070,12,0,32071,0:0:0:0:
256,192,32071,12,0,32072,0:0:0:0:
256,192,32072,12,0,32073,0:0:0:0:
256,192,32074,12,0,32075,0:0:0:0:
256,192,32076,12,0,32077,0:0:0:0:
256,192,32078,12,0,32079,0:0:0:0:
256,192,32079,12,0,32080,0:0:0:0:
256,192,32080,12,0,32081,0:0:0:0:
256,192,32081,12,0,32082,0:0:0:0:
256,192,32082,12,0,32083,0:0:0:0:
256,192,32083,12,0,32084,0:0:0:0:
256,192,32084,12,0,32085,0:0:0:0:
256,192,32085,12,0,32086,0:0:0:0:
256,192,32086,12,0,32087,0:0:0:0:
256,192,32087,12,0,32088,0:0:0:0:
256,192,32090,12,0,32091,0:0:0:0:
256,192,32091,12,0,32092,0:0:0:0:
256,192,32093,12,0,32094,0:0:0:0:
256,192,32095,12,0,32096,0:0:0:0:
256,192,32097,12,0,32098,0:0:0:0:
256,192,32099,12,0,32100,0:0:0:0:
256,192,32101,12,0,32102,0:0:0:0:
256,192,32103,12,0,32104,0:0:0:0:
256,192,32105,12,0,32106,0:0:0:0:
256,192,32106,12,0,32107,0:0:0:0:
256,192,32108,12,0,32109,0:0:0:0:
256,192,32110,12,0,32111,0:0:0:0:
256,192,32112,12,0,32113,0:0:0:0:
256,192,32113,12,0,32114,0:0:0:0:
256,192,32114,12,0,32115,0:0:0:0:
256,192,32116,12,0,32117,0:0:0:0:
256,192,32118,12,0,32119,0:0:0:0:
256,192,32120,12,0,32121,0:0:0:0:
256,192,32121,12,0,32122,0:0:0:0:
256,192,32122,12,0,32123,0:0:0:0:
256,192,32124,12,0,32125,0:0:0:0:
256,192,32126,12,0,32127,0:0:0:0:
256,192,32128,12,0,32129,0:0:0:0:
256,192,32129,12,0,32130,0:0:0:0:
256,192,32130,12,0,32131,0:0:0:0:
256,192,32131,12,0,32132,0:0:0:0:
256,192,32132,12,0,32133,0:0:0:0:
256,192,32133,12,0,32134,0:0:0:0:
256,192,32134,12,0,32135,0:0:0:0:
256,192,32135,12,0,32136,0:0:0:0:
256,192,32136,12,0,32137,0:0:0:0:
256,192,32137,12,0,32138,0:0:0:0:
256,192,32139,12,0,32140,0:0:0:0:
256,192,32141,12,0,32142,0:0:0:0:
256,192,32143,12,0,32144,0:0:0:0:
256,192,32145,12,0,32146,0:0:0:0:
256,192,32146,12,0,32147,0:0:0:0:
256,192,32147,12,0,32148,0:0:0:0:
256,192,32149,12,0,32150,0:0:0:0:
256,192,32151,12,0,32152,0:0:0:0:
256,192,32153,12,0,32154,0:0:0:0:
256,192,32154,12,0,32155,0:0:0:0:
256,192,32155,12,0,32156,0:0:0:0:
256,192,32157,12,0,32158,0:0:0:0:
256,192,32159,12,0,32160,0:0:0:0:
256,192,32161,12,0,32162,0:0:0:0:
256,192,32162,12,0,32163,0:0:0:0:
256,192,32163,12,0,32164,0:0:0:0:
256,192,32164,12,0,32165,0:0:0:0:
256,192,32165,12,0,32166,0:0:0:0:
256,192,32166,12,0,32167,0:0:0:0:
256,192,32167,12,0,32168,0:0:0:0:
256,192,32168,12,0,32169,0:0:0:0:
256,192,32169,12,0,32170,0:0:0:0:
256,192,32170,12,0,32171,0:0:0:0:
256,192,32172,12,0,32173,0:0:0:0:
256,192,32174,12,0,32175,0:0:0:0:
256,192,32176,12,0,32177,0:0:0:0:
256,192,32178,12,0,32179,0:0:0:0:
256,192,32180,12,0,32181,0:0:0:0:
256,192,32181,12,0,32182,0:0:0:0:
256,192,32182,12,0,32183,0:0:0:0:
256,192,32183,12,0,32184,0:0:0:0:
256,192,32184,12,0,32185,0:0:0:0:
256,192,32185,12,0,32186,0:0:0:0:
256,192,32187,12,0,32188,0:0:0:0:
256,192,32188,12,0,32189,0:0:0:0:
256,192,32189,12,0,32190,0:0:0:0:
256,192,32191,12,0,32192,0:0:0:0:
256,192,32193,12,0,32194,0:0:0:0:
256,192,32195,12,0,32196,0:0:0:0:
256,192,32196,12,0,32197,0:0:0:0:
256,192,32197,12,0,32198,0:0:0:0:
256,192,32198,12,0,32199,0:0:0:0:
256,192,32199,12,0,32200,0:0:0:0:
256,192,32200,12,0,32201,0:0:0:0:
256,192,32201,12,0,32202,0:0:0:0:
256,192,32202,12,0,32203,0:0:0:0:
256,192,32203,12,0,32204,0:0:0:0:
256,192,32204,12,0,32205,0:0:0:0:
256,192,32206,12,0,32207,0:0:0:0:
256,192,32208,12,0,32209,0:0:0:0:
256,192,32210,12,0,32211,0:0:0:0:
256,192,32212,12,0,32213,0:0:0:0:
256,192,32213,12,0,32214,0:0:0:0:
256,192,32214,12,0,32215,0:0:0:0:
256,192,32216,12,0,32217,0:0:0:0:
256,192,32218,12,0,32219,0:0:0:0:
256,192,32220,12,0,32221,0:0:0:0:
256,192,32221,12,0,32222,0:0:0:0:
256,192,32222,12,0,32223,0:0:0:0:
256,192,32224,12,0,32225,0:0:0:0:
256,192,32226,12,0,32227,0:0:0:0:
256,192,32228,12,0,32229,0:0:0:0:
256,192,32229,12,0,32230,0:0:0:0:
256,192,32230,12,0,32231,0:0:0:0:
256,192,32231,12,0,32232,0:0:0:0:
256,192,32232,12,0,32233,0:0:0:0:
256,192,32233,12,0,32234,0:0:0:0:
256,192,32234,12,0,32235,0:0:0:0:
256,192,32235,12,0,32236,0:0:0:0:
256,192,32236,12,0,32237,0:0:0:0:
256,192,32237,12,0,32238,0:0:0:0:
256,192,32239,12,0,32240,0:0:0:0:
256,192,32241,12,0,32242,0:0:0:0:
256,192,32243,12,0,32244,0:0:0:0:
256,192,32245,12,0,32246,0:0:0:0:
256,192,32247,12,0,32248,0:0:0:0:
256,192,32249,12,0,32250,0:0:0:0:
256,192,32251,12,0,32252,0:0:0:0:
256,192,32252,12,0,32253,0:0:0:0:
256,192,32254,12,0,32255,0:0:0:0:
256,192,32256,12,0,32257,0:0:0:0:
256,192,32258,12,0,32259,0:0:0:0:
256,192,32259,12,0,32260,0:0:0:0:
256,192,32260,12,0,32261,0:0:0:0:
256,192,32262,12,0,32263,0:0:0:0:
256,192,32264,12,0,32265,0:0:0:0:
256,192,32266,12,0,32267,0:0:0:0:
256,192,32267,12,0,32268,0:0:0:0:
256,192,32268,12,0,32269,0:0:0:0:
256,192,32270,12,0,32271,0:0:0:0:
256,192,32272,12,0,32273,0:0:0:0:
256,192,32274,12,0,32275,0:0:0:0:
256,192,32275,12,0,32276,0:0:0:0:
256,192,32276,12,0,32277,0:0:0:0:
256,192,32277,12,0,32278,0:0:0:0:
256,192,32278,12,0,32279,0:0:0:0:
256,192,32279,12,0,32280,0:0:0:0:
256,192,32280,12,0,32281,0:0:0:0:
256,192,32281,12,0,32282,0:0:0:0:
256,192,32282,12,0,32283,0:0:0:0:
256,192,32283,12,0,32284,0:0:0:0:
256,192,32285,12,0,32286,0:0:0:0:
256,192,32287,12,0,32288,0:0:0:0:
256,192,32289,12,0,32290,0:0:0:0:
256,192,32291,12,0,32292,0:0:0:0:
256,192,32292,12,0,32293,0:0:0:0:
256,192,32293,12,0,32294,0:0:0:0:
256,192,32295,12,0,32296,0:0:0:0:
256,192,32297,12,0,32298,0:0:0:0:
256,192,32299,12,0,32300,0:0:0:0:
256,192,32300,12,0,32301,0:0:0:0:
256,192,32301,12,0,32302,0:0:0:0:
256,192,32303,12,0,32304,0:0:0:0:
256,192,32305,12,0,32306,0:0:0:0:
256,192,32307,12,0,32308,0:0:0:0:
256,192,32308,12,0,32309,0:0:0:0:
256,192,32309,12,0,32310,0:0:0:0:
256,192,32310,12,0,32311,0:0:0:0:
256,192,32311,12,0,32312,0:0:0:0:
256,192,32312,12,0,32313,0:0:0:0:
256,192,32313,12,0,32314,0:0:0:0:
256,192,32314,12,0,32315,0:0:0:0:
256,192,32315,12,0,32316,0:0:0:0:
256,192,32316,12,0,32317,0:0:0:0:
256,192,32318,12,0,32319,0:0:0:0:
256,192,32320,12,0,32321,0:0:0:0:
256,192,32322,12,0,32323,0:0:0:0:
256,192,32324,12,0,32325,0:0:0:0:
256,192,32326,12,0,32327,0:0:0:0:
256,192,32327,12,0,32328,0:0:0:0:
256,192,32328,12,0,32329,0:0:0:0:
256,192,32329,12,0,32330,0:0:0:0:
256,192,32330,12,0,32331,0:0:0:0:
256,192,32331,12,0,32332,0:0:0:0:
256,192,32333,12,0,32334,0:0:0:0:
256,192,32334,12,0,32335,0:0:0:0:
256,192,32335,12,0,32336,0:0:0:0:
256,192,32337,12,0,32338,0:0:0:0:
256,192,32339,12,0,32340,0:0:0:0:
256,192,32341,12,0,32342,0:0:0:0:
256,192,32342,12,0,32343,0:0:0:0:
256,192,32343,12,0,32344,0:0:0:0:
256,192,32344,12,0,32345,0:0:0:0:
256,192,32345,12,0,32346,0:0:0:0:
256,192,32346,12,0,32347,0:0:0:0:
256,192,32347,12,0,32348,0:0:0:0:
256,192,32348,12,0,32349,0:0:0:0:
256,192,32349,12,0,32350,0:0:0:0:
256,192,32350,12,0,32351,0:0:0:0:
256,192,32351,12,0,32352,0:0:0:0:
256,192,32352,12,0,32353,0:0:0:0:
256,192,32353,12,0,32354,0:0:0:0:
256,192,32355,12,0,32356,0:0:0:0:
256,192,32357,12,0,32358,0:0:0:0:
256,192,32359,12,0,32360,0:0:0:0:
256,192,32361,12,0,32362,0:0:0:0:
256,192,32362,12,0,32363,0:0:0:0:
256,192,32363,12,0,32364,0:0:0:0:
256,192,32365,12,0,32366,0:0:0:0:
256,192,32367,12,0,32368,0:0:0:0:
256,192,32369,12,0,32370,0:0:0:0:
256,192,32370,12,0,32371,0:0:0:0:
256,192,32371,12,0,32372,0:0:0:0:
256,192,32373,12,0,32374,0:0:0:0:
256,192,32375,12,0,32376,0:0:0:0:
256,192,32377,12,0,32378,0:0:0:0:
256,192,32378,12,0,32379,0:0:0:0:
256,192,32379,12,0,32380,0:0:0:0:
256,192,32380,12,0,32381,0:0:0:0:
256,192,32381,12,0,32382,0:0:0:0:
256,192,32382,12,0,32383,0:0:0:0:
256,192,32383,12,0,32384,0:0:0:0:
256,192,32384,12,0,32385,0:0:0:0:
256,192,32385,12,0,32386,0:0:0:0:
256,192,32386,12,0,32387,0:0:0:0:
448,288,32406,6,0,L|64:32,1,455
256,192,33456,5,8,0:0:0:0:
256,192,33606,12,0,33607,0:0:0:0:
256,192,33607,12,0,33608,0:0:0:0:
256,192,33609,12,0,33610,0:0:0:0:
256,192,33611,12,0,33612,0:0:0:0:
256,192,33613,12,0,33614,0:0:0:0:
256,192,33615,12,0,33616,0:0:0:0:
256,192,33617,12,0,33618,0:0:0:0:
256,192,33619,12,0,33620,0:0:0:0:
256,192,33621,12,0,33622,0:0:0:0:
256,192,33622,12,0,33623,0:0:0:0:
256,192,33624,12,0,33625,0:0:0:0:
256,192,33626,12,0,33627,0:0:0:0:
256,192,33628,12,0,33629,0:0:0:0:
256,192,33630,12,0,33631,0:0:0:0:
256,192,33632,12,0,33633,0:0:0:0:
256,192,33634,12,0,33635,0:0:0:0:
256,192,33636,12,0,33637,0:0:0:0:
256,192,33639,12,0,33640,0:0:0:0:
256,192,33640,12,0,33641,0:0:0:0:
256,192,33642,12,0,33643,0:0:0:0:
256,192,33644,12,0,33645,0:0:0:0:
256,192,33646,12,0,33647,0:0:0:0:
256,192,33648,12,0,33649,0:0:0:0:
256,192,33650,12,0,33651,0:0:0:0:
256,192,33652,12,0,33653,0:0:0:0:
256,192,33654,12,0,33655,0:0:0:0:
256,192,33655,12,0,33656,0:0:0:0:
256,192,33657,12,0,33658,0:0:0:0:
256,192,33659,12,0,33660,0:0:0:0:
256,192,33661,12,0,33662,0:0:0:0:
256,192,33663,12,0,33664,0:0:0:0:
256,192,33665,12,0,33666,0:0:0:0:
256,192,33667,12,0,33668,0:0:0:0:
256,192,33669,12,0,33670,0:0:0:0:
256,192,33673,12,0,33674,0:0:0:0:
256,192,33674,12,0,33675,0:0:0:0:
256,192,33676,12,0,33677,0:0:0:0:
256,192,33678,12,0,33679,0:0:0:0:
256,192,33680,12,0,33681,0:0:0:0:
256,192,33682,12,0,33683,0:0:0:0:
256,192,33684,12,0,33685,0:0:0:0:
256,192,33686,12,0,33687,0:0:0:0:
256,192,33688,12,0,33689,0:0:0:0:
256,192,33689,12,0,33690,0:0:0:0:
256,192,33691,12,0,33692,0:0:0:0:
256,192,33693,12,0,33694,0:0:0:0:
256,192,33695,12,0,33696,0:0:0:0:
256,192,33697,12,0,33698,0:0:0:0:
256,192,33699,12,0,33700,0:0:0:0:
256,192,33701,12,0,33702,0:0:0:0:
256,192,33703,12,0,33704,0:0:0:0:
256,192,33706,12,0,33707,0:0:0:0:
256,192,33707,12,0,33708,0:0:0:0:
256,192,33709,12,0,33710,0:0:0:0:
256,192,33711,12,0,33712,0:0:0:0:
256,192,33713,12,0,33714,0:0:0:0:
256,192,33715,12,0,33716,0:0:0:0:
256,192,33717,12,0,33718,0:0:0:0:
256,192,33719,12,0,33720,0:0:0:0:
256,192,33721,12,0,33722,0:0:0:0:
256,192,33722,12,0,33723,0:0:0:0:
256,192,33724,12,0,33725,0:0:0:0:
256,192,33726,12,0,33727,0:0:0:0:
256,192,33728,12,0,33729,0:0:0:0:
256,192,33729,12,0,33730,0:0:0:0:
256,192,33730,12,0,33731,0:0:0:0:
256,192,33732,12,0,33733,0:0:0:0:
256,192,33734,12,0,33735,0:0:0:0:
256,192,33736,12,0,33737,0:0:0:0:
256,192,33737,12,0,33738,0:0:0:0:
256,192,33738,12,0,33739,0:0:0:0:
256,192,33740,12,0,33741,0:0:0:0:
256,192,33742,12,0,33743,0:0:0:0:
256,192,33744,12,0,33745,0:0:0:0:
256,192,33745,12,0,33746,0:0:0:0:
256,192,33746,12,0,33747,0:0:0:0:
256,192,33747,12,0,33748,0:0:0:0:
256,192,33748,12,0,33749,0:0:0:0:
256,192,33749,12,0,33750,0:0:0:0:
256,192,33750,12,0,33751,0:0:0:0:
256,192,33751,12,0,33752,0:0:0:0:
256,192,33752,12,0,33753,0:0:0:0:
256,192,33753,12,0,33754,0:0:0:0:
256,192,33755,12,0,33756,0:0:0:0:
256,192,33757,12,0,33758,0:0:0:0:
256,192,33759,12,0,33760,0:0:0:0:
256,192,33761,12,0,33762,0:0:0:0:
256,192,33762,12,0,33763,0:0:0:0:
256,192,33763,12,0,33764,0:0:0:0:
256,192,33765,12,0,33766,0:0:0:0:
256,192,33767,12,0,33768,0:0:0:0:
256,192,33769,12,0,33770,0:0:0:0:
256,192,33770,12,0,33771,0:0:0:0:
256,192,33771,12,0,33772,0:0:0:0:
256,192,33773,12,0,33774,0:0:0:0:
256,192,33775,12,0,33776,0:0:0:0:
256,192,33777,12,0,33778,0:0:0:0:
256,192,33778,12,0,33779,0:0:0:0:
256,192,33779,12,0,33780,0:0:0:0:
256,192,33780,12,0,33781,0:0:0:0:
256,192,33781,12,0,33782,0:0:0:0:
256,192,33782,12,0,33783,0:0:0:0:
256,192,33783,12,0,33784,0:0:0:0:
256,192,33784,12,0,33785,0:0:0:0:
256,192,33785,12,0,33786,0:0:0:0:
256,192,33786,12,0,33787,0:0:0:0:
256,192,33788,12,0,33789,0:0:0:0:
256,192,33790,12,0,33791,0:0:0:0:
256,192,33792,12,0,33793,0:0:0:0:
256,192,33794,12,0,33795,0:0:0:0:
256,192,33796,12,0,33797,0:0:0:0:
256,192,33797,12,0,33798,0:0:0:0:
256,192,33798,12,0,33799,0:0:0:0:
256,192,33799,12,0,33800,0:0:0:0:
256,192,33800,12,0,33801,0:0:0:0:
256,192,33801,12,0,33802,0:0:0:0:
256,192,33803,12,0,33804,0:0:0:0:
256,192,33804,12,0,33805,0:0:0:0:
256,192,33805,12,0,33806,0:0:0:0:
256,192,33807,12,0,33808,0:0:0:0:
256,192,33809,12,0,33810,0:0:0:0:
256,192,33811,12,0,33812,0:0:0:0:
256,192,33812,12,0,33813,0:0:0:0:
256,192,33813,12,0,33814,0:0:0:0:
256,192,33814,12,0,33815,0:0:0:0:
256,192,33815,12,0,33816,0:0:0:0:
256,192,33816,12,0,33817,0:0:0:0:
256,192,33817,12,0,33818,0:0:0:0:
256,192,33818,12,0,33819,0:0:0:0:
256,192,33819,12,0,33820,0:0:0:0:
256,192,33820,12,0,33821,0:0:0:0:
256,192,33822,12,0,33823,0:0:0:0:
256,192,33824,12,0,33825,0:0:0:0:
256,192,33826,12,0,33827,0:0:0:0:
256,192,33828,12,0,33829,0:0:0:0:
256,192,33829,12,0,33830,0:0:0:0:
256,192,33830,12,0,33831,0:0:0:0:
256,192,33832,12,0,33833,0:0:0:0:
256,192,33834,12,0,33835,0:0:0:0:
256,192,33836,12,0,33837,0:0:0:0:
256,192,33837,12,0,33838,0:0:0:0:
256,192,33838,12,0,33839,0:0:0:0:
256,192,33840,12,0,33841,0:0:0:0:
256,192,33842,12,0,33843,0:0:0:0:
256,192,33844,12,0,33845,0:0:0:0:
256,192,33845,12,0,33846,0:0:0:0:
256,192,33846,12,0,33847,0:0:0:0:
256,192,33847,12,0,33848,0:0:0:0:
256,192,33848,12,0,33849,0:0:0:0:
256,192,33849,12,0,33850,0:0:0:0:
256,192,33850,12,0,33851,0:0:0:0:
256,192,33851,12,0,33852,0:0:0:0:
256,192,33852,12,0,33853,0:0:0:0:
256,192,33853,12,0,33854,0:0:0:0:
256,192,33855,12,0,33856,0:0:0:0:
256,192,33857,12,0,33858,0:0:0:0:
256,192,33859,12,0,33860,0:0:0:0:
256,192,33861,12,0,33862,0:0:0:0:
256,192,33863,12,0,33864,0:0:0:0:
256,192,33864,12,0,33865,0:0:0:0:
256,192,33865,12,0,33866,0:0:0:0:
256,192,33867,12,0,33868,0:0:0:0:
256,192,33869,12,0,33870,0:0:0:0:
256,192,33871,12,0,33872,0:0:0:0:
256,192,33873,12,0,33874,0:0:0:0:
256,192,33875,12,0,33876,0:0:0:0:
256,192,33877,12,0,33878,0:0:0:0:
256,192,33879,12,0,33880,0:0:0:0:
256,192,33880,12,0,33881,0:0:0:0:
256,192,33882,12,0,33883,0:0:0:0:
256,192,33884,12,0,33885,0:0:0:0:
256,192,33886,12,0,33887,0:0:0:0:
256,192,33888,12,0,33906,0:0:0:0:
256,192,33924,12,0,33925,0:0:0:0:
256,192,33926,12,0,33927,0:0:0:0:
256,192,33928,12,0,33929,0:0:0:0:
256,192,33930,12,0,33931,0:0:0:0:
256,192,33932,12,0,33933,0:0:0:0:
256,192,33934,12,0,33935,0:0:0:0:
256,192,33936,12,0,33937,0:0:0:0:
256,192,33939,12,0,33940,0:0:0:0:
256,192,33940,12,0,33941,0:0:0:0:
256,192,33942,12,0,33943,0:0:0:0:
256,192,33944,12,0,33945,0:0:0:0:
256,192,33946,12,0,33947,0:0:0:0:
256,192,33948,12,0,33949,0:0:0:0:
256,192,33950,12,0,33951,0:0:0:0:
256,192,33952,12,0,33953,0:0:0:0:
256,192,33954,12,0,33955,0:0:0:0:
256,192,33955,12,0,33956,0:0:0:0:
256,192,33957,12,0,33958,0:0:0:0:
256,192,33959,12,0,33960,0:0:0:0:
256,192,33961,12,0,33962,0:0:0:0:
256,192,33963,12,0,33964,0:0:0:0:
256,192,33965,12,0,33966,0:0:0:0:
256,192,33967,12,0,33968,0:0:0:0:
256,192,33969,12,0,33970,0:0:0:0:
256,192,33973,12,0,33974,0:0:0:0:
256,192,33974,12,0,33975,0:0:0:0:
256,192,33976,12,0,33977,0:0:0:0:
256,192,33978,12,0,33979,0:0:0:0:
256,192,33980,12,0,33981,0:0:0:0:
256,192,33982,12,0,33983,0:0:0:0:
256,192,33984,12,0,33985,0:0:0:0:
256,192,33986,12,0,33987,0:0:0:0:
256,192,33988,12,0,33989,0:0:0:0:
256,192,33989,12,0,33990,0:0:0:0:
256,192,33991,12,0,33992,0:0:0:0:
256,192,33993,12,0,33994,0:0:0:0:
256,192,33995,12,0,33996,0:0:0:0:
256,192,33997,12,0,33998,0:0:0:0:
256,192,33999,12,0,34000,0:0:0:0:
256,192,34001,12,0,34002,0:0:0:0:
256,192,34003,12,0,34004,0:0:0:0:
256,192,34006,12,0,34007,0:0:0:0:
256,192,34007,12,0,34008,0:0:0:0:
256,192,34009,12,0,34010,0:0:0:0:
256,192,34011,12,0,34012,0:0:0:0:
256,192,34013,12,0,34014,0:0:0:0:
256,192,34015,12,0,34016,0:0:0:0:
256,192,34017,12,0,34018,0:0:0:0:
256,192,34019,12,0,34020,0:0:0:0:
256,192,34021,12,0,34022,0:0:0:0:
256,192,34022,12,0,34023,0:0:0:0:
256,192,34024,12,0,34025,0:0:0:0:
256,192,34026,12,0,34027,0:0:0:0:
256,192,34028,12,0,34029,0:0:0:0:
256,192,34029,12,0,34030,0:0:0:0:
256,192,34030,12,0,34031,0:0:0:0:
256,192,34032,12,0,34033,0:0:0:0:
256,192,34034,12,0,34035,0:0:0:0:
256,192,34036,12,0,34037,0:0:0:0:
256,192,34037,12,0,34038,0:0:0:0:
256,192,34038,12,0,34039,0:0:0:0:
256,192,34040,12,0,34041,0:0:0:0:
256,192,34042,12,0,34043,0:0:0:0:
256,192,34044,12,0,34045,0:0:0:0:
256,192,34045,12,0,34046,0:0:0:0:
256,192,34046,12,0,34047,0:0:0:0:
256,192,34047,12,0,34048,0:0:0:0:
256,192,34048,12,0,34049,0:0:0:0:
256,192,34049,12,0,34050,0:0:0:0:
256,192,34050,12,0,34051,0:0:0:0:
256,192,34051,12,0,34052,0:0:0:0:
256,192,34052,12,0,34053,0:0:0:0:
256,192,34053,12,0,34054,0:0:0:0:
256,192,34055,12,0,34056,0:0:0:0:
256,192,34057,12,0,34058,0:0:0:0:
256,192,34059,12,0,34060,0:0:0:0:
256,192,34061,12,0,34062,0:0:0:0:
256,192,34062,12,0,34063,0:0:0:0:
256,192,34063,12,0,34064,0:0:0:0:
256,192,34065,12,0,34066,0:0:0:0:
256,192,34067,12,0,34068,0:0:0:0:
256,192,34069,12,0,34070,0:0:0:0:
256,192,34070,12,0,34071,0:0:0:0:
256,192,34071,12,0,34072,0:0:0:0:
256,192,34073,12,0,34074,0:0:0:0:
256,192,34075,12,0,34076,0:0:0:0:
256,192,34077,12,0,34078,0:0:0:0:
256,192,34078,12,0,34079,0:0:0:0:
256,192,34079,12,0,34080,0:0:0:0:
256,192,34080,12,0,34081,0:0:0:0:
256,192,34081,12,0,34082,0:0:0:0:
256,192,34082,12,0,34083,0:0:0:0:
256,192,34083,12,0,34084,0:0:0:0:
256,192,34084,12,0,34085,0:0:0:0:
256,192,34085,12,0,34086,0:0:0:0:
256,192,34086,12,0,34087,0:0:0:0:
256,192,34088,12,0,34089,0:0:0:0:
256,192,34090,12,0,34091,0:0:0:0:
256,192,34092,12,0,34093,0:0:0:0:
256,192,34094,12,0,34095,0:0:0:0:
256,192,34096,12,0,34097,0:0:0:0:
256,192,34097,12,0,34098,0:0:0:0:
256,192,34098,12,0,34099,0:0:0:0:
256,192,34099,12,0,34100,0:0:0:0:
256,192,34100,12,0,34101,0:0:0:0:
256,192,34101,12,0,34102,0:0:0:0:
256,192,34103,12,0,34104,0:0:0:0:
256,192,34104,12,0,34105,0:0:0:0:
256,192,34105,12,0,34106,0:0:0:0:
256,192,34107,12,0,34108,0:0:0:0:
256,192,34109,12,0,34110,0:0:0:0:
256,192,34111,12,0,34112,0:0:0:0:
256,192,34112,12,0,34113,0:0:0:0:
256,192,34113,12,0,34114,0:0:0:0:
256,192,34114,12,0,34115,0:0:0:0:
256,192,34115,12,0,34116,0:0:0:0:
256,192,34116,12,0,34117,0:0:0:0:
256,192,34117,12,0,34118,0:0:0:0:
256,192,34118,12,0,34119,0:0:0:0:
256,192,34119,12,0,34120,0:0:0:0:
256,192,34120,12,0,34121,0:0:0:0:
256,192,34122,12,0,34123,0:0:0:0:
256,192,34124,12,0,34125,0:0:0:0:
256,192,34126,12,0,34127,0:0:0:0:
256,192,34128,12,0,34129,0:0:0:0:
256,192,34129,12,0,34130,0:0:0:0:
256,192,34130,12,0,34131,0:0:0:0:
256,192,34132,12,0,34133,0:0:0:0:
256,192,34134,12,0,34135,0:0:0:0:
256,192,34136,12,0,34137,0:0:0:0:
256,192,34137,12,0,34138,0:0:0:0:
256,192,34138,12,0,34139,0:0:0:0:
256,192,34140,12,0,34141,0:0:0:0:
256,192,34142,12,0,34143,0:0:0:0:
256,192,34144,12,0,34145,0:0:0:0:
256,192,34145,12,0,34146,0:0:0:0:
256,192,34146,12,0,34147,0:0:0:0:
256,192,34147,12,0,34148,0:0:0:0:
256,192,34148,12,0,34149,0:0:0:0:
256,192,34149,12,0,34150,0:0:0:0:
256,192,34150,12,0,34151,0:0:0:0:
256,192,34151,12,0,34152,0:0:0:0:
256,192,34152,12,0,34153,0:0:0:0:
256,192,34153,12,0,34154,0:0:0:0:
256,192,34155,12,0,34156,0:0:0:0:
256,192,34157,12,0,34158,0:0:0:0:
256,192,34159,12,0,34160,0:0:0:0:
256,192,34161,12,0,34162,0:0:0:0:
256,192,34163,12,0,34164,0:0:0:0:
256,192,34164,12,0,34165,0:0:0:0:
256,192,34165,12,0,34166,0:0:0:0:
256,192,34167,12,0,34168,0:0:0:0:
256,192,34169,12,0,34170,0:0:0:0:
256,192,34171,12,0,34172,0:0:0:0:
256,192,34173,12,0,34174,0:0:0:0:
256,192,34175,12,0,34176,0:0:0:0:
256,192,34177,12,0,34178,0:0:0:0:
256,192,34179,12,0,34180,0:0:0:0:
256,192,34180,12,0,34181,0:0:0:0:
256,192,34182,12,0,34183,0:0:0:0:
256,192,34184,12,0,34185,0:0:0:0:
256,192,34186,12,0,34187,0:0:0:0:
256,192,34187,12,0,34188,0:0:0:0:
256,192,34188,12,0,34189,0:0:0:0:
256,192,34190,12,0,34191,0:0:0:0:
256,192,34191,12,0,34192,0:0:0:0:
256,192,34193,12,0,34194,0:0:0:0:
256,192,34195,12,0,34196,0:0:0:0:
256,192,34197,12,0,34198,0:0:0:0:
256,192,34199,12,0,34200,0:0:0:0:
256,192,34201,12,0,34202,0:0:0:0:
256,192,34203,12,0,34204,0:0:0:0:
256,192,34205,12,0,34206,0:0:0:0:
256,192,34206,12,0,34207,0:0:0:0:
256,192,34208,12,0,34209,0:0:0:0:
256,192,34210,12,0,34211,0:0:0:0:
256,192,34212,12,0,34213,0:0:0:0:
256,192,34213,12,0,34214,0:0:0:0:
256,192,34214,12,0,34215,0:0:0:0:
256,192,34216,12,0,34217,0:0:0:0:
256,192,34218,12,0,34219,0:0:0:0:
256,192,34220,12,0,34221,0:0:0:0:
256,192,34221,12,0,34222,0:0:0:0:
256,192,34222,12,0,34223,0:0:0:0:
256,192,34224,12,0,34225,0:0:0:0:
256,192,34226,12,0,34227,0:0:0:0:
256,192,34228,12,0,34229,0:0:0:0:
256,192,34229,12,0,34230,0:0:0:0:
256,192,34230,12,0,34231,0:0:0:0:
256,192,34231,12,0,34232,0:0:0:0:
256,192,34232,12,0,34233,0:0:0:0:
256,192,34233,12,0,34234,0:0:0:0:
256,192,34234,12,0,34235,0:0:0:0:
256,192,34235,12,0,34236,0:0:0:0:
256,192,34236,12,0,34237,0:0:0:0:
256,192,34237,12,0,34238,0:0:0:0:
256,192,34239,12,0,34240,0:0:0:0:
256,192,34241,12,0,34242,0:0:0:0:
256,192,34243,12,0,34244,0:0:0:0:
256,192,34245,12,0,34246,0:0:0:0:
256,192,34246,12,0,34247,0:0:0:0:
256,192,34247,12,0,34248,0:0:0:0:
256,192,34249,12,0,34250,0:0:0:0:
256,192,34251,12,0,34252,0:0:0:0:
256,192,34253,12,0,34254,0:0:0:0:
256,192,34254,12,0,34255,0:0:0:0:
256,192,34255,12,0,34256,0:0:0:0:
256,192,34257,12,0,34258,0:0:0:0:
256,192,34259,12,0,34260,0:0:0:0:
256,192,34261,12,0,34262,0:0:0:0:
256,192,34262,12,0,34263,0:0:0:0:
256,192,34263,12,0,34264,0:0:0:0:
256,192,34264,12,0,34265,0:0:0:0:
256,192,34265,12,0,34266,0:0:0:0:
256,192,34266,12,0,34267,0:0:0:0:
256,192,34267,12,0,34268,0:0:0:0:
256,192,34268,12,0,34269,0:0:0:0:
256,192,34269,12,0,34270,0:0:0:0:
256,192,34270,12,0,34271,0:0:0:0:
256,192,34272,12,0,34273,0:0:0:0:
256,192,34274,12,0,34275,0:0:0:0:
256,192,34276,12,0,34277,0:0:0:0:
256,192,34278,12,0,34279,0:0:0:0:
256,192,34280,12,0,34281,0:0:0:0:
256,192,34281,12,0,34282,0:0:0:0:
256,192,34282,12,0,34283,0:0:0:0:
256,192,34283,12,0,34284,0:0:0:0:
256,192,34284,12,0,34285,0:0:0:0:
256,192,34285,12,0,34286,0:0:0:0:
256,192,34287,12,0,34288,0:0:0:0:
256,192,34288,12,0,34289,0:0:0:0:
256,192,34289,12,0,34290,0:0:0:0:
256,192,34291,12,0,34292,0:0:0:0:
256,192,34293,12,0,34294,0:0:0:0:
256,192,34295,12,0,34296,0:0:0:0:
256,192,34296,12,0,34297,0:0:0:0:
256,192,34297,12,0,34298,0:0:0:0:
256,192,34298,12,0,34299,0:0:0:0:
256,192,34299,12,0,34300,0:0:0:0:
256,192,34300,12,0,34301,0:0:0:0:
256,192,34301,12,0,34302,0:0:0:0:
256,192,34302,12,0,34303,0:0:0:0:
256,192,34303,12,0,34304,0:0:0:0:
256,192,34304,12,0,34305,0:0:0:0:
256,192,34306,12,0,34307,0:0:0:0:
256,192,34308,12,0,34309,0:0:0:0:
256,192,34310,12,0,34311,0:0:0:0:
256,192,34312,12,0,34313,0:0:0:0:
256,192,34313,12,0,34314,0:0:0:0:
256,192,34314,12,0,34315,0:0:0:0:
256,192,34316,12,0,34317,0:0:0:0:
256,192,34318,12,0,34319,0:0:0:0:
256,192,34320,12,0,34321,0:0:0:0:
256,192,34321,12,0,34322,0:0:0:0:
256,192,34322,12,0,34323,0:0:0:0:
256,192,34324,12,0,34325,0:0:0:0:
256,192,34326,12,0,34327,0:0:0:0:
256,192,34328,12,0,34329,0:0:0:0:
256,192,34329,12,0,34330,0:0:0:0:
256,192,34330,12,0,34331,0:0:0:0:
256,192,34331,12,0,34332,0:0:0:0:
256,192,34332,12,0,34333,0:0:0:0:
256,192,34333,12,0,34334,0:0:0:0:
256,192,34334,12,0,34335,0:0:0:0:
256,192,34335,12,0,34336,0:0:0:0:
256,192,34336,12,0,34337,0:0:0:0:
256,192,34337,12,0,34338,0:0:0:0:
256,192,34340,12,0,34341,0:0:0:0:
256,192,34341,12,0,34342,0:0:0:0:
256,192,34343,12,0,34344,0:0:0:0:
256,192,34345,12,0,34346,0:0:0:0:
256,192,34347,12,0,34348,0:0:0:0:
256,192,34349,12,0,34350,0:0:0:0:
256,192,34351,12,0,34352,0:0:0:0:
256,192,34353,12,0,34354,0:0:0:0:
256,192,34355,12,0,34356,0:0:0:0:
256,192,34356,12,0,34357,0:0:0:0:
256,192,34358,12,0,34359,0:0:0:0:
256,192,34360,12,0,34361,0:0:0:0:
256,192,34362,12,0,34363,0:0:0:0:
256,192,34363,12,0,34364,0:0:0:0:
256,192,34364,12,0,34365,0:0:0:0:
256,192,34366,12,0,34367,0:0:0:0:
256,192,34368,12,0,34369,0:0:0:0:
256,192,34370,12,0,34371,0:0:0:0:
256,192,34371,12,0,34372,0:0:0:0:
256,192,34372,12,0,34373,0:0:0:0:
256,192,34374,12,0,34375,0:0:0:0:
256,192,34376,12,0,34377,0:0:0:0:
256,192,34378,12,0,34379,0:0:0:0:
256,192,34379,12,0,34380,0:0:0:0:
256,192,34380,12,0,34381,0:0:0:0:
256,192,34381,12,0,34382,0:0:0:0:
256,192,34382,12,0,34383,0:0:0:0:
256,192,34383,12,0,34384,0:0:0:0:
256,192,34384,12,0,34385,0:0:0:0:
256,192,34385,12,0,34386,0:0:0:0:
256,192,34386,12,0,34387,0:0:0:0:
256,192,34387,12,0,34388,0:0:0:0:
256,192,34389,12,0,34390,0:0:0:0:
256,192,34391,12,0,34392,0:0:0:0:
256,192,34393,12,0,34394,0:0:0:0:
256,192,34395,12,0,34396,0:0:0:0:
256,192,34396,12,0,34397,0:0:0:0:
256,192,34397,12,0,34398,0:0:0:0:
256,192,34399,12,0,34400,0:0:0:0:
256,192,34401,12,0,34402,0:0:0:0:
256,192,34403,12,0,34404,0:0:0:0:
256,192,34404,12,0,34405,0:0:0:0:
256,192,34405,12,0,34406,0:0:0:0:
256,192,34407,12,0,34408,0:0:0:0:
256,192,34409,12,0,34410,0:0:0:0:
256,192,34411,12,0,34412,0:0:0:0:
256,192,34412,12,0,34413,0:0:0:0:
256,192,34413,12,0,34414,0:0:0:0:
256,192,34414,12,0,34415,0:0:0:0:
256,192,34415,12,0,34416,0:0:0:0:
256,192,34416,12,0,34417,0:0:0:0:
256,192,34417,12,0,34418,0:0:0:0:
256,192,34418,12,0,34419,0:0:0:0:
256,192,34419,12,0,34420,0:0:0:0:
256,192,34420,12,0,34421,0:0:0:0:
256,192,34422,12,0,34423,0:0:0:0:
256,192,34424,12,0,34425,0:0:0:0:
256,192,34426,12,0,34427,0:0:0:0:
256,192,34428,12,0,34429,0:0:0:0:
256,192,34430,12,0,34431,0:0:0:0:
256,192,34431,12,0,34432,0:0:0:0:
256,192,34432,12,0,34433,0:0:0:0:
256,192,34433,12,0,34434,0:0:0:0:
256,192,34434,12,0,34435,0:0:0:0:
256,192,34435,12,0,34436,0:0:0:0:
256,192,34437,12,0,34438,0:0:0:0:
256,192,34438,12,0,34439,0:0:0:0:
256,192,34439,12,0,34440,0:0:0:0:
256,192,34441,12,0,34442,0:0:0:0:
256,192,34443,12,0,34444,0:0:0:0:
256,192,34445,12,0,34446,0:0:0:0:
256,192,34446,12,0,34447,0:0:0:0:
256,192,34447,12,0,34448,0:0:0:0:
256,192,34448,12,0,34449,0:0:0:0:
256,192,34449,12,0,34450,0:0:0:0:
256,192,34450,12,0,34451,0:0:0:0:
256,192,34451,12,0,34452,0:0:0:0:
256,192,34452,12,0,34453,0:0:0:0:
256,192,34453,12,0,34454,0:0:0:0:
256,192,34454,12,0,34455,0:0:0:0:
256,192,34456,12,0,34457,0:0:0:0:
256,192,34458,12,0,34459,0:0:0:0:
256,192,34460,12,0,34461,0:0:0:0:
256,192,34462,12,0,34463,0:0:0:0:
256,192,34463,12,0,34464,0:0:0:0:
256,192,34464,12,0,34465,0:0:0:0:
256,192,34466,12,0,34467,0:0:0:0:
256,192,34468,12,0,34469,0:0:0:0:
256,192,34470,12,0,34471,0:0:0:0:
256,192,34471,12,0,34472,0:0:0:0:
256,192,34472,12,0,34473,0:0:0:0:
256,192,34474,12,0,34475,0:0:0:0:
256,192,34476,12,0,34477,0:0:0:0:
256,192,34478,12,0,34479,0:0:0:0:
256,192,34479,12,0,34480,0:0:0:0:
256,192,34480,12,0,34481,0:0:0:0:
256,192,34481,12,0,34482,0:0:0:0:
256,192,34482,12,0,34483,0:0:0:0:
256,192,34483,12,0,34484,0:0:0:0:
256,192,34484,12,0,34485,0:0:0:0:
256,192,34485,12,0,34486,0:0:0:0:
256,192,34486,12,0,34487,0:0:0:0:
256,192,34487,12,0,34488,0:0:0:0:
256,192,34490,12,0,34491,0:0:0:0:
256,192,34491,12,0,34492,0:0:0:0:
256,192,34493,12,0,34494,0:0:0:0:
256,192,34495,12,0,34496,0:0:0:0:
256,192,34497,12,0,34498,0:0:0:0:
256,192,34499,12,0,34500,0:0:0:0:
256,192,34501,12,0,34502,0:0:0:0:
256,192,34503,12,0,34504,0:0:0:0:
256,192,34505,12,0,34506,0:0:0:0:
256,192,34506,12,0,34507,0:0:0:0:
256,192,34508,12,0,34509,0:0:0:0:
256,192,34510,12,0,34511,0:0:0:0:
256,192,34512,12,0,34513,0:0:0:0:
256,192,34513,12,0,34514,0:0:0:0:
256,192,34514,12,0,34515,0:0:0:0:
256,192,34516,12,0,34517,0:0:0:0:
256,192,34518,12,0,34519,0:0:0:0:
256,192,34520,12,0,34521,0:0:0:0:
256,192,34521,12,0,34522,0:0:0:0:
256,192,34522,12,0,34523,0:0:0:0:
256,192,34524,12,0,34525,0:0:0:0:
256,192,34526,12,0,34527,0:0:0:0:
256,192,34528,12,0,34529,0:0:0:0:
256,192,34529,12,0,34530,0:0:0:0:
256,192,34530,12,0,34531,0:0:0:0:
256,192,34531,12,0,34532,0:0:0:0:
256,192,34532,12,0,34533,0:0:0:0:
256,192,34533,12,0,34534,0:0:0:0:
256,192,34534,12,0,34535,0:0:0:0:
256,192,34535,12,0,34536,0:0:0:0:
256,192,34536,12,0,34537,0:0:0:0:
256,192,34537,12,0,34538,0:0:0:0:
256,192,34539,12,0,34540,0:0:0:0:
256,192,34541,12,0,34542,0:0:0:0:
256,192,34543,12,0,34544,0:0:0:0:
256,192,34545,12,0,34546,0:0:0:0:
256,192,34546,12,0,34547,0:0:0:0:
256,192,34547,12,0,34548,0:0:0:0:
256,192,34549,12,0,34550,0:0:0:0:
256,192,34551,12,0,34552,0:0:0:0:
256,192,34553,12,0,34554,0:0:0:0:
256,192,34554,12,0,34555,0:0:0:0:
256,192,34555,12,0,34556,0:0:0:0:
256,192,34557,12,0,34558,0:0:0:0:
256,192,34559,12,0,34560,0:0:0:0:
256,192,34561,12,0,34562,0:0:0:0:
256,192,34562,12,0,34563,0:0:0:0:
256,192,34563,12,0,34564,0:0:0:0:
256,192,34564,12,0,34565,0:0:0:0:
256,192,34565,12,0,34566,0:0:0:0:
256,192,34566,12,0,34567,0:0:0:0:
256,192,34567,12,0,34568,0:0:0:0:
256,192,34568,12,0,34569,0:0:0:0:
256,192,34569,12,0,34570,0:0:0:0:
256,192,34570,12,0,34571,0:0:0:0:
256,192,34572,12,0,34573,0:0:0:0:
256,192,34574,12,0,34575,0:0:0:0:
256,192,34576,12,0,34577,0:0:0:0:
256,192,34578,12,0,34579,0:0:0:0:
256,192,34580,12,0,34581,0:0:0:0:
256,192,34581,12,0,34582,0:0:0:0:
256,192,34582,12,0,34583,0:0:0:0:
256,192,34583,12,0,34584,0:0:0:0:
256,192,34584,12,0,34585,0:0:0:0:
256,192,34585,12,0,34586,0:0:0:0:
256,192,34587,12,0,34588,0:0:0:0:
256,192,34588,12,0,34589,0:0:0:0:
256,192,34589,12,0,34590,0:0:0:0:
256,192,34591,12,0,34592,0:0:0:0:
256,192,34593,12,0,34594,0:0:0:0:
256,192,34595,12,0,34596,0:0:0:0:
256,192,34596,12,0,34597,0:0:0:0:
256,192,34597,12,0,34598,0:0:0:0:
256,192,34598,12,0,34599,0:0:0:0:
256,192,34599,12,0,34600,0:0:0:0:
256,192,34600,12,0,34601,0:0:0:0:
256,192,34601,12,0,34602,0:0:0:0:
256,192,34602,12,0,34603,0:0:0:0:
256,192,34603,12,0,34604,0:0:0:0:
256,192,34604,12,0,34605,0:0:0:0:
256,192,34606,12,0,34607,0:0:0:0:
256,192,34608,12,0,34609,0:0:0:0:
256,192,34610,12,0,34611,0:0:0:0:
256,192,34612,12,0,34613,0:0:0:0:
256,192,34613,12,0,34614,0:0:0:0:
256,192,34614,12,0,34615,0:0:0:0:
256,192,34616,12,0,34617,0:0:0:0:
256,192,34618,12,0,34619,0:0:0:0:
256,192,34620,12,0,34621,0:0:0:0:
256,192,34621,12,0,34622,0:0:0:0:
256,192,34622,12,0,34623,0:0:0:0:
256,192,34624,12,0,34625,0:0:0:0:
256,192,34626,12,0,34627,0:0:0:0:
256,192,34628,12,0,34629,0:0:0:0:
256,192,34629,12,0,34630,0:0:0:0:
256,192,34630,12,0,34631,0:0:0:0:
256,192,34631,12,0,34632,0:0:0:0:
256,192,34632,12,0,34633,0:0:0:0:
256,192,34633,12,0,34634,0:0:0:0:
256,192,34634,12,0,34635,0:0:0:0:
256,192,34635,12,0,34636,0:0:0:0:
256,192,34656,12,0,34674,0:0:0:0:
256,192,34731,12,0,34749,0:0:0:0:
256,192,34806,12,0,34824,0:0:0:0:
256,192,34881,12,0,34899,0:0:0:0:
256,192,34956,12,0,34974,0:0:0:0:
256,192,35031,12,0,35049,0:0:0:0:
256,192,35106,12,0,35124,0:0:0:0:
256,192,35181,12,0,35199,0:0:0:0:
256,192,35256,12,0,35274,0:0:0:0:
256,192,35331,12,0,35349,0:0:0:0:
256,192,35406,12,0,35424,0:0:0:0:
256,192,35481,12,0,35499,0:0:0:0:
256,192,35556,12,0,35574,0:0:0:0:
256,192,35631,12,0,35649,0:0:0:0:
256,192,35706,12,0,35724,0:0:0:0:
256,192,35856,5,0,0:0:0:0:
256,192,36006,12,0,36007,0:0:0:0:
256,192,36007,12,0,36008,0:0:0:0:
256,192,36009,12,0,36010,0:0:0:0:
256,192,36011,12,0,36012,0:0:0:0:
256,192,36013,12,0,36014,0:0:0:0:
256,192,36015,12,0,36016,0:0:0:0:
256,192,36017,12,0,36018,0:0:0:0:
256,192,36019,12,0,36020,0:0:0:0:
256,192,36021,12,0,36022,0:0:0:0:
256,192,36022,12,0,36023,0:0:0:0:
256,192,36024,12,0,36025,0:0:0:0:
256,192,36026,12,0,36027,0:0:0:0:
256,192,36028,12,0,36029,0:0:0:0:
256,192,36030,12,0,36031,0:0:0:0:
256,192,36032,12,0,36033,0:0:0:0:
256,192,36034,12,0,36035,0:0:0:0:
256,192,36036,12,0,36037,0:0:0:0:
256,192,36039,12,0,36040,0:0:0:0:
256,192,36040,12,0,36041,0:0:0:0:
256,192,36042,12,0,36043,0:0:0:0:
256,192,36044,12,0,36045,0:0:0:0:
256,192,36046,12,0,36047,0:0:0:0:
256,192,36048,12,0,36049,0:0:0:0:
256,192,36050,12,0,36051,0:0:0:0:
256,192,36052,12,0,36053,0:0:0:0:
256,192,36054,12,0,36055,0:0:0:0:
256,192,36055,12,0,36056,0:0:0:0:
256,192,36057,12,0,36058,0:0:0:0:
256,192,36059,12,0,36060,0:0:0:0:
256,192,36061,12,0,36062,0:0:0:0:
256,192,36063,12,0,36064,0:0:0:0:
256,192,36065,12,0,36066,0:0:0:0:
256,192,36067,12,0,36068,0:0:0:0:
256,192,36069,12,0,36070,0:0:0:0:
256,192,36073,12,0,36074,0:0:0:0:
256,192,36074,12,0,36075,0:0:0:0:
256,192,36076,12,0,36077,0:0:0:0:
256,192,36078,12,0,36079,0:0:0:0:
256,192,36080,12,0,36081,0:0:0:0:
256,192,36082,12,0,36083,0:0:0:0:
256,192,36084,12,0,36085,0:0:0:0:
256,192,36086,12,0,36087,0:0:0:0:
256,192,36088,12,0,36089,0:0:0:0:
256,192,36089,12,0,36090,0:0:0:0:
256,192,36091,12,0,36092,0:0:0:0:
256,192,36093,12,0,36094,0:0:0:0:
256,192,36095,12,0,36096,0:0:0:0:
256,192,36097,12,0,36098,0:0:0:0:
256,192,36099,12,0,36100,0:0:0:0:
256,192,36101,12,0,36102,0:0:0:0:
256,192,36103,12,0,36104,0:0:0:0:
256,192,36106,12,0,36107,0:0:0:0:
256,192,36107,12,0,36108,0:0:0:0:
256,192,36109,12,0,36110,0:0:0:0:
256,192,36111,12,0,36112,0:0:0:0:
256,192,36113,12,0,36114,0:0:0:0:
256,192,36115,12,0,36116,0:0:0:0:
256,192,36117,12,0,36118,0:0:0:0:
256,192,36119,12,0,36120,0:0:0:0:
256,192,36121,12,0,36122,0:0:0:0:
256,192,36122,12,0,36123,0:0:0:0:
256,192,36124,12,0,36125,0:0:0:0:
256,192,36126,12,0,36127,0:0:0:0:
256,192,36128,12,0,36129,0:0:0:0:
256,192,36129,12,0,36130,0:0:0:0:
256,192,36130,12,0,36131,0:0:0:0:
256,192,36132,12,0,36133,0:0:0:0:
256,192,36134,12,0,36135,0:0:0:0:
256,192,36136,12,0,36137,0:0:0:0:
256,192,36137,12,0,36138,0:0:0:0:
256,192,36138,12,0,36139,0:0:0:0:
256,192,36140,12,0,36141,0:0:0:0:
256,192,36142,12,0,36143,0:0:0:0:
256,192,36144,12,0,36145,0:0:0:0:
256,192,36145,12,0,36146,0:0:0:0:
256,192,36146,12,0,36147,0:0:0:0:
256,192,36147,12,0,36148,0:0:0:0:
256,192,36148,12,0,36149,0:0:0:0:
256,192,36149,12,0,36150,0:0:0:0:
256,192,36150,12,0,36151,0:0:0:0:
256,192,36151,12,0,36152,0:0:0:0:
256,192,36152,12,0,36153,0:0:0:0:
256,192,36153,12,0,36154,0:0:0:0:
256,192,36155,12,0,36156,0:0:0:0:
256,192,36157,12,0,36158,0:0:0:0:
256,192,36159,12,0,36160,0:0:0:0:
256,192,36161,12,0,36162,0:0:0:0:
256,192,36162,12,0,36163,0:0:0:0:
256,192,36163,12,0,36164,0:0:0:0:
256,192,36165,12,0,36166,0:0:0:0:
256,192,36167,12,0,36168,0:0:0:0:
256,192,36169,12,0,36170,0:0:0:0:
256,192,36170,12,0,36171,0:0:0:0:
256,192,36171,12,0,36172,0:0:0:0:
256,192,36173,12,0,36174,0:0:0:0:
256,192,36175,12,0,36176,0:0:0:0:
256,192,36177,12,0,36178,0:0:0:0:
256,192,36178,12,0,36179,0:0:0:0:
256,192,36179,12,0,36180,0:0:0:0:
256,192,36180,12,0,36181,0:0:0:0:
256,192,36181,12,0,36182,0:0:0:0:
256,192,36182,12,0,36183,0:0:0:0:
256,192,36183,12,0,36184,0:0:0:0:
256,192,36184,12,0,36185,0:0:0:0:
256,192,36185,12,0,36186,0:0:0:0:
256,192,36186,12,0,36187,0:0:0:0:
256,192,36188,12,0,36189,0:0:0:0:
256,192,36190,12,0,36191,0:0:0:0:
256,192,36192,12,0,36193,0:0:0:0:
256,192,36194,12,0,36195,0:0:0:0:
256,192,36196,12,0,36197,0:0:0:0:
256,192,36197,12,0,36198,0:0:0:0:
256,192,36198,12,0,36199,0:0:0:0:
256,192,36199,12,0,36200,0:0:0:0:
256,192,36200,12,0,36201,0:0:0:0:
256,192,36201,12,0,36202,0:0:0:0:
256,192,36203,12,0,36204,0:0:0:0:
256,192,36204,12,0,36205,0:0:0:0:
256,192,36205,12,0,36206,0:0:0:0:
256,192,36207,12,0,36208,0:0:0:0:
256,192,36209,12,0,36210,0:0:0:0:
256,192,36211,12,0,36212,0:0:0:0:
256,192,36212,12,0,36213,0:0:0:0:
256,192,36213,12,0,36214,0:0:0:0:
256,192,36214,12,0,36215,0:0:0:0:
256,192,36215,12,0,36216,0:0:0:0:
256,192,36216,12,0,36217,0:0:0:0:
256,192,36217,12,0,36218,0:0:0:0:
256,192,36218,12,0,36219,0:0:0:0:
256,192,36219,12,0,36220,0:0:0:0:
256,192,36220,12,0,36221,0:0:0:0:
256,192,36222,12,0,36223,0:0:0:0:
256,192,36224,12,0,36225,0:0:0:0:
256,192,36226,12,0,36227,0:0:0:0:
256,192,36228,12,0,36229,0:0:0:0:
256,192,36229,12,0,36230,0:0:0:0:
256,192,36230,12,0,36231,0:0:0:0:
256,192,36232,12,0,36233,0:0:0:0:
256,192,36234,12,0,36235,0:0:0:0:
256,192,36236,12,0,36237,0:0:0:0:
256,192,36237,12,0,36238,0:0:0:0:
256,192,36238,12,0,36239,0:0:0:0:
256,192,36240,12,0,36241,0:0:0:0:
256,192,36242,12,0,36243,0:0:0:0:
256,192,36244,12,0,36245,0:0:0:0:
256,192,36245,12,0,36246,0:0:0:0:
256,192,36246,12,0,36247,0:0:0:0:
256,192,36247,12,0,36248,0:0:0:0:
256,192,36248,12,0,36249,0:0:0:0:
256,192,36249,12,0,36250,0:0:0:0:
256,192,36250,12,0,36251,0:0:0:0:
256,192,36251,12,0,36252,0:0:0:0:
256,192,36252,12,0,36253,0:0:0:0:
256,192,36253,12,0,36254,0:0:0:0:
256,192,36255,12,0,36256,0:0:0:0:
256,192,36257,12,0,36258,0:0:0:0:
256,192,36259,12,0,36260,0:0:0:0:
256,192,36261,12,0,36262,0:0:0:0:
256,192,36263,12,0,36264,0:0:0:0:
256,192,36264,12,0,36265,0:0:0:0:
256,192,36265,12,0,36266,0:0:0:0:
256,192,36267,12,0,36268,0:0:0:0:
256,192,36268,12,0,36269,0:0:0:0:
256,192,36269,12,0,36270,0:0:0:0:
256,192,36271,12,0,36272,0:0:0:0:
256,192,36273,12,0,36274,0:0:0:0:
256,192,36275,12,0,36276,0:0:0:0:
256,192,36277,12,0,36278,0:0:0:0:
256,192,36279,12,0,36280,0:0:0:0:
256,192,36281,12,0,36282,0:0:0:0:
256,192,36283,12,0,36284,0:0:0:0:
256,192,36284,12,0,36285,0:0:0:0:
256,192,36286,12,0,36287,0:0:0:0:
256,192,36288,12,0,36289,0:0:0:0:
256,192,36290,12,0,36291,0:0:0:0:
256,192,36292,12,0,36293,0:0:0:0:
256,192,36294,12,0,36295,0:0:0:0:
256,192,36296,12,0,36297,0:0:0:0:
256,192,36298,12,0,36299,0:0:0:0:
256,192,36301,12,0,36302,0:0:0:0:
256,192,36302,12,0,36303,0:0:0:0:
256,192,36304,12,0,36305,0:0:0:0:
256,192,36306,12,0,36307,0:0:0:0:
256,192,36308,12,0,36309,0:0:0:0:
256,192,36310,12,0,36311,0:0:0:0:
256,192,36312,12,0,36313,0:0:0:0:
256,192,36314,12,0,36315,0:0:0:0:
256,192,36316,12,0,36317,0:0:0:0:
256,192,36317,12,0,36318,0:0:0:0:
256,192,36319,12,0,36320,0:0:0:0:
256,192,36321,12,0,36322,0:0:0:0:
256,192,36323,12,0,36324,0:0:0:0:
256,192,36325,12,0,36326,0:0:0:0:
256,192,36327,12,0,36328,0:0:0:0:
256,192,36329,12,0,36330,0:0:0:0:
256,192,36331,12,0,36332,0:0:0:0:
256,192,36335,12,0,36336,0:0:0:0:
256,192,36336,12,0,36337,0:0:0:0:
256,192,36338,12,0,36339,0:0:0:0:
256,192,36340,12,0,36341,0:0:0:0:
256,192,36342,12,0,36343,0:0:0:0:
256,192,36344,12,0,36345,0:0:0:0:
256,192,36346,12,0,36347,0:0:0:0:
256,192,36348,12,0,36349,0:0:0:0:
256,192,36350,12,0,36351,0:0:0:0:
256,192,36351,12,0,36352,0:0:0:0:
256,192,36353,12,0,36354,0:0:0:0:
256,192,36355,12,0,36356,0:0:0:0:
256,192,36357,12,0,36358,0:0:0:0:
256,192,36359,12,0,36360,0:0:0:0:
256,192,36361,12,0,36362,0:0:0:0:
256,192,36363,12,0,36364,0:0:0:0:
256,192,36365,12,0,36366,0:0:0:0:
256,192,36368,12,0,36369,0:0:0:0:
256,192,36369,12,0,36370,0:0:0:0:
256,192,36371,12,0,36372,0:0:0:0:
256,192,36373,12,0,36374,0:0:0:0:
256,192,36375,12,0,36376,0:0:0:0:
256,192,36377,12,0,36378,0:0:0:0:
256,192,36379,12,0,36380,0:0:0:0:
256,192,36381,12,0,36382,0:0:0:0:
256,192,36383,12,0,36384,0:0:0:0:
256,192,36384,12,0,36385,0:0:0:0:
256,192,36386,12,0,36387,0:0:0:0:
256,192,36388,12,0,36389,0:0:0:0:
256,192,36390,12,0,36391,0:0:0:0:
256,192,36391,12,0,36392,0:0:0:0:
256,192,36392,12,0,36393,0:0:0:0:
256,192,36394,12,0,36395,0:0:0:0:
256,192,36396,12,0,36397,0:0:0:0:
256,192,36398,12,0,36399,0:0:0:0:
256,192,36399,12,0,36400,0:0:0:0:
256,192,36400,12,0,36401,0:0:0:0:
256,192,36402,12,0,36403,0:0:0:0:
256,192,36404,12,0,36405,0:0:0:0:
256,192,36406,12,0,36407,0:0:0:0:
256,192,36407,12,0,36408,0:0:0:0:
256,192,36408,12,0,36409,0:0:0:0:
256,192,36409,12,0,36410,0:0:0:0:
256,192,36410,12,0,36411,0:0:0:0:
256,192,36411,12,0,36412,0:0:0:0:
256,192,36412,12,0,36413,0:0:0:0:
256,192,36413,12,0,36414,0:0:0:0:
256,192,36414,12,0,36415,0:0:0:0:
256,192,36415,12,0,36416,0:0:0:0:
256,192,36417,12,0,36418,0:0:0:0:
256,192,36419,12,0,36420,0:0:0:0:
256,192,36421,12,0,36422,0:0:0:0:
256,192,36423,12,0,36424,0:0:0:0:
256,192,36424,12,0,36425,0:0:0:0:
256,192,36425,12,0,36426,0:0:0:0:
256,192,36427,12,0,36428,0:0:0:0:
256,192,36429,12,0,36430,0:0:0:0:
256,192,36431,12,0,36432,0:0:0:0:
256,192,36432,12,0,36433,0:0:0:0:
256,192,36433,12,0,36434,0:0:0:0:
256,192,36435,12,0,36436,0:0:0:0:
256,192,36437,12,0,36438,0:0:0:0:
256,192,36439,12,0,36440,0:0:0:0:
256,192,36440,12,0,36441,0:0:0:0:
256,192,36441,12,0,36442,0:0:0:0:
256,192,36442,12,0,36443,0:0:0:0:
256,192,36443,12,0,36444,0:0:0:0:
256,192,36444,12,0,36445,0:0:0:0:
256,192,36445,12,0,36446,0:0:0:0:
256,192,36446,12,0,36447,0:0:0:0:
256,192,36447,12,0,36448,0:0:0:0:
256,192,36448,12,0,36449,0:0:0:0:
256,192,36450,12,0,36451,0:0:0:0:
256,192,36452,12,0,36453,0:0:0:0:
256,192,36454,12,0,36455,0:0:0:0:
256,192,36456,12,0,36457,0:0:0:0:
256,192,36458,12,0,36459,0:0:0:0:
256,192,36459,12,0,36460,0:0:0:0:
256,192,36460,12,0,36461,0:0:0:0:
256,192,36461,12,0,36462,0:0:0:0:
256,192,36462,12,0,36463,0:0:0:0:
256,192,36463,12,0,36464,0:0:0:0:
256,192,36465,12,0,36466,0:0:0:0:
256,192,36466,12,0,36467,0:0:0:0:
256,192,36467,12,0,36468,0:0:0:0:
256,192,36469,12,0,36470,0:0:0:0:
256,192,36471,12,0,36472,0:0:0:0:
256,192,36473,12,0,36474,0:0:0:0:
256,192,36474,12,0,36475,0:0:0:0:
256,192,36475,12,0,36476,0:0:0:0:
256,192,36476,12,0,36477,0:0:0:0:
256,192,36477,12,0,36478,0:0:0:0:
256,192,36478,12,0,36479,0:0:0:0:
256,192,36479,12,0,36480,0:0:0:0:
256,192,36480,12,0,36481,0:0:0:0:
256,192,36481,12,0,36482,0:0:0:0:
256,192,36482,12,0,36483,0:0:0:0:
256,192,36484,12,0,36485,0:0:0:0:
256,192,36486,12,0,36487,0:0:0:0:
256,192,36488,12,0,36489,0:0:0:0:
256,192,36490,12,0,36491,0:0:0:0:
256,192,36491,12,0,36492,0:0:0:0:
256,192,36492,12,0,36493,0:0:0:0:
256,192,36494,12,0,36495,0:0:0:0:
256,192,36496,12,0,36497,0:0:0:0:
256,192,36498,12,0,36499,0:0:0:0:
256,192,36499,12,0,36500,0:0:0:0:
256,192,36500,12,0,36501,0:0:0:0:
256,192,36502,12,0,36503,0:0:0:0:
256,192,36504,12,0,36505,0:0:0:0:
256,192,36506,12,0,36507,0:0:0:0:
256,192,36507,12,0,36508,0:0:0:0:
256,192,36508,12,0,36509,0:0:0:0:
256,192,36509,12,0,36510,0:0:0:0:
256,192,36510,12,0,36511,0:0:0:0:
256,192,36511,12,0,36512,0:0:0:0:
256,192,36512,12,0,36513,0:0:0:0:
256,192,36513,12,0,36514,0:0:0:0:
256,192,36514,12,0,36515,0:0:0:0:
256,192,36515,12,0,36516,0:0:0:0:
256,192,36517,12,0,36518,0:0:0:0:
256,192,36519,12,0,36520,0:0:0:0:
256,192,36521,12,0,36522,0:0:0:0:
256,192,36523,12,0,36524,0:0:0:0:
256,192,36525,12,0,36526,0:0:0:0:
256,192,36526,12,0,36527,0:0:0:0:
256,192,36527,12,0,36528,0:0:0:0:
256,192,36529,12,0,36530,0:0:0:0:
256,192,36531,12,0,36532,0:0:0:0:
256,192,36532,12,0,36533,0:0:0:0:
256,192,36533,12,0,36534,0:0:0:0:
256,192,36534,12,0,36535,0:0:0:0:
256,192,36535,12,0,36536,0:0:0:0:
256,192,36536,12,0,36537,0:0:0:0:
256,192,36538,12,0,36539,0:0:0:0:
256,192,36540,12,0,36541,0:0:0:0:
256,192,36542,12,0,36543,0:0:0:0:
256,192,36544,12,0,36545,0:0:0:0:
256,192,36546,12,0,36547,0:0:0:0:
256,192,36547,12,0,36548,0:0:0:0:
256,192,36549,12,0,36550,0:0:0:0:
256,192,36551,12,0,36552,0:0:0:0:
256,192,36553,12,0,36554,0:0:0:0:
256,192,36555,12,0,36556,0:0:0:0:
256,192,36557,12,0,36558,0:0:0:0:
256,192,36559,12,0,36560,0:0:0:0:
256,192,36561,12,0,36562,0:0:0:0:
256,192,36564,12,0,36565,0:0:0:0:
256,192,36565,12,0,36566,0:0:0:0:
256,192,36567,12,0,36568,0:0:0:0:
256,192,36569,12,0,36570,0:0:0:0:
256,192,36571,12,0,36572,0:0:0:0:
256,192,36573,12,0,36574,0:0:0:0:
256,192,36575,12,0,36576,0:0:0:0:
256,192,36577,12,0,36578,0:0:0:0:
256,192,36579,12,0,36580,0:0:0:0:
256,192,36580,12,0,36581,0:0:0:0:
256,192,36582,12,0,36583,0:0:0:0:
256,192,36584,12,0,36585,0:0:0:0:
256,192,36586,12,0,36587,0:0:0:0:
256,192,36588,12,0,36589,0:0:0:0:
256,192,36590,12,0,36591,0:0:0:0:
256,192,36592,12,0,36593,0:0:0:0:
256,192,36594,12,0,36595,0:0:0:0:
256,192,36598,12,0,36599,0:0:0:0:
256,192,36599,12,0,36600,0:0:0:0:
256,192,36601,12,0,36602,0:0:0:0:
256,192,36603,12,0,36604,0:0:0:0:
256,192,36605,12,0,36606,0:0:0:0:
256,192,36607,12,0,36608,0:0:0:0:
256,192,36609,12,0,36610,0:0:0:0:
256,192,36611,12,0,36612,0:0:0:0:
256,192,36613,12,0,36614,0:0:0:0:
256,192,36614,12,0,36615,0:0:0:0:
256,192,36616,12,0,36617,0:0:0:0:
256,192,36618,12,0,36619,0:0:0:0:
256,192,36620,12,0,36621,0:0:0:0:
256,192,36622,12,0,36623,0:0:0:0:
256,192,36624,12,0,36625,0:0:0:0:
256,192,36626,12,0,36627,0:0:0:0:
256,192,36628,12,0,36629,0:0:0:0:
256,192,36631,12,0,36632,0:0:0:0:
256,192,36632,12,0,36633,0:0:0:0:
256,192,36634,12,0,36635,0:0:0:0:
256,192,36636,12,0,36637,0:0:0:0:
256,192,36638,12,0,36639,0:0:0:0:
256,192,36640,12,0,36641,0:0:0:0:
256,192,36642,12,0,36643,0:0:0:0:
256,192,36644,12,0,36645,0:0:0:0:
256,192,36646,12,0,36647,0:0:0:0:
256,192,36647,12,0,36648,0:0:0:0:
256,192,36649,12,0,36650,0:0:0:0:
256,192,36651,12,0,36652,0:0:0:0:
256,192,36653,12,0,36654,0:0:0:0:
256,192,36654,12,0,36655,0:0:0:0:
256,192,36655,12,0,36656,0:0:0:0:
256,192,36657,12,0,36658,0:0:0:0:
256,192,36659,12,0,36660,0:0:0:0:
256,192,36661,12,0,36662,0:0:0:0:
256,192,36662,12,0,36663,0:0:0:0:
256,192,36663,12,0,36664,0:0:0:0:
256,192,36665,12,0,36666,0:0:0:0:
256,192,36667,12,0,36668,0:0:0:0:
256,192,36669,12,0,36670,0:0:0:0:
256,192,36670,12,0,36671,0:0:0:0:
256,192,36671,12,0,36672,0:0:0:0:
256,192,36672,12,0,36673,0:0:0:0:
256,192,36673,12,0,36674,0:0:0:0:
256,192,36674,12,0,36675,0:0:0:0:
256,192,36675,12,0,36676,0:0:0:0:
256,192,36676,12,0,36677,0:0:0:0:
256,192,36677,12,0,36678,0:0:0:0:
256,192,36678,12,0,36679,0:0:0:0:
256,192,36680,12,0,36681,0:0:0:0:
256,192,36682,12,0,36683,0:0:0:0:
256,192,36684,12,0,36685,0:0:0:0:
256,192,36686,12,0,36687,0:0:0:0:
256,192,36687,12,0,36688,0:0:0:0:
256,192,36688,12,0,36689,0:0:0:0:
256,192,36690,12,0,36691,0:0:0:0:
256,192,36692,12,0,36693,0:0:0:0:
256,192,36694,12,0,36695,0:0:0:0:
256,192,36695,12,0,36696,0:0:0:0:
256,192,36696,12,0,36697,0:0:0:0:
256,192,36698,12,0,36699,0:0:0:0:
256,192,36700,12,0,36701,0:0:0:0:
256,192,36702,12,0,36703,0:0:0:0:
256,192,36703,12,0,36704,0:0:0:0:
256,192,36704,12,0,36705,0:0:0:0:
256,192,36705,12,0,36706,0:0:0:0:
256,192,36706,12,0,36707,0:0:0:0:
256,192,36707,12,0,36708,0:0:0:0:
256,192,36708,12,0,36709,0:0:0:0:
256,192,36709,12,0,36710,0:0:0:0:
256,192,36710,12,0,36711,0:0:0:0:
256,192,36711,12,0,36712,0:0:0:0:
256,192,36713,12,0,36714,0:0:0:0:
256,192,36715,12,0,36716,0:0:0:0:
256,192,36717,12,0,36718,0:0:0:0:
256,192,36719,12,0,36720,0:0:0:0:
256,192,36721,12,0,36722,0:0:0:0:
256,192,36722,12,0,36723,0:0:0:0:
256,192,36723,12,0,36724,0:0:0:0:
256,192,36724,12,0,36725,0:0:0:0:
256,192,36725,12,0,36726,0:0:0:0:
256,192,36726,12,0,36727,0:0:0:0:
256,192,36728,12,0,36729,0:0:0:0:
256,192,36729,12,0,36730,0:0:0:0:
256,192,36730,12,0,36731,0:0:0:0:
256,192,36732,12,0,36733,0:0:0:0:
256,192,36734,12,0,36735,0:0:0:0:
256,192,36736,12,0,36737,0:0:0:0:
256,192,36737,12,0,36738,0:0:0:0:
256,192,36738,12,0,36739,0:0:0:0:
256,192,36739,12,0,36740,0:0:0:0:
256,192,36740,12,0,36741,0:0:0:0:
256,192,36741,12,0,36742,0:0:0:0:
256,192,36742,12,0,36743,0:0:0:0:
256,192,36743,12,0,36744,0:0:0:0:
256,192,36744,12,0,36745,0:0:0:0:
256,192,36745,12,0,36746,0:0:0:0:
256,192,36747,12,0,36748,0:0:0:0:
256,192,36749,12,0,36750,0:0:0:0:
256,192,36751,12,0,36752,0:0:0:0:
256,192,36753,12,0,36754,0:0:0:0:
256,192,36754,12,0,36755,0:0:0:0:
256,192,36755,12,0,36756,0:0:0:0:
256,192,36757,12,0,36758,0:0:0:0:
256,192,36759,12,0,36760,0:0:0:0:
256,192,36761,12,0,36762,0:0:0:0:
256,192,36762,12,0,36763,0:0:0:0:
256,192,36763,12,0,36764,0:0:0:0:
256,192,36765,12,0,36766,0:0:0:0:
256,192,36767,12,0,36768,0:0:0:0:
256,192,36769,12,0,36770,0:0:0:0:
256,192,36770,12,0,36771,0:0:0:0:
256,192,36771,12,0,36772,0:0:0:0:
256,192,36772,12,0,36773,0:0:0:0:
256,192,36773,12,0,36774,0:0:0:0:
256,192,36774,12,0,36775,0:0:0:0:
256,192,36775,12,0,36776,0:0:0:0:
256,192,36776,12,0,36777,0:0:0:0:
256,192,36777,12,0,36778,0:0:0:0:
256,192,36778,12,0,36779,0:0:0:0:
256,192,36780,12,0,36781,0:0:0:0:
256,192,36782,12,0,36783,0:0:0:0:
256,192,36784,12,0,36785,0:0:0:0:
256,192,36786,12,0,36787,0:0:0:0:
256,192,36788,12,0,36789,0:0:0:0:
256,192,36789,12,0,36790,0:0:0:0:
256,192,36790,12,0,36791,0:0:0:0:
256,192,36792,12,0,36793,0:0:0:0:
256,192,36793,12,0,36794,0:0:0:0:
256,192,36794,12,0,36795,0:0:0:0:
256,192,36796,12,0,36797,0:0:0:0:
256,192,36798,12,0,36799,0:0:0:0:
256,192,36800,12,0,36801,0:0:0:0:
256,192,36802,12,0,36803,0:0:0:0:
256,192,36804,12,0,36805,0:0:0:0:
256,192,36806,12,0,36807,0:0:0:0:
256,192,36808,12,0,36809,0:0:0:0:
256,192,36809,12,0,36810,0:0:0:0:
256,192,36811,12,0,36812,0:0:0:0:
256,192,36813,12,0,36814,0:0:0:0:
256,192,36815,12,0,36816,0:0:0:0:
256,192,36817,12,0,36818,0:0:0:0:
256,192,36819,12,0,36820,0:0:0:0:
256,192,36821,12,0,36822,0:0:0:0:
256,192,36823,12,0,36824,0:0:0:0:
256,192,36826,12,0,36827,0:0:0:0:
256,192,36827,12,0,36828,0:0:0:0:
256,192,36829,12,0,36830,0:0:0:0:
256,192,36831,12,0,36832,0:0:0:0:
256,192,36833,12,0,36834,0:0:0:0:
256,192,36835,12,0,36836,0:0:0:0:
256,192,36837,12,0,36838,0:0:0:0:
256,192,36839,12,0,36840,0:0:0:0:
256,192,36841,12,0,36842,0:0:0:0:
256,192,36842,12,0,36843,0:0:0:0:
256,192,36844,12,0,36845,0:0:0:0:
256,192,36846,12,0,36847,0:0:0:0:
256,192,36848,12,0,36849,0:0:0:0:
256,192,36850,12,0,36851,0:0:0:0:
256,192,36852,12,0,36853,0:0:0:0:
256,192,36854,12,0,36855,0:0:0:0:
256,192,36856,12,0,36857,0:0:0:0:
256,192,36860,12,0,36861,0:0:0:0:
256,192,36861,12,0,36862,0:0:0:0:
256,192,36863,12,0,36864,0:0:0:0:
256,192,36865,12,0,36866,0:0:0:0:
256,192,36867,12,0,36868,0:0:0:0:
256,192,36869,12,0,36870,0:0:0:0:
256,192,36871,12,0,36872,0:0:0:0:
256,192,36873,12,0,36874,0:0:0:0:
256,192,36875,12,0,36876,0:0:0:0:
256,192,36876,12,0,36877,0:0:0:0:
256,192,36878,12,0,36879,0:0:0:0:
256,192,36880,12,0,36881,0:0:0:0:
256,192,36882,12,0,36883,0:0:0:0:
256,192,36884,12,0,36885,0:0:0:0:
256,192,36886,12,0,36887,0:0:0:0:
256,192,36888,12,0,36889,0:0:0:0:
256,192,36890,12,0,36891,0:0:0:0:
256,192,36893,12,0,36894,0:0:0:0:
256,192,36894,12,0,36895,0:0:0:0:
256,192,36896,12,0,36897,0:0:0:0:
256,192,36898,12,0,36899,0:0:0:0:
256,192,36900,12,0,36901,0:0:0:0:
256,192,36902,12,0,36903,0:0:0:0:
256,192,36904,12,0,36905,0:0:0:0:
256,192,36906,12,0,36907,0:0:0:0:
256,192,36908,12,0,36909,0:0:0:0:
256,192,36909,12,0,36910,0:0:0:0:
256,192,36911,12,0,36912,0:0:0:0:
256,192,36913,12,0,36914,0:0:0:0:
256,192,36915,12,0,36916,0:0:0:0:
256,192,36916,12,0,36917,0:0:0:0:
256,192,36917,12,0,36918,0:0:0:0:
256,192,36919,12,0,36920,0:0:0:0:
256,192,36921,12,0,36922,0:0:0:0:
256,192,36923,12,0,36924,0:0:0:0:
256,192,36924,12,0,36925,0:0:0:0:
256,192,36925,12,0,36926,0:0:0:0:
256,192,36927,12,0,36928,0:0:0:0:
256,192,36929,12,0,36930,0:0:0:0:
256,192,36931,12,0,36932,0:0:0:0:
256,192,36932,12,0,36933,0:0:0:0:
256,192,36933,12,0,36934,0:0:0:0:
256,192,36934,12,0,36935,0:0:0:0:
256,192,36935,12,0,36936,0:0:0:0:
256,192,36936,12,0,36937,0:0:0:0:
256,192,36937,12,0,36938,0:0:0:0:
256,192,36938,12,0,36939,0:0:0:0:
256,192,36939,12,0,36940,0:0:0:0:
256,192,36940,12,0,36941,0:0:0:0:
256,192,36942,12,0,36943,0:0:0:0:
256,192,36944,12,0,36945,0:0:0:0:
256,192,36946,12,0,36947,0:0:0:0:
256,192,36948,12,0,36949,0:0:0:0:
256,192,36949,12,0,36950,0:0:0:0:
256,192,36950,12,0,36951,0:0:0:0:
256,192,36952,12,0,36953,0:0:0:0:
256,192,36954,12,0,36955,0:0:0:0:
256,192,36956,12,0,36957,0:0:0:0:
256,192,36957,12,0,36958,0:0:0:0:
256,192,36958,12,0,36959,0:0:0:0:
256,192,36960,12,0,36961,0:0:0:0:
256,192,36962,12,0,36963,0:0:0:0:
256,192,36964,12,0,36965,0:0:0:0:
256,192,36965,12,0,36966,0:0:0:0:
256,192,36966,12,0,36967,0:0:0:0:
256,192,36967,12,0,36968,0:0:0:0:
256,192,36968,12,0,36969,0:0:0:0:
256,192,36969,12,0,36970,0:0:0:0:
256,192,36970,12,0,36971,0:0:0:0:
256,192,36971,12,0,36972,0:0:0:0:
256,192,36972,12,0,36973,0:0:0:0:
256,192,36973,12,0,36974,0:0:0:0:
256,192,36975,12,0,36976,0:0:0:0:
256,192,36977,12,0,36978,0:0:0:0:
256,192,36979,12,0,36980,0:0:0:0:
256,192,36981,12,0,36982,0:0:0:0:
256,192,36983,12,0,36984,0:0:0:0:
256,192,36984,12,0,36985,0:0:0:0:
256,192,36985,12,0,36986,0:0:0:0:
256,192,36986,12,0,36987,0:0:0:0:
256,192,36987,12,0,36988,0:0:0:0:
256,192,36988,12,0,36989,0:0:0:0:
256,192,36990,12,0,36991,0:0:0:0:
256,192,36991,12,0,36992,0:0:0:0:
256,192,36992,12,0,36993,0:0:0:0:
256,192,36994,12,0,36995,0:0:0:0:
256,192,36996,12,0,36997,0:0:0:0:
256,192,36998,12,0,36999,0:0:0:0:
256,192,36999,12,0,37000,0:0:0:0:
256,192,37000,12,0,37001,0:0:0:0:
256,192,37001,12,0,37002,0:0:0:0:
256,192,37002,12,0,37003,0:0:0:0:
256,192,37003,12,0,37004,0:0:0:0:
256,192,37004,12,0,37005,0:0:0:0:
256,192,37005,12,0,37006,0:0:0:0:
256,192,37006,12,0,37007,0:0:0:0:
256,192,37007,12,0,37008,0:0:0:0:
256,192,37009,12,0,37010,0:0:0:0:
256,192,37011,12,0,37012,0:0:0:0:
256,192,37013,12,0,37014,0:0:0:0:
256,192,37015,12,0,37016,0:0:0:0:
256,192,37016,12,0,37017,0:0:0:0:
256,192,37017,12,0,37018,0:0:0:0:
256,192,37019,12,0,37020,0:0:0:0:
256,192,37021,12,0,37022,0:0:0:0:
256,192,37023,12,0,37024,0:0:0:0:
256,192,37024,12,0,37025,0:0:0:0:
256,192,37025,12,0,37026,0:0:0:0:
256,192,37027,12,0,37028,0:0:0:0:
256,192,37029,12,0,37030,0:0:0:0:
256,192,37031,12,0,37032,0:0:0:0:
256,192,37032,12,0,37033,0:0:0:0:
256,192,37033,12,0,37034,0:0:0:0:
256,192,37034,12,0,37035,0:0:0:0:
256,192,37035,12,0,37036,0:0:0:0:
256,192,37036,12,0,37037,0:0:0:0:
256,192,37037,12,0,37038,0:0:0:0:
256,192,37038,12,0,37039,0:0:0:0:
256,192,37039,12,0,37040,0:0:0:0:
256,192,37040,12,0,37041,0:0:0:0:
256,192,37042,12,0,37043,0:0:0:0:
256,192,37044,12,0,37045,0:0:0:0:
256,192,37046,12,0,37047,0:0:0:0:
256,192,37048,12,0,37049,0:0:0:0:
256,192,37050,12,0,37051,0:0:0:0:
256,192,37051,12,0,37052,0:0:0:0:
256,192,37052,12,0,37053,0:0:0:0:
256,192,37054,12,0,37055,0:0:0:0:
256,192,37056,12,0,37057,0:0:0:0:
256,192,37057,12,0,37058,0:0:0:0:
256,192,37058,12,0,37059,0:0:0:0:
256,192,37060,12,0,37061,0:0:0:0:
256,192,37062,12,0,37063,0:0:0:0:
256,192,37064,12,0,37065,0:0:0:0:
256,192,37065,12,0,37066,0:0:0:0:
256,192,37066,12,0,37067,0:0:0:0:
256,192,37068,12,0,37069,0:0:0:0:
256,192,37070,12,0,37071,0:0:0:0:
256,192,37072,12,0,37073,0:0:0:0:
256,192,37073,12,0,37074,0:0:0:0:
256,192,37074,12,0,37075,0:0:0:0:
256,192,37075,12,0,37076,0:0:0:0:
256,192,37076,12,0,37077,0:0:0:0:
256,192,37077,12,0,37078,0:0:0:0:
256,192,37078,12,0,37079,0:0:0:0:
256,192,37079,12,0,37080,0:0:0:0:
256,192,37080,12,0,37081,0:0:0:0:
256,192,37081,12,0,37082,0:0:0:0:
256,192,37083,12,0,37084,0:0:0:0:
256,192,37085,12,0,37086,0:0:0:0:
256,192,37087,12,0,37088,0:0:0:0:
256,192,37089,12,0,37090,0:0:0:0:
256,192,37093,12,0,37094,0:0:0:0:
256,192,37094,12,0,37095,0:0:0:0:
256,192,37095,12,0,37096,0:0:0:0:
256,192,37097,12,0,37098,0:0:0:0:
256,192,37099,12,0,37100,0:0:0:0:
256,192,37101,12,0,37102,0:0:0:0:
256,192,37102,12,0,37103,0:0:0:0:
256,192,37103,12,0,37104,0:0:0:0:
256,192,37105,12,0,37106,0:0:0:0:
256,192,37107,12,0,37108,0:0:0:0:
256,192,37109,12,0,37110,0:0:0:0:
256,192,37110,12,0,37111,0:0:0:0:
256,192,37111,12,0,37112,0:0:0:0:
256,192,37112,12,0,37113,0:0:0:0:
256,192,37113,12,0,37114,0:0:0:0:
256,192,37114,12,0,37115,0:0:0:0:
256,192,37115,12,0,37116,0:0:0:0:
256,192,37116,12,0,37117,0:0:0:0:
256,192,37117,12,0,37118,0:0:0:0:
256,192,37118,12,0,37119,0:0:0:0:
256,192,37120,12,0,37121,0:0:0:0:
256,192,37122,12,0,37123,0:0:0:0:
256,192,37124,12,0,37125,0:0:0:0:
256,192,37126,12,0,37127,0:0:0:0:
256,192,37206,12,0,37243,0:0:0:0:
256,192,37356,12,0,37393,0:0:0:0:
256,192,37506,12,0,37543,0:0:0:0:
256,192,37656,12,0,37693,0:0:0:0:
256,192,37806,12,0,37843,0:0:0:0:
256,192,37956,12,0,37993,0:0:0:0:
256,192,38106,6,0,L|224:192,1,17.5
256,192,38218,6,0,L|224:192,1,17.5
256,192,38406,1,8,0:0:0:0:
256,192,38424,1,8,0:0:0:0:
256,192,38556,12,0,38593,0:0:0:0:
256,192,38706,12,0,38743,0:0:0:0:
256,192,38856,12,0,38893,0:0:0:0:
256,192,39006,12,0,39043,0:0:0:0:
256,192,39156,12,0,39193,0:0:0:0:
256,192,39306,6,4,L|224:192,1,17.5
256,192,39418,6,4,L|224:192,1,17.5
256,192,39606,1,0,0:0:0:0:
256,192,39624,1,0,0:0:0:0:
256,192,40206,1,8,0:0:0:0:
256,192,40224,1,8,0:0:0:0:
256,192,40806,1,8,0:0:0:0:
256,192,40824,1,8,0:0:0:0:
256,192,41106,1,8,0:0:0:0:
256,192,41124,1,8,0:0:0:0:
256,192,41406,1,8,0:0:0:0:
256,192,41424,1,8,0:0:0:0:
256,192,41706,1,8,0:0:0:0:
256,192,41724,1,8,0:0:0:0:
256,192,42006,1,8,0:0:0:0:
256,192,42024,1,8,0:0:0:0:
256,192,42306,1,12,0:0:0:0:
256,192,42606,1,4,0:0:0:0:
256,192,43206,1,0,0:0:0:0:
256,192,43506,1,0,0:0:0:0:
256,192,43806,1,8,0:0:0:0:
256,192,44106,1,8,0:0:0:0:
256,192,44406,1,4,0:0:0:0:
256,192,44856,2,0,L|224:160,1,35
256,192,45006,2,0,L|192:96,1,105
256,192,45306,2,0,L|192:96,1,105
256,192,45606,2,0,L|272:192,1,1
256,192,46056,2,0,L|224:160,1,35
256,192,46206,2,0,L|192:96,1,105
256,192,46506,2,0,L|192:96,1,105
256,192,46806,2,0,L|272:192,1,1
256,192,46881,2,0,L|272:192,1,1
256,192,46956,2,0,L|272:192,1,1
256,192,47031,2,0,L|272:192,1,1
256,192,47106,2,0,L|272:192,1,1
256,192,47406,2,0,L|192:96,1,105
256,192,47706,2,0,L|224:64,1,105
256,192,48156,2,0,L|256:160,1,17.5
256,192,48306,2,0,L|256:160,1,17.5
256,192,48456,2,0,L|256:160,1,17.5
256,192,48756,2,0,L|256:160,1,17.5
256,192,48906,2,0,L|256:160,1,17.5
256,192,49206,2,4,L|256:160,1,17.5
256,192,49656,2,0,L|224:160,1,35
256,192,49806,2,0,L|192:96,1,105
256,192,50106,2,0,L|192:96,1,105
256,192,50406,2,0,L|272:192,1,1
256,192,50856,2,0,L|224:160,1,35
256,192,51006,2,0,L|192:96,1,105
256,192,51306,2,0,L|192:96,1,105
256,192,51606,2,0,L|272:192,1,1
256,192,51681,2,0,L|272:192,1,1
256,192,51756,2,0,L|272:192,1,1
256,192,51831,2,0,L|272:192,1,1
256,192,51906,2,0,L|272:192,1,1
256,192,52206,2,0,L|192:96,1,105
256,192,52506,2,0,L|224:64,1,105
256,192,52956,2,0,L|256:160,1,17.5
256,192,53106,2,0,L|256:160,1,17.5
256,192,53256,2,0,L|256:160,1,17.5
256,192,53406,2,0,L|256:160,1,17.5
256,192,53556,2,0,L|256:160,1,17.5
256,192,53706,2,0,L|256:160,1,17.5
256,192,53856,2,0,L|256:160,1,17.5
256,192,54006,1,12,0:0:0:0:
256,192,54456,2,4,L|224:160,1,35
256,192,54606,2,4,L|192:96,1,105
256,192,54906,2,4,L|192:96,1,105
256,192,55206,2,4,L|272:192,1,1
256,192,55656,2,4,L|224:160,1,35
256,192,55806,2,4,L|192:96,1,105
256,192,56106,2,4,L|192:96,1,105
256,192,56406,2,0,L|272:192,1,1
256,192,56481,2,0,L|272:192,1,1
256,192,56556,2,0,L|272:192,1,1
256,192,56631,2,0,L|272:192,1,1
256,192,56706,2,0,L|272:192,1,1
256,192,57006,2,4,L|192:96,1,105
256,192,57306,2,4,L|224:64,1,105
256,192,57906,2,4,L|272:192,1,1
256,192,58131,2,4,L|272:192,1,1
256,192,58356,2,4,L|272:192,1,1
256,192,58581,2,4,L|272:192,1,1
257,192,58806,1,4,0:0:0:0:
256,192,59256,2,4,L|224:160,1,35
256,192,59406,2,4,L|192:96,1,105
256,192,59706,2,4,L|192:96,1,105
256,192,60006,2,4,L|272:192,1,1
256,192,60456,2,4,L|224:160,1,35
256,192,60606,2,4,L|192:96,1,105
256,192,60906,2,4,L|192:96,1,105
256,192,61206,2,0,L|272:192,1,1
256,192,61281,2,0,L|272:192,1,1
256,192,61356,2,0,L|272:192,1,1
256,192,61431,2,0,L|272:192,1,1
256,192,61506,2,0,L|272:192,1,1
256,192,61581,2,0,L|272:192,1,1
256,192,61656,2,0,L|272:192,1,1
256,192,61731,2,0,L|272:192,1,1
256,192,61806,2,4,L|272:192,1,1
256,192,61881,2,4,L|272:192,1,1
256,192,61956,2,4,L|272:192,1,1
256,192,62031,2,4,L|272:192,1,1
256,192,62106,2,4,L|272:192,1,1
256,192,62181,2,4,L|272:192,1,1
256,192,62256,2,4,L|272:192,1,1
256,192,62331,2,4,L|272:192,1,1
256,192,62406,2,0,L|272:192,1,1
256,192,62443,2,0,L|272:192,1,1
256,192,62481,2,0,L|272:192,1,1
256,192,62518,2,0,L|272:192,1,1
256,192,62556,2,0,L|272:192,1,1
256,192,62593,2,0,L|272:192,1,1
256,192,62631,2,0,L|272:192,1,1
256,192,62668,2,0,L|272:192,1,1
256,192,62706,2,0,L|272:192,1,1
256,192,62743,2,0,L|272:192,1,1
256,192,62781,2,0,L|272:192,1,1
256,192,62818,2,0,L|272:192,1,1
256,192,62856,2,0,L|272:192,1,1
256,192,62893,2,0,L|272:192,1,1
256,192,62931,2,0,L|272:192,1,1
256,192,62968,2,0,L|272:192,1,1
256,192,63006,2,0,L|272:192,1,1
256,192,63024,2,0,L|272:192,1,1
256,192,63043,2,0,L|272:192,1,1
256,192,63062,2,0,L|272:192,1,1
256,192,63081,2,0,L|272:192,1,1
256,192,63099,2,0,L|272:192,1,1
256,192,63118,2,0,L|272:192,1,1
256,192,63137,2,0,L|272:192,1,1
256,192,63156,2,0,L|272:192,1,1
256,192,63174,2,0,L|272:192,1,1
256,192,63193,2,0,L|272:192,1,1
256,192,63212,2,0,L|272:192,1,1
256,192,63231,2,0,L|272:192,1,1
256,192,63249,2,0,L|272:192,1,1
256,192,63268,2,0,L|272:192,1,1
256,192,63287,2,0,L|272:192,1,1
256,192,63306,2,0,L|272:192,1,1
256,192,63324,2,0,L|272:192,1,1
256,192,63343,2,0,L|272:192,1,1
256,192,63362,2,0,L|272:192,1,1
256,192,63381,2,0,L|272:192,1,1
256,192,63399,2,0,L|272:192,1,1
256,192,63418,2,0,L|272:192,1,1
256,192,63437,2,0,L|272:192,1,1
256,192,63455,2,0,L|272:192,1,1
256,192,63474,2,0,L|272:192,1,1
256,192,63493,2,0,L|272:192,1,1
256,192,63512,2,0,L|272:192,1,1
256,192,63531,2,0,L|272:192,1,1
256,192,63549,2,0,L|272:192,1,1
256,192,63568,2,0,L|272:192,1,1
256,192,63587,2,0,L|272:192,1,1
256,192,63606,1,4,0:0:0:0:
256,192,64056,1,0,0:0:0:0:
256,192,64506,1,0,0:0:0:0:
256,192,64956,1,0,0:0:0:0:
256,192,65406,1,0,0:0:0:0:
256,192,65706,1,12,0:0:0:0:
256,192,66006,1,4,0:0:0:0:
256,192,66456,1,0,0:0:0:0:
256,192,66906,1,0,0:0:0:0:
256,192,67356,1,8,0:0:0:0:
256,192,67806,1,8,0:0:0:0:
256,192,68106,1,8,0:0:0:0:
256,192,68256,1,8,0:0:0:0:
256,192,68406,1,8,0:0:0:0:
256,192,68856,1,8,0:0:0:0:
256,192,69306,1,8,0:0:0:0:
256,192,69756,1,8,0:0:0:0:
256,192,70056,1,0,0:0:0:0:
256,192,70206,1,0,0:0:0:0:
256,192,70506,1,8,0:0:0:0:
256,192,70656,1,8,0:0:0:0:
256,192,70806,1,0,0:0:0:0:
256,192,70956,1,0,0:0:0:0:
256,192,71106,1,8,0:0:0:0:
256,192,71181,1,8,0:0:0:0:
256,192,71256,1,8,0:0:0:0:
256,192,71556,1,0,0:0:0:0:
256,192,71631,1,0,0:0:0:0:
256,192,71706,1,0,0:0:0:0:
256,192,71856,12,0,73618,0:0:0:0:
256,192,72006,5,0,0:0:0:0:
256,192,72081,1,8,0:0:0:0:
256,192,72156,1,0,0:0:0:0:
256,192,72231,1,8,0:0:0:0:
256,192,72306,1,0,0:0:0:0:
256,192,72381,1,8,0:0:0:0:
256,192,72456,1,0,0:0:0:0:
256,192,72606,1,8,0:0:0:0:
256,192,72681,1,0,0:0:0:0:
256,192,72756,1,8,0:0:0:0:
256,192,72831,1,0,0:0:0:0:
256,192,72906,1,8,0:0:0:0:
256,192,72981,1,0,0:0:0:0:
256,192,73056,1,8,0:0:0:0:
256,192,73206,1,4,0:0:0:0:
256,192,73656,1,8,0:0:0:0:
256,192,73693,1,8,0:0:0:0:
256,192,73806,1,8,0:0:0:0:
256,192,73843,1,8,0:0:0:0:
256,192,73956,1,8,0:0:0:0:
256,192,73993,1,8,0:0:0:0:
256,192,74106,1,8,0:0:0:0:
256,192,74143,1,8,0:0:0:0:
256,192,74256,1,8,0:0:0:0:
256,192,74331,1,8,0:0:0:0:
256,192,74406,1,8,0:0:0:0:
256,192,74443,1,8,0:0:0:0:
256,192,74556,1,8,0:0:0:0:
256,192,74593,1,8,0:0:0:0:
256,192,74706,1,8,0:0:0:0:
256,192,74743,1,8,0:0:0:0:
256,192,74856,1,8,0:0:0:0:
256,192,74893,1,8,0:0:0:0:
256,192,75006,1,8,0:0:0:0:
256,192,75043,1,8,0:0:0:0:
256,192,75306,1,12,0:0:0:0:
256,192,75456,1,12,0:0:0:0:
256,192,75606,1,4,0:0:0:0:
256,192,76056,1,8,0:0:0:0:
256,192,76093,1,8,0:0:0:0:
256,192,76206,1,8,0:0:0:0:
256,192,76243,1,8,0:0:0:0:
256,192,76356,1,8,0:0:0:0:
256,192,76393,1,8,0:0:0:0:
256,192,76506,1,8,0:0:0:0:
256,192,76543,1,8,0:0:0:0:
256,192,76656,1,8,0:0:0:0:
256,192,76731,1,8,0:0:0:0:
256,192,76806,1,8,0:0:0:0:
256,192,76843,1,8,0:0:0:0:
256,192,76956,1,8,0:0:0:0:
256,192,76993,1,8,0:0:0:0:
256,192,77106,1,8,0:0:0:0:
256,192,77143,1,8,0:0:0:0:
256,192,77256,1,8,0:0:0:0:
256,192,77293,1,8,0:0:0:0:
256,192,77406,1,8,0:0:0:0:
256,192,77443,1,8,0:0:0:0:
256,192,77706,1,12,0:0:0:0:
256,192,77856,1,12,0:0:0:0:
256,192,78006,1,4,0:0:0:0:
256,192,78456,1,8,0:0:0:0:
256,192,78493,1,8,0:0:0:0:
256,192,78606,1,8,0:0:0:0:
256,192,78643,1,8,0:0:0:0:
256,192,78756,1,8,0:0:0:0:
256,192,78793,1,8,0:0:0:0:
256,192,78906,1,8,0:0:0:0:
256,192,78943,1,8,0:0:0:0:
256,192,79056,1,8,0:0:0:0:
256,192,79131,1,8,0:0:0:0:
256,192,79206,1,8,0:0:0:0:
256,192,79243,1,8,0:0:0:0:
256,192,79356,1,8,0:0:0:0:
256,192,79393,1,8,0:0:0:0:
256,192,79506,1,8,0:0:0:0:
256,192,79543,1,8,0:0:0:0:
256,192,79656,1,8,0:0:0:0:
256,192,79693,1,8,0:0:0:0:
256,192,79806,1,8,0:0:0:0:
256,192,79843,1,8,0:0:0:0:
256,192,80106,1,4,0:0:0:0:
256,192,80256,1,12,0:0:0:0:
256,192,80406,1,4,0:0:0:0:
256,192,80856,1,8,0:0:0:0:
256,192,80893,1,8,0:0:0:0:
256,192,81006,1,8,0:0:0:0:
256,192,81043,1,8,0:0:0:0:
256,192,81156,1,8,0:0:0:0:
256,192,81193,1,8,0:0:0:0:
256,192,81306,1,8,0:0:0:0:
256,192,81343,1,8,0:0:0:0:
256,192,81456,1,8,0:0:0:0:
256,192,81531,1,8,0:0:0:0:
256,192,81606,1,8,0:0:0:0:
256,192,81643,1,8,0:0:0:0:
256,192,81756,1,8,0:0:0:0:
256,192,81793,1,8,0:0:0:0:
256,192,81906,1,8,0:0:0:0:
256,192,81943,1,8,0:0:0:0:
256,192,82056,1,8,0:0:0:0:
256,192,82093,1,8,0:0:0:0:
256,192,82206,1,8,0:0:0:0:
256,192,82243,1,8,0:0:0:0:
256,192,82506,1,12,0:0:0:0:
256,192,82656,1,4,0:0:0:0:
256,192,82806,1,12,0:0:0:0:
256,192,82824,12,0,85206,0:0:0:0:
256,192,83106,5,8,0:0:0:0:
256,192,83206,1,0,0:0:0:0:
256,192,83306,1,8,0:0:0:0:
256,192,83406,1,0,0:0:0:0:
256,192,83506,1,8,0:0:0:0:
256,192,83606,1,0,0:0:0:0:
256,192,83706,1,8,0:0:0:0:
256,192,83806,1,0,0:0:0:0:
256,192,83906,1,8,0:0:0:0:
256,192,84006,1,0,0:0:0:0:
256,192,84106,5,8,0:0:0:0:
256,192,84206,1,0,0:0:0:0:
256,192,84306,1,8,0:0:0:0:
256,192,84406,1,0,0:0:0:0:
256,192,84506,1,8,0:0:0:0:
256,192,84606,1,0,0:0:0:0:
256,192,84706,5,8,0:0:0:0:
256,192,84806,1,0,0:0:0:0:
256,192,84906,1,0,0:0:0:0:
256,192,85006,1,8,0:0:0:0:
256,192,85106,1,0,0:0:0:0:
256,192,85206,1,0,0:0:0:0:
256,192,85506,1,0,0:0:0:0:
256,192,85806,1,0,0:0:0:0:
256,192,86106,1,0,0:0:0:0:
256,192,86406,1,0,0:0:0:0:
256,192,86706,1,0,0:0:0:0:
256,192,87006,1,0,0:0:0:0:
256,192,87156,1,8,0:0:0:0:
256,192,87456,1,8,0:0:0:0:
256,192,87606,1,0,0:0:0:0:
256,192,87756,2,0,L|272:192,1,1
256,192,87906,1,0,0:0:0:0:
256,192,88056,2,0,L|272:192,1,1
256,192,88206,1,0,0:0:0:0:
256,192,88356,2,0,L|272:192,1,1
256,192,88506,1,0,0:0:0:0:
256,192,88656,2,4,L|272:192,1,1
256,192,88806,1,0,0:0:0:0:
256,192,88956,2,0,L|272:192,1,1
256,192,89106,1,0,0:0:0:0:
256,192,89256,2,0,L|272:192,1,1
256,192,89406,1,0,0:0:0:0:
256,192,89556,2,0,L|272:192,1,1
256,192,89706,1,4,0:0:0:0:
256,192,89856,2,0,L|272:192,1,1
256,192,90006,1,0,0:0:0:0:
256,192,90306,1,0,0:0:0:0:
256,192,90606,1,0,0:0:0:0:
256,192,90906,1,0,0:0:0:0:
256,192,91206,1,0,0:0:0:0:
256,192,91506,1,0,0:0:0:0:
256,192,91806,1,8,0:0:0:0:
256,192,92106,1,8,0:0:0:0:
256,192,92406,2,0,L|272:192,1,1
256,192,92443,2,0,L|272:192,1,1
256,192,92556,2,0,L|272:192,1,1
256,192,92593,2,0,L|272:192,1,1
256,192,92706,2,0,L|272:192,1,1
256,192,92743,2,0,L|272:192,1,1
256,192,92856,2,0,L|272:192,1,1
256,192,92893,2,0,L|272:192,1,1
256,192,93006,2,0,L|272:192,1,1
256,192,93043,2,0,L|272:192,1,1
256,192,93156,2,0,L|272:192,1,1
256,192,93193,2,0,L|272:192,1,1
256,192,93306,2,0,L|272:192,1,1
256,192,93343,2,0,L|272:192,1,1
256,192,93456,2,0,L|272:192,1,1
256,192,93493,2,0,L|272:192,1,1
256,192,93756,2,0,L|272:192,1,1
256,192,94056,2,0,L|272:192,1,1
256,192,94206,2,4,L|272:192,1,1
256,192,94356,2,4,L|272:192,1,1
256,192,94506,2,4,L|272:192,1,1
256,192,94806,1,0,0:0:0:0:
256,192,95106,1,0,0:0:0:0:
256,192,95406,1,0,0:0:0:0:
256,192,95706,1,0,0:0:0:0:
256,192,95856,2,0,L|272:192,1,1
256,192,96006,1,8,0:0:0:0:
256,192,96306,1,8,0:0:0:0:
256,192,96606,1,0,0:0:0:0:
256,192,96906,2,0,L|272:192,1,1
256,192,97206,1,0,0:0:0:0:
256,192,97506,1,0,0:0:0:0:
256,192,97806,1,0,0:0:0:0:
256,192,98106,1,0,0:0:0:0:
256,192,98406,1,0,0:0:0:0:
256,192,98706,1,0,0:0:0:0:
256,192,99006,2,0,L|272:192,1,1
256,192,99043,2,0,L|272:192,1,1
256,192,99156,2,0,L|272:192,1,1
256,192,99193,2,0,L|272:192,1,1
256,192,99306,2,0,L|272:192,1,1
256,192,99343,2,0,L|272:192,1,1
256,192,99456,2,0,L|272:192,1,1
256,192,99493,2,0,L|272:192,1,1
256,192,99606,1,0,0:0:0:0:
256,192,99906,1,0,0:0:0:0:
256,192,100206,1,0,0:0:0:0:
256,192,100506,1,0,0:0:0:0:
256,192,100806,1,0,0:0:0:0:
256,192,101106,1,0,0:0:0:0:
256,192,101406,1,0,0:0:0:0:
256,192,101706,1,0,0:0:0:0:
256,192,102006,1,8,0:0:0:0:
256,192,102306,1,8,0:0:0:0:
256,192,102606,1,8,0:0:0:0:
256,192,102906,1,8,0:0:0:0:
256,192,103206,1,8,0:0:0:0:
256,192,103506,2,0,L|272:192,1,1
256,192,103656,2,0,L|272:192,1,1
256,192,103806,2,0,L|272:192,1,1
256,192,103881,2,0,L|272:192,1,1
256,192,103956,2,0,L|272:192,1,1
256,192,104031,2,0,L|272:192,1,1
256,192,104106,2,0,L|272:192,1,1
256,192,104181,2,0,L|272:192,1,1
256,192,104256,2,0,L|272:192,1,1
256,192,104331,2,0,L|272:192,1,1
256,192,104406,1,8,0:0:0:0:
256,192,104706,1,8,0:0:0:0:
256,192,104856,2,0,L|272:192,1,1
256,192,105006,1,8,0:0:0:0:
256,192,105081,2,0,L|272:192,1,1
256,192,105156,2,0,L|272:192,1,1
256,192,105231,2,0,L|272:192,1,1
256,192,105306,2,0,L|272:192,1,1
256,192,105381,2,0,L|272:192,1,1
256,192,105456,2,0,L|272:192,1,1
256,192,105531,2,0,L|272:192,1,1
256,192,105606,1,8,0:0:0:0:
256,192,105906,1,8,0:0:0:0:
256,192,105981,2,0,L|272:192,1,1
256,192,106056,2,0,L|272:192,1,1
256,192,106131,2,0,L|272:192,1,1
256,192,106206,1,8,0:0:0:0:
256,192,106281,2,0,L|272:192,1,1
256,192,106356,2,0,L|272:192,1,1
256,192,106431,2,0,L|272:192,1,1
256,192,106506,2,0,L|272:192,1,1
256,192,106581,2,0,L|272:192,1,1
256,192,106656,2,0,L|272:192,1,1
256,192,106731,2,0,L|272:192,1,1
256,192,106806,1,0,0:0:0:0:
256,192,107106,1,0,0:0:0:0:
256,192,107256,2,0,L|224:160,1,35
256,192,107406,1,0,0:0:0:0:
256,192,107424,2,0,L|192:96,1,105
256,192,107706,2,0,L|256:64,1,105
256,192,108006,1,8,0:0:0:0:
256,192,108306,1,8,0:0:0:0:
256,192,108456,2,0,L|224:224,1,35
256,192,108606,1,8,0:0:0:0:
256,192,108624,2,0,L|192:96,1,105
256,192,108906,2,0,L|256:64,1,105
256,192,109206,1,12,0:0:0:0:
256,192,109281,2,0,L|272:192,1,1
256,192,109356,2,0,L|272:192,1,1
256,192,109431,2,0,L|272:192,1,1
256,192,109506,1,12,0:0:0:0:
256,192,109581,2,0,L|272:192,1,1
256,192,109656,2,0,L|272:192,1,1
256,192,109731,2,0,L|272:192,1,1
256,192,109806,1,12,0:0:0:0:
256,192,109881,2,0,L|272:192,1,1
256,192,109956,2,0,L|272:192,1,1
256,192,110031,2,0,L|272:192,1,1
256,192,110106,2,0,L|272:192,1,1
256,192,110181,2,0,L|272:192,1,1
256,192,110256,2,0,L|272:192,1,1
256,192,110331,2,0,L|272:192,1,1
256,192,110406,1,12,0:0:0:0:
256,192,110481,2,0,L|272:192,1,1
256,192,110556,2,0,L|272:192,1,1
256,192,110631,2,0,L|272:192,1,1
256,192,110706,1,12,0:0:0:0:
256,192,110781,2,0,L|272:192,1,1
256,192,110856,2,0,L|272:192,1,1
256,192,110931,2,0,L|272:192,1,1
256,192,111006,1,12,0:0:0:0:
256,192,111081,2,4,L|272:192,1,1
256,192,111156,2,4,L|272:192,1,1
256,192,111231,2,4,L|272:192,1,1
256,192,111306,2,4,L|272:192,1,1
256,192,111381,2,4,L|272:192,1,1
256,192,111456,2,4,L|272:192,1,1
256,192,111531,2,4,L|272:192,1,1
256,192,111606,1,12,0:0:0:0:
256,192,111643,2,0,L|272:192,1,1
256,192,111681,2,0,L|272:192,1,1
256,192,111718,2,0,L|272:192,1,1
256,192,111756,2,0,L|272:192,1,1
256,192,111793,2,0,L|272:192,1,1
256,192,111831,2,0,L|272:192,1,1
256,192,111868,2,0,L|272:192,1,1
256,192,111906,1,4,0:0:0:0:
256,192,111943,2,4,L|272:192,1,1
256,192,111981,2,4,L|272:192,1,1
256,192,112018,2,4,L|272:192,1,1
256,192,112056,2,4,L|272:192,1,1
256,192,112093,2,4,L|272:192,1,1
256,192,112131,2,4,L|272:192,1,1
256,192,112168,2,4,L|272:192,1,1
256,192,112206,1,12,0:0:0:0:
256,192,112224,2,0,L|272:192,1,1
256,192,112243,2,0,L|272:192,1,1
256,192,112262,2,0,L|272:192,1,1
256,192,112281,2,0,L|272:192,1,1
256,192,112299,2,0,L|272:192,1,1
256,192,112318,2,0,L|272:192,1,1
256,192,112337,2,0,L|272:192,1,1
256,192,112356,2,0,L|272:192,1,1
256,192,112374,2,0,L|272:192,1,1
256,192,112393,2,0,L|272:192,1,1
256,192,112412,2,0,L|272:192,1,1
256,192,112431,2,0,L|272:192,1,1
256,192,112449,2,0,L|272:192,1,1
256,192,112468,2,0,L|272:192,1,1
256,192,112487,2,4,L|272:192,1,1
256,192,112506,2,4,L|272:192,1,1
256,192,112524,2,4,L|272:192,1,1
256,192,112543,2,4,L|272:192,1,1
256,192,112562,2,4,L|272:192,1,1
256,192,112581,2,4,L|272:192,1,1
256,192,112599,2,4,L|272:192,1,1
256,192,112618,2,4,L|272:192,1,1
256,192,112637,2,4,L|272:192,1,1
256,192,112656,2,4,L|272:192,1,1
256,192,112674,2,4,L|272:192,1,1
256,192,112693,2,4,L|272:192,1,1
256,192,112712,2,4,L|272:192,1,1
256,192,112731,2,4,L|272:192,1,1
256,192,112749,2,4,L|272:192,1,1
256,192,112768,2,4,L|272:192,1,1
256,192,112787,2,4,L|272:192,1,1
256,192,112806,1,4,0:0:0:0:
256,192,113106,1,4,0:0:0:0:
256,192,113406,1,4,0:0:0:0:
256,192,113706,1,8,0:0:0:0:
256,192,113706,1,12,0:0:0:0:
256,192,114006,1,0,0:0:0:0:
256,192,114006,1,4,0:0:0:0:
256,192,114456,1,8,0:0:0:0:
256,192,114531,1,8,0:0:0:0:
256,192,114606,1,8,0:0:0:0:
256,192,114756,1,8,0:0:0:0:
256,192,114906,1,8,0:0:0:0:
256,192,115056,1,8,0:0:0:0:
256,192,115206,1,8,0:0:0:0:
256,192,115506,1,8,0:0:0:0:
256,192,115656,1,8,0:0:0:0:
256,192,115806,1,8,0:0:0:0:
256,192,116106,1,0,0:0:0:0:
256,192,116256,1,0,0:0:0:0:
256,192,116406,1,12,0:0:0:0:
256,192,116556,1,0,0:0:0:0:
256,192,116706,1,0,0:0:0:0:
256,192,116856,1,0,0:0:0:0:
256,192,117006,1,12,0:0:0:0:
256,192,117306,1,4,0:0:0:0:
256,192,117606,1,4,0:0:0:0:
256,192,117756,12,0,122756,0:0:0:0:
