osu file format v14

[General]
AudioFilename: audio.mp3
AudioLeadIn: 0
PreviewTime: 0
Countdown: 0
SampleSet: Normal
StackLeniency: 0.7
Mode: 1
LetterboxInBreaks: 0
WidescreenStoryboard: 0

[Editor]
DistanceSpacing: 0.7
BeatDivisor: 4
GridSize: 32
TimelineZoom: 2.000001

[Metadata]
Title:PEPPY FIX TAIKO STAR RATING PLEASE for a happier
TitleUnicode:PEPPY FIX TAIKO STAR RATING PLEASE for a happier
Artist:Various Artists
ArtistUnicode:Various Artists
Creator:ARGENTINE DREAM
Version:Rhytoly's rankable pp
Source:
Tags:kasai harcores esti round wave crusher d abe3 slash dot dash cycle hit helix maniera axer backfire hikikochan hikiko- _yu68 surono alchyr nifty brames consified lno skull kid skid brasil luckysonicghz kqrth trapmaniac agu ppus zigizigiefe nwolf -kazu- idealism babysnakes astolfo vrnl yea jarvisgaming chichinya poii hirok _dusk_ nishizumi ulqui coryn faputa rhytoly dudetm meovvcat jhowm gaston_2199 kbludoh blackener mtdex kuron kuron-kun tyistiana xtrem3x ghm12 davidminh0111 -gn junior aspirin whats skill metalstream whosthebox grimbow duski ozzyozrock foxerus endymion vulkin taiko pp compilation
BeatmapID:1741165
BeatmapSetID:794048

[Difficulty]
HPDrainRate:4
CircleSize:7
OverallDifficulty:7
ApproachRate:10
SliderMultiplier:1.4
SliderTickRate:1

[Events]
//Background and Video events
0,0,"pipifarmindeed butquality.jpg",0,0
//Break Periods
//Storyboard Layer 0 (Background)
//Storyboard Layer 1 (Fail)
//Storyboard Layer 2 (Pass)
//Storyboard Layer 3 (Foreground)
//Storyboard Sound Samples

[TimingPoints]
6,300,4,1,0,80,1,0
2406,-99.009900990099,4,1,0,80,0,0
4806,-98.0392156862745,4,1,0,80,0,0
7206,-97.0873786407767,4,1,0,80,0,0
7731,-96.1538461538461,4,1,0,80,0,0
7806,-95.2380952380952,4,1,0,80,0,0
8331,-94.3396226415094,4,1,0,80,0,0
8406,-93.4579439252336,4,1,0,80,0,0
8931,-92.5925925925926,4,1,0,80,0,0
9006,-91.743119266055,4,1,0,80,0,0
9606,-90.9090909090909,4,1,0,80,0,1
14106,-90.9090909090909,4,1,0,80,0,0
14406,-90.9090909090909,4,1,0,80,0,1
18606,-90.9090909090909,4,1,0,80,0,0
19206,-90.9090909090909,4,1,0,80,0,1
23706,-90.9090909090909,4,1,0,80,0,0
24006,-90.9090909090909,4,1,0,80,0,1
28506,-90.9090909090909,4,1,0,80,0,0
28806,-90.9090909090909,4,1,0,80,0,1
40956,-91.743119266055,4,1,0,80,0,1
41106,-92.5925925925926,4,1,0,80,0,1
41256,-93.4579439252336,4,1,0,80,0,1
41406,-94.3396226415094,4,1,0,80,0,1
41556,-95.2380952380952,4,1,0,80,0,1
41706,-96.1538461538461,4,1,0,80,0,1
41856,-97.0873786407767,4,1,0,80,0,1
42006,-98.0392156862745,4,1,0,80,0,1
42156,-99.009900990099,4,1,0,80,0,1
42306,-100,4,1,0,80,0,0
43356,-99.009900990099,4,1,0,80,0,0
43431,-98.0392156862745,4,1,0,80,0,0
43506,-97.0873786407767,4,1,0,80,0,0
43581,-96.1538461538461,4,1,0,80,0,0
43656,-95.2380952380952,4,1,0,80,0,0
43731,-94.3396226415094,4,1,0,80,0,0
43806,-93.4579439252336,4,1,0,80,0,0
43881,-92.5925925925926,4,1,0,80,0,0
43956,-91.743119266055,4,1,0,80,0,0
44031,-90.9090909090909,4,1,0,80,0,0
44106,-90.0900900900901,4,1,0,80,0,0
44181,-89.2857142857143,4,1,0,80,0,0
44256,-88.4955752212389,4,1,0,80,0,0
44406,-86.9565217391304,4,1,0,80,0,1
52806,-86.9565217391304,4,1,0,80,0,0
54006,-86.9565217391304,4,1,0,80,0,1
57981,-87.719298245614,4,1,0,80,0,1
58131,-89.2857142857143,4,1,0,80,0,1
58206,-90.0900900900901,4,1,0,80,0,1
58356,-91.743119266055,4,1,0,80,0,1
58431,-92.5925925925926,4,1,0,80,0,1
58581,-94.3396226415094,4,1,0,80,0,1
58656,-95.2380952380952,4,1,0,80,0,1
58806,-86.9565217391304,4,1,0,80,0,1
63606,-86.9565217391304,4,1,0,80,0,0
63756,-88.4955752212389,4,1,0,80,0,0
63831,-89.2857142857143,4,1,0,80,0,0
63906,-90.0900900900901,4,1,0,80,0,0
63981,-90.9090909090909,4,1,0,80,0,0
72006,-90.0900900900901,4,1,0,80,0,0
72306,-89.2857142857143,4,1,0,80,0,0
72606,-88.4955752212389,4,1,0,80,0,0
72906,-87.719298245614,4,1,0,80,0,0
73206,-86.9565217391304,4,1,0,80,0,1
84906,-87.719298245614,4,1,0,80,0,1
84981,-88.4955752212389,4,1,0,80,0,1
85056,-89.2857142857143,4,1,0,80,0,1
85206,-90.9090909090909,4,1,0,80,0,1
94206,-90.9090909090909,4,1,0,80,0,0
94806,-90.9090909090909,4,1,0,80,0,1
102006,-90.9090909090909,4,1,0,80,0,0
103806,-89.2857142857143,4,1,0,80,0,0
103881,-88.4955752212389,4,1,0,80,0,0
103956,-87.719298245614,4,1,0,80,0,0
104031,-86.9565217391304,4,1,0,80,0,0
104106,-86.2068965517241,4,1,0,80,0,0
104181,-85.4700854700855,4,1,0,80,0,0
104256,-84.7457627118644,4,1,0,80,0,0
104406,-83.3333333333333,4,1,0,80,0,1
113706,-90.9090909090909,4,1,0,80,0,1
114006,-100,4,1,0,80,0,0
117756,4000,4,1,0,80,1,0

[HitObjects]
446,102,6,5,8,0:0:0:0:
91,81,306,1,0,0:0:0:0:
196,144,456,1,8,0:0:0:0:
196,144,531,1,0,0:0:0:0:
196,144,606,1,8,0:0:0:0:
196,144,756,1,8,0:0:0:0:
180,121,906,1,0,0:0:0:0:
180,121,1056,1,0,0:0:0:0:
179,117,1206,1,8,0:0:0:0:
281,161,1506,1,8,0:0:0:0:
311,162,1656,1,8,0:0:0:0:
250,99,1806,1,0,0:0:0:0:
149,133,2106,1,0,0:0:0:0:
217,133,2256,1,0,0:0:0:0:
177,72,2406,1,8,0:0:0:0:
91,81,2706,1,0,0:0:0:0:
196,144,2856,1,8,0:0:0:0:
196,144,2931,1,0,0:0:0:0:
196,144,3006,1,8,0:0:0:0:
196,144,3156,1,8,0:0:0:0:
180,121,3306,1,0,0:0:0:0:
180,121,3456,1,0,0:0:0:0:
179,117,3606,1,8,0:0:0:0:
145,160,3756,1,0,0:0:0:0:
155,160,3831,1,0,0:0:0:0:
281,161,3906,1,8,0:0:0:0:
311,162,4056,1,8,0:0:0:0:
250,99,4206,1,0,0:0:0:0:
149,133,4506,1,0,0:0:0:0:
217,133,4656,1,0,0:0:0:0:
177,72,4806,1,8,0:0:0:0:
91,81,5106,1,0,0:0:0:0:
196,144,5256,1,8,0:0:0:0:
196,144,5331,1,0,0:0:0:0:
196,144,5406,1,8,0:0:0:0:
196,144,5556,1,8,0:0:0:0:
180,121,5706,1,0,0:0:0:0:
180,121,5856,1,0,0:0:0:0:
179,117,6006,1,8,0:0:0:0:
281,161,6306,1,8,0:0:0:0:
311,162,6456,1,8,0:0:0:0:
250,99,6606,1,0,0:0:0:0:
149,133,6906,1,0,0:0:0:0:
217,133,7056,1,0,0:0:0:0:
177,72,7206,1,8,0:0:0:0:
85,132,7281,1,0,0:0:0:0:
116,132,7356,1,0,0:0:0:0:
116,132,7431,1,0,0:0:0:0:
116,132,7506,1,8,0:0:0:0:
116,132,7581,1,8,0:0:0:0:
116,132,7656,1,0,0:0:0:0:
116,132,7731,1,0,0:0:0:0:
116,132,7806,1,8,0:0:0:0:
116,132,7881,1,0,0:0:0:0:
116,132,7956,1,8,0:0:0:0:
116,132,8031,1,8,0:0:0:0:
116,132,8106,1,0,0:0:0:0:
116,132,8181,1,0,0:0:0:0:
116,132,8256,1,8,0:0:0:0:
116,132,8331,1,8,0:0:0:0:
116,132,8406,1,0,0:0:0:0:
116,132,8481,1,0,0:0:0:0:
116,132,8556,1,8,0:0:0:0:
116,132,8631,1,0,0:0:0:0:
116,132,8706,1,8,0:0:0:0:
116,132,8781,1,8,0:0:0:0:
116,132,8856,1,0,0:0:0:0:
116,132,8931,1,0,0:0:0:0:
116,132,9006,1,8,0:0:0:0:
316,78,9056,1,8,0:0:0:0:
316,78,9106,1,8,0:0:0:0:
316,78,9156,1,0,0:0:0:0:
321,83,9231,1,0,0:0:0:0:
316,78,9306,1,8,0:0:0:0:
316,78,9356,1,0,0:0:0:0:
316,78,9406,1,0,0:0:0:0:
316,78,9456,1,8,0:0:0:0:
316,78,9606,1,4,0:0:0:0:
301,127,9756,1,0,0:0:0:0:
301,127,9831,1,0,0:0:0:0:
301,127,9906,1,8,0:0:0:0:
301,127,10056,1,0,0:0:0:0:
301,127,10206,1,8,0:0:0:0:
271,101,10356,1,0,0:0:0:0:
271,101,10431,1,0,0:0:0:0:
271,101,10506,1,8,0:0:0:0:
217,131,10581,1,8,0:0:0:0:
271,101,10656,1,0,0:0:0:0:
271,101,10806,1,8,0:0:0:0:
271,101,10956,1,0,0:0:0:0:
271,101,11031,1,0,0:0:0:0:
271,101,11106,1,8,0:0:0:0:
97,160,11181,1,0,0:0:0:0:
271,101,11256,1,8,0:0:0:0:
196,146,11331,1,8,0:0:0:0:
271,101,11406,1,0,0:0:0:0:
373,241,11556,1,0,0:0:0:0:
283,129,11706,1,8,0:0:0:0:
283,129,11781,1,8,0:0:0:0:
283,129,11856,1,0,0:0:0:0:
283,129,12006,1,0,0:0:0:0:
126,149,12156,1,0,0:0:0:0:
126,149,12231,1,0,0:0:0:0:
126,149,12306,1,8,0:0:0:0:
126,149,12456,1,0,0:0:0:0:
127,145,12606,1,8,0:0:0:0:
117,114,12756,1,0,0:0:0:0:
117,114,12831,1,0,0:0:0:0:
117,114,12906,1,8,0:0:0:0:
231,54,12981,1,8,0:0:0:0:
117,114,13056,1,0,0:0:0:0:
117,114,13206,1,8,0:0:0:0:
167,151,13356,1,0,0:0:0:0:
167,151,13431,1,8,0:0:0:0:
167,151,13506,1,0,0:0:0:0:
177,151,13656,1,8,0:0:0:0:
177,151,13693,1,8,0:0:0:0:
177,151,13806,1,8,0:0:0:0:
177,151,13843,1,8,0:0:0:0:
177,151,13956,1,0,0:0:0:0:
177,151,13993,1,0,0:0:0:0:
177,151,14106,1,0,0:0:0:0:
177,151,14143,1,0,0:0:0:0:
173,152,14256,1,8,0:0:0:0:
144,152,14293,1,8,0:0:0:0:
280,203,14406,1,4,0:0:0:0:
301,127,14556,1,0,0:0:0:0:
301,127,14631,1,0,0:0:0:0:
301,127,14706,1,8,0:0:0:0:
301,127,14856,1,0,0:0:0:0:
301,127,15006,1,8,0:0:0:0:
271,101,15156,1,0,0:0:0:0:
271,101,15231,1,0,0:0:0:0:
271,101,15306,1,8,0:0:0:0:
32,134,15381,1,8,0:0:0:0:
271,101,15456,1,0,0:0:0:0:
271,101,15606,1,8,0:0:0:0:
271,101,15756,1,0,0:0:0:0:
271,101,15831,1,0,0:0:0:0:
271,101,15906,1,8,0:0:0:0:
97,160,15981,1,0,0:0:0:0:
271,101,16056,1,8,0:0:0:0:
196,146,16131,1,8,0:0:0:0:
271,101,16206,1,0,0:0:0:0:
373,241,16356,1,0,0:0:0:0:
283,129,16506,1,8,0:0:0:0:
283,129,16581,1,8,0:0:0:0:
283,129,16656,1,0,0:0:0:0:
283,129,16806,1,0,0:0:0:0:
126,149,16956,1,0,0:0:0:0:
126,149,17031,1,0,0:0:0:0:
126,149,17106,1,8,0:0:0:0:
126,149,17256,1,0,0:0:0:0:
127,145,17406,1,8,0:0:0:0:
117,114,17556,1,0,0:0:0:0:
117,114,17631,1,0,0:0:0:0:
117,114,17706,1,8,0:0:0:0:
240,155,17781,1,8,0:0:0:0:
117,114,17856,1,0,0:0:0:0:
117,114,18006,1,8,0:0:0:0:
167,151,18156,1,8,0:0:0:0:
167,151,18231,1,8,0:0:0:0:
167,151,18306,1,0,0:0:0:0:
206,147,18381,1,0,0:0:0:0:
177,151,18456,1,8,0:0:0:0:
177,151,18606,1,0,0:0:0:0:
177,151,18643,1,0,0:0:0:0:
177,151,18756,1,8,0:0:0:0:
177,151,18793,1,8,0:0:0:0:
177,151,18906,1,0,0:0:0:0:
177,151,18956,1,0,0:0:0:0:
173,152,19006,1,0,0:0:0:0:
144,152,19056,1,8,0:0:0:0:
280,203,19206,1,4,0:0:0:0:
301,127,19356,1,0,0:0:0:0:
301,127,19431,1,0,0:0:0:0:
301,127,19506,1,8,0:0:0:0:
301,127,19656,1,0,0:0:0:0:
301,127,19806,1,8,0:0:0:0:
271,101,19956,1,0,0:0:0:0:
271,101,20031,1,0,0:0:0:0:
271,101,20106,1,8,0:0:0:0:
217,131,20181,1,8,0:0:0:0:
271,101,20256,1,0,0:0:0:0:
271,101,20406,1,8,0:0:0:0:
271,101,20556,1,0,0:0:0:0:
97,160,20631,1,0,0:0:0:0:
271,101,20706,1,8,0:0:0:0:
271,101,20781,1,0,0:0:0:0:
271,101,20856,1,8,0:0:0:0:
271,101,20931,1,8,0:0:0:0:
196,146,21006,1,0,0:0:0:0:
373,241,21156,1,8,0:0:0:0:
283,129,21231,1,0,0:0:0:0:
283,129,21306,1,8,0:0:0:0:
283,129,21456,1,8,0:0:0:0:
283,129,21606,1,0,0:0:0:0:
126,149,21756,1,8,0:0:0:0:
126,149,21831,1,8,0:0:0:0:
126,149,21906,1,0,0:0:0:0:
127,145,22056,1,8,0:0:0:0:
126,149,22206,1,0,0:0:0:0:
231,54,22356,1,8,0:0:0:0:
117,114,22431,1,8,0:0:0:0:
117,114,22506,1,0,0:0:0:0:
117,114,22581,1,0,0:0:0:0:
117,114,22656,1,8,0:0:0:0:
117,114,22806,1,0,0:0:0:0:
167,151,22956,1,8,0:0:0:0:
167,151,23031,1,8,0:0:0:0:
167,151,23106,1,0,0:0:0:0:
177,151,23256,1,0,0:0:0:0:
177,151,23406,1,8,0:0:0:0:
177,151,23556,1,0,0:0:0:0:
177,151,23631,1,0,0:0:0:0:
177,151,23706,1,8,0:0:0:0:
173,152,23781,1,8,0:0:0:0:
144,152,23856,1,0,0:0:0:0:
280,203,24006,1,4,0:0:0:0:
301,127,24156,1,0,0:0:0:0:
301,127,24231,1,0,0:0:0:0:
301,127,24306,1,8,0:0:0:0:
301,127,24456,1,0,0:0:0:0:
301,127,24606,1,8,0:0:0:0:
271,101,24756,1,0,0:0:0:0:
271,101,24831,1,0,0:0:0:0:
271,101,24906,1,8,0:0:0:0:
32,134,24981,1,8,0:0:0:0:
271,101,25056,1,0,0:0:0:0:
271,101,25206,1,8,0:0:0:0:
271,101,25356,1,0,0:0:0:0:
271,101,25431,1,0,0:0:0:0:
271,101,25506,1,8,0:0:0:0:
97,160,25581,1,0,0:0:0:0:
271,101,25656,1,8,0:0:0:0:
196,146,25731,1,8,0:0:0:0:
271,101,25806,1,0,0:0:0:0:
373,241,25956,1,0,0:0:0:0:
283,129,26106,1,8,0:0:0:0:
283,129,26181,1,8,0:0:0:0:
283,129,26256,1,0,0:0:0:0:
283,129,26406,1,0,0:0:0:0:
126,149,26443,1,0,0:0:0:0:
126,149,26556,1,8,0:0:0:0:
126,149,26593,1,8,0:0:0:0:
126,149,26706,1,0,0:0:0:0:
127,145,26743,1,0,0:0:0:0:
110,135,26856,1,8,0:0:0:0:
110,135,26893,1,8,0:0:0:0:
203,32,27006,1,0,0:0:0:0:
203,32,27043,1,0,0:0:0:0:
117,114,27156,1,8,0:0:0:0:
117,114,27193,1,8,0:0:0:0:
117,114,27306,1,0,0:0:0:0:
240,155,27343,1,0,0:0:0:0:
117,114,27456,1,8,0:0:0:0:
117,114,27493,1,8,0:0:0:0:
84,144,27606,1,0,0:0:0:0:
99,144,27656,1,0,0:0:0:0:
99,144,27706,1,0,0:0:0:0:
167,151,27756,1,8,0:0:0:0:
167,151,27906,1,8,0:0:0:0:
206,147,27956,1,8,0:0:0:0:
177,151,28006,1,8,0:0:0:0:
96,128,28056,1,0,0:0:0:0:
177,151,28206,1,0,0:0:0:0:
177,151,28243,1,0,0:0:0:0:
177,151,28356,1,8,0:0:0:0:
177,151,28393,1,8,0:0:0:0:
144,152,28506,1,0,0:0:0:0:
280,203,28806,1,4,0:0:0:0:
106,139,28956,1,0,0:0:0:0:
106,139,29031,1,0,0:0:0:0:
106,139,29106,1,8,0:0:0:0:
318,142,29256,1,0,0:0:0:0:
191,167,29406,1,8,0:0:0:0:
276,171,29556,1,8,0:0:0:0:
276,171,29631,1,0,0:0:0:0:
276,171,29706,1,8,0:0:0:0:
214,90,29856,1,8,0:0:0:0:
366,160,30006,1,0,0:0:0:0:
366,160,30081,1,0,0:0:0:0:
366,160,30156,1,8,0:0:0:0:
366,160,30231,1,8,0:0:0:0:
366,160,30306,1,0,0:0:0:0:
366,160,30381,1,0,0:0:0:0:
366,160,30456,1,8,0:0:0:0:
366,160,30531,1,0,0:0:0:0:
366,160,30606,1,8,0:0:0:0:
231,105,30681,1,8,0:0:0:0:
231,105,30756,1,0,0:0:0:0:
231,105,30806,1,0,0:0:0:0:
231,105,30856,1,0,0:0:0:0:
221,107,30906,1,8,0:0:0:0:
163,124,31056,1,0,0:0:0:0:
163,124,31206,1,8,0:0:0:0:
156,144,31356,1,8,0:0:0:0:
219,146,31431,1,0,0:0:0:0:
219,146,31506,1,8,0:0:0:0:
219,146,31656,1,0,0:0:0:0:
219,146,31806,1,8,0:0:0:0:
204,112,31956,1,8,0:0:0:0:
204,112,32031,1,8,0:0:0:0:
204,112,32106,1,0,0:0:0:0:
336,141,32256,1,8,0:0:0:0:
331,141,32331,1,8,0:0:0:0:
359,197,32406,1,0,0:0:0:0:
287,158,32481,1,0,0:0:0:0:
336,141,32556,1,8,0:0:0:0:
336,141,32631,1,0,0:0:0:0:
336,141,32706,1,8,0:0:0:0:
336,141,32781,1,8,0:0:0:0:
336,141,32856,1,0,0:0:0:0:
336,141,32931,1,0,0:0:0:0:
336,141,33006,1,8,0:0:0:0:
336,141,33081,1,0,0:0:0:0:
336,141,33156,1,8,0:0:0:0:
146,143,33206,1,8,0:0:0:0:
336,141,33256,1,8,0:0:0:0:
336,141,33306,1,0,0:0:0:0:
72,122,33456,1,8,0:0:0:0:
72,122,33493,1,8,0:0:0:0:
208,98,33606,1,0,0:0:0:0:
106,139,33756,1,0,0:0:0:0:
106,139,33831,1,0,0:0:0:0:
106,139,33906,1,8,0:0:0:0:
318,142,34056,1,0,0:0:0:0:
191,167,34206,1,8,0:0:0:0:
276,171,34356,1,8,0:0:0:0:
276,171,34431,1,0,0:0:0:0:
276,171,34506,1,8,0:0:0:0:
214,90,34656,1,8,0:0:0:0:
366,160,34806,1,0,0:0:0:0:
366,160,34843,1,0,0:0:0:0:
366,160,34956,1,0,0:0:0:0:
366,160,34993,1,0,0:0:0:0:
366,160,35106,1,8,0:0:0:0:
366,160,35143,1,8,0:0:0:0:
366,160,35256,1,8,0:0:0:0:
366,160,35293,1,8,0:0:0:0:
366,160,35406,1,0,0:0:0:0:
231,105,35443,1,0,0:0:0:0:
231,105,35556,1,0,0:0:0:0:
231,105,35593,1,0,0:0:0:0:
221,107,35706,1,8,0:0:0:0:
231,105,35743,1,8,0:0:0:0:
163,124,35856,1,8,0:0:0:0:
213,160,35893,1,8,0:0:0:0:
163,124,36006,1,0,0:0:0:0:
156,144,36156,1,8,0:0:0:0:
219,146,36231,1,0,0:0:0:0:
219,146,36306,1,8,0:0:0:0:
219,146,36456,1,0,0:0:0:0:
219,146,36606,1,8,0:0:0:0:
204,112,36756,1,8,0:0:0:0:
204,112,36831,1,8,0:0:0:0:
204,112,36906,1,0,0:0:0:0:
43,148,37056,1,8,0:0:0:0:
62,148,37093,1,8,0:0:0:0:
62,148,37206,1,0,0:0:0:0:
62,148,37243,1,0,0:0:0:0:
62,148,37356,1,0,0:0:0:0:
62,148,37393,1,0,0:0:0:0:
62,148,37506,1,8,0:0:0:0:
62,148,37543,1,8,0:0:0:0:
62,148,37656,1,0,0:0:0:0:
62,148,37693,1,0,0:0:0:0:
62,148,37806,1,8,0:0:0:0:
62,148,37843,1,8,0:0:0:0:
62,148,37956,1,8,0:0:0:0:
62,148,37993,1,8,0:0:0:0:
62,148,38106,1,0,0:0:0:0:
62,148,38143,1,0,0:0:0:0:
62,148,38256,1,8,0:0:0:0:
62,148,38293,1,8,0:0:0:0:
62,148,38406,1,0,0:0:0:0:
62,148,38443,1,0,0:0:0:0:
62,148,38556,1,8,0:0:0:0:
62,148,38593,1,8,0:0:0:0:
62,148,38706,1,8,0:0:0:0:
62,148,38743,1,8,0:0:0:0:
62,148,38856,1,0,0:0:0:0:
62,148,38893,1,0,0:0:0:0:
62,148,39006,1,8,0:0:0:0:
62,148,39043,1,8,0:0:0:0:
62,148,39156,1,8,0:0:0:0:
62,148,39193,1,8,0:0:0:0:
62,148,39306,1,0,0:0:0:0:
62,148,39343,1,0,0:0:0:0:
62,148,39456,1,8,0:0:0:0:
62,148,39493,1,8,0:0:0:0:
62,148,39606,1,0,0:0:0:0:
62,148,39643,1,0,0:0:0:0:
62,148,39756,1,0,0:0:0:0:
99,157,39793,1,0,0:0:0:0:
136,162,39906,1,8,0:0:0:0:
141,162,39943,1,8,0:0:0:0:
124,144,40056,1,0,0:0:0:0:
124,144,40093,1,0,0:0:0:0:
80,137,40206,1,8,0:0:0:0:
80,137,40243,1,8,0:0:0:0:
90,134,40356,1,8,0:0:0:0:
90,134,40393,1,8,0:0:0:0:
90,134,40506,1,0,0:0:0:0:
141,79,40544,1,0,0:0:0:0:
145,124,40656,1,0,0:0:0:0:
190,118,40693,1,0,0:0:0:0:
262,94,40806,1,12,0:0:0:0:
262,94,40956,1,0,0:0:0:0:
115,94,41106,1,12,0:0:0:0:
115,94,41256,1,0,0:0:0:0:
115,94,41406,1,12,0:0:0:0:
115,94,41556,1,0,0:0:0:0:
115,94,41706,1,12,0:0:0:0:
115,94,41856,1,0,0:0:0:0:
115,94,42006,1,12,0:0:0:0:
115,94,42156,1,8,0:0:0:0:
115,94,42306,1,4,0:0:0:0:
187,136,42456,1,0,0:0:0:0:
187,136,42531,1,0,0:0:0:0:
187,136,42606,1,8,0:0:0:0:
212,66,42756,1,8,0:0:0:0:
180,175,42906,1,0,0:0:0:0:
250,72,43056,1,8,0:0:0:0:
250,72,43131,1,8,0:0:0:0:
171,25,43206,1,0,0:0:0:0:
230,118,43356,1,0,0:0:0:0:
234,118,43431,1,0,0:0:0:0:
234,118,43506,1,8,0:0:0:0:
234,118,43581,1,0,0:0:0:0:
234,118,43656,1,0,0:0:0:0:
234,118,43731,1,0,0:0:0:0:
224,104,43806,1,8,0:0:0:0:
234,118,43881,1,8,0:0:0:0:
234,118,43956,1,0,0:0:0:0:
234,118,44031,1,0,0:0:0:0:
234,118,44106,1,8,0:0:0:0:
221,91,44181,1,8,0:0:0:0:
221,91,44256,1,0,0:0:0:0:
187,83,44406,1,4,0:0:0:0:
150,157,44556,1,0,0:0:0:0:
153,157,44631,1,0,0:0:0:0:
153,157,44706,1,8,0:0:0:0:
49,132,44856,1,0,0:0:0:0:
59,132,44906,1,0,0:0:0:0:
59,132,44956,1,0,0:0:0:0:
59,132,45006,1,8,0:0:0:0:
335,66,45081,1,8,0:0:0:0:
123,113,45156,1,0,0:0:0:0:
123,113,45231,1,0,0:0:0:0:
123,113,45306,1,8,0:0:0:0:
377,56,45381,1,8,0:0:0:0:
123,113,45456,1,0,0:0:0:0:
123,113,45531,1,0,0:0:0:0:
123,113,45606,1,8,0:0:0:0:
191,130,45756,1,8,0:0:0:0:
233,129,45831,1,8,0:0:0:0:
233,129,45906,1,0,0:0:0:0:
169,146,46056,1,0,0:0:0:0:
169,146,46106,1,0,0:0:0:0:
169,146,46156,1,0,0:0:0:0:
349,54,46206,1,8,0:0:0:0:
349,54,46281,1,8,0:0:0:0:
189,140,46356,1,0,0:0:0:0:
189,140,46431,1,0,0:0:0:0:
349,54,46506,1,8,0:0:0:0:
349,54,46581,1,8,0:0:0:0:
189,140,46656,1,0,0:0:0:0:
349,54,46731,1,8,0:0:0:0:
189,140,46806,1,0,0:0:0:0:
140,112,46956,1,8,0:0:0:0:
146,112,47031,1,8,0:0:0:0:
306,160,47106,1,0,0:0:0:0:
306,160,47143,1,0,0:0:0:0:
306,160,47256,1,0,0:0:0:0:
301,160,47293,1,0,0:0:0:0:
295,159,47406,1,8,0:0:0:0:
298,158,47481,1,8,0:0:0:0:
298,158,47556,1,0,0:0:0:0:
119,104,47631,1,0,0:0:0:0:
298,158,47706,1,8,0:0:0:0:
430,25,47781,1,8,0:0:0:0:
226,66,47856,1,0,0:0:0:0:
268,50,47931,1,8,0:0:0:0:
226,66,48006,1,0,0:0:0:0:
328,60,48156,1,8,0:0:0:0:
328,60,48193,1,8,0:0:0:0:
328,60,48306,1,8,0:0:0:0:
328,60,48343,1,8,0:0:0:0:
328,60,48456,1,8,0:0:0:0:
328,60,48493,1,8,0:0:0:0:
328,60,48606,1,0,0:0:0:0:
328,60,48756,1,8,0:0:0:0:
328,60,48793,1,8,0:0:0:0:
328,60,48906,1,8,0:0:0:0:
328,60,48943,1,8,0:0:0:0:
345,163,49206,1,4,0:0:0:0:
150,157,49356,1,8,0:0:0:0:
153,157,49431,1,0,0:0:0:0:
153,157,49506,1,8,0:0:0:0:
49,132,49656,1,0,0:0:0:0:
59,132,49706,1,0,0:0:0:0:
59,132,49756,1,0,0:0:0:0:
59,132,49806,1,8,0:0:0:0:
335,66,49881,1,8,0:0:0:0:
123,113,49956,1,0,0:0:0:0:
123,113,50031,1,0,0:0:0:0:
123,113,50106,1,8,0:0:0:0:
377,56,50181,1,8,0:0:0:0:
123,113,50256,1,0,0:0:0:0:
123,113,50331,1,0,0:0:0:0:
123,113,50406,1,8,0:0:0:0:
191,130,50556,1,8,0:0:0:0:
233,129,50631,1,8,0:0:0:0:
233,129,50706,1,0,0:0:0:0:
169,146,50856,1,0,0:0:0:0:
169,146,50906,1,0,0:0:0:0:
169,146,50956,1,0,0:0:0:0:
349,54,51006,1,8,0:0:0:0:
349,54,51081,1,8,0:0:0:0:
189,140,51156,1,0,0:0:0:0:
189,140,51231,1,0,0:0:0:0:
349,54,51306,1,8,0:0:0:0:
349,54,51381,1,8,0:0:0:0:
189,140,51456,1,0,0:0:0:0:
349,54,51531,1,8,0:0:0:0:
189,140,51606,1,0,0:0:0:0:
140,112,51756,1,8,0:0:0:0:
146,112,51831,1,8,0:0:0:0:
306,160,51906,1,0,0:0:0:0:
306,160,51943,1,0,0:0:0:0:
306,160,52056,1,0,0:0:0:0:
301,160,52093,1,0,0:0:0:0:
295,159,52206,1,8,0:0:0:0:
298,158,52281,1,8,0:0:0:0:
298,158,52356,1,0,0:0:0:0:
119,104,52431,1,0,0:0:0:0:
298,158,52506,1,8,0:0:0:0:
430,25,52581,1,8,0:0:0:0:
226,66,52656,1,0,0:0:0:0:
268,50,52731,1,8,0:0:0:0:
226,66,52806,1,0,0:0:0:0:
380,204,52881,1,0,0:0:0:0:
328,60,52956,1,8,0:0:0:0:
328,60,53031,1,8,0:0:0:0:
328,60,53106,1,0,0:0:0:0:
328,60,53181,1,0,0:0:0:0:
328,60,53256,1,8,0:0:0:0:
328,60,53331,1,0,0:0:0:0:
328,60,53406,1,0,0:0:0:0:
328,60,53481,1,0,0:0:0:0:
328,60,53556,1,8,0:0:0:0:
328,60,53631,1,8,0:0:0:0:
287,149,53706,1,0,0:0:0:0:
287,149,53781,1,0,0:0:0:0:
328,60,53856,1,8,0:0:0:0:
345,163,54006,1,4,0:0:0:0:
302,106,54156,1,0,0:0:0:0:
302,106,54206,1,0,0:0:0:0:
302,106,54256,1,0,0:0:0:0:
302,106,54306,1,8,0:0:0:0:
302,106,54456,1,8,0:0:0:0:
302,106,54506,1,8,0:0:0:0:
302,106,54556,1,8,0:0:0:0:
302,106,54606,1,0,0:0:0:0:
302,106,54681,1,0,0:0:0:0:
302,106,54756,1,8,0:0:0:0:
479,186,54831,1,8,0:0:0:0:
302,106,54906,1,0,0:0:0:0:
302,106,54981,1,0,0:0:0:0:
302,106,55056,1,8,0:0:0:0:
302,106,55131,1,0,0:0:0:0:
302,106,55206,1,8,0:0:0:0:
181,135,55356,1,0,0:0:0:0:
138,136,55406,1,8,0:0:0:0:
181,135,55456,1,8,0:0:0:0:
181,135,55506,1,0,0:0:0:0:
205,123,55656,1,8,0:0:0:0:
205,123,55706,1,8,0:0:0:0:
205,123,55756,1,8,0:0:0:0:
205,123,55806,1,0,0:0:0:0:
236,157,55881,1,0,0:0:0:0:
247,157,55956,1,8,0:0:0:0:
247,157,56031,1,8,0:0:0:0:
247,157,56106,1,0,0:0:0:0:
247,157,56181,1,0,0:0:0:0:
247,157,56256,1,8,0:0:0:0:
247,157,56331,1,8,0:0:0:0:
247,157,56406,1,0,0:0:0:0:
210,109,56556,1,8,0:0:0:0:
210,109,56631,1,8,0:0:0:0:
433,69,56706,1,0,0:0:0:0:
433,69,56743,1,0,0:0:0:0:
412,71,56856,1,0,0:0:0:0:
412,71,56893,1,0,0:0:0:0:
370,132,57006,1,8,0:0:0:0:
370,132,57081,1,0,0:0:0:0:
370,132,57156,1,8,0:0:0:0:
370,132,57231,1,8,0:0:0:0:
370,132,57306,1,0,0:0:0:0:
370,132,57381,1,0,0:0:0:0:
370,132,57456,1,8,0:0:0:0:
370,132,57531,1,0,0:0:0:0:
370,132,57606,1,8,0:0:0:0:
191,93,57756,1,0,0:0:0:0:
191,93,57831,1,0,0:0:0:0:
191,93,57906,1,8,0:0:0:0:
191,93,57981,1,0,0:0:0:0:
62,115,58131,1,8,0:0:0:0:
93,120,58206,1,0,0:0:0:0:
93,120,58356,1,8,0:0:0:0:
93,120,58431,1,0,0:0:0:0:
93,120,58581,1,8,0:0:0:0:
93,120,58656,1,0,0:0:0:0:
93,120,58806,1,4,0:0:0:0:
302,106,58956,1,0,0:0:0:0:
302,106,59006,1,0,0:0:0:0:
302,106,59056,1,0,0:0:0:0:
302,106,59106,1,8,0:0:0:0:
302,106,59256,1,8,0:0:0:0:
302,106,59306,1,8,0:0:0:0:
302,106,59356,1,8,0:0:0:0:
302,106,59406,1,0,0:0:0:0:
302,106,59481,1,0,0:0:0:0:
302,106,59556,1,8,0:0:0:0:
479,186,59631,1,8,0:0:0:0:
302,106,59706,1,0,0:0:0:0:
302,106,59781,1,0,0:0:0:0:
302,106,59856,1,8,0:0:0:0:
302,106,59931,1,0,0:0:0:0:
302,106,60006,1,8,0:0:0:0:
181,135,60156,1,0,0:0:0:0:
138,136,60206,1,8,0:0:0:0:
181,135,60256,1,8,0:0:0:0:
181,135,60306,1,0,0:0:0:0:
205,123,60456,1,8,0:0:0:0:
205,123,60506,1,8,0:0:0:0:
205,123,60556,1,8,0:0:0:0:
205,123,60606,1,0,0:0:0:0:
236,157,60681,1,0,0:0:0:0:
247,157,60756,1,8,0:0:0:0:
247,157,60831,1,8,0:0:0:0:
247,157,60906,1,0,0:0:0:0:
247,157,60981,1,0,0:0:0:0:
247,157,61056,1,8,0:0:0:0:
247,157,61131,1,8,0:0:0:0:
247,157,61206,1,0,0:0:0:0:
53,115,61281,1,0,0:0:0:0:
210,109,61356,1,8,0:0:0:0:
210,109,61431,1,8,0:0:0:0:
433,69,61506,1,0,0:0:0:0:
433,69,61581,1,8,0:0:0:0:
412,71,61656,1,8,0:0:0:0:
412,71,61731,1,0,0:0:0:0:
370,132,61806,1,8,0:0:0:0:
370,132,61881,1,0,0:0:0:0:
370,132,61956,1,8,0:0:0:0:
370,132,62031,1,8,0:0:0:0:
370,132,62106,1,0,0:0:0:0:
370,132,62181,1,0,0:0:0:0:
370,132,62256,1,8,0:0:0:0:
370,132,62331,1,0,0:0:0:0:
370,132,62406,1,8,0:0:0:0:
173,141,62456,1,8,0:0:0:0:
157,139,62506,1,8,0:0:0:0:
191,93,62556,1,0,0:0:0:0:
191,93,62631,1,0,0:0:0:0:
191,93,62706,1,8,0:0:0:0:
191,93,62756,1,0,0:0:0:0:
176,125,62806,1,0,0:0:0:0:
186,125,62856,1,8,0:0:0:0:
62,115,62931,1,0,0:0:0:0:
93,120,63006,1,8,0:0:0:0:
218,37,63056,1,8,0:0:0:0:
218,37,63106,1,8,0:0:0:0:
93,120,63156,1,0,0:0:0:0:
93,120,63231,1,0,0:0:0:0:
93,120,63306,1,8,0:0:0:0:
156,143,63356,1,0,0:0:0:0:
218,37,63406,1,0,0:0:0:0:
93,120,63456,1,8,0:0:0:0:
93,120,63606,1,4,0:0:0:0:
300,132,63756,1,0,0:0:0:0:
300,132,63831,1,0,0:0:0:0:
300,132,63906,1,0,0:0:0:0:
300,132,64056,1,8,0:0:0:0:
300,132,64206,1,0,0:0:0:0:
300,132,64281,1,0,0:0:0:0:
300,132,64356,1,0,0:0:0:0:
300,132,64506,1,8,0:0:0:0:
172,150,64656,1,0,0:0:0:0:
187,184,64731,1,0,0:0:0:0:
246,118,64806,1,0,0:0:0:0:
181,150,64956,1,8,0:0:0:0:
181,150,65031,1,8,0:0:0:0:
181,150,65106,1,0,0:0:0:0:
177,123,65256,1,8,0:0:0:0:
181,150,65406,1,0,0:0:0:0:
181,150,65481,1,0,0:0:0:0:
181,150,65556,1,8,0:0:0:0:
181,150,65631,1,0,0:0:0:0:
181,150,65706,1,8,0:0:0:0:
181,150,65781,1,8,0:0:0:0:
181,150,65856,1,0,0:0:0:0:
181,150,65931,1,0,0:0:0:0:
181,150,66006,1,8,0:0:0:0:
300,132,66156,1,0,0:0:0:0:
300,132,66231,1,0,0:0:0:0:
300,132,66306,1,0,0:0:0:0:
300,132,66456,1,8,0:0:0:0:
300,132,66606,1,0,0:0:0:0:
300,132,66681,1,0,0:0:0:0:
300,132,66756,1,0,0:0:0:0:
300,132,66906,1,8,0:0:0:0:
172,150,67056,1,0,0:0:0:0:
187,184,67131,1,0,0:0:0:0:
246,118,67206,1,0,0:0:0:0:
181,150,67356,1,8,0:0:0:0:
181,150,67431,1,8,0:0:0:0:
181,150,67506,1,0,0:0:0:0:
177,123,67656,1,8,0:0:0:0:
181,150,67806,1,8,0:0:0:0:
181,150,67881,1,0,0:0:0:0:
181,150,67956,1,0,0:0:0:0:
181,150,68106,1,8,0:0:0:0:
181,150,68181,1,0,0:0:0:0:
181,150,68256,1,0,0:0:0:0:
181,150,68406,1,8,0:0:0:0:
300,132,68556,1,0,0:0:0:0:
300,132,68631,1,8,0:0:0:0:
300,132,68706,1,0,0:0:0:0:
300,132,68856,1,8,0:0:0:0:
300,132,69006,1,0,0:0:0:0:
300,132,69081,1,8,0:0:0:0:
300,132,69156,1,0,0:0:0:0:
300,132,69306,1,8,0:0:0:0:
172,150,69456,1,0,0:0:0:0:
187,184,69531,1,8,0:0:0:0:
246,118,69606,1,0,0:0:0:0:
181,150,69756,1,8,0:0:0:0:
181,150,69831,1,8,0:0:0:0:
181,150,69906,1,0,0:0:0:0:
177,123,70056,1,8,0:0:0:0:
181,150,70206,1,0,0:0:0:0:
181,150,70281,1,0,0:0:0:0:
181,150,70356,1,8,0:0:0:0:
181,150,70431,1,0,0:0:0:0:
181,150,70506,1,8,0:0:0:0:
181,150,70581,1,8,0:0:0:0:
181,150,70656,1,0,0:0:0:0:
181,150,70731,1,8,0:0:0:0:
181,150,70806,1,0,0:0:0:0:
300,132,70956,1,0,0:0:0:0:
300,132,71106,1,8,0:0:0:0:
300,132,71181,1,0,0:0:0:0:
300,132,71256,1,8,0:0:0:0:
300,132,71406,1,0,0:0:0:0:
300,132,71556,1,8,0:0:0:0:
229,98,71631,1,8,0:0:0:0:
196,48,71706,1,0,0:0:0:0:
172,150,71856,1,8,0:0:0:0:
246,118,72006,1,0,0:0:0:0:
300,173,72081,1,0,0:0:0:0:
181,150,72156,1,8,0:0:0:0:
291,149,72231,1,0,0:0:0:0:
177,123,72306,1,8,0:0:0:0:
313,177,72381,1,8,0:0:0:0:
181,150,72456,1,0,0:0:0:0:
313,177,72531,1,0,0:0:0:0:
181,150,72606,1,8,0:0:0:0:
181,150,72681,1,8,0:0:0:0:
181,150,72756,1,0,0:0:0:0:
313,177,72831,1,0,0:0:0:0:
181,150,72906,1,8,0:0:0:0:
181,150,72981,1,0,0:0:0:0:
181,150,73056,1,8,0:0:0:0:
313,184,73106,1,8,0:0:0:0:
181,150,73156,1,8,0:0:0:0:
152,121,73206,1,0,0:0:0:0:
415,91,73356,1,8,0:0:0:0:
415,91,73431,1,8,0:0:0:0:
317,159,73506,1,0,0:0:0:0:
204,163,73656,1,8,0:0:0:0:
204,163,73693,1,8,0:0:0:0:
204,163,73806,1,8,0:0:0:0:
204,163,73843,1,8,0:0:0:0:
204,163,73956,1,0,0:0:0:0:
204,163,73993,1,0,0:0:0:0:
204,163,74106,1,8,0:0:0:0:
204,163,74143,1,8,0:0:0:0:
204,163,74256,1,8,0:0:0:0:
204,163,74293,1,8,0:0:0:0:
204,163,74406,1,0,0:0:0:0:
204,163,74443,1,0,0:0:0:0:
204,163,74556,1,8,0:0:0:0:
204,163,74593,1,8,0:0:0:0:
204,163,74706,1,0,0:0:0:0:
204,163,74743,1,0,0:0:0:0:
204,163,74856,1,0,0:0:0:0:
204,163,74893,1,0,0:0:0:0:
204,163,75006,1,8,0:0:0:0:
204,163,75043,1,8,0:0:0:0:
204,163,75156,1,0,0:0:0:0:
175,80,75306,1,8,0:0:0:0:
175,80,75456,1,8,0:0:0:0:
175,80,75531,1,8,0:0:0:0:
119,48,75606,1,0,0:0:0:0:
205,170,75756,1,0,0:0:0:0:
257,171,75831,1,0,0:0:0:0:
257,171,75906,1,8,0:0:0:0:
171,145,76056,1,8,0:0:0:0:
309,151,76093,1,8,0:0:0:0:
190,140,76206,1,0,0:0:0:0:
195,140,76243,1,0,0:0:0:0:
197,140,76356,1,0,0:0:0:0:
197,140,76393,1,0,0:0:0:0:
197,140,76506,1,8,0:0:0:0:
197,140,76543,1,8,0:0:0:0:
197,140,76656,1,0,0:0:0:0:
197,140,76693,1,0,0:0:0:0:
197,140,76806,1,8,0:0:0:0:
197,140,76843,1,8,0:0:0:0:
197,140,76956,1,8,0:0:0:0:
197,140,76993,1,8,0:0:0:0:
197,140,77106,1,0,0:0:0:0:
197,140,77143,1,0,0:0:0:0:
197,140,77256,1,0,0:0:0:0:
197,140,77293,1,0,0:0:0:0:
197,140,77406,1,8,0:0:0:0:
197,140,77443,1,8,0:0:0:0:
146,154,77556,1,0,0:0:0:0:
166,154,77631,1,0,0:0:0:0:
166,154,77706,1,8,0:0:0:0:
166,154,77781,1,0,0:0:0:0:
166,154,77856,1,8,0:0:0:0:
166,154,77931,1,8,0:0:0:0:
166,154,78006,1,0,0:0:0:0:
415,91,78156,1,8,0:0:0:0:
415,91,78231,1,8,0:0:0:0:
317,159,78306,1,0,0:0:0:0:
204,163,78456,1,8,0:0:0:0:
204,163,78493,1,8,0:0:0:0:
204,163,78606,1,0,0:0:0:0:
204,163,78643,1,0,0:0:0:0:
204,163,78756,1,8,0:0:0:0:
204,163,78793,1,8,0:0:0:0:
204,163,78906,1,8,0:0:0:0:
204,163,78943,1,8,0:0:0:0:
204,163,79056,1,0,0:0:0:0:
204,163,79093,1,0,0:0:0:0:
204,163,79206,1,8,0:0:0:0:
204,163,79243,1,8,0:0:0:0:
204,163,79356,1,8,0:0:0:0:
204,163,79393,1,8,0:0:0:0:
204,163,79506,1,0,0:0:0:0:
204,163,79543,1,0,0:0:0:0:
204,163,79656,1,0,0:0:0:0:
204,163,79693,1,0,0:0:0:0:
204,163,79806,1,8,0:0:0:0:
204,163,79843,1,8,0:0:0:0:
204,163,79956,1,0,0:0:0:0:
175,80,80106,1,8,0:0:0:0:
175,80,80256,1,8,0:0:0:0:
119,48,80331,1,0,0:0:0:0:
175,80,80406,1,8,0:0:0:0:
205,170,80556,1,0,0:0:0:0:
257,171,80631,1,0,0:0:0:0:
257,171,80706,1,8,0:0:0:0:
171,145,80856,1,8,0:0:0:0:
309,151,80893,1,8,0:0:0:0:
190,140,81006,1,0,0:0:0:0:
195,140,81043,1,0,0:0:0:0:
197,140,81156,1,8,0:0:0:0:
197,140,81193,1,8,0:0:0:0:
197,140,81306,1,8,0:0:0:0:
197,140,81343,1,8,0:0:0:0:
197,140,81456,1,0,0:0:0:0:
197,140,81493,1,0,0:0:0:0:
197,140,81606,1,0,0:0:0:0:
197,140,81643,1,0,0:0:0:0:
197,140,81756,1,8,0:0:0:0:
197,140,81793,1,8,0:0:0:0:
197,140,81906,1,0,0:0:0:0:
197,140,81943,1,0,0:0:0:0:
197,140,82056,1,8,0:0:0:0:
197,140,82093,1,8,0:0:0:0:
197,140,82206,1,8,0:0:0:0:
197,140,82243,1,8,0:0:0:0:
143,144,82356,1,0,0:0:0:0:
151,144,82431,1,0,0:0:0:0:
141,67,82506,1,8,0:0:0:0:
141,67,82656,1,8,0:0:0:0:
141,67,82806,1,0,0:0:0:0:
141,67,82881,1,0,0:0:0:0:
368,273,82956,1,8,0:0:0:0:
368,273,83031,1,0,0:0:0:0:
368,273,83106,1,8,0:0:0:0:
368,273,83181,1,8,0:0:0:0:
368,273,83256,1,0,0:0:0:0:
368,273,83331,1,0,0:0:0:0:
368,273,83406,1,8,0:0:0:0:
368,273,83481,1,0,0:0:0:0:
368,273,83556,1,8,0:0:0:0:
368,273,83631,1,8,0:0:0:0:
368,273,83706,1,0,0:0:0:0:
368,273,83781,1,8,0:0:0:0:
368,273,83856,1,0,0:0:0:0:
368,273,83931,1,0,0:0:0:0:
327,172,84006,1,8,0:0:0:0:
327,172,84081,1,8,0:0:0:0:
327,172,84156,1,0,0:0:0:0:
327,172,84231,1,0,0:0:0:0:
327,172,84306,1,8,0:0:0:0:
327,172,84381,1,0,0:0:0:0:
327,172,84456,1,0,0:0:0:0:
327,172,84531,1,0,0:0:0:0:
327,172,84606,1,8,0:0:0:0:
327,172,84681,1,8,0:0:0:0:
327,172,84756,1,0,0:0:0:0:
201,159,84806,1,0,0:0:0:0:
327,172,84856,1,0,0:0:0:0:
327,172,84906,1,8,0:0:0:0:
327,172,84981,1,8,0:0:0:0:
327,172,85056,1,0,0:0:0:0:
327,172,85206,1,4,0:0:0:0:
143,148,85356,1,0,0:0:0:0:
168,149,85431,1,0,0:0:0:0:
168,149,85506,1,8,0:0:0:0:
168,149,85656,1,0,0:0:0:0:
168,149,85806,1,8,0:0:0:0:
168,149,85956,1,0,0:0:0:0:
168,149,86031,1,0,0:0:0:0:
168,149,86106,1,8,0:0:0:0:
168,149,86256,1,0,0:0:0:0:
168,149,86406,1,12,0:0:0:0:
168,149,86556,1,0,0:0:0:0:
168,149,86631,1,0,0:0:0:0:
168,149,86706,1,8,0:0:0:0:
168,149,86856,1,0,0:0:0:0:
168,149,87006,1,8,0:0:0:0:
168,149,87156,1,0,0:0:0:0:
168,149,87231,1,0,0:0:0:0:
168,149,87306,1,8,0:0:0:0:
168,149,87456,1,0,0:0:0:0:
286,83,87606,1,0,0:0:0:0:
257,60,87643,1,0,0:0:0:0:
286,83,87756,1,8,0:0:0:0:
286,83,87793,1,8,0:0:0:0:
286,83,87906,1,0,0:0:0:0:
286,83,87943,1,0,0:0:0:0:
286,83,88056,1,8,0:0:0:0:
286,83,88093,1,8,0:0:0:0:
286,83,88206,1,0,0:0:0:0:
286,83,88243,1,0,0:0:0:0:
286,83,88356,1,8,0:0:0:0:
286,83,88393,1,8,0:0:0:0:
286,83,88506,1,0,0:0:0:0:
286,83,88543,1,0,0:0:0:0:
286,83,88656,1,8,0:0:0:0:
286,83,88693,1,8,0:0:0:0:
286,83,88806,1,0,0:0:0:0:
286,83,88843,1,0,0:0:0:0:
286,83,88956,1,8,0:0:0:0:
286,83,88993,1,8,0:0:0:0:
286,83,89106,1,0,0:0:0:0:
286,83,89143,1,0,0:0:0:0:
286,83,89256,1,8,0:0:0:0:
286,83,89293,1,8,0:0:0:0:
286,83,89406,1,0,0:0:0:0:
286,83,89443,1,0,0:0:0:0:
286,83,89556,1,8,0:0:0:0:
286,83,89593,1,8,0:0:0:0:
291,164,89706,1,0,0:0:0:0:
291,164,89756,1,0,0:0:0:0:
291,164,89806,1,0,0:0:0:0:
213,160,89856,1,8,0:0:0:0:
327,172,90006,1,4,0:0:0:0:
143,148,90156,1,0,0:0:0:0:
168,149,90231,1,0,0:0:0:0:
168,149,90306,1,8,0:0:0:0:
168,149,90456,1,0,0:0:0:0:
168,149,90606,1,8,0:0:0:0:
168,149,90756,1,0,0:0:0:0:
168,149,90831,1,0,0:0:0:0:
168,149,90906,1,8,0:0:0:0:
168,149,91056,1,0,0:0:0:0:
168,149,91206,1,12,0:0:0:0:
168,149,91356,1,0,0:0:0:0:
168,149,91431,1,0,0:0:0:0:
168,149,91506,1,8,0:0:0:0:
168,149,91656,1,0,0:0:0:0:
168,149,91806,1,8,0:0:0:0:
168,149,91956,1,0,0:0:0:0:
168,149,92031,1,0,0:0:0:0:
168,149,92106,1,8,0:0:0:0:
168,149,92256,1,0,0:0:0:0:
286,83,92406,1,8,0:0:0:0:
257,60,92443,1,8,0:0:0:0:
286,83,92556,1,8,0:0:0:0:
286,83,92593,1,8,0:0:0:0:
286,83,92706,1,0,0:0:0:0:
286,83,92743,1,0,0:0:0:0:
286,83,92856,1,8,0:0:0:0:
286,83,92893,1,8,0:0:0:0:
286,83,93006,1,8,0:0:0:0:
286,83,93043,1,8,0:0:0:0:
286,83,93156,1,8,0:0:0:0:
286,83,93193,1,8,0:0:0:0:
286,83,93306,1,0,0:0:0:0:
286,83,93343,1,0,0:0:0:0:
286,83,93456,1,8,0:0:0:0:
286,83,93493,1,8,0:0:0:0:
286,83,93606,1,4,0:0:0:0:
286,83,93756,1,8,0:0:0:0:
286,83,93831,1,8,0:0:0:0:
286,83,93906,1,0,0:0:0:0:
286,83,94056,1,8,0:0:0:0:
286,83,94206,1,0,0:0:0:0:
286,83,94256,1,0,0:0:0:0:
251,144,94306,1,0,0:0:0:0:
291,164,94356,1,0,0:0:0:0:
291,164,94406,1,0,0:0:0:0:
291,164,94456,1,0,0:0:0:0:
213,160,94506,1,8,0:0:0:0:
281,187,94806,1,4,0:0:0:0:
89,140,94956,1,0,0:0:0:0:
121,142,95031,1,0,0:0:0:0:
121,142,95106,1,8,0:0:0:0:
121,142,95256,1,0,0:0:0:0:
128,140,95406,1,8,0:0:0:0:
128,139,95556,1,0,0:0:0:0:
308,79,95631,1,0,0:0:0:0:
228,120,95706,1,8,0:0:0:0:
228,120,95756,1,8,0:0:0:0:
228,120,95806,1,8,0:0:0:0:
182,120,95856,1,0,0:0:0:0:
167,141,96006,1,8,0:0:0:0:
228,144,96156,1,8,0:0:0:0:
228,144,96231,1,0,0:0:0:0:
228,144,96306,1,8,0:0:0:0:
228,144,96381,1,8,0:0:0:0:
228,144,96456,1,0,0:0:0:0:
228,144,96606,1,12,0:0:0:0:
228,144,96756,1,0,0:0:0:0:
62,125,96906,1,8,0:0:0:0:
85,126,96943,1,8,0:0:0:0:
97,119,97056,1,0,0:0:0:0:
97,119,97093,1,0,0:0:0:0:
218,172,97206,1,8,0:0:0:0:
168,149,97356,1,0,0:0:0:0:
168,149,97431,1,0,0:0:0:0:
168,149,97506,1,8,0:0:0:0:
168,149,97656,1,0,0:0:0:0:
168,149,97806,1,12,0:0:0:0:
168,149,97956,1,0,0:0:0:0:
168,149,98031,1,0,0:0:0:0:
168,149,98106,1,8,0:0:0:0:
168,149,98256,1,0,0:0:0:0:
168,149,98406,1,12,0:0:0:0:
168,149,98556,1,0,0:0:0:0:
168,149,98631,1,0,0:0:0:0:
168,149,98706,1,8,0:0:0:0:
168,149,98856,1,0,0:0:0:0:
286,83,99006,1,8,0:0:0:0:
257,60,99043,1,8,0:0:0:0:
286,83,99156,1,8,0:0:0:0:
286,83,99193,1,8,0:0:0:0:
286,83,99306,1,0,0:0:0:0:
286,83,99343,1,0,0:0:0:0:
286,83,99456,1,8,0:0:0:0:
286,83,99493,1,8,0:0:0:0:
327,172,99606,1,4,0:0:0:0:
143,148,99756,1,0,0:0:0:0:
168,149,99831,1,0,0:0:0:0:
168,149,99906,1,8,0:0:0:0:
168,149,100056,1,0,0:0:0:0:
168,149,100206,1,8,0:0:0:0:
168,149,100356,1,0,0:0:0:0:
168,149,100431,1,0,0:0:0:0:
168,149,100506,1,8,0:0:0:0:
168,149,100656,1,0,0:0:0:0:
168,149,100806,1,12,0:0:0:0:
168,149,100956,1,0,0:0:0:0:
168,149,101031,1,0,0:0:0:0:
168,149,101106,1,8,0:0:0:0:
168,149,101256,1,0,0:0:0:0:
168,149,101406,1,8,0:0:0:0:
168,149,101556,1,0,0:0:0:0:
168,149,101631,1,0,0:0:0:0:
168,149,101706,1,8,0:0:0:0:
168,149,101856,1,0,0:0:0:0:
286,83,102006,1,12,0:0:0:0:
286,83,102156,1,0,0:0:0:0:
286,83,102306,1,0,0:0:0:0:
286,83,102456,1,8,0:0:0:0:
286,83,102606,1,8,0:0:0:0:
286,83,102756,1,0,0:0:0:0:
286,83,102906,1,8,0:0:0:0:
286,83,103056,1,0,0:0:0:0:
286,83,103131,1,0,0:0:0:0:
286,83,103206,1,8,0:0:0:0:
286,83,103656,1,8,0:0:0:0:
286,83,103806,1,0,0:0:0:0:
286,83,103881,1,0,0:0:0:0:
235,132,103956,1,8,0:0:0:0:
291,164,104031,1,0,0:0:0:0:
235,132,104106,1,8,0:0:0:0:
387,112,104181,1,8,0:0:0:0:
251,144,104256,1,0,0:0:0:0:
281,187,104406,1,4,0:0:0:0:
322,147,104556,1,0,0:0:0:0:
353,117,104706,1,8,0:0:0:0:
353,117,104781,1,8,0:0:0:0:
353,117,104856,1,0,0:0:0:0:
353,117,104931,1,0,0:0:0:0:
353,117,105006,1,8,0:0:0:0:
353,117,105081,1,8,0:0:0:0:
353,117,105156,1,0,0:0:0:0:
353,117,105231,1,0,0:0:0:0:
353,117,105306,1,8,0:0:0:0:
353,117,105381,1,0,0:0:0:0:
353,117,105456,1,8,0:0:0:0:
353,117,105531,1,8,0:0:0:0:
353,117,105606,1,0,0:0:0:0:
195,144,105756,1,0,0:0:0:0:
297,149,105906,1,8,0:0:0:0:
297,149,105981,1,8,0:0:0:0:
297,149,106056,1,0,0:0:0:0:
297,149,106131,1,0,0:0:0:0:
297,149,106206,1,8,0:0:0:0:
297,149,106281,1,8,0:0:0:0:
297,149,106356,1,0,0:0:0:0:
297,149,106431,1,0,0:0:0:0:
297,149,106506,1,8,0:0:0:0:
297,149,106581,1,0,0:0:0:0:
297,149,106656,1,8,0:0:0:0:
297,149,106731,1,8,0:0:0:0:
297,149,106806,1,0,0:0:0:0:
417,117,106956,1,0,0:0:0:0:
417,117,107031,1,0,0:0:0:0:
417,117,107106,1,8,0:0:0:0:
338,113,107256,1,8,0:0:0:0:
338,113,107306,1,8,0:0:0:0:
117,148,107356,1,8,0:0:0:0:
117,148,107406,1,0,0:0:0:0:
173,136,107481,1,0,0:0:0:0:
189,137,107556,1,8,0:0:0:0:
189,137,107631,1,8,0:0:0:0:
189,137,107706,1,0,0:0:0:0:
189,137,107781,1,0,0:0:0:0:
189,137,107856,1,8,0:0:0:0:
189,137,107931,1,0,0:0:0:0:
189,137,108006,1,8,0:0:0:0:
203,143,108156,1,0,0:0:0:0:
242,144,108231,1,0,0:0:0:0:
242,144,108306,1,8,0:0:0:0:
317,151,108456,1,8,0:0:0:0:
317,151,108506,1,8,0:0:0:0:
317,151,108556,1,8,0:0:0:0:
317,151,108606,1,0,0:0:0:0:
310,130,108681,1,0,0:0:0:0:
310,130,108756,1,8,0:0:0:0:
310,130,108831,1,8,0:0:0:0:
310,130,108906,1,0,0:0:0:0:
310,130,108981,1,0,0:0:0:0:
310,130,109056,1,8,0:0:0:0:
310,130,109131,1,0,0:0:0:0:
310,130,109206,1,8,0:0:0:0:
310,130,109281,1,8,0:0:0:0:
310,130,109356,1,0,0:0:0:0:
310,130,109431,1,8,0:0:0:0:
310,130,109506,1,8,0:0:0:0:
310,130,109581,1,0,0:0:0:0:
310,130,109656,1,8,0:0:0:0:
310,130,109731,1,0,0:0:0:0:
310,130,109806,1,0,0:0:0:0:
310,130,109881,1,8,0:0:0:0:
310,130,109956,1,0,0:0:0:0:
310,130,110031,1,0,0:0:0:0:
310,130,110106,1,8,0:0:0:0:
310,130,110181,1,8,0:0:0:0:
310,130,110256,1,0,0:0:0:0:
310,130,110331,1,8,0:0:0:0:
273,165,110406,1,8,0:0:0:0:
303,165,110481,1,0,0:0:0:0:
303,165,110556,1,0,0:0:0:0:
303,165,110631,1,8,0:0:0:0:
303,165,110706,1,0,0:0:0:0:
303,165,110781,1,0,0:0:0:0:
303,165,110856,1,8,0:0:0:0:
303,165,110931,1,0,0:0:0:0:
303,165,111006,1,8,0:0:0:0:
303,165,111081,1,8,0:0:0:0:
303,165,111156,1,0,0:0:0:0:
303,165,111231,1,8,0:0:0:0:
303,165,111306,1,8,0:0:0:0:
303,165,111381,1,8,0:0:0:0:
303,165,111456,1,0,0:0:0:0:
303,165,111531,1,0,0:0:0:0:
161,124,111606,1,8,0:0:0:0:
161,124,111656,1,8,0:0:0:0:
164,123,111706,1,8,0:0:0:0:
195,83,111756,1,0,0:0:0:0:
233,48,111831,1,0,0:0:0:0:
196,77,111906,1,8,0:0:0:0:
196,77,111956,1,0,0:0:0:0:
196,77,112006,1,0,0:0:0:0:
196,77,112056,1,8,0:0:0:0:
233,48,112131,1,0,0:0:0:0:
196,77,112206,1,8,0:0:0:0:
196,77,112256,1,8,0:0:0:0:
196,77,112306,1,8,0:0:0:0:
196,77,112356,1,0,0:0:0:0:
233,48,112431,1,0,0:0:0:0:
196,77,112506,1,8,0:0:0:0:
196,77,112556,1,0,0:0:0:0:
196,77,112606,1,0,0:0:0:0:
196,77,112656,1,8,0:0:0:0:
196,77,112806,1,12,0:0:0:0:
91,129,113106,1,4,0:0:0:0:
167,85,113406,1,12,0:0:0:0:
299,124,113706,1,0,0:0:0:0:
256,107,114006,1,12,0:0:0:0:
362,157,114306,1,0,0:0:0:0:
376,44,114456,1,8,0:0:0:0:
376,34,114531,1,0,0:0:0:0:
374,47,114606,1,8,0:0:0:0:
224,153,114756,1,8,0:0:0:0:
255,152,114906,1,0,0:0:0:0:
255,152,115056,1,0,0:0:0:0:
239,138,115206,1,8,0:0:0:0:
110,151,115506,1,8,0:0:0:0:
165,151,115656,1,8,0:0:0:0:
165,151,115806,1,0,0:0:0:0:
151,122,116106,1,0,0:0:0:0:
265,113,116256,1,0,0:0:0:0:
176,64,116406,1,12,0:0:0:0:
151,68,116556,1,8,0:0:0:0:
334,140,116706,1,0,0:0:0:0:
424,94,116856,1,0,0:0:0:0:
380,90,117006,1,4,0:0:0:0:
380,90,117306,1,12,0:0:0:0:
357,86,117606,1,4,0:0:0:0:
