osu file format v14

[General]
AudioFilename: audio.mp3
AudioLeadIn: 0
PreviewTime: 0
Countdown: 0
SampleSet: None
StackLeniency: 0.7
Mode: 1
LetterboxInBreaks: 0
WidescreenStoryboard: 1

[Editor]
DistanceSpacing: 0.5
BeatDivisor: 4
GridSize: 32
TimelineZoom: 3.799999

[Metadata]
Title:PEPPY FIX TAIKO STAR RATING PLEASE for a happier
TitleUnicode:PEPPY FIX TAIKO STAR RATING PLEASE for a happier
Artist:Various Artists
ArtistUnicode:Various Artists
Creator:ARGENTINE DREAM
Version:Monosugoi Kebab Shop de Zigizigi ga Monosugoi Mappu
Source:
Tags:kasai harcores esti round wave crusher d abe3 slash dot dash cycle hit helix maniera axer backfire hikikochan hikiko- _yu68 surono alchyr nifty brames consified lno skull kid skid brasil luckysonicghz kqrth trapmaniac agu ppus zigizigiefe nwolf -kazu- idealism babysnakes astolfo vrnl yea jarvisgaming chichinya poii hirok _dusk_ nishizumi ulqui coryn faputa rhytoly dudetm meovvcat jhowm gaston_2199 kbludoh blackener mtdex kuron kuron-kun tyistiana xtrem3x ghm12 davidminh0111 -gn junior aspirin whats skill metalstream whosthebox grimbow duski ozzyozrock foxerus endymion vulkin taiko pp compilation
BeatmapID:1723346
BeatmapSetID:794048

[Difficulty]
HPDrainRate:6
CircleSize:5
OverallDifficulty:6
ApproachRate:5
SliderMultiplier:1.4
SliderTickRate:1

[Events]
//Background and Video events
0,0,"zigi.jpg",0,0
//Break Periods
//Storyboard Layer 0 (Background)
//Storyboard Layer 1 (Fail)
//Storyboard Layer 2 (Pass)
//Storyboard Layer 3 (Foreground)
//Storyboard Sound Samples

[TimingPoints]
6,300,4,1,0,100,1,0
44406,-100,4,1,0,100,0,1
63606,-100,4,1,0,100,0,0
104406,-100,4,1,0,100,0,1
114006,-100,4,1,0,100,0,0

[HitObjects]
160,128,6,5,4,0:0:0:0:
160,128,306,1,0,0:0:0:0:
160,128,456,1,0,0:0:0:0:
160,128,531,1,8,0:0:0:0:
160,128,606,1,0,0:0:0:0:
160,128,756,1,0,0:0:0:0:
160,128,906,1,8,0:0:0:0:
160,128,1056,1,8,0:0:0:0:
160,128,1206,1,0,0:0:0:0:
192,64,1431,1,0,0:0:0:0:
192,96,1506,1,8,0:0:0:0:
192,96,1656,1,8,0:0:0:0:
192,96,1806,1,0,0:0:0:0:
160,128,2406,1,0,0:0:0:0:
160,128,2706,1,0,0:0:0:0:
160,128,2856,1,0,0:0:0:0:
160,128,2931,1,8,0:0:0:0:
160,128,3006,1,0,0:0:0:0:
160,128,3156,1,0,0:0:0:0:
160,128,3306,1,8,0:0:0:0:
160,128,3456,1,8,0:0:0:0:
160,128,3606,1,0,0:0:0:0:
192,64,3756,1,8,0:0:0:0:
192,96,3906,1,8,0:0:0:0:
192,96,4056,1,0,0:0:0:0:
192,96,4206,1,8,0:0:0:0:
192,128,4506,1,0,0:0:0:0:
160,128,4806,1,0,0:0:0:0:
160,128,5106,1,0,0:0:0:0:
160,128,5256,1,0,0:0:0:0:
160,128,5331,1,8,0:0:0:0:
160,128,5406,1,0,0:0:0:0:
160,128,5556,1,0,0:0:0:0:
160,128,5706,1,8,0:0:0:0:
160,128,5856,1,8,0:0:0:0:
160,128,6006,1,0,0:0:0:0:
192,64,6231,1,0,0:0:0:0:
192,96,6306,1,8,0:0:0:0:
192,96,6456,1,8,0:0:0:0:
192,96,6606,1,0,0:0:0:0:
160,96,6906,1,0,0:0:0:0:
160,96,7056,1,8,0:0:0:0:
192,96,7206,1,8,0:0:0:0:
192,96,7256,1,0,0:0:0:0:
160,96,7306,1,0,0:0:0:0:
192,96,7356,1,8,0:0:0:0:
192,96,7431,1,0,0:0:0:0:
192,96,7506,1,8,0:0:0:0:
192,96,7556,1,8,0:0:0:0:
192,96,7606,1,8,0:0:0:0:
192,128,7656,1,0,0:0:0:0:
192,96,7731,1,0,0:0:0:0:
192,96,7806,1,8,0:0:0:0:
192,96,7856,1,0,0:0:0:0:
160,96,7906,1,0,0:0:0:0:
192,96,7956,1,8,0:0:0:0:
192,96,8031,1,0,0:0:0:0:
192,96,8106,1,8,0:0:0:0:
192,96,8156,1,8,0:0:0:0:
192,96,8206,1,8,0:0:0:0:
192,96,8256,1,8,0:0:0:0:
192,96,8306,1,8,0:0:0:0:
192,96,8356,1,8,0:0:0:0:
288,64,8406,1,0,0:0:0:0:
224,32,8706,1,0,0:0:0:0:
224,32,9006,1,8,0:0:0:0:
224,32,9056,1,8,0:0:0:0:
224,32,9106,1,8,0:0:0:0:
224,32,9156,1,0,0:0:0:0:
224,64,9206,1,0,0:0:0:0:
224,64,9256,1,0,0:0:0:0:
224,64,9306,1,8,0:0:0:0:
224,64,9356,1,8,0:0:0:0:
224,64,9406,1,8,0:0:0:0:
224,64,9456,1,0,0:0:0:0:
256,160,9606,1,4,0:0:0:0:
256,160,9756,1,8,0:0:0:0:
256,160,9831,1,8,0:0:0:0:
256,160,9906,1,0,0:0:0:0:
256,160,10056,1,8,0:0:0:0:
256,160,10131,1,8,0:0:0:0:
256,160,10206,1,0,0:0:0:0:
192,32,10356,1,8,0:0:0:0:
160,64,10506,1,0,0:0:0:0:
160,64,10581,1,0,0:0:0:0:
160,64,10656,1,8,0:0:0:0:
160,96,10731,1,8,0:0:0:0:
160,96,10806,1,0,0:0:0:0:
160,96,10881,1,0,0:0:0:0:
160,96,10956,1,8,0:0:0:0:
160,96,11031,1,0,0:0:0:0:
160,96,11106,1,8,0:0:0:0:
160,160,11256,1,8,0:0:0:0:
160,160,11406,1,0,0:0:0:0:
160,160,11481,1,0,0:0:0:0:
160,160,11556,1,8,0:0:0:0:
160,160,11631,1,0,0:0:0:0:
160,160,11706,1,8,0:0:0:0:
160,160,11781,1,8,0:0:0:0:
160,160,11856,1,0,0:0:0:0:
256,160,12006,1,0,0:0:0:0:
256,160,12156,1,8,0:0:0:0:
256,160,12231,1,8,0:0:0:0:
256,160,12306,1,0,0:0:0:0:
256,160,12456,1,8,0:0:0:0:
256,160,12531,1,8,0:0:0:0:
256,160,12606,1,0,0:0:0:0:
192,32,12756,1,8,0:0:0:0:
160,64,12906,1,0,0:0:0:0:
160,64,12981,1,0,0:0:0:0:
160,64,13056,1,8,0:0:0:0:
160,96,13131,1,8,0:0:0:0:
160,96,13206,1,0,0:0:0:0:
160,96,13281,1,0,0:0:0:0:
160,96,13356,1,8,0:0:0:0:
160,96,13431,1,8,0:0:0:0:
160,96,13506,1,0,0:0:0:0:
160,160,13656,1,8,0:0:0:0:
160,160,13806,1,8,0:0:0:0:
160,160,13843,1,8,0:0:0:0:
160,160,13956,1,8,0:0:0:0:
160,160,13993,1,8,0:0:0:0:
160,160,14106,1,0,0:0:0:0:
160,160,14143,1,0,0:0:0:0:
160,160,14256,1,0,0:0:0:0:
192,64,14274,1,0,0:0:0:0:
160,160,14331,1,8,0:0:0:0:
192,64,14349,1,8,0:0:0:0:
256,160,14406,1,0,0:0:0:0:
256,160,14556,1,8,0:0:0:0:
256,160,14631,1,8,0:0:0:0:
256,160,14706,1,0,0:0:0:0:
256,160,14856,1,8,0:0:0:0:
256,160,14931,1,8,0:0:0:0:
256,160,15006,1,0,0:0:0:0:
192,32,15156,1,8,0:0:0:0:
160,64,15306,1,8,0:0:0:0:
160,64,15381,1,0,0:0:0:0:
160,64,15456,1,8,0:0:0:0:
160,96,15531,1,8,0:0:0:0:
160,96,15606,1,0,0:0:0:0:
160,96,15681,1,0,0:0:0:0:
160,96,15756,1,8,0:0:0:0:
160,96,15831,1,0,0:0:0:0:
160,96,15906,1,8,0:0:0:0:
160,160,16056,1,8,0:0:0:0:
160,160,16206,1,8,0:0:0:0:
160,160,16281,1,0,0:0:0:0:
160,160,16356,1,0,0:0:0:0:
160,160,16431,1,0,0:0:0:0:
160,160,16506,1,8,0:0:0:0:
160,160,16581,1,8,0:0:0:0:
160,160,16656,1,0,0:0:0:0:
256,160,16806,1,0,0:0:0:0:
256,160,16956,1,8,0:0:0:0:
256,160,17031,1,8,0:0:0:0:
256,160,17106,1,0,0:0:0:0:
256,160,17256,1,8,0:0:0:0:
256,160,17331,1,8,0:0:0:0:
256,160,17406,1,0,0:0:0:0:
192,32,17556,1,8,0:0:0:0:
160,64,17706,1,0,0:0:0:0:
160,64,17781,1,0,0:0:0:0:
160,64,17856,1,8,0:0:0:0:
160,96,17931,1,8,0:0:0:0:
160,96,18006,1,0,0:0:0:0:
160,96,18081,1,0,0:0:0:0:
160,96,18156,1,8,0:0:0:0:
160,96,18231,1,8,0:0:0:0:
160,96,18306,1,0,0:0:0:0:
160,160,18456,1,8,0:0:0:0:
160,160,18606,1,0,0:0:0:0:
160,160,18643,1,0,0:0:0:0:
160,160,18756,1,8,0:0:0:0:
160,160,18793,1,8,0:0:0:0:
160,160,18906,1,0,0:0:0:0:
160,160,18956,1,0,0:0:0:0:
192,64,19006,1,0,0:0:0:0:
160,160,19056,1,8,0:0:0:0:
192,64,19106,1,8,0:0:0:0:
160,160,19156,1,8,0:0:0:0:
256,160,19206,1,0,0:0:0:0:
256,160,19356,1,8,0:0:0:0:
256,160,19431,1,8,0:0:0:0:
256,160,19506,1,0,0:0:0:0:
256,160,19656,1,8,0:0:0:0:
256,160,19731,1,8,0:0:0:0:
256,160,19806,1,0,0:0:0:0:
192,32,19956,1,8,0:0:0:0:
160,64,20106,1,0,0:0:0:0:
160,64,20181,1,0,0:0:0:0:
160,64,20256,1,8,0:0:0:0:
160,96,20331,1,8,0:0:0:0:
160,96,20406,1,8,0:0:0:0:
160,96,20481,1,0,0:0:0:0:
160,96,20556,1,8,0:0:0:0:
160,96,20631,1,8,0:0:0:0:
160,96,20706,1,0,0:0:0:0:
160,160,20856,1,8,0:0:0:0:
160,160,21006,1,0,0:0:0:0:
160,160,21081,1,8,0:0:0:0:
160,160,21156,1,0,0:0:0:0:
160,160,21231,1,0,0:0:0:0:
160,160,21306,1,8,0:0:0:0:
160,160,21381,1,8,0:0:0:0:
160,160,21456,1,0,0:0:0:0:
256,160,21606,1,0,0:0:0:0:
256,160,21756,1,8,0:0:0:0:
256,160,21831,1,8,0:0:0:0:
256,160,21906,1,0,0:0:0:0:
256,160,22056,1,8,0:0:0:0:
256,160,22131,1,8,0:0:0:0:
256,160,22206,1,0,0:0:0:0:
192,32,22356,1,8,0:0:0:0:
160,64,22506,1,8,0:0:0:0:
160,64,22581,1,0,0:0:0:0:
160,64,22656,1,8,0:0:0:0:
160,96,22731,1,8,0:0:0:0:
160,96,22806,1,0,0:0:0:0:
160,96,22881,1,0,0:0:0:0:
160,96,22956,1,8,0:0:0:0:
160,96,23031,1,8,0:0:0:0:
160,96,23106,1,0,0:0:0:0:
160,160,23256,1,8,0:0:0:0:
160,160,23406,1,8,0:0:0:0:
160,160,23481,1,0,0:0:0:0:
160,160,23556,1,8,0:0:0:0:
160,160,23631,1,0,0:0:0:0:
160,160,23706,1,8,0:0:0:0:
160,160,23856,1,0,0:0:0:0:
256,160,24006,1,0,0:0:0:0:
256,160,24156,1,8,0:0:0:0:
256,160,24231,1,8,0:0:0:0:
256,160,24306,1,0,0:0:0:0:
256,160,24456,1,8,0:0:0:0:
256,160,24531,1,8,0:0:0:0:
256,160,24606,1,0,0:0:0:0:
192,32,24756,1,8,0:0:0:0:
160,64,24906,1,8,0:0:0:0:
160,64,24981,1,0,0:0:0:0:
160,64,25056,1,8,0:0:0:0:
160,96,25131,1,8,0:0:0:0:
160,96,25206,1,0,0:0:0:0:
160,96,25281,1,0,0:0:0:0:
160,96,25356,1,8,0:0:0:0:
160,96,25431,1,0,0:0:0:0:
160,96,25506,1,8,0:0:0:0:
160,160,25656,1,8,0:0:0:0:
160,160,25806,1,8,0:0:0:0:
160,160,25881,1,0,0:0:0:0:
160,160,25956,1,0,0:0:0:0:
160,160,26031,1,0,0:0:0:0:
160,160,26106,1,8,0:0:0:0:
160,160,26181,1,8,0:0:0:0:
160,160,26256,1,0,0:0:0:0:
256,160,26406,1,0,0:0:0:0:
256,64,26443,1,0,0:0:0:0:
256,160,26556,1,8,0:0:0:0:
256,160,26593,1,8,0:0:0:0:
256,160,26706,1,0,0:0:0:0:
256,64,26743,1,0,0:0:0:0:
256,160,26856,1,8,0:0:0:0:
256,160,26893,1,8,0:0:0:0:
256,160,27006,1,0,0:0:0:0:
256,160,27043,1,0,0:0:0:0:
192,32,27156,1,8,0:0:0:0:
256,160,27193,1,8,0:0:0:0:
160,64,27306,1,0,0:0:0:0:
160,64,27343,1,0,0:0:0:0:
160,64,27456,1,8,0:0:0:0:
160,96,27493,1,8,0:0:0:0:
160,96,27606,1,8,0:0:0:0:
160,96,27656,1,8,0:0:0:0:
160,96,27706,1,8,0:0:0:0:
288,64,27756,1,0,0:0:0:0:
160,96,27831,1,0,0:0:0:0:
160,96,27906,1,8,0:0:0:0:
160,96,27956,1,8,0:0:0:0:
160,96,28006,1,8,0:0:0:0:
96,96,28056,1,0,0:0:0:0:
128,128,28131,1,0,0:0:0:0:
160,96,28206,1,8,0:0:0:0:
160,96,28256,1,8,0:0:0:0:
160,96,28306,1,8,0:0:0:0:
160,96,28356,1,0,0:0:0:0:
160,96,28406,1,0,0:0:0:0:
160,96,28456,1,0,0:0:0:0:
224,96,28506,1,8,0:0:0:0:
224,96,28806,1,0,0:0:0:0:
224,128,28956,1,0,0:0:0:0:
224,128,29031,1,0,0:0:0:0:
224,128,29106,1,8,0:0:0:0:
224,96,29406,1,0,0:0:0:0:
224,128,29556,1,0,0:0:0:0:
224,128,29631,1,8,0:0:0:0:
224,128,29706,1,0,0:0:0:0:
160,96,29856,1,8,0:0:0:0:
160,96,30006,1,0,0:0:0:0:
192,96,30056,1,0,0:0:0:0:
192,160,30106,1,0,0:0:0:0:
224,64,30156,1,8,0:0:0:0:
224,64,30231,1,0,0:0:0:0:
160,96,30306,1,8,0:0:0:0:
192,96,30356,1,8,0:0:0:0:
192,160,30406,1,8,0:0:0:0:
192,96,30456,1,0,0:0:0:0:
192,96,30531,1,8,0:0:0:0:
160,96,30606,1,0,0:0:0:0:
192,96,30656,1,0,0:0:0:0:
192,160,30706,1,0,0:0:0:0:
160,96,30756,1,8,0:0:0:0:
192,96,30806,1,8,0:0:0:0:
192,160,30856,1,8,0:0:0:0:
160,96,30906,1,0,0:0:0:0:
160,96,31056,1,8,0:0:0:0:
192,96,31106,1,8,0:0:0:0:
192,160,31156,1,8,0:0:0:0:
224,96,31206,1,0,0:0:0:0:
224,128,31356,1,0,0:0:0:0:
224,128,31431,1,0,0:0:0:0:
224,128,31506,1,8,0:0:0:0:
224,96,31806,1,0,0:0:0:0:
224,128,31956,1,0,0:0:0:0:
224,128,32031,1,8,0:0:0:0:
224,128,32106,1,0,0:0:0:0:
160,96,32256,1,8,0:0:0:0:
192,96,32306,1,0,0:0:0:0:
192,160,32356,1,0,0:0:0:0:
160,96,32406,1,8,0:0:0:0:
192,96,32456,1,8,0:0:0:0:
192,160,32506,1,8,0:0:0:0:
224,64,32556,1,0,0:0:0:0:
224,64,32631,1,8,0:0:0:0:
160,96,32706,1,0,0:0:0:0:
192,96,32756,1,0,0:0:0:0:
192,160,32806,1,0,0:0:0:0:
192,96,32856,1,8,0:0:0:0:
192,96,32931,1,0,0:0:0:0:
160,96,33006,1,8,0:0:0:0:
192,96,33056,1,8,0:0:0:0:
192,160,33106,1,8,0:0:0:0:
160,96,33156,1,0,0:0:0:0:
192,160,33206,1,0,0:0:0:0:
192,96,33256,1,0,0:0:0:0:
160,96,33306,1,8,0:0:0:0:
160,96,33456,1,8,0:0:0:0:
192,96,33506,1,8,0:0:0:0:
192,160,33556,1,8,0:0:0:0:
256,96,33606,1,0,0:0:0:0:
256,96,33756,1,0,0:0:0:0:
256,96,33831,1,0,0:0:0:0:
256,96,33906,1,8,0:0:0:0:
224,64,34206,1,0,0:0:0:0:
224,64,34356,1,0,0:0:0:0:
224,64,34431,1,8,0:0:0:0:
224,64,34506,1,8,0:0:0:0:
256,160,34656,1,0,0:0:0:0:
256,160,34693,1,0,0:0:0:0:
256,160,34806,1,0,0:0:0:0:
256,160,34843,1,0,0:0:0:0:
256,160,34956,1,0,0:0:0:0:
256,160,34993,1,0,0:0:0:0:
256,160,35106,1,8,0:0:0:0:
256,160,35143,1,8,0:0:0:0:
256,160,35256,1,8,0:0:0:0:
256,160,35293,1,8,0:0:0:0:
256,160,35406,1,0,0:0:0:0:
256,160,35443,1,0,0:0:0:0:
256,160,35556,1,0,0:0:0:0:
256,160,35593,1,0,0:0:0:0:
256,160,35706,1,8,0:0:0:0:
256,160,35743,1,8,0:0:0:0:
256,160,35856,1,0,0:0:0:0:
256,160,35893,1,0,0:0:0:0:
256,96,36006,1,0,0:0:0:0:
256,96,36156,1,0,0:0:0:0:
256,96,36231,1,8,0:0:0:0:
256,96,36306,1,8,0:0:0:0:
224,64,36606,1,0,0:0:0:0:
224,64,36756,1,0,0:0:0:0:
224,64,36831,1,0,0:0:0:0:
256,160,36906,1,8,0:0:0:0:
256,160,36943,1,8,0:0:0:0:
256,160,37056,1,8,0:0:0:0:
256,160,37093,1,8,0:0:0:0:
256,160,37206,1,8,0:0:0:0:
256,160,37243,1,8,0:0:0:0:
256,160,37356,1,0,0:0:0:0:
256,160,37393,1,0,0:0:0:0:
256,160,37506,1,0,0:0:0:0:
256,160,37543,1,0,0:0:0:0:
256,160,37656,1,0,0:0:0:0:
256,160,37693,1,0,0:0:0:0:
256,160,37806,1,8,0:0:0:0:
256,160,37843,1,8,0:0:0:0:
256,160,37956,1,0,0:0:0:0:
256,160,37993,1,0,0:0:0:0:
256,160,38106,1,0,0:0:0:0:
256,160,38143,1,0,0:0:0:0:
256,160,38256,1,0,0:0:0:0:
256,160,38293,1,0,0:0:0:0:
256,160,38406,1,8,0:0:0:0:
256,160,38443,1,8,0:0:0:0:
256,160,38556,1,8,0:0:0:0:
256,160,38593,1,8,0:0:0:0:
256,160,38706,1,0,0:0:0:0:
256,160,38743,1,0,0:0:0:0:
256,160,38856,1,0,0:0:0:0:
256,160,38893,1,0,0:0:0:0:
256,160,39006,1,8,0:0:0:0:
256,160,39043,1,8,0:0:0:0:
256,160,39156,1,8,0:0:0:0:
256,160,39193,1,8,0:0:0:0:
256,160,39306,1,0,0:0:0:0:
256,160,39343,1,0,0:0:0:0:
256,160,39456,1,0,0:0:0:0:
256,160,39493,1,0,0:0:0:0:
256,160,39606,1,8,0:0:0:0:
256,160,39643,1,8,0:0:0:0:
256,160,39756,1,0,0:0:0:0:
256,160,39793,1,0,0:0:0:0:
256,160,39906,1,8,0:0:0:0:
256,160,39943,1,8,0:0:0:0:
256,160,40056,1,0,0:0:0:0:
256,160,40093,1,0,0:0:0:0:
256,160,40206,1,8,0:0:0:0:
256,160,40243,1,8,0:0:0:0:
256,160,40356,1,0,0:0:0:0:
256,160,40393,1,0,0:0:0:0:
256,160,40506,1,8,0:0:0:0:
256,160,40543,1,8,0:0:0:0:
256,160,40656,1,8,0:0:0:0:
256,160,40693,1,8,0:0:0:0:
256,160,40806,1,0,0:0:0:0:
256,160,40843,1,0,0:0:0:0:
256,160,40956,1,8,0:0:0:0:
256,160,40993,1,8,0:0:0:0:
256,160,41106,1,0,0:0:0:0:
256,160,41143,1,0,0:0:0:0:
256,160,41256,1,8,0:0:0:0:
256,160,41293,1,8,0:0:0:0:
256,160,41406,1,0,0:0:0:0:
256,160,41443,1,0,0:0:0:0:
256,160,41556,1,8,0:0:0:0:
256,160,41593,1,8,0:0:0:0:
256,160,41706,1,0,0:0:0:0:
256,160,41743,1,0,0:0:0:0:
256,160,41856,1,8,0:0:0:0:
256,160,41893,1,8,0:0:0:0:
192,160,42006,1,0,0:0:0:0:
192,160,42306,1,8,0:0:0:0:
192,160,42606,1,0,0:0:0:0:
192,160,42756,1,0,0:0:0:0:
192,160,43056,1,0,0:0:0:0:
192,160,43206,1,0,0:0:0:0:
192,128,43356,1,0,0:0:0:0:
192,128,43431,1,8,0:0:0:0:
192,160,43506,1,8,0:0:0:0:
160,128,43656,1,8,0:0:0:0:
192,160,43806,1,8,0:0:0:0:
64,128,43856,1,8,0:0:0:0:
256,64,43906,1,8,0:0:0:0:
192,128,43956,1,0,0:0:0:0:
192,128,44031,1,0,0:0:0:0:
192,160,44106,1,8,0:0:0:0:
64,128,44156,1,8,0:0:0:0:
256,64,44206,1,0,0:0:0:0:
192,128,44256,1,0,0:0:0:0:
192,128,44331,1,0,0:0:0:0:
160,96,44406,1,12,0:0:0:0:
192,128,44556,1,0,0:0:0:0:
224,128,44631,1,8,0:0:0:0:
224,128,44706,1,0,0:0:0:0:
224,128,44856,1,8,0:0:0:0:
224,128,44906,1,8,0:0:0:0:
224,128,44956,1,8,0:0:0:0:
224,128,45006,1,0,0:0:0:0:
224,128,45081,1,8,0:0:0:0:
224,128,45156,1,8,0:0:0:0:
224,128,45231,1,8,0:0:0:0:
224,128,45306,1,0,0:0:0:0:
224,128,45381,1,8,0:0:0:0:
224,128,45456,1,8,0:0:0:0:
224,128,45531,1,0,0:0:0:0:
224,96,45606,1,8,0:0:0:0:
192,128,45756,1,0,0:0:0:0:
224,128,45831,1,0,0:0:0:0:
224,128,45906,1,0,0:0:0:0:
224,128,46056,1,0,0:0:0:0:
224,128,46106,1,8,0:0:0:0:
224,128,46156,1,8,0:0:0:0:
224,128,46206,1,0,0:0:0:0:
224,128,46281,1,8,0:0:0:0:
224,128,46356,1,8,0:0:0:0:
224,128,46431,1,8,0:0:0:0:
224,128,46506,1,0,0:0:0:0:
224,128,46581,1,8,0:0:0:0:
224,128,46656,1,8,0:0:0:0:
224,128,46731,1,0,0:0:0:0:
224,96,46806,1,8,0:0:0:0:
192,128,46956,1,8,0:0:0:0:
224,128,47031,1,8,0:0:0:0:
224,128,47106,1,0,0:0:0:0:
224,128,47256,1,8,0:0:0:0:
224,128,47406,1,8,0:0:0:0:
224,128,47481,1,8,0:0:0:0:
224,128,47556,1,8,0:0:0:0:
224,128,47631,1,8,0:0:0:0:
224,128,47706,1,0,0:0:0:0:
224,128,47781,1,8,0:0:0:0:
224,128,47856,1,8,0:0:0:0:
224,128,47931,1,0,0:0:0:0:
224,96,48006,1,8,0:0:0:0:
224,64,48156,1,8,0:0:0:0:
224,64,48193,1,8,0:0:0:0:
224,64,48306,1,8,0:0:0:0:
224,64,48343,1,8,0:0:0:0:
224,64,48456,1,8,0:0:0:0:
224,64,48493,1,8,0:0:0:0:
224,64,48606,1,0,0:0:0:0:
224,64,48756,1,8,0:0:0:0:
224,64,48793,1,8,0:0:0:0:
224,64,48906,1,8,0:0:0:0:
224,64,48943,1,8,0:0:0:0:
160,96,49206,1,0,0:0:0:0:
192,128,49356,1,8,0:0:0:0:
224,128,49431,1,8,0:0:0:0:
224,128,49506,1,0,0:0:0:0:
224,128,49656,1,0,0:0:0:0:
224,128,49706,1,8,0:0:0:0:
224,128,49756,1,8,0:0:0:0:
224,128,49806,1,0,0:0:0:0:
224,128,49881,1,8,0:0:0:0:
224,128,49956,1,8,0:0:0:0:
224,128,50031,1,8,0:0:0:0:
224,128,50106,1,0,0:0:0:0:
224,128,50181,1,8,0:0:0:0:
224,128,50256,1,8,0:0:0:0:
224,128,50331,1,0,0:0:0:0:
224,96,50406,1,8,0:0:0:0:
192,128,50556,1,0,0:0:0:0:
224,128,50631,1,0,0:0:0:0:
224,128,50706,1,0,0:0:0:0:
224,128,50856,1,0,0:0:0:0:
224,128,50906,1,0,0:0:0:0:
224,128,50956,1,8,0:0:0:0:
224,128,51006,1,0,0:0:0:0:
224,128,51081,1,8,0:0:0:0:
224,128,51156,1,8,0:0:0:0:
224,128,51231,1,8,0:0:0:0:
224,128,51306,1,0,0:0:0:0:
224,128,51381,1,8,0:0:0:0:
224,128,51456,1,8,0:0:0:0:
224,128,51531,1,0,0:0:0:0:
224,96,51606,1,8,0:0:0:0:
192,128,51756,1,8,0:0:0:0:
224,128,51831,1,8,0:0:0:0:
224,128,51906,1,0,0:0:0:0:
224,128,52056,1,8,0:0:0:0:
224,128,52206,1,8,0:0:0:0:
224,128,52281,1,8,0:0:0:0:
224,128,52356,1,8,0:0:0:0:
224,128,52431,1,8,0:0:0:0:
224,128,52506,1,0,0:0:0:0:
224,128,52581,1,8,0:0:0:0:
224,128,52656,1,8,0:0:0:0:
224,128,52731,1,0,0:0:0:0:
224,96,52806,1,8,0:0:0:0:
192,96,52956,1,0,0:0:0:0:
192,96,53031,1,0,0:0:0:0:
192,96,53106,1,0,0:0:0:0:
192,96,53181,1,8,0:0:0:0:
192,96,53256,1,0,0:0:0:0:
192,96,53406,1,8,0:0:0:0:
192,96,53481,1,8,0:0:0:0:
192,96,53556,1,8,0:0:0:0:
192,96,53631,1,0,0:0:0:0:
192,96,53706,1,8,0:0:0:0:
192,128,53856,1,0,0:0:0:0:
160,96,54006,1,4,0:0:0:0:
192,128,54156,1,0,0:0:0:0:
224,128,54231,1,8,0:0:0:0:
224,128,54306,1,0,0:0:0:0:
224,128,54456,1,0,0:0:0:0:
224,128,54506,1,0,0:0:0:0:
224,128,54556,1,0,0:0:0:0:
224,128,54606,1,8,0:0:0:0:
224,128,54681,1,8,0:0:0:0:
224,128,54756,1,8,0:0:0:0:
224,128,54831,1,8,0:0:0:0:
224,128,54906,1,0,0:0:0:0:
224,128,54981,1,8,0:0:0:0:
224,128,55056,1,8,0:0:0:0:
224,96,55131,1,8,0:0:0:0:
224,128,55206,1,0,0:0:0:0:
192,128,55356,1,0,0:0:0:0:
224,128,55431,1,0,0:0:0:0:
224,128,55506,1,0,0:0:0:0:
224,128,55656,1,0,0:0:0:0:
224,128,55706,1,0,0:0:0:0:
224,128,55756,1,0,0:0:0:0:
224,128,55806,1,8,0:0:0:0:
224,128,55881,1,8,0:0:0:0:
224,128,55956,1,8,0:0:0:0:
224,128,56031,1,8,0:0:0:0:
224,128,56106,1,0,0:0:0:0:
224,128,56181,1,8,0:0:0:0:
224,128,56256,1,8,0:0:0:0:
224,96,56331,1,8,0:0:0:0:
224,128,56406,1,0,0:0:0:0:
192,128,56556,1,8,0:0:0:0:
224,128,56631,1,8,0:0:0:0:
224,128,56706,1,0,0:0:0:0:
224,128,56856,1,8,0:0:0:0:
224,128,57006,1,8,0:0:0:0:
224,128,57081,1,8,0:0:0:0:
224,128,57156,1,8,0:0:0:0:
224,128,57231,1,8,0:0:0:0:
224,128,57306,1,0,0:0:0:0:
224,128,57381,1,8,0:0:0:0:
224,128,57456,1,8,0:0:0:0:
224,96,57531,1,8,0:0:0:0:
224,128,57606,1,0,0:0:0:0:
224,64,57756,1,8,0:0:0:0:
224,64,57906,1,8,0:0:0:0:
224,64,57981,1,0,0:0:0:0:
224,64,58131,1,0,0:0:0:0:
224,64,58206,1,8,0:0:0:0:
224,64,58356,1,8,0:0:0:0:
224,64,58431,1,0,0:0:0:0:
224,64,58581,1,0,0:0:0:0:
224,64,58656,1,8,0:0:0:0:
160,128,58806,1,0,0:0:0:0:
192,128,58956,1,8,0:0:0:0:
224,128,59031,1,8,0:0:0:0:
224,128,59106,1,0,0:0:0:0:
224,128,59256,1,0,0:0:0:0:
224,128,59306,1,0,0:0:0:0:
224,128,59356,1,0,0:0:0:0:
224,128,59406,1,8,0:0:0:0:
224,128,59481,1,8,0:0:0:0:
224,128,59556,1,8,0:0:0:0:
224,128,59631,1,8,0:0:0:0:
224,128,59706,1,0,0:0:0:0:
224,128,59781,1,8,0:0:0:0:
224,128,59856,1,8,0:0:0:0:
224,96,59931,1,8,0:0:0:0:
224,128,60006,1,0,0:0:0:0:
192,128,60156,1,0,0:0:0:0:
224,128,60231,1,0,0:0:0:0:
224,128,60306,1,0,0:0:0:0:
224,128,60456,1,0,0:0:0:0:
224,128,60506,1,0,0:0:0:0:
224,128,60556,1,0,0:0:0:0:
224,128,60606,1,8,0:0:0:0:
224,128,60681,1,8,0:0:0:0:
224,128,60756,1,8,0:0:0:0:
224,128,60831,1,8,0:0:0:0:
224,128,60906,1,0,0:0:0:0:
224,128,60981,1,8,0:0:0:0:
224,128,61056,1,8,0:0:0:0:
224,96,61131,1,8,0:0:0:0:
224,128,61206,1,0,0:0:0:0:
192,128,61356,1,8,0:0:0:0:
224,128,61431,1,8,0:0:0:0:
224,128,61506,1,0,0:0:0:0:
224,128,61656,1,8,0:0:0:0:
224,128,61806,1,8,0:0:0:0:
224,128,61881,1,8,0:0:0:0:
224,128,61956,1,8,0:0:0:0:
224,128,62031,1,8,0:0:0:0:
224,128,62106,1,0,0:0:0:0:
224,128,62181,1,8,0:0:0:0:
224,128,62256,1,0,0:0:0:0:
224,96,62331,1,0,0:0:0:0:
192,128,62406,1,8,0:0:0:0:
192,128,62456,1,8,0:0:0:0:
192,160,62506,1,8,0:0:0:0:
160,128,62556,1,0,0:0:0:0:
160,128,62631,1,0,0:0:0:0:
192,128,62706,1,8,0:0:0:0:
192,128,62756,1,8,0:0:0:0:
192,160,62806,1,8,0:0:0:0:
256,160,62856,1,0,0:0:0:0:
128,96,62931,1,0,0:0:0:0:
192,128,63006,1,8,0:0:0:0:
192,128,63056,1,8,0:0:0:0:
192,160,63106,1,8,0:0:0:0:
192,128,63156,1,0,0:0:0:0:
192,128,63206,1,0,0:0:0:0:
192,160,63256,1,0,0:0:0:0:
224,96,63306,1,8,0:0:0:0:
224,96,63606,1,4,0:0:0:0:
256,160,63906,1,8,0:0:0:0:
256,160,64056,1,0,0:0:0:0:
256,160,64356,1,0,0:0:0:0:
256,160,64506,1,8,0:0:0:0:
256,160,64806,1,0,0:0:0:0:
256,160,64956,1,0,0:0:0:0:
256,160,65106,1,8,0:0:0:0:
256,160,65256,1,0,0:0:0:0:
256,160,65331,1,0,0:0:0:0:
128,128,65406,1,0,0:0:0:0:
192,96,65556,1,0,0:0:0:0:
192,96,65706,1,8,0:0:0:0:
192,96,65856,1,0,0:0:0:0:
160,128,66006,1,0,0:0:0:0:
256,160,66306,1,8,0:0:0:0:
256,160,66456,1,0,0:0:0:0:
256,160,66756,1,0,0:0:0:0:
256,160,66906,1,8,0:0:0:0:
256,160,67206,1,0,0:0:0:0:
256,160,67356,1,0,0:0:0:0:
256,160,67506,1,8,0:0:0:0:
256,160,67656,1,0,0:0:0:0:
256,160,67731,1,0,0:0:0:0:
128,128,67806,1,8,0:0:0:0:
192,96,67956,1,0,0:0:0:0:
192,96,68106,1,8,0:0:0:0:
192,96,68256,1,0,0:0:0:0:
160,128,68331,1,0,0:0:0:0:
224,64,68406,1,8,0:0:0:0:
256,160,68706,1,8,0:0:0:0:
256,160,68856,1,0,0:0:0:0:
192,128,68931,1,8,0:0:0:0:
192,160,69006,1,0,0:0:0:0:
256,160,69156,1,0,0:0:0:0:
256,160,69306,1,8,0:0:0:0:
256,160,69606,1,0,0:0:0:0:
256,160,69831,1,0,0:0:0:0:
256,160,69906,1,8,0:0:0:0:
256,160,70056,1,8,0:0:0:0:
128,128,70206,1,0,0:0:0:0:
192,128,70281,1,0,0:0:0:0:
192,96,70356,1,0,0:0:0:0:
192,96,70506,1,8,0:0:0:0:
192,96,70656,1,0,0:0:0:0:
192,96,70806,1,8,0:0:0:0:
192,96,70856,1,0,0:0:0:0:
160,96,70906,1,0,0:0:0:0:
192,96,70956,1,8,0:0:0:0:
192,96,71031,1,0,0:0:0:0:
192,96,71106,1,8,0:0:0:0:
192,96,71156,1,8,0:0:0:0:
192,96,71206,1,8,0:0:0:0:
192,128,71256,1,0,0:0:0:0:
192,96,71331,1,0,0:0:0:0:
192,96,71406,1,8,0:0:0:0:
192,96,71456,1,0,0:0:0:0:
160,96,71506,1,0,0:0:0:0:
192,96,71556,1,8,0:0:0:0:
192,96,71631,1,0,0:0:0:0:
192,96,71706,1,8,0:0:0:0:
192,96,71756,1,8,0:0:0:0:
192,96,71806,1,8,0:0:0:0:
192,96,71856,1,8,0:0:0:0:
192,96,71906,1,8,0:0:0:0:
192,96,71956,1,8,0:0:0:0:
288,64,72006,1,0,0:0:0:0:
224,32,72306,1,0,0:0:0:0:
224,32,72606,1,8,0:0:0:0:
224,32,72656,1,8,0:0:0:0:
224,32,72706,1,8,0:0:0:0:
224,32,72756,1,0,0:0:0:0:
224,64,72806,1,0,0:0:0:0:
224,64,72856,1,0,0:0:0:0:
224,64,72906,1,8,0:0:0:0:
224,64,72956,1,8,0:0:0:0:
224,64,73006,1,8,0:0:0:0:
224,64,73056,1,0,0:0:0:0:
192,128,73206,1,4,0:0:0:0:
192,96,73506,1,0,0:0:0:0:
256,128,73656,1,8,0:0:0:0:
256,128,73693,1,8,0:0:0:0:
256,128,73806,1,8,0:0:0:0:
256,128,73843,1,8,0:0:0:0:
256,128,73956,1,0,0:0:0:0:
256,128,73993,1,0,0:0:0:0:
256,128,74106,1,8,0:0:0:0:
256,128,74143,1,8,0:0:0:0:
256,128,74256,1,0,0:0:0:0:
256,128,74274,1,0,0:0:0:0:
256,128,74331,1,0,0:0:0:0:
256,128,74349,1,0,0:0:0:0:
256,128,74406,1,8,0:0:0:0:
256,128,74443,1,8,0:0:0:0:
256,128,74556,1,8,0:0:0:0:
256,128,74593,1,8,0:0:0:0:
256,128,74706,1,8,0:0:0:0:
256,128,74724,1,8,0:0:0:0:
256,128,74781,1,0,0:0:0:0:
256,128,74799,1,0,0:0:0:0:
256,128,74856,1,8,0:0:0:0:
256,128,74874,1,8,0:0:0:0:
256,128,74931,1,0,0:0:0:0:
256,128,74949,1,0,0:0:0:0:
256,128,75006,1,8,0:0:0:0:
256,128,75024,1,8,0:0:0:0:
192,96,75156,1,0,0:0:0:0:
192,96,75306,1,8,0:0:0:0:
192,96,75381,1,0,0:0:0:0:
192,96,75456,1,8,0:0:0:0:
192,96,75531,1,8,0:0:0:0:
192,96,75606,1,0,0:0:0:0:
192,96,75906,1,0,0:0:0:0:
256,128,76056,1,8,0:0:0:0:
256,128,76093,1,8,0:0:0:0:
256,128,76206,1,8,0:0:0:0:
256,128,76243,1,8,0:0:0:0:
256,128,76356,1,0,0:0:0:0:
256,128,76393,1,0,0:0:0:0:
256,128,76506,1,8,0:0:0:0:
256,128,76524,1,8,0:0:0:0:
256,128,76581,1,8,0:0:0:0:
256,128,76599,1,8,0:0:0:0:
256,128,76656,1,0,0:0:0:0:
256,128,76674,1,0,0:0:0:0:
256,128,76731,1,0,0:0:0:0:
256,128,76749,1,0,0:0:0:0:
256,128,76806,1,8,0:0:0:0:
256,128,76843,1,8,0:0:0:0:
256,128,76956,1,8,0:0:0:0:
256,128,76993,1,8,0:0:0:0:
256,128,77106,1,8,0:0:0:0:
256,128,77124,1,8,0:0:0:0:
256,128,77181,1,0,0:0:0:0:
256,128,77199,1,0,0:0:0:0:
256,128,77256,1,8,0:0:0:0:
256,128,77274,1,8,0:0:0:0:
256,128,77331,1,0,0:0:0:0:
256,128,77349,1,0,0:0:0:0:
256,128,77406,1,8,0:0:0:0:
256,128,77424,1,8,0:0:0:0:
192,96,77556,1,0,0:0:0:0:
288,96,77631,1,0,0:0:0:0:
192,96,77706,1,8,0:0:0:0:
192,96,77781,1,0,0:0:0:0:
192,96,77856,1,8,0:0:0:0:
192,96,77931,1,8,0:0:0:0:
192,96,78006,1,0,0:0:0:0:
192,96,78306,1,0,0:0:0:0:
256,128,78456,1,8,0:0:0:0:
256,128,78474,1,8,0:0:0:0:
256,128,78531,1,8,0:0:0:0:
256,128,78549,1,8,0:0:0:0:
256,128,78606,1,8,0:0:0:0:
256,128,78624,1,8,0:0:0:0:
256,128,78756,1,0,0:0:0:0:
256,128,78793,1,0,0:0:0:0:
256,128,78906,1,8,0:0:0:0:
256,128,78924,1,8,0:0:0:0:
256,128,79056,1,0,0:0:0:0:
256,128,79074,1,0,0:0:0:0:
256,128,79131,1,0,0:0:0:0:
256,128,79149,1,0,0:0:0:0:
256,128,79206,1,8,0:0:0:0:
256,128,79243,1,8,0:0:0:0:
256,128,79356,1,8,0:0:0:0:
256,128,79393,1,8,0:0:0:0:
256,128,79506,1,8,0:0:0:0:
256,128,79524,1,8,0:0:0:0:
256,128,79656,1,8,0:0:0:0:
256,128,79674,1,8,0:0:0:0:
256,128,79731,1,0,0:0:0:0:
256,128,79749,1,0,0:0:0:0:
256,128,79806,1,8,0:0:0:0:
256,128,79824,1,8,0:0:0:0:
192,96,79956,1,0,0:0:0:0:
288,96,80031,1,0,0:0:0:0:
192,96,80106,1,8,0:0:0:0:
192,96,80181,1,0,0:0:0:0:
192,96,80256,1,8,0:0:0:0:
192,96,80331,1,8,0:0:0:0:
192,96,80406,1,0,0:0:0:0:
192,96,80706,1,0,0:0:0:0:
256,128,80856,1,8,0:0:0:0:
256,128,80874,1,8,0:0:0:0:
256,128,80931,1,8,0:0:0:0:
256,128,80949,1,8,0:0:0:0:
256,128,81006,1,8,0:0:0:0:
256,128,81024,1,8,0:0:0:0:
256,128,81156,1,0,0:0:0:0:
256,128,81193,1,0,0:0:0:0:
256,128,81306,1,8,0:0:0:0:
256,128,81324,1,8,0:0:0:0:
256,128,81456,1,0,0:0:0:0:
256,128,81474,1,0,0:0:0:0:
256,128,81531,1,8,0:0:0:0:
256,128,81549,1,8,0:0:0:0:
256,128,81606,1,0,0:0:0:0:
256,128,81643,1,0,0:0:0:0:
256,128,81756,1,8,0:0:0:0:
256,128,81793,1,8,0:0:0:0:
256,128,81906,1,8,0:0:0:0:
256,128,81924,1,8,0:0:0:0:
256,128,82056,1,8,0:0:0:0:
256,128,82074,1,8,0:0:0:0:
256,128,82131,1,0,0:0:0:0:
256,128,82149,1,0,0:0:0:0:
256,128,82206,1,8,0:0:0:0:
256,128,82224,1,8,0:0:0:0:
192,96,82356,1,0,0:0:0:0:
288,96,82431,1,0,0:0:0:0:
192,96,82506,1,8,0:0:0:0:
192,96,82581,1,8,0:0:0:0:
192,96,82656,1,8,0:0:0:0:
192,96,82806,1,8,0:0:0:0:
192,96,82856,1,0,0:0:0:0:
160,96,82906,1,0,0:0:0:0:
192,96,82956,1,8,0:0:0:0:
192,96,83031,1,0,0:0:0:0:
192,96,83106,1,8,0:0:0:0:
192,96,83156,1,8,0:0:0:0:
192,96,83206,1,8,0:0:0:0:
192,128,83256,1,0,0:0:0:0:
192,96,83331,1,0,0:0:0:0:
192,96,83406,1,8,0:0:0:0:
192,96,83456,1,0,0:0:0:0:
160,96,83506,1,0,0:0:0:0:
192,96,83556,1,8,0:0:0:0:
192,96,83631,1,0,0:0:0:0:
192,96,83706,1,8,0:0:0:0:
192,96,83756,1,8,0:0:0:0:
192,96,83806,1,8,0:0:0:0:
192,96,83856,1,8,0:0:0:0:
192,96,83906,1,8,0:0:0:0:
192,96,83956,1,8,0:0:0:0:
288,64,84006,1,0,0:0:0:0:
224,32,84306,1,0,0:0:0:0:
224,32,84606,1,8,0:0:0:0:
224,32,84656,1,8,0:0:0:0:
224,32,84706,1,8,0:0:0:0:
224,32,84756,1,0,0:0:0:0:
224,64,84806,1,0,0:0:0:0:
224,64,84856,1,0,0:0:0:0:
224,64,84906,1,8,0:0:0:0:
224,64,84956,1,8,0:0:0:0:
224,64,85006,1,8,0:0:0:0:
224,64,85056,1,0,0:0:0:0:
256,160,85206,1,4,0:0:0:0:
256,160,85356,1,8,0:0:0:0:
256,160,85431,1,8,0:0:0:0:
256,160,85506,1,0,0:0:0:0:
256,160,85656,1,8,0:0:0:0:
256,160,85731,1,8,0:0:0:0:
256,160,85806,1,0,0:0:0:0:
192,32,85956,1,8,0:0:0:0:
160,64,86106,1,0,0:0:0:0:
160,64,86181,1,0,0:0:0:0:
160,64,86256,1,8,0:0:0:0:
160,96,86331,1,8,0:0:0:0:
160,96,86406,1,0,0:0:0:0:
160,96,86481,1,0,0:0:0:0:
160,96,86556,1,8,0:0:0:0:
160,96,86631,1,8,0:0:0:0:
160,96,86706,1,0,0:0:0:0:
160,160,86856,1,8,0:0:0:0:
160,160,87006,1,8,0:0:0:0:
160,160,87081,1,8,0:0:0:0:
160,160,87156,1,0,0:0:0:0:
160,160,87231,1,8,0:0:0:0:
160,160,87306,1,0,0:0:0:0:
160,160,87381,1,0,0:0:0:0:
160,160,87456,1,8,0:0:0:0:
256,160,87606,1,0,0:0:0:0:
256,160,87756,1,8,0:0:0:0:
256,160,87831,1,8,0:0:0:0:
256,160,87906,1,0,0:0:0:0:
256,160,88056,1,8,0:0:0:0:
256,160,88131,1,8,0:0:0:0:
256,160,88206,1,0,0:0:0:0:
192,32,88356,1,8,0:0:0:0:
160,64,88506,1,0,0:0:0:0:
160,64,88581,1,0,0:0:0:0:
160,64,88656,1,8,0:0:0:0:
160,96,88731,1,8,0:0:0:0:
160,96,88806,1,0,0:0:0:0:
160,96,88881,1,0,0:0:0:0:
160,96,88956,1,8,0:0:0:0:
160,96,89031,1,8,0:0:0:0:
160,96,89106,1,0,0:0:0:0:
160,160,89256,1,8,0:0:0:0:
160,160,89406,1,8,0:0:0:0:
160,160,89443,1,8,0:0:0:0:
160,160,89556,1,8,0:0:0:0:
160,160,89593,1,8,0:0:0:0:
160,160,89706,1,0,0:0:0:0:
160,160,89743,1,0,0:0:0:0:
160,160,89856,1,0,0:0:0:0:
192,64,89874,1,0,0:0:0:0:
160,160,89931,1,8,0:0:0:0:
192,64,89949,1,8,0:0:0:0:
256,160,90006,1,0,0:0:0:0:
256,160,90156,1,8,0:0:0:0:
256,160,90231,1,8,0:0:0:0:
256,160,90306,1,0,0:0:0:0:
256,160,90456,1,8,0:0:0:0:
256,160,90531,1,8,0:0:0:0:
256,160,90606,1,0,0:0:0:0:
192,32,90756,1,8,0:0:0:0:
160,64,90906,1,8,0:0:0:0:
160,64,90981,1,0,0:0:0:0:
160,64,91056,1,8,0:0:0:0:
160,96,91131,1,8,0:0:0:0:
160,96,91206,1,0,0:0:0:0:
160,96,91281,1,0,0:0:0:0:
160,96,91356,1,8,0:0:0:0:
160,96,91431,1,8,0:0:0:0:
160,96,91506,1,0,0:0:0:0:
160,160,91656,1,8,0:0:0:0:
160,160,91806,1,8,0:0:0:0:
160,160,91881,1,0,0:0:0:0:
160,160,91956,1,8,0:0:0:0:
160,160,92031,1,0,0:0:0:0:
160,160,92106,1,8,0:0:0:0:
160,160,92181,1,8,0:0:0:0:
160,160,92256,1,0,0:0:0:0:
256,160,92406,1,0,0:0:0:0:
256,160,92556,1,8,0:0:0:0:
256,160,92631,1,8,0:0:0:0:
256,160,92706,1,0,0:0:0:0:
256,160,92856,1,8,0:0:0:0:
256,160,92931,1,8,0:0:0:0:
256,160,93006,1,0,0:0:0:0:
192,32,93156,1,8,0:0:0:0:
160,64,93306,1,0,0:0:0:0:
160,64,93381,1,0,0:0:0:0:
160,64,93456,1,8,0:0:0:0:
160,96,93606,1,0,0:0:0:0:
160,96,93681,1,0,0:0:0:0:
160,96,93756,1,8,0:0:0:0:
160,96,93831,1,8,0:0:0:0:
160,96,93906,1,0,0:0:0:0:
160,160,94056,1,8,0:0:0:0:
160,160,94206,1,0,0:0:0:0:
160,160,94243,1,0,0:0:0:0:
160,160,94356,1,8,0:0:0:0:
160,160,94393,1,8,0:0:0:0:
160,160,94506,1,0,0:0:0:0:
160,160,94556,1,0,0:0:0:0:
192,64,94606,1,0,0:0:0:0:
160,160,94656,1,8,0:0:0:0:
192,64,94706,1,8,0:0:0:0:
160,160,94756,1,8,0:0:0:0:
256,160,94806,1,0,0:0:0:0:
256,160,94956,1,8,0:0:0:0:
256,160,95031,1,8,0:0:0:0:
256,160,95106,1,0,0:0:0:0:
256,160,95256,1,8,0:0:0:0:
256,160,95331,1,8,0:0:0:0:
256,160,95406,1,0,0:0:0:0:
192,32,95556,1,8,0:0:0:0:
192,64,95706,1,0,0:0:0:0:
192,64,95756,1,0,0:0:0:0:
192,64,95806,1,0,0:0:0:0:
192,64,95856,1,8,0:0:0:0:
192,64,95906,1,8,0:0:0:0:
192,64,95956,1,8,0:0:0:0:
160,96,96006,1,0,0:0:0:0:
160,96,96081,1,0,0:0:0:0:
160,96,96156,1,8,0:0:0:0:
160,96,96231,1,8,0:0:0:0:
160,96,96306,1,0,0:0:0:0:
160,160,96456,1,8,0:0:0:0:
160,160,96606,1,0,0:0:0:0:
160,160,96681,1,8,0:0:0:0:
160,160,96756,1,0,0:0:0:0:
160,160,96831,1,0,0:0:0:0:
160,160,96906,1,8,0:0:0:0:
160,160,96981,1,8,0:0:0:0:
160,160,97056,1,0,0:0:0:0:
256,160,97206,1,0,0:0:0:0:
256,160,97356,1,8,0:0:0:0:
256,160,97431,1,8,0:0:0:0:
256,160,97506,1,0,0:0:0:0:
256,160,97656,1,8,0:0:0:0:
256,160,97731,1,8,0:0:0:0:
256,160,97806,1,0,0:0:0:0:
192,32,97956,1,8,0:0:0:0:
160,64,98106,1,8,0:0:0:0:
160,64,98181,1,0,0:0:0:0:
160,64,98256,1,8,0:0:0:0:
160,96,98331,1,8,0:0:0:0:
160,96,98406,1,0,0:0:0:0:
160,96,98481,1,0,0:0:0:0:
160,96,98556,1,8,0:0:0:0:
160,96,98631,1,8,0:0:0:0:
160,96,98706,1,0,0:0:0:0:
160,160,98856,1,8,0:0:0:0:
160,160,99006,1,8,0:0:0:0:
160,160,99043,1,8,0:0:0:0:
160,160,99156,1,8,0:0:0:0:
160,160,99193,1,8,0:0:0:0:
160,160,99306,1,8,0:0:0:0:
160,160,99343,1,8,0:0:0:0:
160,160,99456,1,8,0:0:0:0:
160,160,99493,1,8,0:0:0:0:
256,160,99606,1,0,0:0:0:0:
256,160,99756,1,8,0:0:0:0:
256,160,99831,1,8,0:0:0:0:
256,160,99906,1,0,0:0:0:0:
256,160,100056,1,8,0:0:0:0:
256,160,100131,1,8,0:0:0:0:
256,160,100206,1,0,0:0:0:0:
192,32,100356,1,8,0:0:0:0:
160,64,100506,1,8,0:0:0:0:
160,64,100581,1,0,0:0:0:0:
160,64,100656,1,8,0:0:0:0:
160,96,100731,1,8,0:0:0:0:
160,96,100806,1,0,0:0:0:0:
160,96,100881,1,0,0:0:0:0:
160,96,100956,1,8,0:0:0:0:
160,96,101031,1,8,0:0:0:0:
160,96,101106,1,0,0:0:0:0:
160,160,101256,1,8,0:0:0:0:
160,160,101406,1,8,0:0:0:0:
160,160,101481,1,0,0:0:0:0:
160,160,101556,1,0,0:0:0:0:
160,160,101631,1,0,0:0:0:0:
160,160,101706,1,8,0:0:0:0:
160,160,101781,1,8,0:0:0:0:
160,160,101856,1,0,0:0:0:0:
256,128,102006,1,8,0:0:0:0:
256,96,102056,1,8,0:0:0:0:
256,96,102106,1,8,0:0:0:0:
192,96,102156,1,0,0:0:0:0:
192,96,102231,1,0,0:0:0:0:
256,128,102306,1,8,0:0:0:0:
256,96,102381,1,8,0:0:0:0:
192,96,102456,1,0,0:0:0:0:
192,96,102531,1,0,0:0:0:0:
256,128,102606,1,8,0:0:0:0:
256,96,102681,1,0,0:0:0:0:
192,96,102756,1,0,0:0:0:0:
192,96,102831,1,0,0:0:0:0:
256,128,102906,1,8,0:0:0:0:
256,96,102981,1,0,0:0:0:0:
192,96,103056,1,8,0:0:0:0:
192,96,103131,1,0,0:0:0:0:
256,128,103206,1,8,0:0:0:0:
256,96,103256,1,8,0:0:0:0:
256,96,103306,1,8,0:0:0:0:
192,96,103356,1,0,0:0:0:0:
192,96,103431,1,0,0:0:0:0:
256,128,103506,1,8,0:0:0:0:
192,96,103581,1,0,0:0:0:0:
256,96,103656,1,8,0:0:0:0:
192,96,103731,1,0,0:0:0:0:
256,128,103806,1,8,0:0:0:0:
256,128,103881,1,8,0:0:0:0:
192,96,103956,1,8,0:0:0:0:
192,96,104031,1,8,0:0:0:0:
256,96,104106,1,0,0:0:0:0:
256,96,104181,1,8,0:0:0:0:
192,96,104256,1,8,0:0:0:0:
192,96,104331,1,8,0:0:0:0:
192,32,104406,1,0,0:0:0:0:
192,32,104481,1,0,0:0:0:0:
192,32,104556,1,8,0:0:0:0:
192,32,104631,1,8,0:0:0:0:
192,32,104706,1,0,0:0:0:0:
192,32,104781,1,8,0:0:0:0:
192,32,104856,1,8,0:0:0:0:
192,32,104931,1,8,0:0:0:0:
192,32,105006,1,0,0:0:0:0:
192,32,105081,1,8,0:0:0:0:
192,32,105156,1,8,0:0:0:0:
192,32,105231,1,8,0:0:0:0:
192,32,105306,1,0,0:0:0:0:
192,32,105381,1,8,0:0:0:0:
192,32,105456,1,8,0:0:0:0:
192,32,105531,1,8,0:0:0:0:
192,32,105606,1,0,0:0:0:0:
192,32,105681,1,0,0:0:0:0:
192,32,105756,1,8,0:0:0:0:
192,32,105831,1,8,0:0:0:0:
192,32,105906,1,0,0:0:0:0:
192,32,105981,1,8,0:0:0:0:
192,32,106056,1,8,0:0:0:0:
192,32,106131,1,8,0:0:0:0:
192,32,106206,1,0,0:0:0:0:
192,32,106281,1,8,0:0:0:0:
192,32,106356,1,8,0:0:0:0:
192,32,106431,1,0,0:0:0:0:
192,32,106506,1,8,0:0:0:0:
192,32,106581,1,8,0:0:0:0:
192,32,106656,1,8,0:0:0:0:
192,32,106731,1,8,0:0:0:0:
192,32,106806,1,0,0:0:0:0:
192,32,106881,1,0,0:0:0:0:
192,32,106956,1,8,0:0:0:0:
192,32,107031,1,8,0:0:0:0:
192,32,107106,1,0,0:0:0:0:
192,32,107181,1,8,0:0:0:0:
192,32,107256,1,0,0:0:0:0:
192,32,107306,1,8,0:0:0:0:
128,128,107356,1,8,0:0:0:0:
192,32,107406,1,0,0:0:0:0:
192,32,107481,1,8,0:0:0:0:
192,32,107556,1,8,0:0:0:0:
192,32,107631,1,8,0:0:0:0:
192,32,107706,1,0,0:0:0:0:
192,32,107781,1,8,0:0:0:0:
192,32,107856,1,8,0:0:0:0:
192,32,107931,1,8,0:0:0:0:
192,32,108006,1,0,0:0:0:0:
192,32,108081,1,0,0:0:0:0:
192,32,108156,1,8,0:0:0:0:
192,32,108231,1,8,0:0:0:0:
192,32,108306,1,0,0:0:0:0:
192,32,108381,1,8,0:0:0:0:
192,32,108456,1,0,0:0:0:0:
192,32,108506,1,8,0:0:0:0:
128,128,108556,1,8,0:0:0:0:
192,32,108606,1,0,0:0:0:0:
192,32,108681,1,8,0:0:0:0:
192,32,108756,1,8,0:0:0:0:
192,32,108831,1,0,0:0:0:0:
192,32,108906,1,8,0:0:0:0:
192,32,108981,1,8,0:0:0:0:
192,32,109056,1,8,0:0:0:0:
192,32,109131,1,8,0:0:0:0:
192,32,109206,1,0,0:0:0:0:
192,32,109281,1,0,0:0:0:0:
192,32,109356,1,8,0:0:0:0:
192,32,109431,1,8,0:0:0:0:
192,32,109506,1,8,0:0:0:0:
192,32,109581,1,0,0:0:0:0:
192,32,109656,1,8,0:0:0:0:
192,32,109731,1,0,0:0:0:0:
192,32,109806,1,0,0:0:0:0:
192,32,109881,1,0,0:0:0:0:
192,32,109956,1,8,0:0:0:0:
192,32,110031,1,0,0:0:0:0:
192,32,110106,1,8,0:0:0:0:
192,32,110181,1,8,0:0:0:0:
192,32,110256,1,8,0:0:0:0:
192,32,110331,1,8,0:0:0:0:
192,32,110406,1,0,0:0:0:0:
192,32,110481,1,0,0:0:0:0:
192,32,110556,1,8,0:0:0:0:
192,32,110631,1,8,0:0:0:0:
192,32,110706,1,8,0:0:0:0:
192,32,110781,1,0,0:0:0:0:
192,32,110856,1,8,0:0:0:0:
192,32,110931,1,0,0:0:0:0:
192,32,111006,1,0,0:0:0:0:
192,32,111081,1,0,0:0:0:0:
192,32,111156,1,8,0:0:0:0:
192,32,111231,1,0,0:0:0:0:
192,32,111306,1,8,0:0:0:0:
192,32,111381,1,0,0:0:0:0:
192,32,111456,1,8,0:0:0:0:
192,32,111531,1,0,0:0:0:0:
224,160,111606,1,8,0:0:0:0:
224,160,111656,1,8,0:0:0:0:
224,160,111706,1,8,0:0:0:0:
224,160,111756,1,0,0:0:0:0:
160,128,111831,1,0,0:0:0:0:
224,160,111906,1,8,0:0:0:0:
224,160,111956,1,8,0:0:0:0:
224,160,112006,1,8,0:0:0:0:
224,160,112056,1,0,0:0:0:0:
160,128,112131,1,0,0:0:0:0:
224,160,112206,1,8,0:0:0:0:
224,160,112256,1,0,0:0:0:0:
224,160,112306,1,0,0:0:0:0:
224,160,112356,1,8,0:0:0:0:
224,160,112406,1,8,0:0:0:0:
224,160,112456,1,8,0:0:0:0:
224,96,112506,1,0,0:0:0:0:
192,96,112806,1,4,0:0:0:0:
224,96,113106,1,4,0:0:0:0:
224,96,113406,1,12,0:0:0:0:
160,128,114006,5,4,0:0:0:0:
160,128,114306,1,0,0:0:0:0:
160,128,114456,1,0,0:0:0:0:
160,128,114531,1,8,0:0:0:0:
160,128,114606,1,0,0:0:0:0:
160,128,114756,1,0,0:0:0:0:
160,128,114906,1,8,0:0:0:0:
160,128,115056,1,8,0:0:0:0:
160,128,115206,1,0,0:0:0:0:
192,64,115431,1,0,0:0:0:0:
192,96,115506,1,8,0:0:0:0:
192,96,115656,1,8,0:0:0:0:
192,96,115806,1,0,0:0:0:0:
192,128,116106,1,0,0:0:0:0:
192,128,116256,1,8,0:0:0:0:
192,128,116406,1,4,0:0:0:0:
192,128,116556,1,0,0:0:0:0:
192,128,116631,1,8,0:0:0:0:
192,128,116706,1,0,0:0:0:0:
192,128,116856,1,8,0:0:0:0:
192,128,117006,1,4,0:0:0:0:
192,128,117156,1,0,0:0:0:0:
192,128,117306,1,12,0:0:0:0:
192,128,117456,1,0,0:0:0:0:
128,160,117606,1,4,0:0:0:0:
256,192,117756,12,0,121506,0:0:0:0:
