osu file format v14

[General]
AudioFilename: audio.mp3
AudioLeadIn: 0
PreviewTime: 0
Countdown: 0
SampleSet: Normal
StackLeniency: 0.7
Mode: 1
LetterboxInBreaks: 0
WidescreenStoryboard: 1

[Editor]
DistanceSpacing: 0.7
BeatDivisor: 1
GridSize: 32
TimelineZoom: 5.599997

[Metadata]
Title:PEPPY FIX TAIKO STAR RATING PLEASE for a happier
TitleUnicode:PEPPY FIX TAIKO STAR RATING PLEASE for a happier
Artist:Various Artists
ArtistUnicode:Various Artists
Creator:ARGENTINE DREAM
Version:54
Source:
Tags:kasai harcores esti round wave crusher d abe3 slash dot dash cycle hit helix maniera axer backfire hikikochan hikiko- _yu68 surono alchyr nifty brames consified lno skull kid skid brasil luckysonicghz kqrth trapmaniac agu ppus zigizigiefe nwolf -kazu- idealism babysnakes astolfo vrnl yea jarvisgaming chichinya poii hirok _dusk_ nishizumi ulqui coryn faputa rhytoly dudetm meovvcat jhowm gaston_2199 kbludoh blackener mtdex kuron kuron-kun tyistiana xtrem3x ghm12 davidminh0111 -gn junior aspirin whats skill metalstream whosthebox grimbow duski ozzyozrock foxerus endymion vulkin taiko pp compilation
BeatmapID:1742540
BeatmapSetID:794048

[Difficulty]
HPDrainRate:3
CircleSize:6.6
OverallDifficulty:7
ApproachRate:9.9
SliderMultiplier:1.4
SliderTickRate:1

[Events]
//Background and Video events
0,0,"pipifarm.jpg",0,0
//Break Periods
//Storyboard Layer 0 (Background)
//Storyboard Layer 1 (Fail)
//Storyboard Layer 2 (Pass)
//Storyboard Layer 3 (Foreground)
//Storyboard Sound Samples

[TimingPoints]
6,150,4,1,0,80,1,0
6,-181.818181818182,4,1,0,80,0,0
7206,-166.666666666667,4,1,0,80,0,0
8406,-153.846153846154,4,1,0,80,0,0
9606,-142.857142857143,4,1,0,80,0,0
44406,-142.857142857143,4,1,0,80,0,1
52806,-142.857142857143,4,1,0,80,0,0
54006,-142.857142857143,4,1,0,80,0,1
63606,-142.857142857143,4,1,0,80,0,0
73206,-142.857142857143,4,1,0,80,0,1
102006,-142.857142857143,4,1,0,80,0,0
104406,-142.857142857143,4,1,0,80,0,1
114006,-142.857142857143,4,1,0,80,0,0

[HitObjects]
255,192,6,5,2,0:0:0:0:
250,192,456,1,0,0:0:0:0:
250,192,531,1,2,0:0:0:0:
250,192,606,1,0,0:0:0:0:
250,192,756,1,0,0:0:0:0:
250,192,906,1,2,0:0:0:0:
250,192,1056,1,0,0:0:0:0:
250,192,1206,1,2,0:0:0:0:
250,192,1506,1,2,0:0:0:0:
250,192,1656,1,2,0:0:0:0:
250,192,1806,1,0,0:0:0:0:
276,198,2406,1,2,0:0:0:0:
268,190,2856,1,0,0:0:0:0:
268,190,2931,1,2,0:0:0:0:
268,190,3006,1,0,0:0:0:0:
268,190,3156,1,0,0:0:0:0:
268,190,3306,1,2,0:0:0:0:
268,190,3456,1,0,0:0:0:0:
268,190,3606,1,0,0:0:0:0:
268,190,3756,1,0,0:0:0:0:
268,190,3906,1,2,0:0:0:0:
268,190,4056,1,2,0:0:0:0:
268,190,4206,1,2,0:0:0:0:
268,190,4506,1,0,0:0:0:0:
268,190,4806,1,2,0:0:0:0:
262,201,5256,1,0,0:0:0:0:
262,201,5331,1,2,0:0:0:0:
256,221,5406,1,0,0:0:0:0:
257,206,5556,1,0,0:0:0:0:
257,206,5706,1,2,0:0:0:0:
257,206,5856,1,0,0:0:0:0:
257,206,6006,1,2,0:0:0:0:
257,206,6306,1,2,0:0:0:0:
257,206,6456,1,2,0:0:0:0:
257,206,6606,1,0,0:0:0:0:
257,206,6906,1,2,0:0:0:0:
257,206,7056,1,0,0:0:0:0:
262,232,7206,1,0,0:0:0:0:
262,232,7243,1,0,0:0:0:0:
262,232,7281,1,0,0:0:0:0:
262,232,7318,1,0,0:0:0:0:
262,232,7356,1,2,0:0:0:0:
262,232,7431,1,2,0:0:0:0:
281,237,7506,1,2,0:0:0:0:
281,237,7606,1,2,0:0:0:0:
281,237,7706,1,0,0:0:0:0:
287,222,7806,1,2,0:0:0:0:
287,222,7906,1,2,0:0:0:0:
287,222,8006,1,0,0:0:0:0:
267,211,8106,1,2,0:0:0:0:
267,211,8206,1,2,0:0:0:0:
267,211,8306,1,0,0:0:0:0:
279,208,8406,1,0,0:0:0:0:
279,208,8443,1,0,0:0:0:0:
279,208,8481,1,0,0:0:0:0:
279,208,8556,1,0,0:0:0:0:
279,208,8631,1,0,0:0:0:0:
279,208,8668,1,0,0:0:0:0:
278,208,8706,1,2,0:0:0:0:
278,208,8781,1,2,0:0:0:0:
278,208,8856,1,0,0:0:0:0:
278,208,8931,1,0,0:0:0:0:
312,205,9006,1,2,0:0:0:0:
312,205,9081,1,2,0:0:0:0:
312,205,9156,1,0,0:0:0:0:
312,205,9231,1,0,0:0:0:0:
312,205,9306,1,2,0:0:0:0:
276,178,9606,1,2,0:0:0:0:
276,178,9681,1,0,0:0:0:0:
276,178,9756,1,2,0:0:0:0:
276,178,9793,1,2,0:0:0:0:
276,178,9831,1,0,0:0:0:0:
275,209,9906,1,2,0:0:0:0:
275,209,9981,1,0,0:0:0:0:
275,209,10056,1,2,0:0:0:0:
262,199,10206,1,0,0:0:0:0:
262,199,10243,1,0,0:0:0:0:
262,199,10281,1,0,0:0:0:0:
262,199,10318,1,0,0:0:0:0:
262,199,10356,1,2,0:0:0:0:
262,199,10431,1,0,0:0:0:0:
262,199,10506,1,2,0:0:0:0:
262,199,10581,1,0,0:0:0:0:
262,199,10656,1,2,0:0:0:0:
252,185,10806,1,2,0:0:0:0:
252,185,10843,1,2,0:0:0:0:
252,185,10881,1,0,0:0:0:0:
252,186,10956,1,2,0:0:0:0:
252,186,11031,1,0,0:0:0:0:
296,209,11106,1,2,0:0:0:0:
296,209,11181,1,0,0:0:0:0:
296,209,11256,1,2,0:0:0:0:
296,209,11331,1,2,0:0:0:0:
281,202,11406,1,0,0:0:0:0:
281,202,11443,1,0,0:0:0:0:
281,202,11481,1,0,0:0:0:0:
281,202,11556,1,0,0:0:0:0:
281,202,11631,1,0,0:0:0:0:
289,221,11706,1,2,0:0:0:0:
289,221,11781,1,2,0:0:0:0:
289,221,11856,1,2,0:0:0:0:
286,203,12006,1,2,0:0:0:0:
286,203,12043,1,2,0:0:0:0:
286,203,12081,1,0,0:0:0:0:
286,203,12156,1,2,0:0:0:0:
286,203,12231,1,0,0:0:0:0:
286,203,12306,1,2,0:0:0:0:
286,203,12343,1,2,0:0:0:0:
286,203,12381,1,0,0:0:0:0:
286,203,12456,1,2,0:0:0:0:
286,203,12606,1,2,0:0:0:0:
286,203,12643,1,2,0:0:0:0:
286,203,12681,1,2,0:0:0:0:
286,203,12756,1,0,0:0:0:0:
286,203,12831,1,0,0:0:0:0:
286,203,12906,1,2,0:0:0:0:
286,203,12943,1,2,0:0:0:0:
286,203,12981,1,2,0:0:0:0:
286,203,13056,1,0,0:0:0:0:
252,185,13206,1,2,0:0:0:0:
252,185,13243,1,2,0:0:0:0:
252,185,13281,1,0,0:0:0:0:
252,186,13356,1,2,0:0:0:0:
252,186,13431,1,0,0:0:0:0:
296,209,13506,1,2,0:0:0:0:
296,209,13581,1,0,0:0:0:0:
296,209,13656,1,2,0:0:0:0:
296,209,13731,1,2,0:0:0:0:
281,202,13806,1,0,0:0:0:0:
281,202,13843,1,0,0:0:0:0:
281,202,13881,1,0,0:0:0:0:
281,202,13956,1,0,0:0:0:0:
289,221,14031,1,0,0:0:0:0:
289,221,14106,1,2,0:0:0:0:
383,210,14143,1,2,0:0:0:0:
289,221,14181,1,2,0:0:0:0:
289,221,14256,1,2,0:0:0:0:
276,178,14406,1,2,0:0:0:0:
276,178,14481,1,0,0:0:0:0:
276,178,14556,1,2,0:0:0:0:
276,178,14593,1,2,0:0:0:0:
276,178,14631,1,0,0:0:0:0:
275,209,14706,1,2,0:0:0:0:
275,209,14781,1,0,0:0:0:0:
275,209,14856,1,2,0:0:0:0:
262,199,15006,1,0,0:0:0:0:
262,199,15043,1,0,0:0:0:0:
262,199,15081,1,0,0:0:0:0:
262,199,15118,1,0,0:0:0:0:
262,199,15156,1,2,0:0:0:0:
262,199,15231,1,0,0:0:0:0:
262,199,15306,1,2,0:0:0:0:
262,199,15381,1,0,0:0:0:0:
262,199,15456,1,2,0:0:0:0:
252,185,15606,1,2,0:0:0:0:
252,185,15643,1,2,0:0:0:0:
252,185,15681,1,0,0:0:0:0:
252,186,15756,1,2,0:0:0:0:
252,186,15831,1,0,0:0:0:0:
296,209,15906,1,2,0:0:0:0:
296,209,15981,1,0,0:0:0:0:
296,209,16056,1,2,0:0:0:0:
281,202,16206,1,0,0:0:0:0:
281,202,16243,1,0,0:0:0:0:
281,202,16281,1,0,0:0:0:0:
281,202,16356,1,0,0:0:0:0:
281,202,16431,1,0,0:0:0:0:
289,221,16506,1,2,0:0:0:0:
289,221,16581,1,2,0:0:0:0:
289,221,16656,1,2,0:0:0:0:
286,203,16806,1,2,0:0:0:0:
286,203,16843,1,2,0:0:0:0:
286,203,16881,1,0,0:0:0:0:
286,203,16956,1,2,0:0:0:0:
286,203,17031,1,0,0:0:0:0:
286,203,17106,1,2,0:0:0:0:
286,203,17143,1,2,0:0:0:0:
286,203,17181,1,0,0:0:0:0:
286,203,17256,1,2,0:0:0:0:
286,203,17406,1,2,0:0:0:0:
286,203,17443,1,2,0:0:0:0:
286,203,17481,1,2,0:0:0:0:
286,203,17556,1,0,0:0:0:0:
286,203,17631,1,0,0:0:0:0:
286,203,17706,1,2,0:0:0:0:
286,203,17743,1,2,0:0:0:0:
286,203,17781,1,2,0:0:0:0:
286,203,17856,1,0,0:0:0:0:
252,185,18006,1,2,0:0:0:0:
252,185,18043,1,2,0:0:0:0:
252,185,18081,1,0,0:0:0:0:
252,186,18156,1,2,0:0:0:0:
252,186,18231,1,0,0:0:0:0:
296,209,18306,1,2,0:0:0:0:
296,209,18381,1,0,0:0:0:0:
296,209,18456,1,2,0:0:0:0:
296,209,18531,1,2,0:0:0:0:
281,202,18606,1,0,0:0:0:0:
281,202,18643,1,0,0:0:0:0:
281,202,18681,1,0,0:0:0:0:
281,202,18756,1,2,0:0:0:0:
289,221,18831,1,2,0:0:0:0:
289,221,18906,1,0,0:0:0:0:
383,210,18943,1,0,0:0:0:0:
289,221,18981,1,0,0:0:0:0:
383,210,19018,1,0,0:0:0:0:
289,221,19056,1,2,0:0:0:0:
276,178,19206,1,2,0:0:0:0:
276,178,19281,1,0,0:0:0:0:
276,178,19356,1,2,0:0:0:0:
276,178,19393,1,2,0:0:0:0:
276,178,19431,1,0,0:0:0:0:
275,209,19506,1,2,0:0:0:0:
275,209,19581,1,0,0:0:0:0:
275,209,19656,1,2,0:0:0:0:
262,199,19806,1,0,0:0:0:0:
262,199,19843,1,0,0:0:0:0:
262,199,19881,1,0,0:0:0:0:
262,199,19918,1,0,0:0:0:0:
262,199,19956,1,2,0:0:0:0:
262,199,20031,1,0,0:0:0:0:
262,199,20106,1,2,0:0:0:0:
262,199,20143,1,2,0:0:0:0:
262,199,20181,1,0,0:0:0:0:
262,199,20218,1,0,0:0:0:0:
262,199,20256,1,2,0:0:0:0:
252,185,20406,1,2,0:0:0:0:
252,185,20443,1,2,0:0:0:0:
252,185,20481,1,0,0:0:0:0:
252,186,20556,1,2,0:0:0:0:
252,186,20631,1,0,0:0:0:0:
296,209,20706,1,2,0:0:0:0:
296,209,20781,1,0,0:0:0:0:
296,209,20856,1,2,0:0:0:0:
281,202,21006,1,0,0:0:0:0:
281,202,21043,1,0,0:0:0:0:
281,202,21081,1,0,0:0:0:0:
281,202,21156,1,0,0:0:0:0:
281,202,21231,1,0,0:0:0:0:
289,221,21306,1,2,0:0:0:0:
289,221,21381,1,2,0:0:0:0:
289,221,21456,1,2,0:0:0:0:
286,203,21606,1,2,0:0:0:0:
286,203,21643,1,2,0:0:0:0:
286,203,21681,1,0,0:0:0:0:
286,203,21756,1,2,0:0:0:0:
286,203,21831,1,0,0:0:0:0:
286,203,21906,1,2,0:0:0:0:
286,203,21943,1,2,0:0:0:0:
286,203,21981,1,0,0:0:0:0:
286,203,22056,1,2,0:0:0:0:
286,203,22206,1,2,0:0:0:0:
286,203,22243,1,2,0:0:0:0:
286,203,22281,1,2,0:0:0:0:
286,203,22356,1,0,0:0:0:0:
286,203,22431,1,0,0:0:0:0:
286,203,22506,1,2,0:0:0:0:
286,203,22543,1,2,0:0:0:0:
286,203,22581,1,2,0:0:0:0:
286,203,22656,1,0,0:0:0:0:
286,203,22806,1,0,0:0:0:0:
286,203,22843,1,0,0:0:0:0:
286,203,22881,1,0,0:0:0:0:
286,203,22956,1,2,0:0:0:0:
286,203,23031,1,2,0:0:0:0:
286,203,23106,1,0,0:0:0:0:
286,203,23143,1,0,0:0:0:0:
286,203,23181,1,0,0:0:0:0:
286,203,23256,1,2,0:0:0:0:
300,225,23406,1,2,0:0:0:0:
300,225,23443,1,2,0:0:0:0:
300,225,23481,1,2,0:0:0:0:
300,225,23556,1,0,0:0:0:0:
300,225,23593,1,0,0:0:0:0:
300,225,23631,1,0,0:0:0:0:
300,225,23706,1,2,0:0:0:0:
300,225,23856,1,2,0:0:0:0:
276,178,24006,1,2,0:0:0:0:
276,178,24081,1,0,0:0:0:0:
276,178,24156,1,2,0:0:0:0:
276,178,24193,1,2,0:0:0:0:
276,178,24231,1,0,0:0:0:0:
275,209,24306,1,2,0:0:0:0:
275,209,24381,1,0,0:0:0:0:
275,209,24456,1,2,0:0:0:0:
262,199,24606,1,0,0:0:0:0:
262,199,24643,1,0,0:0:0:0:
262,199,24681,1,0,0:0:0:0:
262,199,24718,1,0,0:0:0:0:
262,199,24756,1,2,0:0:0:0:
262,199,24831,1,0,0:0:0:0:
262,199,24906,1,2,0:0:0:0:
262,199,24943,1,2,0:0:0:0:
262,199,24981,1,0,0:0:0:0:
262,199,25018,1,0,0:0:0:0:
262,199,25056,1,2,0:0:0:0:
252,185,25206,1,2,0:0:0:0:
252,185,25243,1,2,0:0:0:0:
252,185,25281,1,0,0:0:0:0:
252,186,25356,1,2,0:0:0:0:
252,186,25431,1,0,0:0:0:0:
296,209,25506,1,2,0:0:0:0:
296,209,25581,1,0,0:0:0:0:
296,209,25656,1,2,0:0:0:0:
281,202,25806,1,0,0:0:0:0:
281,202,25843,1,0,0:0:0:0:
281,202,25881,1,0,0:0:0:0:
281,202,25956,1,0,0:0:0:0:
281,202,26031,1,0,0:0:0:0:
289,221,26106,1,2,0:0:0:0:
289,221,26181,1,2,0:0:0:0:
289,221,26256,1,2,0:0:0:0:
286,203,26406,1,0,0:0:0:0:
286,203,26443,1,0,0:0:0:0:
286,203,26481,1,0,0:0:0:0:
286,203,26556,1,2,0:0:0:0:
286,203,26631,1,2,0:0:0:0:
286,203,26706,1,0,0:0:0:0:
286,203,26743,1,0,0:0:0:0:
286,203,26781,1,0,0:0:0:0:
286,203,26856,1,2,0:0:0:0:
286,203,26931,1,2,0:0:0:0:
286,203,27006,1,0,0:0:0:0:
286,203,27043,1,0,0:0:0:0:
286,203,27081,1,0,0:0:0:0:
286,203,27156,1,2,0:0:0:0:
286,203,27231,1,2,0:0:0:0:
286,203,27306,1,0,0:0:0:0:
286,203,27343,1,0,0:0:0:0:
286,203,27381,1,0,0:0:0:0:
286,203,27456,1,2,0:0:0:0:
286,203,27531,1,2,0:0:0:0:
332,206,27606,1,0,0:0:0:0:
332,206,27643,1,0,0:0:0:0:
332,206,27681,1,0,0:0:0:0:
332,206,27718,1,0,0:0:0:0:
332,206,27756,1,2,0:0:0:0:
332,206,27906,1,0,0:0:0:0:
332,206,27943,1,0,0:0:0:0:
332,206,27981,1,0,0:0:0:0:
332,206,28018,1,0,0:0:0:0:
332,206,28056,1,2,0:0:0:0:
278,226,28206,1,0,0:0:0:0:
278,226,28224,1,0,0:0:0:0:
278,226,28356,1,2,0:0:0:0:
278,226,28374,1,2,0:0:0:0:
328,247,28506,1,0,0:0:0:0:
328,247,28524,1,0,0:0:0:0:
253,200,28806,1,0,0:0:0:0:
253,200,28881,1,0,0:0:0:0:
253,200,28956,1,0,0:0:0:0:
253,200,29031,1,0,0:0:0:0:
253,200,29106,1,2,0:0:0:0:
246,252,29406,1,0,0:0:0:0:
246,252,29481,1,2,0:0:0:0:
246,252,29556,1,2,0:0:0:0:
246,252,29631,1,0,0:0:0:0:
246,252,29706,1,2,0:0:0:0:
252,242,29856,1,2,0:0:0:0:
299,237,30006,1,0,0:0:0:0:
299,237,30156,1,0,0:0:0:0:
299,237,30231,1,2,0:0:0:0:
299,237,30306,1,0,0:0:0:0:
299,237,30381,1,0,0:0:0:0:
299,237,30456,1,2,0:0:0:0:
299,237,30606,1,0,0:0:0:0:
299,237,30681,1,0,0:0:0:0:
299,237,30756,1,2,0:0:0:0:
299,237,30906,1,2,0:0:0:0:
299,237,31056,1,0,0:0:0:0:
299,237,31206,1,0,0:0:0:0:
316,198,31281,1,0,0:0:0:0:
316,198,31356,1,0,0:0:0:0:
316,198,31431,1,0,0:0:0:0:
316,198,31506,1,2,0:0:0:0:
316,198,31806,1,0,0:0:0:0:
316,198,31881,1,2,0:0:0:0:
316,198,31956,1,2,0:0:0:0:
316,198,32031,1,0,0:0:0:0:
316,198,32106,1,2,0:0:0:0:
300,202,32256,1,2,0:0:0:0:
300,202,32406,1,0,0:0:0:0:
300,202,32556,1,2,0:0:0:0:
300,202,32631,1,0,0:0:0:0:
300,202,32706,1,2,0:0:0:0:
300,202,32781,1,2,0:0:0:0:
300,202,32856,1,0,0:0:0:0:
300,202,33006,1,2,0:0:0:0:
300,202,33081,1,0,0:0:0:0:
300,202,33156,1,0,0:0:0:0:
300,202,33306,1,2,0:0:0:0:
300,202,33456,1,2,0:0:0:0:
304,232,33606,1,0,0:0:0:0:
304,232,33756,1,0,0:0:0:0:
304,232,33831,1,0,0:0:0:0:
304,232,33906,1,2,0:0:0:0:
315,200,34206,1,0,0:0:0:0:
315,200,34356,1,0,0:0:0:0:
315,200,34431,1,2,0:0:0:0:
315,200,34506,1,2,0:0:0:0:
315,200,34656,1,2,0:0:0:0:
268,222,34806,1,0,0:0:0:0:
268,222,34843,1,0,0:0:0:0:
268,222,34956,1,0,0:0:0:0:
268,222,34994,1,0,0:0:0:0:
268,222,35106,1,2,0:0:0:0:
268,222,35143,1,2,0:0:0:0:
268,222,35256,1,2,0:0:0:0:
268,222,35294,1,2,0:0:0:0:
268,222,35406,1,0,0:0:0:0:
268,222,35443,1,0,0:0:0:0:
268,222,35556,1,0,0:0:0:0:
268,222,35594,1,0,0:0:0:0:
268,222,35706,1,2,0:0:0:0:
268,222,35743,1,2,0:0:0:0:
268,222,35856,1,2,0:0:0:0:
268,222,35894,1,2,0:0:0:0:
279,213,36006,1,0,0:0:0:0:
279,213,36081,1,0,0:0:0:0:
279,213,36156,1,0,0:0:0:0:
279,213,36231,1,0,0:0:0:0:
279,213,36306,1,2,0:0:0:0:
279,213,36606,1,0,0:0:0:0:
279,213,36681,1,0,0:0:0:0:
279,213,36756,1,0,0:0:0:0:
279,213,36831,1,0,0:0:0:0:
279,213,36906,1,2,0:0:0:0:
279,213,37056,1,2,0:0:0:0:
268,222,37206,1,2,0:0:0:0:
268,222,37243,1,2,0:0:0:0:
268,222,37356,1,2,0:0:0:0:
268,222,37394,1,2,0:0:0:0:
268,222,37506,1,0,0:0:0:0:
268,222,37543,1,0,0:0:0:0:
268,222,37656,1,0,0:0:0:0:
268,222,37694,1,0,0:0:0:0:
268,222,37806,1,2,0:0:0:0:
268,222,37843,1,2,0:0:0:0:
268,222,37956,1,2,0:0:0:0:
268,222,37994,1,2,0:0:0:0:
268,222,38106,1,0,0:0:0:0:
268,222,38144,1,0,0:0:0:0:
268,222,38256,1,0,0:0:0:0:
268,222,38294,1,0,0:0:0:0:
268,222,38406,1,2,0:0:0:0:
268,222,38444,1,2,0:0:0:0:
268,222,38556,1,0,0:0:0:0:
268,222,38594,1,0,0:0:0:0:
268,222,38706,1,0,0:0:0:0:
268,222,38744,1,0,0:0:0:0:
268,222,38856,1,0,0:0:0:0:
268,222,38894,1,0,0:0:0:0:
268,222,39006,1,2,0:0:0:0:
268,222,39044,1,2,0:0:0:0:
268,222,39156,1,2,0:0:0:0:
268,222,39194,1,2,0:0:0:0:
268,222,39306,1,0,0:0:0:0:
268,222,39344,1,0,0:0:0:0:
268,222,39456,1,0,0:0:0:0:
268,222,39494,1,0,0:0:0:0:
268,222,39606,1,2,0:0:0:0:
268,222,39644,1,2,0:0:0:0:
268,222,39756,1,0,0:0:0:0:
268,222,39794,1,0,0:0:0:0:
268,222,39906,1,2,0:0:0:0:
268,222,39944,1,2,0:0:0:0:
268,222,40056,1,0,0:0:0:0:
268,222,40094,1,0,0:0:0:0:
268,222,40206,1,2,0:0:0:0:
268,222,40244,1,2,0:0:0:0:
268,222,40356,1,0,0:0:0:0:
268,222,40394,1,0,0:0:0:0:
268,222,40506,1,2,0:0:0:0:
268,222,40544,1,2,0:0:0:0:
268,222,40656,1,0,0:0:0:0:
268,222,40694,1,0,0:0:0:0:
275,195,40806,1,2,0:0:0:0:
275,195,40956,1,0,0:0:0:0:
275,195,41106,1,2,0:0:0:0:
275,195,41256,1,0,0:0:0:0:
275,195,41406,1,2,0:0:0:0:
275,195,41556,1,0,0:0:0:0:
275,195,41706,1,2,0:0:0:0:
275,195,41856,1,0,0:0:0:0:
344,235,42006,1,2,0:0:0:0:
291,215,42306,1,0,0:0:0:0:
291,215,42531,1,0,0:0:0:0:
291,215,42606,1,2,0:0:0:0:
291,215,42756,1,2,0:0:0:0:
283,211,43056,1,0,0:0:0:0:
283,211,43206,1,0,0:0:0:0:
283,211,43356,1,0,0:0:0:0:
283,211,43431,1,2,0:0:0:0:
283,211,43506,1,0,0:0:0:0:
283,211,43656,1,0,0:0:0:0:
283,211,43806,1,2,0:0:0:0:
283,211,43881,1,2,0:0:0:0:
283,211,43956,1,0,0:0:0:0:
283,211,44031,1,0,0:0:0:0:
283,211,44106,1,2,0:0:0:0:
283,211,44256,1,2,0:0:0:0:
283,211,44406,1,4,0:0:0:0:
327,204,44556,1,2,0:0:0:0:
327,204,44706,1,0,0:0:0:0:
326,194,44856,1,0,0:0:0:0:
326,194,44931,1,0,0:0:0:0:
281,127,45006,1,2,0:0:0:0:
304,154,45024,1,0,0:0:0:0:
281,127,45081,1,2,0:0:0:0:
304,154,45099,1,0,0:0:0:0:
281,127,45156,1,2,0:0:0:0:
304,154,45174,1,0,0:0:0:0:
281,127,45231,1,2,0:0:0:0:
304,154,45249,1,0,0:0:0:0:
281,127,45306,1,2,0:0:0:0:
304,154,45324,1,0,0:0:0:0:
281,127,45381,1,2,0:0:0:0:
304,154,45399,1,0,0:0:0:0:
281,127,45456,1,2,0:0:0:0:
304,154,45474,1,0,0:0:0:0:
281,127,45531,1,2,0:0:0:0:
304,154,45549,1,0,0:0:0:0:
269,162,45606,1,2,0:0:0:0:
281,187,45756,1,2,0:0:0:0:
281,187,45906,1,0,0:0:0:0:
326,194,46056,1,0,0:0:0:0:
326,194,46131,1,0,0:0:0:0:
281,127,46206,1,2,0:0:0:0:
304,154,46224,1,0,0:0:0:0:
281,127,46281,1,2,0:0:0:0:
304,154,46299,1,0,0:0:0:0:
281,127,46356,1,2,0:0:0:0:
304,154,46374,1,0,0:0:0:0:
281,127,46431,1,2,0:0:0:0:
304,154,46449,1,0,0:0:0:0:
281,127,46506,1,2,0:0:0:0:
304,154,46524,1,0,0:0:0:0:
281,127,46581,1,2,0:0:0:0:
304,154,46599,1,0,0:0:0:0:
281,127,46656,1,2,0:0:0:0:
304,154,46674,1,0,0:0:0:0:
281,127,46731,1,2,0:0:0:0:
304,154,46749,1,0,0:0:0:0:
269,162,46806,1,2,0:0:0:0:
322,168,46956,1,0,0:0:0:0:
322,168,47031,1,0,0:0:0:0:
322,168,47106,1,0,0:0:0:0:
322,168,47256,1,0,0:0:0:0:
281,127,47406,1,2,0:0:0:0:
304,154,47424,1,0,0:0:0:0:
281,127,47481,1,2,0:0:0:0:
304,154,47499,1,0,0:0:0:0:
281,127,47556,1,2,0:0:0:0:
304,154,47574,1,0,0:0:0:0:
281,127,47631,1,2,0:0:0:0:
304,154,47649,1,0,0:0:0:0:
281,127,47706,1,2,0:0:0:0:
304,154,47724,1,0,0:0:0:0:
281,127,47781,1,2,0:0:0:0:
304,154,47799,1,0,0:0:0:0:
281,127,47856,1,2,0:0:0:0:
304,154,47874,1,0,0:0:0:0:
281,127,47931,1,2,0:0:0:0:
304,154,47949,1,0,0:0:0:0:
269,162,48006,1,2,0:0:0:0:
280,193,48156,1,0,0:0:0:0:
280,193,48193,1,0,0:0:0:0:
280,193,48306,1,0,0:0:0:0:
280,193,48344,1,0,0:0:0:0:
280,193,48456,1,0,0:0:0:0:
280,193,48493,1,0,0:0:0:0:
315,225,48606,1,0,0:0:0:0:
252,178,48756,1,2,0:0:0:0:
252,178,48793,1,2,0:0:0:0:
252,178,48906,1,2,0:0:0:0:
252,178,48943,1,2,0:0:0:0:
280,182,49206,1,6,0:0:0:0:
302,188,49356,1,0,0:0:0:0:
302,188,49506,1,0,0:0:0:0:
326,194,49656,1,0,0:0:0:0:
326,194,49731,1,0,0:0:0:0:
281,127,49806,1,2,0:0:0:0:
304,154,49824,1,0,0:0:0:0:
281,127,49881,1,2,0:0:0:0:
304,154,49899,1,0,0:0:0:0:
281,127,49956,1,2,0:0:0:0:
304,154,49974,1,0,0:0:0:0:
281,127,50031,1,2,0:0:0:0:
304,154,50049,1,0,0:0:0:0:
281,127,50106,1,2,0:0:0:0:
304,154,50124,1,0,0:0:0:0:
281,127,50181,1,2,0:0:0:0:
304,154,50199,1,0,0:0:0:0:
281,127,50256,1,2,0:0:0:0:
304,154,50274,1,0,0:0:0:0:
281,127,50331,1,2,0:0:0:0:
304,154,50349,1,0,0:0:0:0:
269,162,50406,1,2,0:0:0:0:
281,187,50556,1,2,0:0:0:0:
281,187,50706,1,0,0:0:0:0:
326,194,50856,1,0,0:0:0:0:
326,194,50931,1,0,0:0:0:0:
281,127,51006,1,2,0:0:0:0:
304,154,51024,1,0,0:0:0:0:
281,127,51081,1,2,0:0:0:0:
304,154,51099,1,0,0:0:0:0:
281,127,51156,1,2,0:0:0:0:
304,154,51174,1,0,0:0:0:0:
281,127,51231,1,2,0:0:0:0:
304,154,51249,1,0,0:0:0:0:
281,127,51306,1,2,0:0:0:0:
304,154,51324,1,0,0:0:0:0:
281,127,51381,1,2,0:0:0:0:
304,154,51399,1,0,0:0:0:0:
281,127,51456,1,2,0:0:0:0:
304,154,51474,1,0,0:0:0:0:
281,127,51531,1,2,0:0:0:0:
304,154,51549,1,0,0:0:0:0:
269,162,51606,1,2,0:0:0:0:
322,168,51756,1,0,0:0:0:0:
322,168,51831,1,0,0:0:0:0:
322,168,51906,1,0,0:0:0:0:
322,168,52056,1,0,0:0:0:0:
281,127,52206,1,2,0:0:0:0:
304,154,52224,1,0,0:0:0:0:
281,127,52281,1,2,0:0:0:0:
304,154,52299,1,0,0:0:0:0:
281,127,52356,1,2,0:0:0:0:
304,154,52374,1,0,0:0:0:0:
281,127,52431,1,2,0:0:0:0:
304,154,52449,1,0,0:0:0:0:
281,127,52506,1,2,0:0:0:0:
304,154,52524,1,0,0:0:0:0:
281,127,52581,1,2,0:0:0:0:
304,154,52599,1,0,0:0:0:0:
281,127,52656,1,2,0:0:0:0:
304,154,52674,1,0,0:0:0:0:
281,127,52731,1,2,0:0:0:0:
304,154,52749,1,0,0:0:0:0:
269,162,52806,1,2,0:0:0:0:
261,211,52956,1,0,0:0:0:0:
261,211,53031,1,0,0:0:0:0:
261,211,53106,1,0,0:0:0:0:
261,211,53181,1,0,0:0:0:0:
261,211,53256,1,0,0:0:0:0:
261,211,53331,1,0,0:0:0:0:
261,211,53406,1,2,0:0:0:0:
261,211,53481,1,2,0:0:0:0:
261,211,53556,1,2,0:0:0:0:
261,211,53631,1,2,0:0:0:0:
261,211,53706,1,2,0:0:0:0:
261,211,53781,1,2,0:0:0:0:
261,211,53856,1,2,0:0:0:0:
261,211,53931,1,2,0:0:0:0:
261,211,54006,1,4,0:0:0:0:
273,190,54156,1,0,0:0:0:0:
278,192,54306,1,2,0:0:0:0:
326,194,54456,1,0,0:0:0:0:
326,194,54531,1,0,0:0:0:0:
281,127,54606,1,2,0:0:0:0:
304,154,54624,1,0,0:0:0:0:
281,127,54681,1,2,0:0:0:0:
304,154,54699,1,0,0:0:0:0:
281,127,54756,1,2,0:0:0:0:
304,154,54774,1,0,0:0:0:0:
281,127,54831,1,2,0:0:0:0:
304,154,54849,1,0,0:0:0:0:
281,127,54906,1,2,0:0:0:0:
304,154,54924,1,0,0:0:0:0:
281,127,54981,1,2,0:0:0:0:
304,154,54999,1,0,0:0:0:0:
281,127,55056,1,2,0:0:0:0:
304,154,55074,1,0,0:0:0:0:
281,127,55131,1,2,0:0:0:0:
304,154,55149,1,0,0:0:0:0:
269,162,55206,1,2,0:0:0:0:
281,187,55356,1,2,0:0:0:0:
281,187,55506,1,0,0:0:0:0:
326,194,55656,1,0,0:0:0:0:
326,194,55731,1,0,0:0:0:0:
281,127,55806,1,2,0:0:0:0:
304,154,55824,1,0,0:0:0:0:
281,127,55881,1,2,0:0:0:0:
304,154,55899,1,0,0:0:0:0:
281,127,55956,1,2,0:0:0:0:
304,154,55974,1,0,0:0:0:0:
281,127,56031,1,2,0:0:0:0:
304,154,56049,1,0,0:0:0:0:
281,127,56106,1,2,0:0:0:0:
304,154,56124,1,0,0:0:0:0:
281,127,56181,1,2,0:0:0:0:
304,154,56199,1,0,0:0:0:0:
281,127,56256,1,2,0:0:0:0:
304,154,56274,1,0,0:0:0:0:
281,127,56331,1,2,0:0:0:0:
304,154,56349,1,0,0:0:0:0:
269,162,56406,1,2,0:0:0:0:
322,168,56556,1,0,0:0:0:0:
322,168,56631,1,0,0:0:0:0:
322,168,56706,1,0,0:0:0:0:
322,168,56856,1,0,0:0:0:0:
281,127,57006,1,2,0:0:0:0:
304,154,57024,1,0,0:0:0:0:
281,127,57081,1,2,0:0:0:0:
304,154,57099,1,0,0:0:0:0:
281,127,57156,1,2,0:0:0:0:
304,154,57174,1,0,0:0:0:0:
281,127,57231,1,2,0:0:0:0:
304,154,57249,1,0,0:0:0:0:
281,127,57306,1,2,0:0:0:0:
304,154,57324,1,0,0:0:0:0:
281,127,57381,1,2,0:0:0:0:
304,154,57399,1,0,0:0:0:0:
281,127,57456,1,2,0:0:0:0:
304,154,57474,1,0,0:0:0:0:
281,127,57531,1,2,0:0:0:0:
304,154,57549,1,0,0:0:0:0:
269,162,57606,1,2,0:0:0:0:
370,215,57756,1,0,0:0:0:0:
268,226,57906,1,6,0:0:0:0:
268,226,58131,1,6,0:0:0:0:
268,226,58356,1,6,0:0:0:0:
268,226,58581,1,6,0:0:0:0:
268,226,58806,1,4,0:0:0:0:
272,227,58956,1,0,0:0:0:0:
272,227,59106,1,0,0:0:0:0:
326,194,59256,1,0,0:0:0:0:
326,194,59331,1,0,0:0:0:0:
281,127,59406,1,2,0:0:0:0:
304,154,59424,1,0,0:0:0:0:
281,127,59481,1,2,0:0:0:0:
304,154,59499,1,0,0:0:0:0:
281,127,59556,1,2,0:0:0:0:
304,154,59574,1,0,0:0:0:0:
281,127,59631,1,2,0:0:0:0:
304,154,59649,1,0,0:0:0:0:
281,127,59706,1,2,0:0:0:0:
304,154,59724,1,0,0:0:0:0:
281,127,59781,1,2,0:0:0:0:
304,154,59799,1,0,0:0:0:0:
281,127,59856,1,2,0:0:0:0:
304,154,59874,1,0,0:0:0:0:
281,127,59931,1,2,0:0:0:0:
304,154,59949,1,0,0:0:0:0:
269,162,60006,1,2,0:0:0:0:
281,187,60156,1,2,0:0:0:0:
281,187,60306,1,0,0:0:0:0:
326,194,60456,1,0,0:0:0:0:
326,194,60531,1,0,0:0:0:0:
281,127,60606,1,2,0:0:0:0:
304,154,60624,1,0,0:0:0:0:
281,127,60681,1,2,0:0:0:0:
304,154,60699,1,0,0:0:0:0:
281,127,60756,1,2,0:0:0:0:
304,154,60774,1,0,0:0:0:0:
281,127,60831,1,2,0:0:0:0:
304,154,60849,1,0,0:0:0:0:
281,127,60906,1,2,0:0:0:0:
304,154,60924,1,0,0:0:0:0:
281,127,60981,1,2,0:0:0:0:
304,154,60999,1,0,0:0:0:0:
281,127,61056,1,2,0:0:0:0:
304,154,61074,1,0,0:0:0:0:
281,127,61131,1,2,0:0:0:0:
304,154,61149,1,0,0:0:0:0:
269,162,61206,1,2,0:0:0:0:
322,168,61356,1,0,0:0:0:0:
322,168,61431,1,0,0:0:0:0:
322,168,61506,1,0,0:0:0:0:
322,168,61656,1,0,0:0:0:0:
281,127,61806,1,2,0:0:0:0:
304,154,61824,1,0,0:0:0:0:
281,127,61881,1,2,0:0:0:0:
304,154,61899,1,0,0:0:0:0:
281,127,61956,1,2,0:0:0:0:
304,154,61974,1,0,0:0:0:0:
281,127,62031,1,2,0:0:0:0:
304,154,62049,1,0,0:0:0:0:
281,127,62106,1,2,0:0:0:0:
304,154,62124,1,0,0:0:0:0:
281,127,62181,1,2,0:0:0:0:
304,154,62199,1,0,0:0:0:0:
281,127,62256,1,2,0:0:0:0:
304,154,62274,1,0,0:0:0:0:
281,127,62331,1,2,0:0:0:0:
304,154,62349,1,0,0:0:0:0:
256,192,62406,12,0,63306,0:0:0:0:
260,198,63606,5,0,0:0:0:0:
251,205,63906,1,2,0:0:0:0:
251,205,64056,1,0,0:0:0:0:
251,205,64356,1,0,0:0:0:0:
251,205,64506,1,2,0:0:0:0:
304,159,64806,1,0,0:0:0:0:
286,205,64956,1,2,0:0:0:0:
286,205,65106,1,2,0:0:0:0:
286,205,65256,1,0,0:0:0:0:
286,205,65406,1,2,0:0:0:0:
286,205,65556,1,0,0:0:0:0:
286,205,65706,1,2,0:0:0:0:
286,205,65856,1,2,0:0:0:0:
260,198,66006,1,0,0:0:0:0:
251,205,66306,1,2,0:0:0:0:
251,205,66456,1,0,0:0:0:0:
251,205,66756,1,2,0:0:0:0:
251,205,66906,1,0,0:0:0:0:
304,159,67206,1,0,0:0:0:0:
286,205,67356,1,0,0:0:0:0:
286,205,67506,1,2,0:0:0:0:
286,205,67656,1,0,0:0:0:0:
286,205,67806,1,2,0:0:0:0:
286,205,67956,1,2,0:0:0:0:
286,205,68106,1,0,0:0:0:0:
286,205,68256,1,2,0:0:0:0:
260,198,68406,1,0,0:0:0:0:
251,205,68706,1,2,0:0:0:0:
251,205,68856,1,0,0:0:0:0:
251,205,69156,1,2,0:0:0:0:
251,205,69306,5,0,0:0:0:0:
304,159,69606,1,0,0:0:0:0:
286,205,69756,1,2,0:0:0:0:
286,205,69906,1,2,0:0:0:0:
286,205,70056,1,0,0:0:0:0:
286,205,70206,1,2,0:0:0:0:
286,205,70356,1,0,0:0:0:0:
286,205,70506,1,2,0:0:0:0:
286,205,70656,1,2,0:0:0:0:
286,205,70806,1,0,0:0:0:0:
248,209,71106,1,2,0:0:0:0:
248,209,71181,1,2,0:0:0:0:
248,209,71256,1,2,0:0:0:0:
248,209,71406,1,0,0:0:0:0:
248,209,71556,1,2,0:0:0:0:
248,209,71631,1,2,0:0:0:0:
248,209,71706,1,0,0:0:0:0:
248,209,71856,1,0,0:0:0:0:
248,209,72006,1,2,0:0:0:0:
248,209,72081,1,0,0:0:0:0:
248,209,72156,1,0,0:0:0:0:
248,209,72231,1,0,0:0:0:0:
248,209,72306,1,2,0:0:0:0:
248,209,72381,1,2,0:0:0:0:
248,209,72456,1,0,0:0:0:0:
246,215,72531,1,2,0:0:0:0:
246,215,72606,1,0,0:0:0:0:
246,215,72681,1,2,0:0:0:0:
248,209,72756,1,0,0:0:0:0:
248,209,72831,1,0,0:0:0:0:
248,209,72906,1,2,0:0:0:0:
248,209,73056,1,2,0:0:0:0:
248,209,73206,1,4,0:0:0:0:
262,218,73506,1,0,0:0:0:0:
303,204,73656,1,2,0:0:0:0:
311,216,73674,1,0,0:0:0:0:
303,204,73731,1,2,0:0:0:0:
311,216,73749,1,0,0:0:0:0:
303,204,73806,1,2,0:0:0:0:
311,216,73824,1,0,0:0:0:0:
303,204,73881,1,2,0:0:0:0:
311,216,73899,1,0,0:0:0:0:
303,204,73956,1,2,0:0:0:0:
311,216,73974,1,0,0:0:0:0:
303,204,74031,1,2,0:0:0:0:
311,216,74049,1,0,0:0:0:0:
303,204,74106,1,2,0:0:0:0:
311,216,74124,1,0,0:0:0:0:
303,204,74181,1,2,0:0:0:0:
311,216,74199,1,0,0:0:0:0:
303,204,74256,1,2,0:0:0:0:
311,216,74274,1,0,0:0:0:0:
303,204,74331,1,2,0:0:0:0:
311,216,74349,1,0,0:0:0:0:
303,204,74406,1,2,0:0:0:0:
311,216,74424,1,0,0:0:0:0:
303,204,74481,1,2,0:0:0:0:
311,216,74499,1,0,0:0:0:0:
303,204,74556,1,2,0:0:0:0:
311,216,74574,1,0,0:0:0:0:
303,204,74631,1,2,0:0:0:0:
311,216,74649,1,0,0:0:0:0:
303,204,74706,1,2,0:0:0:0:
311,216,74724,1,0,0:0:0:0:
303,204,74781,1,2,0:0:0:0:
311,216,74799,1,0,0:0:0:0:
303,204,74856,1,2,0:0:0:0:
311,216,74874,1,0,0:0:0:0:
303,204,74931,1,2,0:0:0:0:
311,216,74949,1,0,0:0:0:0:
303,204,75006,1,2,0:0:0:0:
311,216,75024,1,0,0:0:0:0:
406,208,75306,1,2,0:0:0:0:
406,208,75606,1,0,0:0:0:0:
406,208,75906,1,0,0:0:0:0:
303,204,76056,1,2,0:0:0:0:
311,216,76074,1,0,0:0:0:0:
303,204,76131,1,2,0:0:0:0:
311,216,76149,1,0,0:0:0:0:
303,204,76206,1,2,0:0:0:0:
311,216,76224,1,0,0:0:0:0:
303,204,76281,1,2,0:0:0:0:
311,216,76299,1,0,0:0:0:0:
303,204,76356,1,2,0:0:0:0:
311,216,76374,1,0,0:0:0:0:
303,204,76431,1,2,0:0:0:0:
311,216,76449,1,0,0:0:0:0:
303,204,76506,1,2,0:0:0:0:
311,216,76524,1,0,0:0:0:0:
303,204,76581,1,2,0:0:0:0:
311,216,76599,1,0,0:0:0:0:
303,204,76656,1,2,0:0:0:0:
311,216,76674,1,0,0:0:0:0:
303,204,76731,1,2,0:0:0:0:
311,216,76749,1,0,0:0:0:0:
303,204,76806,1,2,0:0:0:0:
311,216,76824,1,0,0:0:0:0:
303,204,76881,1,2,0:0:0:0:
311,216,76899,1,0,0:0:0:0:
303,204,76956,1,2,0:0:0:0:
311,216,76974,1,0,0:0:0:0:
303,204,77031,1,2,0:0:0:0:
311,216,77049,1,0,0:0:0:0:
303,204,77106,1,2,0:0:0:0:
311,216,77124,1,0,0:0:0:0:
303,204,77181,1,2,0:0:0:0:
311,216,77199,1,0,0:0:0:0:
303,204,77256,1,2,0:0:0:0:
311,216,77274,1,0,0:0:0:0:
303,204,77331,1,2,0:0:0:0:
311,216,77349,1,0,0:0:0:0:
303,204,77406,1,2,0:0:0:0:
311,216,77424,1,0,0:0:0:0:
332,231,77706,1,2,0:0:0:0:
332,231,78006,1,0,0:0:0:0:
332,231,78306,1,0,0:0:0:0:
303,204,78456,1,2,0:0:0:0:
311,216,78474,1,0,0:0:0:0:
303,204,78531,1,2,0:0:0:0:
311,216,78549,1,0,0:0:0:0:
303,204,78606,1,2,0:0:0:0:
311,216,78624,1,0,0:0:0:0:
303,204,78681,1,2,0:0:0:0:
311,216,78699,1,0,0:0:0:0:
303,204,78756,1,2,0:0:0:0:
311,216,78774,1,0,0:0:0:0:
303,204,78831,1,2,0:0:0:0:
311,216,78849,1,0,0:0:0:0:
303,204,78906,1,2,0:0:0:0:
311,216,78924,1,0,0:0:0:0:
303,204,78981,1,2,0:0:0:0:
311,216,78999,1,0,0:0:0:0:
303,204,79056,1,2,0:0:0:0:
311,216,79074,1,0,0:0:0:0:
303,204,79131,1,2,0:0:0:0:
311,216,79149,1,0,0:0:0:0:
303,204,79206,1,2,0:0:0:0:
311,216,79224,1,0,0:0:0:0:
303,204,79281,1,2,0:0:0:0:
311,216,79299,1,0,0:0:0:0:
303,204,79356,1,2,0:0:0:0:
311,216,79374,1,0,0:0:0:0:
303,204,79431,1,2,0:0:0:0:
311,216,79449,1,0,0:0:0:0:
303,204,79506,1,2,0:0:0:0:
311,216,79524,1,0,0:0:0:0:
303,204,79581,1,2,0:0:0:0:
311,216,79599,1,0,0:0:0:0:
303,204,79656,1,2,0:0:0:0:
311,216,79674,1,0,0:0:0:0:
303,204,79731,1,2,0:0:0:0:
311,216,79749,1,0,0:0:0:0:
303,204,79806,1,2,0:0:0:0:
311,216,79824,1,0,0:0:0:0:
332,231,80106,1,2,0:0:0:0:
332,231,80406,1,0,0:0:0:0:
332,231,80706,1,0,0:0:0:0:
303,204,80856,1,2,0:0:0:0:
311,216,80874,1,0,0:0:0:0:
303,204,80931,1,2,0:0:0:0:
311,216,80949,1,0,0:0:0:0:
303,204,81006,1,2,0:0:0:0:
311,216,81024,1,0,0:0:0:0:
303,204,81081,1,2,0:0:0:0:
311,216,81099,1,0,0:0:0:0:
303,204,81156,1,2,0:0:0:0:
311,216,81174,1,0,0:0:0:0:
303,204,81231,1,2,0:0:0:0:
311,216,81249,1,0,0:0:0:0:
303,204,81306,1,2,0:0:0:0:
311,216,81324,1,0,0:0:0:0:
303,204,81381,1,2,0:0:0:0:
311,216,81399,1,0,0:0:0:0:
303,204,81456,1,2,0:0:0:0:
311,216,81474,1,0,0:0:0:0:
303,204,81531,1,2,0:0:0:0:
311,216,81549,1,0,0:0:0:0:
303,204,81606,1,2,0:0:0:0:
311,216,81624,1,0,0:0:0:0:
303,204,81681,1,2,0:0:0:0:
311,216,81699,1,0,0:0:0:0:
303,204,81756,1,2,0:0:0:0:
311,216,81774,1,0,0:0:0:0:
303,204,81831,1,2,0:0:0:0:
311,216,81849,1,0,0:0:0:0:
303,204,81906,1,2,0:0:0:0:
311,216,81924,1,0,0:0:0:0:
303,204,81981,1,2,0:0:0:0:
311,216,81999,1,0,0:0:0:0:
303,204,82056,1,2,0:0:0:0:
311,216,82074,1,0,0:0:0:0:
303,204,82131,1,2,0:0:0:0:
311,216,82149,1,0,0:0:0:0:
303,204,82206,1,2,0:0:0:0:
311,216,82224,1,0,0:0:0:0:
320,198,82506,1,2,0:0:0:0:
269,193,82806,1,0,0:0:0:0:
269,193,82956,1,2,0:0:0:0:
269,193,83031,1,2,0:0:0:0:
269,193,83106,1,0,0:0:0:0:
269,193,83256,1,2,0:0:0:0:
269,193,83406,1,0,0:0:0:0:
269,193,83556,1,2,0:0:0:0:
269,193,83631,1,2,0:0:0:0:
269,193,83706,1,0,0:0:0:0:
269,193,83856,1,2,0:0:0:0:
288,217,84006,1,4,0:0:0:0:
288,217,84156,1,4,0:0:0:0:
288,217,84306,1,4,0:0:0:0:
288,217,84456,1,4,0:0:0:0:
339,215,84606,1,2,0:0:0:0:
339,215,84643,1,2,0:0:0:0:
339,215,84681,1,2,0:0:0:0:
339,215,84718,1,2,0:0:0:0:
339,215,84756,1,2,0:0:0:0:
339,215,84793,1,2,0:0:0:0:
339,215,84831,1,2,0:0:0:0:
339,215,84868,1,2,0:0:0:0:
339,215,84906,1,0,0:0:0:0:
276,178,85206,1,2,0:0:0:0:
276,178,85281,1,0,0:0:0:0:
276,178,85356,1,2,0:0:0:0:
276,178,85393,1,2,0:0:0:0:
276,178,85431,1,0,0:0:0:0:
275,209,85506,1,2,0:0:0:0:
275,209,85581,1,0,0:0:0:0:
275,209,85656,1,2,0:0:0:0:
262,199,85806,1,0,0:0:0:0:
262,199,85843,1,0,0:0:0:0:
262,199,85881,1,0,0:0:0:0:
262,199,85956,1,2,0:0:0:0:
262,199,86031,1,0,0:0:0:0:
262,199,86106,1,2,0:0:0:0:
262,199,86181,1,0,0:0:0:0:
262,199,86256,1,2,0:0:0:0:
252,185,86406,1,2,0:0:0:0:
252,185,86443,1,2,0:0:0:0:
252,185,86481,1,0,0:0:0:0:
252,186,86556,1,2,0:0:0:0:
252,186,86631,1,0,0:0:0:0:
296,209,86706,1,2,0:0:0:0:
296,209,86781,1,0,0:0:0:0:
296,209,86856,1,2,0:0:0:0:
296,209,86931,1,2,0:0:0:0:
281,202,87006,1,0,0:0:0:0:
281,202,87043,1,0,0:0:0:0:
281,202,87081,1,0,0:0:0:0:
281,202,87156,1,0,0:0:0:0:
281,202,87231,1,0,0:0:0:0:
289,221,87306,1,2,0:0:0:0:
289,221,87381,1,2,0:0:0:0:
289,221,87456,1,2,0:0:0:0:
286,203,87606,1,2,0:0:0:0:
286,203,87643,1,2,0:0:0:0:
286,203,87681,1,0,0:0:0:0:
286,203,87756,1,2,0:0:0:0:
286,203,87831,1,0,0:0:0:0:
286,203,87906,1,2,0:0:0:0:
286,203,87943,1,2,0:0:0:0:
286,203,87981,1,0,0:0:0:0:
286,203,88056,1,2,0:0:0:0:
286,203,88206,1,2,0:0:0:0:
286,203,88243,1,2,0:0:0:0:
286,203,88281,1,2,0:0:0:0:
286,203,88356,1,0,0:0:0:0:
286,203,88431,1,0,0:0:0:0:
286,203,88506,1,2,0:0:0:0:
286,203,88543,1,2,0:0:0:0:
286,203,88581,1,2,0:0:0:0:
286,203,88656,1,0,0:0:0:0:
252,185,88806,1,2,0:0:0:0:
252,185,88843,1,2,0:0:0:0:
252,185,88881,1,0,0:0:0:0:
252,186,88956,1,2,0:0:0:0:
252,186,89031,1,0,0:0:0:0:
296,209,89106,1,2,0:0:0:0:
296,209,89181,1,0,0:0:0:0:
296,209,89256,1,2,0:0:0:0:
296,209,89331,1,2,0:0:0:0:
281,202,89406,1,0,0:0:0:0:
281,202,89443,1,0,0:0:0:0:
281,202,89481,1,0,0:0:0:0:
281,202,89556,1,0,0:0:0:0:
289,221,89631,1,0,0:0:0:0:
289,221,89706,1,2,0:0:0:0:
383,210,89743,1,2,0:0:0:0:
289,221,89781,1,2,0:0:0:0:
289,221,89856,1,2,0:0:0:0:
276,178,90006,1,2,0:0:0:0:
276,178,90081,1,0,0:0:0:0:
276,178,90156,1,2,0:0:0:0:
276,178,90193,1,2,0:0:0:0:
276,178,90231,1,0,0:0:0:0:
275,209,90306,1,2,0:0:0:0:
275,209,90381,1,0,0:0:0:0:
275,209,90456,1,2,0:0:0:0:
262,199,90606,1,0,0:0:0:0:
262,199,90643,1,0,0:0:0:0:
262,199,90681,1,0,0:0:0:0:
262,199,90756,1,2,0:0:0:0:
262,199,90831,1,0,0:0:0:0:
262,199,90906,1,2,0:0:0:0:
262,199,90981,1,0,0:0:0:0:
262,199,91056,1,2,0:0:0:0:
252,185,91206,1,2,0:0:0:0:
252,185,91243,1,2,0:0:0:0:
252,185,91281,1,0,0:0:0:0:
252,186,91356,1,2,0:0:0:0:
252,186,91431,1,0,0:0:0:0:
296,209,91506,1,2,0:0:0:0:
296,209,91581,1,0,0:0:0:0:
296,209,91656,1,2,0:0:0:0:
281,202,91806,1,0,0:0:0:0:
281,202,91843,1,0,0:0:0:0:
281,202,91881,1,0,0:0:0:0:
281,202,91956,1,0,0:0:0:0:
281,202,92031,1,0,0:0:0:0:
289,221,92106,1,2,0:0:0:0:
289,221,92181,1,2,0:0:0:0:
289,221,92256,1,2,0:0:0:0:
286,203,92406,1,2,0:0:0:0:
286,203,92443,1,2,0:0:0:0:
286,203,92481,1,0,0:0:0:0:
286,203,92556,1,2,0:0:0:0:
286,203,92631,1,0,0:0:0:0:
286,203,92706,1,2,0:0:0:0:
286,203,92743,1,2,0:0:0:0:
286,203,92781,1,0,0:0:0:0:
286,203,92856,1,2,0:0:0:0:
286,203,93006,1,2,0:0:0:0:
286,203,93043,1,2,0:0:0:0:
286,203,93081,1,2,0:0:0:0:
286,203,93156,1,0,0:0:0:0:
286,203,93231,1,0,0:0:0:0:
286,203,93306,1,2,0:0:0:0:
286,203,93343,1,2,0:0:0:0:
286,203,93381,1,2,0:0:0:0:
286,203,93456,1,0,0:0:0:0:
252,185,93606,1,2,0:0:0:0:
252,185,93643,1,2,0:0:0:0:
252,185,93681,1,0,0:0:0:0:
252,186,93756,1,2,0:0:0:0:
252,186,93831,1,0,0:0:0:0:
296,209,93906,1,2,0:0:0:0:
296,209,93981,1,0,0:0:0:0:
296,209,94056,1,2,0:0:0:0:
296,209,94131,1,2,0:0:0:0:
281,202,94206,1,0,0:0:0:0:
281,202,94243,1,0,0:0:0:0:
281,202,94281,1,0,0:0:0:0:
281,202,94356,1,2,0:0:0:0:
289,221,94431,1,2,0:0:0:0:
289,221,94506,1,0,0:0:0:0:
383,210,94543,1,0,0:0:0:0:
289,221,94581,1,0,0:0:0:0:
289,221,94656,1,2,0:0:0:0:
276,178,94806,1,2,0:0:0:0:
276,178,94881,1,0,0:0:0:0:
276,178,94956,1,2,0:0:0:0:
276,178,94993,1,2,0:0:0:0:
276,178,95031,1,0,0:0:0:0:
275,209,95106,1,2,0:0:0:0:
275,209,95181,1,0,0:0:0:0:
275,209,95256,1,2,0:0:0:0:
262,199,95406,1,0,0:0:0:0:
262,199,95443,1,0,0:0:0:0:
262,199,95481,1,0,0:0:0:0:
262,199,95556,1,2,0:0:0:0:
262,199,95631,1,0,0:0:0:0:
262,199,95706,1,2,0:0:0:0:
262,199,95743,1,2,0:0:0:0:
262,199,95781,1,0,0:0:0:0:
262,199,95856,1,2,0:0:0:0:
252,185,96006,1,2,0:0:0:0:
252,185,96043,1,2,0:0:0:0:
252,185,96081,1,0,0:0:0:0:
252,186,96156,1,2,0:0:0:0:
252,186,96231,1,0,0:0:0:0:
296,209,96306,1,2,0:0:0:0:
296,209,96381,1,0,0:0:0:0:
296,209,96456,1,2,0:0:0:0:
281,202,96606,1,0,0:0:0:0:
281,202,96643,1,0,0:0:0:0:
281,202,96681,1,0,0:0:0:0:
281,202,96756,1,0,0:0:0:0:
281,202,96831,1,0,0:0:0:0:
289,221,96906,1,2,0:0:0:0:
289,221,96981,1,2,0:0:0:0:
289,221,97056,1,2,0:0:0:0:
286,203,97206,1,2,0:0:0:0:
286,203,97243,1,2,0:0:0:0:
286,203,97281,1,0,0:0:0:0:
286,203,97356,1,2,0:0:0:0:
286,203,97431,1,0,0:0:0:0:
286,203,97506,1,2,0:0:0:0:
286,203,97543,1,2,0:0:0:0:
286,203,97581,1,0,0:0:0:0:
286,203,97656,1,2,0:0:0:0:
286,203,97806,1,2,0:0:0:0:
286,203,97843,1,2,0:0:0:0:
286,203,97881,1,2,0:0:0:0:
286,203,97956,1,0,0:0:0:0:
286,203,98031,1,0,0:0:0:0:
286,203,98106,1,2,0:0:0:0:
286,203,98143,1,2,0:0:0:0:
286,203,98181,1,2,0:0:0:0:
286,203,98256,1,0,0:0:0:0:
286,203,98406,1,0,0:0:0:0:
286,203,98443,1,0,0:0:0:0:
286,203,98481,1,0,0:0:0:0:
286,203,98556,1,2,0:0:0:0:
286,203,98631,1,2,0:0:0:0:
286,203,98706,1,0,0:0:0:0:
286,203,98743,1,0,0:0:0:0:
286,203,98781,1,0,0:0:0:0:
286,203,98856,1,2,0:0:0:0:
300,225,99006,1,2,0:0:0:0:
300,225,99043,1,2,0:0:0:0:
300,225,99081,1,2,0:0:0:0:
300,225,99156,1,0,0:0:0:0:
300,225,99193,1,0,0:0:0:0:
300,225,99231,1,0,0:0:0:0:
300,225,99306,1,2,0:0:0:0:
300,225,99456,1,2,0:0:0:0:
276,178,99606,1,2,0:0:0:0:
276,178,99681,1,0,0:0:0:0:
276,178,99756,1,2,0:0:0:0:
276,178,99793,1,2,0:0:0:0:
276,178,99831,1,0,0:0:0:0:
275,209,99906,1,2,0:0:0:0:
275,209,99981,1,0,0:0:0:0:
275,209,100056,1,2,0:0:0:0:
262,199,100206,1,0,0:0:0:0:
262,199,100243,1,0,0:0:0:0:
262,199,100281,1,0,0:0:0:0:
262,199,100356,1,2,0:0:0:0:
262,199,100431,1,0,0:0:0:0:
262,199,100506,1,2,0:0:0:0:
262,199,100543,1,2,0:0:0:0:
262,199,100581,1,0,0:0:0:0:
262,199,100656,1,2,0:0:0:0:
252,185,100806,1,2,0:0:0:0:
252,185,100843,1,2,0:0:0:0:
252,185,100881,1,0,0:0:0:0:
252,186,100956,1,2,0:0:0:0:
252,186,101031,1,0,0:0:0:0:
296,209,101106,1,2,0:0:0:0:
296,209,101181,1,0,0:0:0:0:
296,209,101256,1,2,0:0:0:0:
281,202,101406,1,0,0:0:0:0:
281,202,101443,1,0,0:0:0:0:
281,202,101481,1,0,0:0:0:0:
281,202,101556,1,0,0:0:0:0:
281,202,101631,1,0,0:0:0:0:
289,221,101706,1,2,0:0:0:0:
289,221,101781,1,2,0:0:0:0:
289,221,101856,1,2,0:0:0:0:
249,225,102006,1,0,0:0:0:0:
249,225,102156,1,0,0:0:0:0:
249,225,102306,1,2,0:0:0:0:
251,228,102456,1,0,0:0:0:0:
249,225,102606,1,2,0:0:0:0:
251,228,102756,1,0,0:0:0:0:
249,225,102906,1,2,0:0:0:0:
251,228,103056,1,0,0:0:0:0:
311,200,103206,1,2,0:0:0:0:
285,214,103356,1,2,0:0:0:0:
285,214,103431,1,2,0:0:0:0:
285,214,103506,1,0,0:0:0:0:
285,214,103656,1,0,0:0:0:0:
285,214,103806,1,0,0:0:0:0:
285,214,103881,1,0,0:0:0:0:
285,214,103956,1,0,0:0:0:0:
285,214,104031,1,0,0:0:0:0:
285,214,104106,1,2,0:0:0:0:
294,212,104406,1,4,0:0:0:0:
295,213,104556,1,0,0:0:0:0:
295,213,104706,1,2,0:0:0:0:
295,213,104781,1,2,0:0:0:0:
308,216,104856,1,2,0:0:0:0:
308,216,104931,1,2,0:0:0:0:
308,216,105006,1,0,0:0:0:0:
305,190,105081,1,2,0:0:0:0:
305,190,105156,1,2,0:0:0:0:
305,190,105231,1,2,0:0:0:0:
308,216,105306,1,0,0:0:0:0:
305,190,105381,1,2,0:0:0:0:
305,190,105456,1,2,0:0:0:0:
305,190,105531,1,2,0:0:0:0:
407,223,105606,1,0,0:0:0:0:
407,223,105756,1,0,0:0:0:0:
290,205,105906,1,2,0:0:0:0:
290,205,105981,1,2,0:0:0:0:
290,205,106056,1,2,0:0:0:0:
290,205,106131,1,2,0:0:0:0:
290,205,106206,1,0,0:0:0:0:
290,205,106281,1,2,0:0:0:0:
290,205,106356,1,2,0:0:0:0:
290,205,106431,1,2,0:0:0:0:
308,216,106506,1,0,0:0:0:0:
305,190,106581,1,2,0:0:0:0:
305,190,106656,1,2,0:0:0:0:
305,190,106731,1,2,0:0:0:0:
301,189,106806,1,0,0:0:0:0:
301,189,107106,1,0,0:0:0:0:
326,194,107256,1,0,0:0:0:0:
326,194,107331,1,0,0:0:0:0:
281,127,107406,1,2,0:0:0:0:
304,154,107424,1,0,0:0:0:0:
281,127,107481,1,2,0:0:0:0:
304,154,107499,1,0,0:0:0:0:
281,127,107556,1,2,0:0:0:0:
304,154,107574,1,0,0:0:0:0:
281,127,107631,1,2,0:0:0:0:
304,154,107649,1,0,0:0:0:0:
281,127,107706,1,2,0:0:0:0:
304,154,107724,1,0,0:0:0:0:
281,127,107781,1,2,0:0:0:0:
304,154,107799,1,0,0:0:0:0:
281,127,107856,1,2,0:0:0:0:
304,154,107874,1,0,0:0:0:0:
281,127,107931,1,2,0:0:0:0:
304,154,107949,1,0,0:0:0:0:
269,162,108006,1,2,0:0:0:0:
304,195,108156,1,2,0:0:0:0:
304,195,108306,1,0,0:0:0:0:
326,194,108456,1,0,0:0:0:0:
326,194,108531,1,0,0:0:0:0:
281,127,108606,1,2,0:0:0:0:
304,154,108624,1,0,0:0:0:0:
281,127,108681,1,2,0:0:0:0:
304,154,108699,1,0,0:0:0:0:
281,127,108756,1,2,0:0:0:0:
304,154,108774,1,0,0:0:0:0:
281,127,108831,1,2,0:0:0:0:
304,154,108849,1,0,0:0:0:0:
281,127,108906,1,2,0:0:0:0:
304,154,108924,1,0,0:0:0:0:
281,127,108981,1,2,0:0:0:0:
304,154,108999,1,0,0:0:0:0:
281,127,109056,1,2,0:0:0:0:
304,154,109074,1,0,0:0:0:0:
281,127,109131,1,2,0:0:0:0:
304,154,109149,1,0,0:0:0:0:
269,162,109206,1,2,0:0:0:0:
276,213,109356,1,2,0:0:0:0:
276,213,109431,1,2,0:0:0:0:
276,213,109506,1,0,0:0:0:0:
277,226,109581,1,2,0:0:0:0:
277,226,109656,1,2,0:0:0:0:
277,226,109731,1,2,0:0:0:0:
277,226,109806,1,0,0:0:0:0:
277,226,109956,1,2,0:0:0:0:
277,226,110031,1,2,0:0:0:0:
277,226,110106,1,0,0:0:0:0:
277,226,110181,1,0,0:0:0:0:
277,226,110256,1,2,0:0:0:0:
277,226,110331,1,2,0:0:0:0:
277,226,110406,1,0,0:0:0:0:
276,213,110556,1,2,0:0:0:0:
276,213,110631,1,2,0:0:0:0:
276,213,110706,1,0,0:0:0:0:
277,226,110781,1,2,0:0:0:0:
277,226,110856,1,2,0:0:0:0:
277,226,110931,1,2,0:0:0:0:
277,226,111006,1,0,0:0:0:0:
277,226,111156,1,2,0:0:0:0:
277,226,111231,1,2,0:0:0:0:
277,226,111306,1,0,0:0:0:0:
277,226,111381,1,0,0:0:0:0:
277,226,111456,1,2,0:0:0:0:
281,127,111606,1,2,0:0:0:0:
304,154,111624,1,0,0:0:0:0:
281,127,111681,1,2,0:0:0:0:
304,154,111699,1,0,0:0:0:0:
281,127,111756,1,2,0:0:0:0:
304,154,111774,1,0,0:0:0:0:
281,127,111831,1,2,0:0:0:0:
304,154,111849,1,0,0:0:0:0:
281,127,111906,1,2,0:0:0:0:
304,154,111924,1,0,0:0:0:0:
281,127,111981,1,2,0:0:0:0:
304,154,111999,1,0,0:0:0:0:
281,127,112056,1,2,0:0:0:0:
304,154,112074,1,0,0:0:0:0:
281,127,112131,1,2,0:0:0:0:
304,154,112149,1,0,0:0:0:0:
281,127,112206,1,2,0:0:0:0:
304,154,112224,1,0,0:0:0:0:
281,127,112281,1,2,0:0:0:0:
304,154,112299,1,0,0:0:0:0:
281,127,112356,1,2,0:0:0:0:
304,154,112374,1,0,0:0:0:0:
281,127,112431,1,2,0:0:0:0:
304,154,112449,1,0,0:0:0:0:
281,127,112506,1,2,0:0:0:0:
304,154,112524,1,0,0:0:0:0:
281,127,112581,1,2,0:0:0:0:
304,154,112599,1,0,0:0:0:0:
281,127,112656,1,2,0:0:0:0:
304,154,112674,1,0,0:0:0:0:
281,127,112731,1,2,0:0:0:0:
304,154,112749,1,0,0:0:0:0:
289,196,112806,1,6,0:0:0:0:
289,196,113106,1,6,0:0:0:0:
289,196,113406,1,6,0:0:0:0:
289,196,113706,1,4,0:0:0:0:
289,196,114006,1,6,0:0:0:0:
281,228,114456,1,0,0:0:0:0:
281,228,114531,1,2,0:0:0:0:
281,238,114606,1,0,0:0:0:0:
281,238,114756,1,0,0:0:0:0:
281,238,114906,1,0,0:0:0:0:
281,238,115056,1,0,0:0:0:0:
281,238,115206,1,2,0:0:0:0:
281,238,115506,1,2,0:0:0:0:
281,238,115656,1,2,0:0:0:0:
281,238,115806,1,0,0:0:0:0:
281,238,116106,1,0,0:0:0:0:
281,238,116256,1,0,0:0:0:0:
281,238,116406,1,6,0:0:0:0:
281,238,116556,1,2,0:0:0:0:
281,238,116706,1,0,0:0:0:0:
281,238,116856,1,0,0:0:0:0:
281,238,117006,1,6,0:0:0:0:
281,238,117306,1,6,0:0:0:0:
281,238,117606,1,4,0:0:0:0:
