osu file format v14

[General]
AudioFilename: audio.mp3
AudioLeadIn: 0
PreviewTime: 0
Countdown: 0
SampleSet: None
StackLeniency: 0.7
Mode: 1
LetterboxInBreaks: 0
WidescreenStoryboard: 1

[Editor]
DistanceSpacing: 0.9
BeatDivisor: 4
GridSize: 32
TimelineZoom: 3.199999

[Metadata]
Title:PEPPY FIX TAIKO STAR RATING PLEASE for a happier
TitleUnicode:PEPPY FIX TAIKO STAR RATING PLEASE for a happier
Artist:Various Artists
ArtistUnicode:Various Artists
Creator:ARGENTINE DREAM
Version:1/8 is ok, don't abuse 1/4+1/6 streams, big thancc
Source:
Tags:kasai harcores esti round wave crusher d abe3 slash dot dash cycle hit helix maniera axer backfire hikikochan hikiko- _yu68 surono alchyr nifty brames consified lno skull kid skid brasil luckysonicghz kqrth trapmaniac agu ppus zigizigiefe nwolf -kazu- idealism babysnakes astolfo vrnl yea jarvisgaming chichinya poii hirok _dusk_ nishizumi ulqui coryn faputa rhytoly dudetm meovvcat jhowm gaston_2199 kbludoh blackener mtdex kuron kuron-kun tyistiana xtrem3x ghm12 davidminh0111 -gn junior aspirin whats skill metalstream whosthebox grimbow duski ozzyozrock foxerus endymion vulkin taiko pp compilation
BeatmapID:1726952
BeatmapSetID:794048

[Difficulty]
HPDrainRate:5
CircleSize:7
OverallDifficulty:6
ApproachRate:10
SliderMultiplier:1.4
SliderTickRate:1

[Events]
//Background and Video events
0,0,"pipifarm.jpg",0,0
//Break Periods
//Storyboard Layer 0 (Background)
//Storyboard Layer 1 (Fail)
//Storyboard Layer 2 (Pass)
//Storyboard Layer 3 (Foreground)
//Storyboard Sound Samples

[TimingPoints]
6,300,4,1,0,30,1,0
6,-111.111111111111,4,1,0,30,0,0
7206,-105.263157894737,4,1,0,45,0,0
9606,-100,4,1,0,70,0,0
13806,-100,4,1,0,70,0,1
13843,-100,4,1,0,70,0,0
13956,-100,4,1,0,70,0,1
13993,-100,4,1,0,70,0,0
14106,-100,4,1,0,70,0,1
14143,-100,4,1,0,70,0,0
14256,-100,4,1,0,70,0,1
14293,-100,4,1,0,70,0,0
14406,-100,4,1,0,70,0,1
14443,-100,4,1,0,70,0,0
18906,-100,4,1,0,20,0,1
19056,-100,4,1,0,70,0,0
26556,-101.010101010101,4,1,0,68,0,0
26706,-102.040816326531,4,1,0,66,0,0
26856,-103.092783505155,4,1,0,64,0,0
27006,-104.166666666667,4,1,0,62,0,0

[HitObjects]
256,192,6,5,8,0:0:0:0:
256,192,306,1,0,0:0:0:0:
256,192,456,1,0,0:0:0:0:
256,192,531,1,0,0:0:0:0:
256,192,606,1,8,0:0:0:0:
256,192,756,1,0,0:0:0:0:
256,192,906,1,8,0:0:0:0:
256,192,1056,1,0,0:0:0:0:
256,192,1206,1,8,0:0:0:0:
256,192,1506,1,8,0:0:0:0:
256,192,1656,1,8,0:0:0:0:
256,192,1806,1,0,0:0:0:0:
256,192,2106,1,8,0:0:0:0:
256,192,2406,1,8,0:0:0:0:
256,192,2706,1,0,0:0:0:0:
256,192,2856,1,0,0:0:0:0:
256,192,2931,1,0,0:0:0:0:
256,192,3006,1,8,0:0:0:0:
256,192,3156,1,0,0:0:0:0:
256,192,3306,1,8,0:0:0:0:
256,192,3456,1,0,0:0:0:0:
256,192,3606,1,8,0:0:0:0:
256,192,3756,1,0,0:0:0:0:
256,192,3906,1,0,0:0:0:0:
256,192,4056,1,8,0:0:0:0:
256,192,4206,1,8,0:0:0:0:
256,192,4356,1,0,0:0:0:0:
256,192,4506,1,8,0:0:0:0:
256,192,4656,1,0,0:0:0:0:
256,192,4806,1,8,0:0:0:0:
256,192,5106,1,0,0:0:0:0:
256,192,5256,1,0,0:0:0:0:
256,192,5331,1,0,0:0:0:0:
256,192,5406,1,8,0:0:0:0:
256,192,5556,1,0,0:0:0:0:
256,192,5706,1,8,0:0:0:0:
256,192,5856,1,0,0:0:0:0:
256,192,6006,1,8,0:0:0:0:
256,192,6306,1,8,0:0:0:0:
256,192,6456,1,8,0:0:0:0:
256,192,6606,1,0,0:0:0:0:
256,192,6906,1,0,0:0:0:0:
256,192,7206,1,8,0:0:0:0:
256,192,7281,1,8,0:0:0:0:
256,192,7356,1,0,0:0:0:0:
256,192,7431,1,0,0:0:0:0:
256,192,7506,1,8,0:0:0:0:
256,192,7581,1,0,0:0:0:0:
256,192,7656,1,8,0:0:0:0:
256,192,7731,1,8,0:0:0:0:
256,192,7806,1,0,0:0:0:0:
256,192,7881,1,0,0:0:0:0:
256,192,7956,1,8,0:0:0:0:
256,192,8031,1,8,0:0:0:0:
256,192,8106,1,0,0:0:0:0:
256,192,8181,1,0,0:0:0:0:
256,192,8256,1,8,0:0:0:0:
256,192,8331,1,8,0:0:0:0:
256,192,8406,1,0,0:0:0:0:
256,192,8556,1,0,0:0:0:0:
256,192,8706,1,8,0:0:0:0:
256,192,8781,1,8,0:0:0:0:
256,192,8856,1,0,0:0:0:0:
256,192,8931,1,0,0:0:0:0:
256,192,9006,1,8,0:0:0:0:
256,192,9156,1,8,0:0:0:0:
256,192,9306,1,0,0:0:0:0:
256,192,9606,1,8,0:0:0:0:
256,192,9756,1,0,0:0:0:0:
256,192,9831,1,0,0:0:0:0:
256,192,9906,1,8,0:0:0:0:
256,192,10056,1,0,0:0:0:0:
256,192,10131,1,0,0:0:0:0:
256,192,10206,1,8,0:0:0:0:
256,192,10281,1,8,0:0:0:0:
256,192,10356,1,0,0:0:0:0:
256,192,10506,1,8,0:0:0:0:
256,192,10656,1,0,0:0:0:0:
256,192,10731,1,0,0:0:0:0:
256,192,10806,1,8,0:0:0:0:
256,192,10956,1,0,0:0:0:0:
256,192,11106,1,8,0:0:0:0:
256,192,11181,1,8,0:0:0:0:
256,192,11256,1,0,0:0:0:0:
256,192,11331,1,0,0:0:0:0:
256,192,11406,1,8,0:0:0:0:
256,192,11556,1,0,0:0:0:0:
256,192,11706,1,8,0:0:0:0:
256,192,11781,1,0,0:0:0:0:
256,192,11856,1,8,0:0:0:0:
256,192,11931,1,8,0:0:0:0:
256,192,12006,1,0,0:0:0:0:
256,192,12156,1,0,0:0:0:0:
256,192,12306,1,8,0:0:0:0:
256,192,12456,1,0,0:0:0:0:
256,192,12531,1,0,0:0:0:0:
256,192,12606,1,8,0:0:0:0:
256,192,12681,1,8,0:0:0:0:
256,192,12756,1,0,0:0:0:0:
256,192,12831,1,0,0:0:0:0:
256,192,12906,1,8,0:0:0:0:
256,192,13056,1,0,0:0:0:0:
256,192,13206,1,8,0:0:0:0:
256,192,13281,1,8,0:0:0:0:
256,192,13356,1,0,0:0:0:0:
256,192,13431,1,0,0:0:0:0:
256,192,13506,1,8,0:0:0:0:
256,192,13581,1,8,0:0:0:0:
256,192,13656,1,0,0:0:0:0:
256,192,13806,1,8,0:0:0:0:
256,192,13956,1,8,0:0:0:0:
256,192,14106,1,0,0:0:0:0:
256,192,14256,1,8,0:0:0:0:
256,192,14406,1,0,0:0:0:0:
256,192,14556,1,0,0:0:0:0:
256,192,14631,1,0,0:0:0:0:
256,192,14706,1,8,0:0:0:0:
256,192,14781,1,8,0:0:0:0:
256,192,14856,1,0,0:0:0:0:
256,192,15006,1,8,0:0:0:0:
256,192,15081,1,8,0:0:0:0:
256,192,15156,1,0,0:0:0:0:
256,192,15231,1,0,0:0:0:0:
256,192,15306,1,8,0:0:0:0:
256,192,15456,1,0,0:0:0:0:
256,192,15606,1,8,0:0:0:0:
256,192,15681,1,8,0:0:0:0:
256,192,15756,1,0,0:0:0:0:
256,192,15831,1,0,0:0:0:0:
256,192,15906,1,8,0:0:0:0:
256,192,15981,1,8,0:0:0:0:
256,192,16056,1,0,0:0:0:0:
256,192,16131,1,0,0:0:0:0:
256,192,16206,1,8,0:0:0:0:
256,192,16356,1,0,0:0:0:0:
256,192,16431,1,0,0:0:0:0:
256,192,16506,1,8,0:0:0:0:
256,192,16581,1,0,0:0:0:0:
256,192,16656,1,8,0:0:0:0:
256,192,16731,1,8,0:0:0:0:
256,192,16806,1,0,0:0:0:0:
256,192,16956,1,0,0:0:0:0:
256,192,17031,1,0,0:0:0:0:
256,192,17106,1,8,0:0:0:0:
256,192,17256,1,0,0:0:0:0:
256,192,17406,1,8,0:0:0:0:
256,192,17481,1,8,0:0:0:0:
256,192,17556,1,0,0:0:0:0:
256,192,17631,1,0,0:0:0:0:
256,192,17706,1,8,0:0:0:0:
256,192,17781,1,8,0:0:0:0:
256,192,17856,1,0,0:0:0:0:
256,192,17931,1,0,0:0:0:0:
256,192,18006,1,8,0:0:0:0:
256,192,18081,1,8,0:0:0:0:
256,192,18156,1,0,0:0:0:0:
256,192,18231,1,0,0:0:0:0:
256,192,18306,1,8,0:0:0:0:
256,192,18456,1,8,0:0:0:0:
256,192,18606,1,0,0:0:0:0:
256,192,18756,1,8,0:0:0:0:
224,32,18906,2,0,L|320:32,1,70
256,192,19206,1,0,0:0:0:0:
256,192,19356,1,0,0:0:0:0:
256,192,19431,1,0,0:0:0:0:
256,192,19506,1,8,0:0:0:0:
256,192,19581,1,8,0:0:0:0:
256,192,19656,1,0,0:0:0:0:
256,192,19731,1,0,0:0:0:0:
256,192,19806,1,8,0:0:0:0:
256,192,19956,1,0,0:0:0:0:
256,192,20031,1,0,0:0:0:0:
256,192,20106,1,8,0:0:0:0:
256,192,20181,1,8,0:0:0:0:
256,192,20256,1,0,0:0:0:0:
256,192,20406,1,8,0:0:0:0:
256,192,20556,1,0,0:0:0:0:
256,192,20706,1,8,0:0:0:0:
256,192,20781,1,8,0:0:0:0:
256,192,20856,1,0,0:0:0:0:
256,192,20931,1,0,0:0:0:0:
256,192,21006,1,8,0:0:0:0:
256,192,21081,1,8,0:0:0:0:
256,192,21156,1,0,0:0:0:0:
256,192,21231,1,0,0:0:0:0:
256,192,21306,1,8,0:0:0:0:
256,192,21381,1,0,0:0:0:0:
256,192,21456,1,8,0:0:0:0:
256,192,21531,1,8,0:0:0:0:
256,192,21606,1,0,0:0:0:0:
256,192,21756,1,0,0:0:0:0:
256,192,21906,1,8,0:0:0:0:
256,192,21981,1,8,0:0:0:0:
256,192,22056,1,0,0:0:0:0:
256,192,22131,1,0,0:0:0:0:
256,192,22206,1,8,0:0:0:0:
256,192,22281,1,8,0:0:0:0:
256,192,22356,1,0,0:0:0:0:
256,192,22431,1,0,0:0:0:0:
256,192,22506,1,8,0:0:0:0:
256,192,22656,1,0,0:0:0:0:
256,192,22731,1,0,0:0:0:0:
256,192,22806,1,8,0:0:0:0:
256,192,22956,1,0,0:0:0:0:
256,192,23031,1,0,0:0:0:0:
256,192,23106,1,8,0:0:0:0:
256,192,23181,1,8,0:0:0:0:
256,192,23256,1,0,0:0:0:0:
256,192,23331,1,0,0:0:0:0:
256,192,23406,1,8,0:0:0:0:
256,192,23481,1,8,0:0:0:0:
256,192,23556,1,0,0:0:0:0:
256,192,23706,1,8,0:0:0:0:
256,192,23856,1,8,0:0:0:0:
256,192,24006,1,0,0:0:0:0:
256,192,24156,1,0,0:0:0:0:
256,192,24231,1,0,0:0:0:0:
256,192,24306,1,8,0:0:0:0:
256,192,24381,1,8,0:0:0:0:
256,192,24456,1,0,0:0:0:0:
256,192,24531,1,0,0:0:0:0:
256,192,24606,1,8,0:0:0:0:
256,192,24681,1,8,0:0:0:0:
256,192,24756,1,0,0:0:0:0:
256,192,24831,1,0,0:0:0:0:
256,192,24906,1,8,0:0:0:0:
256,192,24981,1,8,0:0:0:0:
256,192,25056,1,0,0:0:0:0:
256,192,25131,1,0,0:0:0:0:
256,192,25206,1,8,0:0:0:0:
256,192,25281,1,8,0:0:0:0:
256,192,25356,1,0,0:0:0:0:
256,192,25431,1,0,0:0:0:0:
256,192,25506,1,8,0:0:0:0:
256,192,25581,1,8,0:0:0:0:
256,192,25656,1,0,0:0:0:0:
256,192,25731,1,0,0:0:0:0:
256,192,25806,1,8,0:0:0:0:
256,192,25881,1,8,0:0:0:0:
256,192,25956,1,0,0:0:0:0:
256,192,26031,1,0,0:0:0:0:
256,192,26106,1,8,0:0:0:0:
256,192,26181,1,0,0:0:0:0:
256,192,26256,1,8,0:0:0:0:
256,192,26331,1,8,0:0:0:0:
256,192,26406,1,0,0:0:0:0:
256,192,26556,1,8,0:0:0:0:
256,192,26706,1,0,0:0:0:0:
256,192,26856,1,8,0:0:0:0:
256,192,27006,1,0,0:0:0:0:
256,192,27156,1,8,0:0:0:0:
256,192,27306,1,0,0:0:0:0:
256,192,27456,1,8,0:0:0:0:
256,192,27606,1,0,0:0:0:0:
256,192,27756,1,8,0:0:0:0:
256,192,27906,1,0,0:0:0:0:
256,192,28056,1,8,0:0:0:0:
256,192,28206,1,0,0:0:0:0:
256,192,28356,1,8,0:0:0:0:
256,192,28506,1,8,0:0:0:0:
256,192,28806,1,0,0:0:0:0:
256,192,28956,1,0,0:0:0:0:
256,192,29031,1,0,0:0:0:0:
256,192,29106,1,8,0:0:0:0:
256,192,29406,1,0,0:0:0:0:
256,192,29556,1,0,0:0:0:0:
256,192,29631,1,0,0:0:0:0:
256,192,29706,1,8,0:0:0:0:
256,192,30006,1,0,0:0:0:0:
256,192,30081,1,0,0:0:0:0:
256,192,30156,1,8,0:0:0:0:
256,192,30231,1,0,0:0:0:0:
256,192,30306,1,8,0:0:0:0:
256,192,30381,1,8,0:0:0:0:
256,192,30456,1,0,0:0:0:0:
256,192,30531,1,0,0:0:0:0:
256,192,30606,1,8,0:0:0:0:
256,192,30681,1,8,0:0:0:0:
256,192,30756,1,0,0:0:0:0:
256,192,30831,1,0,0:0:0:0:
256,192,30906,1,8,0:0:0:0:
256,192,30981,1,0,0:0:0:0:
256,192,31056,1,8,0:0:0:0:
256,192,31131,1,8,0:0:0:0:
256,192,31206,1,0,0:0:0:0:
256,192,31356,1,0,0:0:0:0:
256,192,31431,1,0,0:0:0:0:
256,192,31506,1,8,0:0:0:0:
256,192,31806,1,0,0:0:0:0:
256,192,31956,1,0,0:0:0:0:
256,192,32031,1,0,0:0:0:0:
256,192,32106,1,8,0:0:0:0:
256,192,32406,1,8,0:0:0:0:
256,192,32481,1,8,0:0:0:0:
256,192,32556,1,0,0:0:0:0:
256,192,32631,1,0,0:0:0:0:
256,192,32706,1,8,0:0:0:0:
256,192,32781,1,8,0:0:0:0:
256,192,32856,1,0,0:0:0:0:
256,192,32931,1,0,0:0:0:0:
256,192,33006,1,8,0:0:0:0:
256,192,33081,1,8,0:0:0:0:
256,192,33156,1,0,0:0:0:0:
256,192,33231,1,0,0:0:0:0:
256,192,33306,1,8,0:0:0:0:
256,192,33381,1,0,0:0:0:0:
256,192,33456,1,8,0:0:0:0:
256,192,33531,1,8,0:0:0:0:
256,192,33606,1,0,0:0:0:0:
256,192,33756,1,0,0:0:0:0:
256,192,33831,1,0,0:0:0:0:
256,192,33906,1,8,0:0:0:0:
256,192,34206,1,0,0:0:0:0:
256,192,34356,1,0,0:0:0:0:
256,192,34431,1,8,0:0:0:0:
256,192,34506,1,8,0:0:0:0:
256,192,34806,1,0,0:0:0:0:
256,192,34881,1,0,0:0:0:0:
256,192,34956,1,8,0:0:0:0:
256,192,35031,1,8,0:0:0:0:
256,192,35106,1,0,0:0:0:0:
256,192,35181,1,0,0:0:0:0:
256,192,35256,1,8,0:0:0:0:
256,192,35331,1,0,0:0:0:0:
256,192,35406,1,8,0:0:0:0:
256,192,35481,1,8,0:0:0:0:
256,192,35556,1,0,0:0:0:0:
256,192,35631,1,0,0:0:0:0:
256,192,35706,1,8,0:0:0:0:
256,192,35781,1,8,0:0:0:0:
256,192,35856,1,0,0:0:0:0:
256,192,35931,1,0,0:0:0:0:
256,192,36006,1,8,0:0:0:0:
256,192,36156,1,0,0:0:0:0:
256,192,36231,1,0,0:0:0:0:
256,192,36306,1,8,0:0:0:0:
256,192,36606,1,0,0:0:0:0:
256,192,36756,1,0,0:0:0:0:
256,192,36831,1,8,0:0:0:0:
256,192,36906,1,8,0:0:0:0:
256,192,37056,1,8,0:0:0:0:
256,192,37106,1,8,0:0:0:0:
256,192,37206,1,0,0:0:0:0:
256,192,37256,1,0,0:0:0:0:
256,192,37356,1,8,0:0:0:0:
256,192,37506,1,0,0:0:0:0:
256,192,37581,1,0,0:0:0:0:
256,192,37656,1,8,0:0:0:0:
256,192,37731,1,8,0:0:0:0:
256,192,37806,1,0,0:0:0:0:
256,192,37881,1,0,0:0:0:0:
256,192,37956,1,8,0:0:0:0:
256,192,38031,1,8,0:0:0:0:
256,192,38106,1,0,0:0:0:0:
256,192,38181,1,0,0:0:0:0:
256,192,38256,1,8,0:0:0:0:
256,192,38406,1,4,0:0:0:0:
256,192,38556,1,8,0:0:0:0:
256,192,38631,1,8,0:0:0:0:
256,192,38706,1,0,0:0:0:0:
256,192,38781,1,0,0:0:0:0:
256,192,38856,1,8,0:0:0:0:
256,192,38931,1,8,0:0:0:0:
256,192,39006,1,0,0:0:0:0:
256,192,39081,1,0,0:0:0:0:
256,192,39156,1,8,0:0:0:0:
256,192,39231,1,8,0:0:0:0:
256,192,39306,1,0,0:0:0:0:
256,192,39381,1,0,0:0:0:0:
256,192,39456,1,8,0:0:0:0:
256,192,39606,1,4,0:0:0:0:
256,192,39756,1,8,0:0:0:0:
256,192,39831,1,8,0:0:0:0:
256,192,39906,1,0,0:0:0:0:
256,192,39981,1,0,0:0:0:0:
256,192,40056,1,8,0:0:0:0:
256,192,40206,1,12,0:0:0:0:
256,192,40356,1,8,0:0:0:0:
256,192,40431,1,8,0:0:0:0:
256,192,40506,1,0,0:0:0:0:
256,192,40581,1,0,0:0:0:0:
256,192,40656,1,8,0:0:0:0:
256,192,40806,1,4,0:0:0:0:
256,192,40956,1,8,0:0:0:0:
256,192,41106,1,4,0:0:0:0:
256,192,41256,1,8,0:0:0:0:
256,192,41406,1,4,0:0:0:0:
256,192,41556,1,8,0:0:0:0:
256,192,41706,1,4,0:0:0:0:
256,192,41856,1,8,0:0:0:0:
256,192,42006,1,4,0:0:0:0:
256,192,42156,1,8,0:0:0:0:
256,192,42306,1,0,0:0:0:0:
256,192,42456,1,0,0:0:0:0:
256,192,42531,1,0,0:0:0:0:
256,192,42606,1,8,0:0:0:0:
256,192,42756,1,0,0:0:0:0:
256,192,42906,1,8,0:0:0:0:
256,192,43056,1,8,0:0:0:0:
256,192,43206,1,4,0:0:0:0:
256,192,43356,1,0,0:0:0:0:
256,192,43506,1,8,0:0:0:0:
256,192,43581,1,8,0:0:0:0:
256,192,43656,1,8,0:0:0:0:
256,192,43731,1,0,0:0:0:0:
256,192,43806,1,8,0:0:0:0:
256,192,43881,1,8,0:0:0:0:
256,192,43956,1,0,0:0:0:0:
256,192,44031,1,0,0:0:0:0:
256,192,44106,1,8,0:0:0:0:
256,192,44181,1,8,0:0:0:0:
256,192,44256,1,8,0:0:0:0:
256,192,44331,1,8,0:0:0:0:
256,192,44406,1,0,0:0:0:0:
256,192,44706,1,0,0:0:0:0:
256,192,44856,1,0,0:0:0:0:
256,192,44906,1,0,0:0:0:0:
256,192,44956,1,0,0:0:0:0:
256,192,45006,1,8,0:0:0:0:
256,192,45081,1,8,0:0:0:0:
256,192,45156,1,8,0:0:0:0:
256,192,45231,1,0,0:0:0:0:
256,192,45306,1,0,0:0:0:0:
256,192,45381,1,8,0:0:0:0:
256,192,45456,1,8,0:0:0:0:
256,192,45531,1,0,0:0:0:0:
256,192,45606,1,8,0:0:0:0:
256,192,45756,1,8,0:0:0:0:
256,192,45906,1,0,0:0:0:0:
256,192,46056,1,0,0:0:0:0:
256,192,46106,1,0,0:0:0:0:
256,192,46156,1,0,0:0:0:0:
256,192,46206,1,8,0:0:0:0:
256,192,46281,1,8,0:0:0:0:
256,192,46356,1,0,0:0:0:0:
256,192,46431,1,0,0:0:0:0:
256,192,46506,1,8,0:0:0:0:
256,192,46581,1,8,0:0:0:0:
256,192,46656,1,8,0:0:0:0:
256,192,46731,1,8,0:0:0:0:
256,192,46806,1,0,0:0:0:0:
256,192,46956,1,0,0:0:0:0:
256,192,47031,1,0,0:0:0:0:
256,192,47106,1,8,0:0:0:0:
256,192,47256,1,0,0:0:0:0:
256,192,47406,1,8,0:0:0:0:
256,192,47481,1,8,0:0:0:0:
256,192,47556,1,0,0:0:0:0:
256,192,47631,1,0,0:0:0:0:
256,192,47706,1,8,0:0:0:0:
256,192,47781,1,8,0:0:0:0:
256,192,47856,1,0,0:0:0:0:
256,192,47931,1,8,0:0:0:0:
256,192,48006,1,0,0:0:0:0:
256,192,48156,1,0,0:0:0:0:
256,192,48306,1,0,0:0:0:0:
256,192,48456,1,0,0:0:0:0:
256,192,48531,1,0,0:0:0:0:
256,192,48606,1,8,0:0:0:0:
256,192,48756,1,0,0:0:0:0:
192,32,48906,2,0,L|352:32,1,134.40000328125
256,192,49506,1,0,0:0:0:0:
256,192,49656,1,0,0:0:0:0:
256,192,49706,1,0,0:0:0:0:
256,192,49756,1,0,0:0:0:0:
256,192,49806,1,8,0:0:0:0:
256,192,49881,1,8,0:0:0:0:
256,192,49956,1,8,0:0:0:0:
256,192,50031,1,0,0:0:0:0:
256,192,50106,1,0,0:0:0:0:
256,192,50181,1,8,0:0:0:0:
256,192,50256,1,8,0:0:0:0:
256,192,50331,1,0,0:0:0:0:
256,192,50406,1,8,0:0:0:0:
256,192,50556,1,8,0:0:0:0:
256,192,50706,1,0,0:0:0:0:
256,192,50856,1,0,0:0:0:0:
256,192,50906,1,0,0:0:0:0:
256,192,50956,1,0,0:0:0:0:
256,192,51006,1,8,0:0:0:0:
256,192,51081,1,8,0:0:0:0:
256,192,51156,1,0,0:0:0:0:
256,192,51231,1,0,0:0:0:0:
256,192,51306,1,8,0:0:0:0:
256,192,51381,1,8,0:0:0:0:
256,192,51456,1,8,0:0:0:0:
256,192,51531,1,8,0:0:0:0:
256,192,51606,1,0,0:0:0:0:
256,192,51756,1,0,0:0:0:0:
256,192,51831,1,0,0:0:0:0:
256,192,51906,1,8,0:0:0:0:
256,192,52056,1,0,0:0:0:0:
256,192,52206,1,8,0:0:0:0:
256,192,52281,1,8,0:0:0:0:
256,192,52356,1,0,0:0:0:0:
256,192,52431,1,0,0:0:0:0:
256,192,52506,1,8,0:0:0:0:
256,192,52581,1,8,0:0:0:0:
256,192,52656,1,0,0:0:0:0:
256,192,52731,1,8,0:0:0:0:
256,192,52806,1,0,0:0:0:0:
256,192,52956,1,0,0:0:0:0:
256,192,53031,1,0,0:0:0:0:
256,192,53106,1,8,0:0:0:0:
256,192,53256,1,0,0:0:0:0:
256,192,53406,1,0,0:0:0:0:
256,192,53481,1,0,0:0:0:0:
256,192,53556,1,0,0:0:0:0:
256,192,53631,1,0,0:0:0:0:
256,192,53706,1,0,0:0:0:0:
256,192,53781,1,0,0:0:0:0:
256,192,53856,1,0,0:0:0:0:
256,192,53931,1,0,0:0:0:0:
256,192,54006,1,12,0:0:0:0:
256,192,54156,1,8,0:0:0:0:
256,192,54306,1,0,0:0:0:0:
256,192,54456,1,0,0:0:0:0:
256,192,54506,1,0,0:0:0:0:
256,192,54556,1,0,0:0:0:0:
256,192,54606,1,8,0:0:0:0:
256,192,54681,1,8,0:0:0:0:
256,192,54756,1,8,0:0:0:0:
256,192,54831,1,8,0:0:0:0:
256,192,54906,1,0,0:0:0:0:
256,192,54981,1,8,0:0:0:0:
256,192,55056,1,8,0:0:0:0:
256,192,55131,1,8,0:0:0:0:
256,192,55206,1,0,0:0:0:0:
256,192,55356,1,8,0:0:0:0:
256,192,55506,1,0,0:0:0:0:
256,192,55656,1,0,0:0:0:0:
256,192,55706,1,0,0:0:0:0:
256,192,55756,1,0,0:0:0:0:
256,192,55806,1,8,0:0:0:0:
256,192,55881,1,8,0:0:0:0:
256,192,55956,1,8,0:0:0:0:
256,192,56031,1,8,0:0:0:0:
256,192,56106,1,0,0:0:0:0:
256,192,56181,1,8,0:0:0:0:
256,192,56256,1,8,0:0:0:0:
256,192,56331,1,8,0:0:0:0:
256,192,56406,1,0,0:0:0:0:
256,192,56556,1,0,0:0:0:0:
256,192,56631,1,0,0:0:0:0:
256,192,56706,1,8,0:0:0:0:
256,192,56856,1,0,0:0:0:0:
256,192,57006,1,8,0:0:0:0:
256,192,57081,1,8,0:0:0:0:
256,192,57156,1,8,0:0:0:0:
256,192,57231,1,0,0:0:0:0:
256,192,57306,1,8,0:0:0:0:
256,192,57381,1,8,0:0:0:0:
256,192,57456,1,8,0:0:0:0:
256,192,57531,1,8,0:0:0:0:
256,192,57606,1,0,0:0:0:0:
256,192,57756,1,0,0:0:0:0:
256,192,57831,1,0,0:0:0:0:
256,192,57906,1,8,0:0:0:0:
256,192,58056,1,0,0:0:0:0:
256,192,58131,1,8,0:0:0:0:
256,192,58281,1,0,0:0:0:0:
256,192,58356,1,8,0:0:0:0:
256,192,58506,1,8,0:0:0:0:
256,192,58581,1,8,0:0:0:0:
256,192,58656,1,0,0:0:0:0:
256,192,58731,1,0,0:0:0:0:
256,192,58806,1,8,0:0:0:0:
256,192,58956,1,0,0:0:0:0:
256,192,59106,1,8,0:0:0:0:
256,192,59256,1,0,0:0:0:0:
256,192,59306,1,0,0:0:0:0:
256,192,59356,1,0,0:0:0:0:
256,192,59406,1,8,0:0:0:0:
256,192,59481,1,8,0:0:0:0:
256,192,59556,1,8,0:0:0:0:
256,192,59631,1,8,0:0:0:0:
256,192,59706,1,0,0:0:0:0:
256,192,59781,1,8,0:0:0:0:
256,192,59856,1,8,0:0:0:0:
256,192,59931,1,8,0:0:0:0:
256,192,60006,1,0,0:0:0:0:
256,192,60156,1,0,0:0:0:0:
256,192,60306,1,8,0:0:0:0:
256,192,60456,1,0,0:0:0:0:
256,192,60506,1,0,0:0:0:0:
256,192,60556,1,0,0:0:0:0:
256,192,60606,1,8,0:0:0:0:
256,192,60681,1,8,0:0:0:0:
256,192,60756,1,8,0:0:0:0:
256,192,60831,1,8,0:0:0:0:
256,192,60906,1,0,0:0:0:0:
256,192,60981,1,8,0:0:0:0:
256,192,61056,1,8,0:0:0:0:
256,192,61131,1,8,0:0:0:0:
256,192,61206,1,0,0:0:0:0:
256,192,61356,1,0,0:0:0:0:
256,192,61431,1,0,0:0:0:0:
256,192,61506,1,8,0:0:0:0:
256,192,61581,1,0,0:0:0:0:
256,192,61656,1,8,0:0:0:0:
256,192,61731,1,8,0:0:0:0:
256,192,61806,1,0,0:0:0:0:
256,192,61881,1,0,0:0:0:0:
256,192,61956,1,8,0:0:0:0:
256,192,62031,1,8,0:0:0:0:
256,192,62106,1,0,0:0:0:0:
256,192,62181,1,0,0:0:0:0:
256,192,62256,1,8,0:0:0:0:
256,192,62331,1,8,0:0:0:0:
256,192,62406,1,0,0:0:0:0:
256,192,62456,1,0,0:0:0:0:
256,192,62506,1,0,0:0:0:0:
256,192,62556,1,0,0:0:0:0:
256,192,62606,1,0,0:0:0:0:
256,192,62656,1,0,0:0:0:0:
256,192,62706,1,0,0:0:0:0:
256,192,62756,1,0,0:0:0:0:
256,192,62806,1,0,0:0:0:0:
256,192,62856,1,0,0:0:0:0:
256,192,62906,1,0,0:0:0:0:
256,192,62956,1,0,0:0:0:0:
256,192,63006,1,0,0:0:0:0:
256,192,63056,1,0,0:0:0:0:
256,192,63106,1,0,0:0:0:0:
256,192,63156,1,0,0:0:0:0:
256,192,63206,1,0,0:0:0:0:
256,192,63256,1,0,0:0:0:0:
256,192,63306,1,0,0:0:0:0:
256,192,63356,1,0,0:0:0:0:
256,192,63406,1,0,0:0:0:0:
256,192,63456,1,0,0:0:0:0:
256,192,63506,1,0,0:0:0:0:
256,192,63556,1,0,0:0:0:0:
256,192,63606,1,8,0:0:0:0:
256,192,63756,1,0,0:0:0:0:
256,192,63906,1,0,0:0:0:0:
256,192,64056,1,8,0:0:0:0:
256,192,64206,1,0,0:0:0:0:
256,192,64356,1,0,0:0:0:0:
256,192,64506,1,8,0:0:0:0:
256,192,64806,1,0,0:0:0:0:
256,192,64956,1,0,0:0:0:0:
256,192,65106,1,8,0:0:0:0:
256,192,65256,1,0,0:0:0:0:
256,192,65406,1,8,0:0:0:0:
256,192,65481,1,8,0:0:0:0:
256,192,65556,1,0,0:0:0:0:
256,192,65631,1,0,0:0:0:0:
256,192,65706,1,8,0:0:0:0:
256,192,65781,1,0,0:0:0:0:
256,192,65856,1,8,0:0:0:0:
256,192,65931,1,8,0:0:0:0:
256,192,66006,1,0,0:0:0:0:
256,192,66156,1,0,0:0:0:0:
256,192,66306,1,8,0:0:0:0:
256,192,66456,1,0,0:0:0:0:
256,192,66606,1,0,0:0:0:0:
256,192,66756,1,0,0:0:0:0:
256,192,66906,1,8,0:0:0:0:
256,192,67206,1,0,0:0:0:0:
256,192,67356,1,0,0:0:0:0:
256,192,67506,1,8,0:0:0:0:
256,192,67656,1,0,0:0:0:0:
256,192,67806,1,8,0:0:0:0:
256,192,67881,1,8,0:0:0:0:
256,192,67956,1,0,0:0:0:0:
256,192,68031,1,0,0:0:0:0:
256,192,68106,1,8,0:0:0:0:
256,192,68181,1,0,0:0:0:0:
256,192,68256,1,8,0:0:0:0:
256,192,68331,1,8,0:0:0:0:
256,192,68406,1,0,0:0:0:0:
256,192,68556,1,0,0:0:0:0:
256,192,68706,1,8,0:0:0:0:
256,192,68856,1,8,0:0:0:0:
256,192,68931,1,0,0:0:0:0:
256,192,69006,1,8,0:0:0:0:
256,192,69156,1,0,0:0:0:0:
256,192,69306,1,8,0:0:0:0:
256,192,69456,1,0,0:0:0:0:
256,192,69606,1,8,0:0:0:0:
256,192,69756,1,8,0:0:0:0:
256,192,69906,1,0,0:0:0:0:
256,192,70056,1,0,0:0:0:0:
256,192,70131,1,0,0:0:0:0:
256,192,70206,1,8,0:0:0:0:
256,192,70281,1,8,0:0:0:0:
256,192,70356,1,0,0:0:0:0:
256,192,70431,1,0,0:0:0:0:
256,192,70506,1,8,0:0:0:0:
256,192,70581,1,8,0:0:0:0:
256,192,70656,1,0,0:0:0:0:
256,192,70731,1,0,0:0:0:0:
256,192,70806,1,8,0:0:0:0:
256,192,70956,1,0,0:0:0:0:
256,192,71106,1,8,0:0:0:0:
256,192,71256,1,8,0:0:0:0:
256,192,71406,1,0,0:0:0:0:
256,192,71556,1,0,0:0:0:0:
256,192,71631,1,0,0:0:0:0:
256,192,71706,1,8,0:0:0:0:
256,192,71781,1,8,0:0:0:0:
256,192,71856,1,0,0:0:0:0:
256,192,71931,1,0,0:0:0:0:
256,192,72006,1,8,0:0:0:0:
256,192,72156,1,8,0:0:0:0:
256,192,72306,1,8,0:0:0:0:
256,192,72456,1,0,0:0:0:0:
256,192,72606,1,8,0:0:0:0:
256,192,72681,1,8,0:0:0:0:
256,192,72756,1,0,0:0:0:0:
256,192,72831,1,0,0:0:0:0:
256,192,72906,1,8,0:0:0:0:
256,192,72981,1,0,0:0:0:0:
256,192,73056,1,8,0:0:0:0:
256,192,73131,1,8,0:0:0:0:
256,192,73206,1,0,0:0:0:0:
256,192,73356,1,8,0:0:0:0:
256,192,73506,1,0,0:0:0:0:
256,192,73656,1,8,0:0:0:0:
256,192,73706,1,8,0:0:0:0:
256,192,73806,1,8,0:0:0:0:
256,192,73856,1,8,0:0:0:0:
256,192,73956,1,8,0:0:0:0:
256,192,74006,1,8,0:0:0:0:
256,192,74106,1,8,0:0:0:0:
256,192,74156,1,8,0:0:0:0:
256,192,74256,1,0,0:0:0:0:
256,192,74306,1,0,0:0:0:0:
256,192,74406,1,8,0:0:0:0:
256,192,74456,1,8,0:0:0:0:
256,192,74556,1,8,0:0:0:0:
256,192,74606,1,8,0:0:0:0:
256,192,74706,1,8,0:0:0:0:
256,192,74756,1,8,0:0:0:0:
256,192,74856,1,0,0:0:0:0:
256,192,74906,1,0,0:0:0:0:
256,192,75006,1,8,0:0:0:0:
256,192,75156,1,0,0:0:0:0:
256,192,75306,1,8,0:0:0:0:
256,192,75381,1,0,0:0:0:0:
256,192,75456,1,8,0:0:0:0:
256,192,75531,1,8,0:0:0:0:
256,192,75606,1,0,0:0:0:0:
256,192,75756,1,8,0:0:0:0:
256,192,75906,1,0,0:0:0:0:
256,192,76056,1,8,0:0:0:0:
256,192,76106,1,8,0:0:0:0:
256,192,76206,1,8,0:0:0:0:
256,192,76256,1,8,0:0:0:0:
256,192,76356,1,0,0:0:0:0:
256,192,76406,1,0,0:0:0:0:
256,192,76506,1,8,0:0:0:0:
256,192,76556,1,8,0:0:0:0:
256,192,76656,1,0,0:0:0:0:
256,192,76706,1,0,0:0:0:0:
256,192,76806,1,8,0:0:0:0:
256,192,76856,1,8,0:0:0:0:
256,192,76956,1,0,0:0:0:0:
256,192,77006,1,0,0:0:0:0:
256,192,77106,1,8,0:0:0:0:
256,192,77156,1,8,0:0:0:0:
256,192,77256,1,0,0:0:0:0:
256,192,77306,1,0,0:0:0:0:
256,192,77406,1,8,0:0:0:0:
256,192,77556,1,0,0:0:0:0:
256,192,77631,1,0,0:0:0:0:
256,192,77706,1,8,0:0:0:0:
256,192,77856,1,8,0:0:0:0:
256,192,78006,1,0,0:0:0:0:
256,192,78156,1,8,0:0:0:0:
256,192,78306,1,0,0:0:0:0:
256,192,78456,1,8,0:0:0:0:
256,192,78506,1,8,0:0:0:0:
256,192,78606,1,8,0:0:0:0:
256,192,78656,1,8,0:0:0:0:
256,192,78756,1,0,0:0:0:0:
256,192,78806,1,0,0:0:0:0:
256,192,78906,1,8,0:0:0:0:
256,192,78956,1,8,0:0:0:0:
256,192,79056,1,8,0:0:0:0:
256,192,79106,1,8,0:0:0:0:
256,192,79206,1,0,0:0:0:0:
256,192,79256,1,0,0:0:0:0:
256,192,79356,1,8,0:0:0:0:
256,192,79406,1,8,0:0:0:0:
256,192,79506,1,0,0:0:0:0:
256,192,79556,1,0,0:0:0:0:
256,192,79656,1,0,0:0:0:0:
256,192,79706,1,0,0:0:0:0:
256,192,79806,1,8,0:0:0:0:
256,192,79956,1,0,0:0:0:0:
256,192,80031,1,0,0:0:0:0:
256,192,80106,1,8,0:0:0:0:
256,192,80181,1,0,0:0:0:0:
256,192,80256,1,8,0:0:0:0:
256,192,80331,1,8,0:0:0:0:
256,192,80406,1,0,0:0:0:0:
256,192,80556,1,0,0:0:0:0:
256,192,80706,1,8,0:0:0:0:
256,192,80856,1,8,0:0:0:0:
256,192,80906,1,8,0:0:0:0:
256,192,81006,1,8,0:0:0:0:
256,192,81056,1,8,0:0:0:0:
256,192,81156,1,0,0:0:0:0:
256,192,81206,1,0,0:0:0:0:
256,192,81306,1,8,0:0:0:0:
256,192,81356,1,8,0:0:0:0:
256,192,81456,1,8,0:0:0:0:
256,192,81506,1,8,0:0:0:0:
256,192,81606,1,0,0:0:0:0:
256,192,81656,1,0,0:0:0:0:
256,192,81756,1,8,0:0:0:0:
256,192,81806,1,8,0:0:0:0:
256,192,81906,1,8,0:0:0:0:
256,192,81956,1,8,0:0:0:0:
256,192,82056,1,0,0:0:0:0:
256,192,82106,1,0,0:0:0:0:
256,192,82206,1,8,0:0:0:0:
256,192,82356,1,0,0:0:0:0:
256,192,82431,1,0,0:0:0:0:
256,192,82506,1,8,0:0:0:0:
256,192,82581,1,8,0:0:0:0:
256,192,82656,1,0,0:0:0:0:
256,192,82731,1,0,0:0:0:0:
256,192,82806,1,8,0:0:0:0:
256,192,82956,1,8,0:0:0:0:
256,192,83106,1,0,0:0:0:0:
256,192,83256,1,8,0:0:0:0:
256,192,83406,1,0,0:0:0:0:
256,192,83556,1,0,0:0:0:0:
256,192,83631,1,0,0:0:0:0:
256,192,83706,1,8,0:0:0:0:
256,192,83856,1,8,0:0:0:0:
256,192,84006,1,0,0:0:0:0:
256,192,84156,1,0,0:0:0:0:
256,192,84306,1,8,0:0:0:0:
256,192,84456,1,0,0:0:0:0:
256,192,84606,1,8,0:0:0:0:
256,192,84756,1,0,0:0:0:0:
256,192,84831,1,0,0:0:0:0:
256,192,84906,1,8,0:0:0:0:
256,192,84981,1,8,0:0:0:0:
256,192,85056,1,0,0:0:0:0:
256,192,85131,1,0,0:0:0:0:
256,192,85206,1,8,0:0:0:0:
256,192,85356,1,0,0:0:0:0:
256,192,85431,1,0,0:0:0:0:
256,192,85506,1,8,0:0:0:0:
256,192,85656,1,0,0:0:0:0:
256,192,85731,1,0,0:0:0:0:
256,192,85806,1,8,0:0:0:0:
256,192,85881,1,8,0:0:0:0:
256,192,85956,1,0,0:0:0:0:
256,192,86106,1,8,0:0:0:0:
256,192,86256,1,0,0:0:0:0:
256,192,86331,1,0,0:0:0:0:
256,192,86406,1,8,0:0:0:0:
256,192,86556,1,0,0:0:0:0:
256,192,86706,1,8,0:0:0:0:
256,192,86781,1,8,0:0:0:0:
256,192,86856,1,0,0:0:0:0:
256,192,86931,1,0,0:0:0:0:
256,192,87006,1,8,0:0:0:0:
256,192,87156,1,0,0:0:0:0:
256,192,87306,1,8,0:0:0:0:
256,192,87381,1,0,0:0:0:0:
256,192,87456,1,8,0:0:0:0:
256,192,87531,1,8,0:0:0:0:
256,192,87606,1,0,0:0:0:0:
256,192,87756,1,0,0:0:0:0:
256,192,87906,1,8,0:0:0:0:
256,192,88056,1,0,0:0:0:0:
256,192,88131,1,0,0:0:0:0:
256,192,88206,1,8,0:0:0:0:
256,192,88281,1,8,0:0:0:0:
256,192,88356,1,0,0:0:0:0:
256,192,88431,1,0,0:0:0:0:
256,192,88506,1,8,0:0:0:0:
256,192,88656,1,0,0:0:0:0:
256,192,88806,1,8,0:0:0:0:
256,192,88881,1,8,0:0:0:0:
256,192,88956,1,0,0:0:0:0:
256,192,89031,1,0,0:0:0:0:
256,192,89106,1,8,0:0:0:0:
256,192,89181,1,8,0:0:0:0:
256,192,89256,1,0,0:0:0:0:
256,192,89406,1,8,0:0:0:0:
256,192,89556,1,8,0:0:0:0:
256,192,89706,1,0,0:0:0:0:
256,192,89856,1,8,0:0:0:0:
256,192,90006,1,0,0:0:0:0:
256,192,90156,1,0,0:0:0:0:
256,192,90231,1,0,0:0:0:0:
256,192,90306,1,8,0:0:0:0:
256,192,90381,1,8,0:0:0:0:
256,192,90456,1,0,0:0:0:0:
256,192,90606,1,8,0:0:0:0:
256,192,90681,1,8,0:0:0:0:
256,192,90756,1,0,0:0:0:0:
256,192,90831,1,0,0:0:0:0:
256,192,90906,1,8,0:0:0:0:
256,192,91056,1,0,0:0:0:0:
256,192,91206,1,8,0:0:0:0:
256,192,91281,1,8,0:0:0:0:
256,192,91356,1,0,0:0:0:0:
256,192,91431,1,0,0:0:0:0:
256,192,91506,1,8,0:0:0:0:
256,192,91581,1,8,0:0:0:0:
256,192,91656,1,0,0:0:0:0:
256,192,91731,1,0,0:0:0:0:
256,192,91806,1,8,0:0:0:0:
256,192,91956,1,0,0:0:0:0:
256,192,92031,1,0,0:0:0:0:
256,192,92106,1,8,0:0:0:0:
256,192,92181,1,0,0:0:0:0:
256,192,92256,1,8,0:0:0:0:
256,192,92331,1,8,0:0:0:0:
256,192,92406,1,0,0:0:0:0:
256,192,92556,1,0,0:0:0:0:
256,192,92631,1,0,0:0:0:0:
256,192,92706,1,8,0:0:0:0:
256,192,92856,1,0,0:0:0:0:
256,192,93006,1,8,0:0:0:0:
256,192,93081,1,8,0:0:0:0:
256,192,93156,1,0,0:0:0:0:
256,192,93231,1,0,0:0:0:0:
256,192,93306,1,8,0:0:0:0:
256,192,93381,1,8,0:0:0:0:
256,192,93456,1,0,0:0:0:0:
256,192,93531,1,0,0:0:0:0:
256,192,93606,1,8,0:0:0:0:
256,192,93681,1,8,0:0:0:0:
256,192,93756,1,0,0:0:0:0:
256,192,93831,1,0,0:0:0:0:
256,192,93906,1,8,0:0:0:0:
256,192,94056,1,8,0:0:0:0:
256,192,94206,1,0,0:0:0:0:
256,192,94281,1,0,0:0:0:0:
256,192,94356,1,8,0:0:0:0:
256,192,94431,1,8,0:0:0:0:
256,192,94506,1,0,0:0:0:0:
256,192,94581,1,0,0:0:0:0:
256,192,94656,1,8,0:0:0:0:
256,192,94806,1,0,0:0:0:0:
256,192,94956,1,0,0:0:0:0:
256,192,95106,1,8,0:0:0:0:
256,192,95181,1,8,0:0:0:0:
256,192,95256,1,0,0:0:0:0:
256,192,95331,1,0,0:0:0:0:
256,192,95406,1,8,0:0:0:0:
256,192,95556,1,0,0:0:0:0:
256,192,95631,1,0,0:0:0:0:
256,192,95706,1,8,0:0:0:0:
256,192,95781,1,8,0:0:0:0:
256,192,95856,1,0,0:0:0:0:
256,192,96006,1,8,0:0:0:0:
256,192,96156,1,0,0:0:0:0:
256,192,96306,1,8,0:0:0:0:
256,192,96381,1,8,0:0:0:0:
256,192,96456,1,0,0:0:0:0:
256,192,96531,1,0,0:0:0:0:
256,192,96606,1,8,0:0:0:0:
256,192,96681,1,8,0:0:0:0:
256,192,96756,1,0,0:0:0:0:
256,192,96831,1,0,0:0:0:0:
256,192,96906,1,8,0:0:0:0:
256,192,96981,1,0,0:0:0:0:
256,192,97056,1,8,0:0:0:0:
256,192,97131,1,8,0:0:0:0:
256,192,97206,1,0,0:0:0:0:
256,192,97356,1,0,0:0:0:0:
256,192,97506,1,8,0:0:0:0:
256,192,97581,1,8,0:0:0:0:
256,192,97656,1,0,0:0:0:0:
256,192,97731,1,0,0:0:0:0:
256,192,97806,1,8,0:0:0:0:
256,192,97881,1,8,0:0:0:0:
256,192,97956,1,0,0:0:0:0:
256,192,98031,1,0,0:0:0:0:
256,192,98106,1,8,0:0:0:0:
256,192,98256,1,0,0:0:0:0:
256,192,98331,1,0,0:0:0:0:
256,192,98406,1,8,0:0:0:0:
256,192,98556,1,0,0:0:0:0:
256,192,98631,1,0,0:0:0:0:
256,192,98706,1,8,0:0:0:0:
256,192,98781,1,8,0:0:0:0:
256,192,98856,1,0,0:0:0:0:
256,192,98931,1,0,0:0:0:0:
256,192,99006,1,8,0:0:0:0:
256,192,99081,1,8,0:0:0:0:
256,192,99156,1,0,0:0:0:0:
256,192,99306,1,8,0:0:0:0:
256,192,99456,1,8,0:0:0:0:
256,192,99606,1,0,0:0:0:0:
256,192,99756,1,0,0:0:0:0:
256,192,99831,1,0,0:0:0:0:
256,192,99906,1,8,0:0:0:0:
256,192,99981,1,8,0:0:0:0:
256,192,100056,1,0,0:0:0:0:
256,192,100131,1,0,0:0:0:0:
256,192,100206,1,8,0:0:0:0:
256,192,100281,1,8,0:0:0:0:
256,192,100356,1,0,0:0:0:0:
256,192,100431,1,0,0:0:0:0:
256,192,100506,1,8,0:0:0:0:
256,192,100581,1,8,0:0:0:0:
256,192,100656,1,0,0:0:0:0:
256,192,100731,1,0,0:0:0:0:
256,192,100806,1,8,0:0:0:0:
256,192,100881,1,8,0:0:0:0:
256,192,100956,1,0,0:0:0:0:
256,192,101031,1,0,0:0:0:0:
256,192,101106,1,8,0:0:0:0:
256,192,101181,1,8,0:0:0:0:
256,192,101256,1,0,0:0:0:0:
256,192,101331,1,0,0:0:0:0:
256,192,101406,1,8,0:0:0:0:
256,192,101481,1,8,0:0:0:0:
256,192,101556,1,0,0:0:0:0:
256,192,101631,1,0,0:0:0:0:
256,192,101706,1,8,0:0:0:0:
256,192,101781,1,0,0:0:0:0:
256,192,101856,1,8,0:0:0:0:
256,192,101931,1,8,0:0:0:0:
256,192,102006,1,0,0:0:0:0:
256,192,102156,1,0,0:0:0:0:
256,192,102306,1,8,0:0:0:0:
256,192,102456,1,0,0:0:0:0:
256,192,102606,1,8,0:0:0:0:
256,192,102756,1,0,0:0:0:0:
256,192,102906,1,8,0:0:0:0:
256,192,103056,1,0,0:0:0:0:
256,192,103206,1,8,0:0:0:0:
256,192,103356,1,8,0:0:0:0:
256,192,103656,1,0,0:0:0:0:
256,192,103806,1,8,0:0:0:0:
256,192,103881,1,8,0:0:0:0:
256,192,103956,1,0,0:0:0:0:
256,192,104031,1,0,0:0:0:0:
256,192,104106,1,8,0:0:0:0:
256,192,104181,1,8,0:0:0:0:
256,192,104256,1,0,0:0:0:0:
256,192,104331,1,0,0:0:0:0:
256,192,104406,1,8,0:0:0:0:
256,192,104556,1,0,0:0:0:0:
256,192,104706,1,8,0:0:0:0:
256,192,104856,1,0,0:0:0:0:
256,192,105006,1,8,0:0:0:0:
256,192,105081,1,8,0:0:0:0:
256,192,105156,1,8,0:0:0:0:
256,192,105231,1,0,0:0:0:0:
256,192,105306,1,8,0:0:0:0:
256,192,105381,1,8,0:0:0:0:
256,192,105456,1,8,0:0:0:0:
256,192,105531,1,0,0:0:0:0:
256,192,105606,1,8,0:0:0:0:
256,192,105756,1,0,0:0:0:0:
256,192,105906,1,8,0:0:0:0:
256,192,106056,1,0,0:0:0:0:
256,192,106131,1,0,0:0:0:0:
256,192,106206,1,8,0:0:0:0:
256,192,106281,1,8,0:0:0:0:
256,192,106356,1,0,0:0:0:0:
256,192,106431,1,0,0:0:0:0:
256,192,106506,1,8,0:0:0:0:
256,192,106656,1,8,0:0:0:0:
256,192,106731,1,8,0:0:0:0:
256,192,106806,1,0,0:0:0:0:
256,192,106956,1,0,0:0:0:0:
256,192,107106,1,8,0:0:0:0:
256,192,107256,1,0,0:0:0:0:
256,192,107331,1,0,0:0:0:0:
256,192,107406,1,8,0:0:0:0:
256,192,107481,1,8,0:0:0:0:
256,192,107556,1,8,0:0:0:0:
256,192,107631,1,0,0:0:0:0:
256,192,107706,1,8,0:0:0:0:
256,192,107781,1,8,0:0:0:0:
256,192,107856,1,8,0:0:0:0:
256,192,107931,1,0,0:0:0:0:
256,192,108006,1,8,0:0:0:0:
256,192,108156,1,0,0:0:0:0:
256,192,108306,1,8,0:0:0:0:
256,192,108456,1,0,0:0:0:0:
256,192,108506,1,0,0:0:0:0:
256,192,108556,1,0,0:0:0:0:
256,192,108606,1,8,0:0:0:0:
256,192,108681,1,8,0:0:0:0:
256,192,108756,1,8,0:0:0:0:
256,192,108831,1,0,0:0:0:0:
256,192,108906,1,8,0:0:0:0:
256,192,108981,1,8,0:0:0:0:
256,192,109056,1,0,0:0:0:0:
256,192,109206,1,8,0:0:0:0:
256,192,109281,1,8,0:0:0:0:
256,192,109356,1,0,0:0:0:0:
256,192,109431,1,0,0:0:0:0:
256,192,109506,1,8,0:0:0:0:
256,192,109581,1,8,0:0:0:0:
256,192,109656,1,0,0:0:0:0:
256,192,109731,1,0,0:0:0:0:
256,192,109806,1,8,0:0:0:0:
256,192,109881,1,8,0:0:0:0:
256,192,109956,1,8,0:0:0:0:
256,192,110031,1,8,0:0:0:0:
256,192,110106,1,8,0:0:0:0:
256,192,110181,1,8,0:0:0:0:
256,192,110256,1,0,0:0:0:0:
256,192,110331,1,0,0:0:0:0:
256,192,110406,1,8,0:0:0:0:
256,192,110481,1,8,0:0:0:0:
256,192,110556,1,0,0:0:0:0:
256,192,110631,1,0,0:0:0:0:
256,192,110706,1,8,0:0:0:0:
256,192,110781,1,8,0:0:0:0:
256,192,110856,1,0,0:0:0:0:
256,192,110931,1,0,0:0:0:0:
256,192,111006,1,8,0:0:0:0:
256,192,111081,1,8,0:0:0:0:
256,192,111156,1,8,0:0:0:0:
256,192,111231,1,8,0:0:0:0:
256,192,111306,1,8,0:0:0:0:
256,192,111381,1,8,0:0:0:0:
256,192,111456,1,0,0:0:0:0:
256,192,111531,1,0,0:0:0:0:
256,192,111606,5,8,0:0:0:0:
256,192,111656,1,0,0:0:0:0:
256,192,111706,1,0,0:0:0:0:
256,192,111756,1,0,0:0:0:0:
256,192,111806,1,0,0:0:0:0:
256,192,111856,1,0,0:0:0:0:
256,192,111906,1,0,0:0:0:0:
256,192,111956,1,0,0:0:0:0:
256,192,112006,1,0,0:0:0:0:
256,192,112056,1,0,0:0:0:0:
256,192,112106,1,0,0:0:0:0:
256,192,112156,1,0,0:0:0:0:
256,192,112206,1,8,0:0:0:0:
256,192,112256,1,0,0:0:0:0:
256,192,112306,1,0,0:0:0:0:
256,192,112356,1,0,0:0:0:0:
256,192,112406,1,0,0:0:0:0:
256,192,112456,1,0,0:0:0:0:
256,192,112506,1,0,0:0:0:0:
256,192,112556,1,0,0:0:0:0:
256,192,112606,1,0,0:0:0:0:
256,192,112656,1,0,0:0:0:0:
256,192,112706,1,0,0:0:0:0:
256,192,112756,1,0,0:0:0:0:
256,192,112806,1,8,0:0:0:0:
256,192,113106,1,0,0:0:0:0:
256,192,113406,1,8,0:0:0:0:
256,192,114006,1,12,0:0:0:0:
256,192,114456,1,0,0:0:0:0:
256,192,114531,1,8,0:0:0:0:
256,192,114606,1,0,0:0:0:0:
256,192,114756,1,0,0:0:0:0:
256,192,114906,1,8,0:0:0:0:
256,192,115056,1,0,0:0:0:0:
256,192,115206,1,8,0:0:0:0:
256,192,115506,1,8,0:0:0:0:
256,192,115656,1,8,0:0:0:0:
256,192,115806,1,0,0:0:0:0:
256,192,116106,1,0,0:0:0:0:
256,192,116181,1,0,0:0:0:0:
256,192,116256,1,0,0:0:0:0:
256,192,116331,1,0,0:0:0:0:
256,192,116406,1,12,0:0:0:0:
256,192,116556,1,0,0:0:0:0:
256,192,116706,1,0,0:0:0:0:
256,192,116856,1,8,0:0:0:0:
256,192,117006,1,4,0:0:0:0:
256,192,117306,1,12,0:0:0:0:
256,192,117606,8,0,121206,0:0:0:0:
