osu file format v14

[General]
AudioFilename: audio.mp3
AudioLeadIn: 0
PreviewTime: 0
Countdown: 0
SampleSet: Normal
StackLeniency: 0.7
Mode: 1
LetterboxInBreaks: 0
WidescreenStoryboard: 1

[Editor]
DistanceSpacing: 0.7
BeatDivisor: 1
GridSize: 32
TimelineZoom: 0.1

[Metadata]
Title:PEPPY FIX TAIKO STAR RATING PLEASE for a happier
TitleUnicode:PEPPY FIX TAIKO STAR RATING PLEASE for a happier
Artist:Various Artists
ArtistUnicode:Various Artists
Creator:ARGENTINE DREAM
Version:-GN Jr.'s Extremely Kantan
Source:
Tags:kasai harcores esti round wave crusher d abe3 slash dot dash cycle hit helix maniera axer backfire hikikochan hikiko- _yu68 surono alchyr nifty brames consified lno skull kid skid brasil luckysonicghz kqrth trapmaniac agu ppus zigizigiefe nwolf -kazu- idealism babysnakes astolfo vrnl yea jarvisgaming chichinya poii hirok _dusk_ nishizumi ulqui coryn faputa rhytoly dudetm meovvcat jhowm gaston_2199 kbludoh blackener mtdex kuron kuron-kun tyistiana xtrem3x ghm12 davidminh0111 -gn junior aspirin whats skill metalstream whosthebox grimbow duski ozzyozrock foxerus endymion vulkin taiko pp compilation
BeatmapID:1742544
BeatmapSetID:794048

[Difficulty]
HPDrainRate:9.5
CircleSize:7
OverallDifficulty:0.5
ApproachRate:10
SliderMultiplier:0.400000005960464
SliderTickRate:1

[Events]
//Background and Video events
0,0,"pipifarm.jpg",0,0
//Break Periods
2,29006,33156
//Storyboard Layer 0 (Background)
//Storyboard Layer 1 (Fail)
//Storyboard Layer 2 (Pass)
//Storyboard Layer 3 (Foreground)
//Storyboard Sound Samples

[TimingPoints]
6,300,4,1,0,80,1,0
6,-151.515151515152,4,1,0,80,0,0
44406,-151.515151515152,4,1,0,80,0,1
52806,-151.515151515152,4,1,0,80,0,0
54006,-151.515151515152,4,1,0,80,0,1
63606,-151.515151515152,4,1,0,80,0,0
73206,-151.515151515152,4,1,0,80,0,1
102006,-151.515151515152,4,1,0,80,0,0
104406,-151.515151515152,4,1,0,80,0,1
114006,-151.515151515152,4,1,0,80,0,0
117906,-151.515151515152,4,1,0,20,0,0

[HitObjects]
256,192,9606,5,4,0:0:0:0:
256,192,12006,1,8,0:0:0:0:
256,192,14406,1,0,0:0:0:0:
256,192,15606,1,0,0:0:0:0:
256,192,16806,1,8,0:0:0:0:
256,192,19206,1,4,0:0:0:0:
256,192,21606,1,8,0:0:0:0:
256,192,24006,1,4,0:0:0:0:
256,192,26406,1,8,0:0:0:0:
256,192,27606,1,8,0:0:0:0:
256,192,28806,1,4,0:0:0:0:
256,192,33606,5,8,0:0:0:0:
256,192,36006,1,0,0:0:0:0:
256,192,37206,1,8,0:0:0:0:
256,192,38406,5,0,0:0:0:0:
256,192,40806,1,0,0:0:0:0:
256,192,43206,5,8,0:0:0:0:
256,192,44406,5,4,0:0:0:0:
256,192,46806,1,8,0:0:0:0:
256,192,48006,1,0,0:0:0:0:
256,192,49206,1,8,0:0:0:0:
256,192,51606,1,0,0:0:0:0:
256,192,52806,1,8,0:0:0:0:
256,192,54006,1,4,0:0:0:0:
256,192,56406,1,8,0:0:0:0:
256,192,58806,1,8,0:0:0:0:
256,192,60006,1,0,0:0:0:0:
256,192,61206,1,8,0:0:0:0:
256,192,63606,1,4,0:0:0:0:
256,192,66006,1,8,0:0:0:0:
256,192,67206,1,0,0:0:0:0:
256,192,68406,1,8,0:0:0:0:
256,192,70806,1,8,0:0:0:0:
256,192,73206,5,4,0:0:0:0:
256,192,74406,1,8,0:0:0:0:
256,192,75606,1,8,0:0:0:0:
256,192,78006,1,8,0:0:0:0:
256,192,79206,1,0,0:0:0:0:
256,192,80406,1,8,0:0:0:0:
256,192,82806,1,12,0:0:0:0:
256,192,84006,1,8,0:0:0:0:
256,192,85206,1,4,0:0:0:0:
256,192,87606,1,8,0:0:0:0:
256,192,90006,1,0,0:0:0:0:
256,192,92406,1,8,0:0:0:0:
256,192,93606,1,8,0:0:0:0:
256,192,94806,1,4,0:0:0:0:
256,192,97206,1,8,0:0:0:0:
256,192,99606,1,0,0:0:0:0:
256,192,102006,1,0,0:0:0:0:
256,192,103206,1,0,0:0:0:0:
256,192,104406,1,12,0:0:0:0:
256,192,106806,1,8,0:0:0:0:
256,192,108006,1,8,0:0:0:0:
256,192,109206,1,8,0:0:0:0:
256,192,111606,1,8,0:0:0:0:
256,192,112806,1,8,0:0:0:0:
256,192,114006,1,12,0:0:0:0:
256,192,116406,12,12,117606,0:0:0:0:
