osu file format v14

[General]
AudioFilename: audio.mp3
AudioLeadIn: 0
PreviewTime: 56116
Countdown: 0
SampleSet: Soft
StackLeniency: 0.7
Mode: 0
LetterboxInBreaks: 0
EpilepsyWarning: 1
WidescreenStoryboard: 1

[Editor]
Bookmarks: 4280,53259,82851
DistanceSpacing: 1.4
BeatDivisor: 4
GridSize: 4
TimelineZoom: 1.7

[Metadata]
Title:Otona Break Out
TitleUnicode:オ・ト・ナ BREAKOUT
Artist:Various Artists
ArtistUnicode:Various Artists
Creator:Amamiya Kanade
Version:Hard
Source:BROTHERS CONFLICT
Tags:興津和幸 平川大輔 諏訪部順一 岡本信彦 鈴村健一 鳥海浩輔 前野智昭 Okitsu Kazuyuki Hirakawa Daisuke Suwabe Junichi Nobuhiko Okamoto Suzumura Kenichi Toriumi Kohsuke Maeno Tomoaki Sandrew Suzuki_1112 1112deng Sun Rainbow
BeatmapID:1389212
BeatmapSetID:646943

[Difficulty]
HPDrainRate:5
CircleSize:3.6
OverallDifficulty:6
ApproachRate:7
SliderMultiplier:1.4
SliderTickRate:1

[Events]
//Background and Video events
0,0,"7e5feb1b9d16fdfa42475723b58f8c5495ee7b01.jpg",0,0
//Break Periods
//Storyboard Layer 0 (Background)
//Storyboard Layer 1 (Fail)
//Storyboard Layer 2 (Pass)
//Storyboard Layer 3 (Foreground)
//Storyboard Layer 4 (Overlay)
//Storyboard Sound Samples

[TimingPoints]
1219,408.163265306122,4,2,1,80,1,0
1219,-100,4,2,1,80,0,0
14280,-100,4,3,0,80,0,0
14382,-100,4,3,0,5,0,0
14688,-100,4,3,0,80,0,0
14790,-100,4,3,0,5,0,0
15096,-100,4,3,0,80,0,0
15198,-100,4,3,0,5,0,0
15300,-100,4,3,0,80,0,0
15402,-100,4,3,0,5,0,0
15504,-100,4,3,0,80,0,0
15606,-100,4,3,0,5,0,0
15708,-100,4,3,0,80,0,0
15810,-100,4,3,0,5,0,0
15912,-100,4,2,1,80,0,0
56729,-100,4,2,1,80,0,1
69178,-100,4,2,1,80,0,0
69790,-100,4,2,1,80,0,1
81218,-153.846153846153,4,2,1,80,0,1
82851,-100,4,2,1,80,0,0
82953,-100,4,2,1,5,0,0

[Colours]
Combo1 : 255,185,255
Combo2 : 128,255,255
Combo3 : 18,124,255
Combo4 : 192,192,192

[HitObjects]
192,151,1219,6,0,P|232:155|276:143,2,70,4|0|2,1:2|0:0|0:0,0:0:0:0:
100,127,1831,1,0,0:0:0:0:
100,127,2035,2,0,L|100:215,1,70,0|0,0:0|0:0,0:0:0:0:
104,295,2443,2,0,P|168:291|204:303,1,70,2|0,0:0|0:0,0:0:0:0:
272,303,2851,2,0,P|268:343|276:383,2,70,0|0|2,0:0|0:0|0:0,0:0:0:0:
320,219,3463,1,0,0:0:0:0:
416,239,3667,2,0,L|421:169,1,70,0|0,0:0|0:0,0:0:0:0:
325,149,4076,2,0,L|319:218,1,70,2|0,0:0|1:0,0:0:0:0:
224,191,4484,6,0,P|176:191|128:195,1,70,4|0,1:2|0:0,0:0:0:0:
119,197,4790,1,0,0:0:0:0:
84,196,4892,2,0,P|92:260|76:288,1,70,2|0,0:0|0:0,0:0:0:0:
112,359,5300,2,0,L|200:355,1,70,0|0,0:0|0:0,0:0:0:0:
280,339,5708,2,0,L|349:342,1,70,2|0,0:0|0:0,0:0:0:0:
442,309,6116,2,0,L|439:379,2,70,4|0|0,1:2|1:0|1:0,0:0:0:0:
455,211,6729,1,0,1:0:0:0:
383,143,6933,2,0,L|343:147,3,35,0|0|0|0,1:0|0:0|0:0|1:0,0:0:0:0:
299,138,7341,2,0,L|259:134,3,35,8|0|0|0,1:0|0:0|1:0|0:0,0:0:0:0:
215,139,7749,6,0,P|223:211|199:279,1,140,4|8,1:2|0:0,0:0:0:0:
140,351,8361,1,0,0:0:0:0:
234,375,8565,2,0,L|322:371,1,70,2|0,1:0|0:0,0:0:0:0:
312,273,8974,2,0,L|381:276,1,70,8|0,0:0|0:0,0:0:0:0:
471,315,9382,2,0,P|459:243|471:155,1,140,2|8,1:0|0:0,0:0:0:0:
475,86,9994,1,2,0:0:0:0:
475,86,10096,1,2,0:0:0:0:
475,86,10198,2,0,B|423:80|423:80|389:93|389:93|310:84,1,140,2|8,1:0|0:0,0:0:0:0:
241,98,10810,1,0,0:0:0:0:
143,102,11014,6,0,P|91:102|55:122,2,70,2|0|8,1:0|0:0|0:0,0:0:0:0:
198,194,11627,1,2,0:0:0:0:
198,194,11729,1,0,0:0:0:0:
198,194,11831,2,0,P|246:198|278:190,2,70,2|2|8,1:0|0:0|0:0,0:0:0:0:
121,255,12443,1,2,0:0:0:0:
40,203,12647,2,0,P|44:159|24:107,1,70,4|2,1:2|0:0,0:0:0:0:
35,99,12953,1,0,0:0:0:0:
69,97,13055,2,0,P|113:101|165:81,1,70,8|2,0:0|0:0,0:0:0:0:
235,92,13463,2,0,L|239:132,3,35,2|0|8|0,0:1|0:0|0:0|0:0,0:0:0:0:
215,170,13872,2,0,L|211:210,3,35,8|8|8|8,0:3|0:3|0:3|0:3,0:0:0:0:
221,253,14280,5,2,0:0:0:0:
313,293,14688,5,2,0:0:0:0:
410,293,15096,5,2,0:0:0:0:
461,209,15300,1,2,0:0:0:0:
401,133,15504,1,2,0:0:0:0:
449,49,15708,1,2,0:0:0:0:
353,49,15912,6,0,P|317:53|257:41,1,70,4|0,1:2|0:0,0:0:0:0:
185,57,16321,2,0,L|185:127,1,70,2|0,0:1|0:0,0:0:0:0:
89,113,16729,2,0,L|89:183,2,70,2|0|2,0:1|0:0|0:1,0:0:0:0:
6,165,17341,2,0,P|18:237|102:269,1,140
169,273,17953,2,0,L|245:273,1,70,2|0,0:1|0:0,0:0:0:0:
336,267,18361,2,0,P|336:327|344:359,2,70,2|0|2,0:1|0:0|0:1,0:0:0:0:
300,167,18974,1,0,0:1:0:0:
357,88,19178,5,2,0:0:0:0:
300,9,19382,1,0,0:0:0:0:
206,39,19586,1,2,0:1:0:0:
206,137,19790,1,0,0:0:0:0:
166,226,19994,2,0,P|96:224|80:212,1,70,2|0,0:1|0:0,0:0:0:0:
1,241,20402,2,0,L|1:333,1,70,2|0,0:1|0:0,0:0:0:0:
83,363,20810,1,2,0:1:0:0:
179,382,21014,2,0,P|184:347|176:314,2,70,2|2|2,0:0|0:1|0:0,0:0:0:0:
270,346,21627,2,0,P|346:342|394:354,1,105,2|2,0:1|0:1,0:0:0:0:
422,339,22035,2,0,L|422:255,1,70,2|2,0:1|0:1,0:0:0:0:
388,175,22443,6,0,P|380:119|396:59,1,105,6|0,0:1|0:0,0:0:0:0:
424,39,22851,2,0,P|388:31|340:43,1,70,2|0,0:1|0:0,0:0:0:0:
264,71,23259,2,0,L|180:71,2,70,2|0|2,0:1|0:0|0:1,0:0:0:0:
232,163,23872,1,0,0:0:0:0:
136,163,24076,2,0,P|136:235|120:283,1,105,2|0,0:1|0:0,0:0:0:0:
104,307,24484,2,0,P|156:303|200:311,1,70,2|0,0:1|0:0,0:0:0:0:
272,315,24892,2,0,L|272:235,1,70,2|0,0:1|0:0,0:0:0:0:
368,227,25300,2,0,L|368:297,1,70,2|0,0:1|0:0,0:0:0:0:
459,261,25708,6,0,P|449:209|465:166,1,70,2|0,0:1|0:0,0:0:0:0:
472,164,26014,1,0,0:0:0:0:
445,141,26116,2,0,P|411:154|361:141,1,70,2|2,0:1|0:0,0:0:0:0:
292,101,26525,2,0,P|244:97|204:105,1,70,2|2,0:1|0:0,0:0:0:0:
124,108,26933,2,0,L|124:192,1,70,2|2,0:1|0:0,0:0:0:0:
139,274,27341,2,0,B|174:269|202:284|202:284|237:305|278:297,1,140
371,303,27953,1,2,0:0:0:0:
371,303,28055,1,0,0:0:0:0:
371,303,28157,2,0,P|379:247|355:187,1,105,2|2,0:1|1:0,0:0:0:0:
339,177,28565,2,0,L|259:177,1,70,2|2,1:0|1:0,0:0:0:0:
176,210,28974,6,0,P|180:262|168:294,1,70,4|0,1:2|0:0,0:0:0:0:
85,318,29382,2,0,P|80:284|85:248,1,70,8|0,0:0|0:0,0:0:0:0:
82,150,29790,2,0,L|10:146,2,70,2|2|8,1:0|0:0|0:0,0:0:0:0:
165,93,30402,2,0,P|244:80|320:112,1,140,2|0,0:0|0:0,0:0:0:0:
332,190,31014,2,0,L|336:274,1,70,8|0,0:0|0:0,0:0:0:0:
245,299,31423,2,0,L|242:219,2,70,2|0|8,1:0|0:0|0:0,0:0:0:0:
326,352,32035,1,0,0:0:0:0:
415,309,32239,6,0,P|427:260|414:230,1,70,2|0,1:0|0:0,0:0:0:0:
454,150,32647,2,0,P|419:156|386:147,1,70,8|0,0:0|0:0,0:0:0:0:
289,134,33055,2,0,L|209:134,2,70,2|0|8,1:0|0:0|0:0,0:0:0:0:
343,52,33667,2,0,P|307:40|251:44,1,70,0|2,0:0|1:0,0:0:0:0:
175,44,34076,1,2,0:0:0:0:
123,128,34280,1,8,0:0:0:0:
180,206,34484,1,2,0:0:0:0:
276,221,34688,2,0,P|276:265|308:309,1,70,2|0,1:0|0:0,0:0:0:0:
331,307,34994,1,0,0:0:0:0:
380,298,35096,2,0,L|380:228,1,70,8|2,0:0|1:0,0:0:0:0:
394,131,35504,6,0,L|262:135,1,105,6|0,1:0|0:0,0:0:0:0:
263,151,35912,2,0,L|191:147,1,70,8|2,0:0|0:0,0:0:0:0:
95,132,36321,2,0,P|91:76|103:44,2,70,2|0|8,1:0|0:0|0:0,0:0:0:0:
67,226,36933,1,2,0:0:0:0:
156,264,37137,2,0,L|288:260,1,105,2|0,1:0|0:0,0:0:0:0:
268,292,37545,2,0,L|340:296,1,70,8|2,0:0|0:0,0:0:0:0:
431,264,37954,2,0,P|437:298|431:332,2,70,2|0|8,1:0|0:0|0:0,0:0:0:0:
379,184,38565,1,0,0:0:0:0:
398,87,38769,5,2,1:0:0:0:
317,31,38973,1,2,0:0:0:0:
242,94,39177,1,8,0:0:0:0:
280,184,39382,1,2,0:0:0:0:
280,184,39586,2,0,P|277:223|281:259,1,70,2|8,1:0|0:0,0:0:0:0:
329,333,39994,1,8,0:0:0:0:
231,325,40198,6,0,P|166:318|84:328,1,140,4|2,1:2|0:1,0:0:0:0:
15,265,40810,1,8,0:0:0:0:
15,265,41014,2,0,P|20:203|-7:117,1,140,8|8,3:0|3:0,0:0:0:0:
85,88,41627,2,0,L|135:84,1,35,8|0,0:0|0:0,0:0:0:0:
147,125,41831,2,0,L|197:129,1,35,8|0,3:0|3:0,0:0:0:0:
220,95,42035,6,0,P|264:94|320:101,1,70,4|0,0:0|0:0,0:0:0:0:
380,131,42443,1,8,0:0:0:0:
380,131,42647,2,0,P|367:182|390:267,1,140,2|0,0:0|0:0,0:0:0:0:
460,335,43259,1,8,0:0:0:0:
366,354,43463,2,0,P|272:348|217:358,1,140,0|0,0:0|0:0,0:0:0:0:
129,364,44076,1,8,0:0:0:0:
31,360,44280,2,0,P|33:292|2:205,1,140,2|2,0:1|0:0,0:0:0:0:
58,137,44892,2,0,L|134:135,1,70,8|2,0:0|0:0,0:0:0:0:
225,128,45300,6,0,L|226:258,1,70,6|0,0:1|0:0,0:0:0:0:
232,295,45708,1,8,0:0:0:0:
232,295,45912,2,0,P|308:287|404:323,1,140,2|0,0:1|0:0,0:0:0:0:
456,347,46525,1,8,0:0:0:0:
456,347,46729,2,0,P|452:255|480:183,1,140,2|0,0:1|0:1,0:1:0:0:
500,119,47341,1,0,0:0:0:0:
500,119,47545,2,0,P|396:123|344:99,1,140,2|2,0:1|0:0,0:0:0:0:
292,43,48157,1,8,0:0:0:0:
292,43,48361,1,2,0:0:0:0:
280,131,48565,6,0,P|296:180|291:232,2,105,4|0|2,1:2|0:0|0:0,0:0:0:0:
204,191,49382,2,0,P|152:185|102:202,2,105,2|8|8,0:1|0:0|0:0,0:0:0:0:
164,283,50198,2,0,P|147:332|152:384,2,105,4|0|2,1:2|0:0|0:0,0:0:0:0:
240,343,51015,2,0,P|291:337|341:354,2,105,2|8|8,0:1|0:0|0:0,0:0:0:0:
164,279,51831,6,0,P|180:219|164:119,1,140,4|0,1:2|0:0,0:0:0:0:
367,142,52647,2,0,P|359:211|376:279,1,140,4|0,1:2|0:0,0:0:0:0:
278,280,53259,1,4,1:2:0:0:
256,192,53463,12,4,55708,0:0:0:0:
96,263,56116,6,0,L|16:259,2,70,2|8|0,0:1|1:0|0:0,0:0:0:0:
144,311,56729,2,0,P|136:255|160:183,1,105,4|0,1:2|0:0,0:0:0:0:
180,175,57137,2,0,L|276:175,1,70,8|0,0:0|0:0,0:0:0:0:
348,171,57545,2,0,L|348:91,2,70,2|2|8,1:0|0:0|0:0,0:0:0:0:
344,267,58157,1,2,0:0:0:0:
428,323,58361,6,0,P|441:254|419:200,1,105,2|0,1:0|0:0,0:0:0:0:
443,173,58770,2,0,P|477:169|512:172,1,70,8|0,0:0|0:0,0:0:0:0:
384,94,59178,2,0,P|347:100|314:94,2,70,2|2|8,1:0|0:0|0:0,0:0:0:0:
346,3,59790,1,2,0:0:0:0:
229,91,59994,6,0,L|237:167,1,70,2|0,1:0|0:0,0:0:0:0:
138,169,60402,2,0,L|126:244,1,70,8|0,0:0|0:0,0:0:0:0:
37,198,60810,2,0,L|5:267,1,70,2|0,1:0|0:0,0:0:0:0:
79,327,61218,1,8,0:0:0:0:
177,329,61423,2,0,P|273:321|333:345,1,140,2|2,0:0|0:0,0:0:0:0:
409,352,62035,2,0,L|409:260,1,70,8|2,0:0|0:0,0:0:0:0:
424,185,62443,1,2,1:0:0:0:
456,92,62647,1,2,1:0:0:0:
378,33,62851,1,8,0:0:0:0:
298,89,63055,1,2,1:0:0:0:
228,159,63259,6,0,P|274:184|326:183,2,105
130,162,64076,2,0,L|133:33,2,105,2|0|0,1:0|0:0|0:0,0:0:0:0:
127,259,64892,6,0,P|60:247|6:279,2,105,4|2|0,1:2|0:0|0:0,0:0:0:0:
223,277,65708,2,0,L|219:400,2,105,2|0|2,1:0|0:0|0:0,0:0:0:0:
222,178,66525,2,0,L|134:178,1,70,2|0,1:0|0:0,0:0:0:0:
61,141,66933,1,8,0:0:0:0:
61,141,67137,2,0,P|57:71|101:13,1,140,2|2,0:0|0:0,0:0:0:0:
193,17,67749,1,8,0:0:0:0:
289,17,67953,6,0,P|328:73|324:141,1,140,2|2,0:0|0:1,0:0:0:0:
285,232,68565,2,0,L|193:232,1,70,8|2,0:0|0:1,0:0:0:0:
142,165,68974,1,0,0:0:0:0:
44,175,69178,2,0,P|48:119|40:87,2,70,8|8|8,0:0|3:0|3:0,0:0:0:0:
32,271,69790,2,0,P|88:275|164:271,1,105,4|0,1:2|0:0,0:0:0:0:
184,267,70198,2,0,L|192:347,1,70,8|0,0:0|0:0,0:0:0:0:
280,295,70606,2,0,L|288:215,1,70,2|0,1:0|0:0,0:0:0:0:
208,171,71014,1,8,0:0:0:0:
112,163,71218,5,2,0:0:0:0:
32,219,71423,2,0,P|18:186|15:152,1,70,2|2,1:0|0:0,0:0:0:0:
8,55,71831,1,8,0:0:0:0:
104,39,72035,2,0,P|160:47|260:31,1,140,2|2,0:0|0:0,0:0:0:0:
340,43,72647,1,8,0:0:0:0:
420,103,72851,5,2,0:0:0:0:
388,195,73055,2,0,L|312:203,1,70,2|0,1:0|0:0,0:0:0:0:
276,291,73463,2,0,L|201:279,1,70,8|0,0:0|0:0,0:0:0:0:
160,367,73871,2,0,L|91:335,1,70,2|0,1:0|0:0,0:0:0:0:
84,239,74279,1,8,0:0:0:0:
76,139,74484,2,0,P|144:155|213:144,1,140,2|2,0:0|0:0,0:0:0:0:
304,107,75096,2,0,L|316:31,1,70,8|2,0:0|0:0,0:0:0:0:
396,91,75504,2,0,L|408:167,1,70,2|2,1:0|0:0,0:0:0:0:
406,160,75810,1,0,0:0:0:0:
406,160,75912,1,8,0:0:0:0:
360,247,76116,1,0,0:0:0:0:
400,335,76321,6,0,P|484:331|528:355,2,105,4|0|0,1:2|0:0|0:0,0:0:0:0:
308,307,77137,2,0,P|312:223|288:179,2,105,4|0|0,1:2|0:0|0:0,0:0:0:0:
220,347,77953,2,0,P|136:343|92:367,2,105,4|0|0,1:2|0:0|0:0,0:0:0:0:
308,307,78770,2,0,P|312:216|286:169,1,140,4|0,1:2|0:0,0:0:0:0:
228,98,79382,1,2,0:0:0:0:
132,135,79586,5,2,1:0:0:0:
51,192,79790,1,2,1:0:0:0:
80,285,79994,1,8,0:0:0:0:
178,287,80198,1,2,1:0:0:0:
210,194,80402,2,2,L|274:197,3,35,2|2|2|2,1:0|1:0|1:0|1:0,1:0:0:0:
266,239,80810,2,2,L|330:236,3,35,2|2|2|2,1:0|1:0|1:0|1:0,1:0:0:0:
342,212,81218,6,0,B|403:240|449:202|478:175|478:175|416:296|489:358,1,341.249984378815,4|0,0:0|0:0,0:0:0:0:
503,378,82851,5,4,0:0:0:0:
