osu file format v14

[General]
AudioFilename: audio.mp3
AudioLeadIn: 0
PreviewTime: 87061
Countdown: 0
SampleSet: Soft
StackLeniency: 0.7
Mode: 0
LetterboxInBreaks: 0
WidescreenStoryboard: 1

[Editor]
Bookmarks: 19339,38422,51688,87206,97590
DistanceSpacing: 1.1
BeatDivisor: 4
GridSize: 4
TimelineZoom: 1.799999

[Metadata]
Title:Osoroshii Yashiki
TitleUnicode:おそろしいやしき
Artist:Various Artists
ArtistUnicode:Various Artists
Creator:Mao
Version:Hard
Source:ペーパーマリオ スーパーシール
Tags:Haunted Enigmansion Nintendo 3DS Paper Mario Sticker Star Desperate-kun ezek videogame ost intelligent systems rpg Masanobu Matsunaga saki kurata shoh muramaki yoshito sekigawa yasuhisa baba hiroki morishita masanori adachi kiyoshi hazemoto tomoko sano kosei muraki hiroaki hanaoka yasumasa yamada
BeatmapID:1072433
BeatmapSetID:503991

[Difficulty]
HPDrainRate:7
CircleSize:4
OverallDifficulty:7
ApproachRate:8
SliderMultiplier:2
SliderTickRate:2

[Events]
//Background and Video events
0,0,"EnigmansionPMSS.jpg",0,0
//Break Periods
2,52360,53410
2,57134,58210
2,61934,63010
2,66735,69010
//Storyboard Layer 0 (Background)
//Storyboard Layer 1 (Fail)
//Storyboard Layer 2 (Pass)
//Storyboard Layer 3 (Foreground)
//Storyboard Sound Samples

[TimingPoints]
228,500,3,2,0,100,1,0
478,512.820512820513,3,2,0,100,1,0
1503,461.538461538462,3,2,0,100,1,0
1964,519.930675909879,3,2,0,100,1,0
3003,794.701986754967,3,2,0,100,1,0
3400,491.803278688525,3,2,0,100,1,0
3645,729.483282674772,3,2,0,100,1,0
4009,545.454545454546,3,2,0,100,1,0
4145,705.882352941176,3,2,0,100,1,0
4321,566.037735849057,3,2,0,100,1,0
4462,662.983425414365,3,2,0,100,1,0
4627,652.173913043478,3,2,0,100,1,0
4790,659.34065934066,3,2,0,100,1,0
4954,747.663551401869,3,2,0,100,1,0
5140,759.493670886076,3,2,0,100,1,0
5329,689.655172413793,3,2,0,100,1,0
5501,895.522388059701,3,2,0,100,1,0
5724,1268.49894291755,3,2,0,100,1,0
6041,1363.63636363636,3,2,0,100,1,0
6381,1875,3,2,0,100,1,0
6849,1967.2131147541,3,2,0,100,1,0
7340,3582.08955223881,3,2,0,100,1,0
8235,3431.51272519302,3,2,0,100,1,0
9918,592.592592592593,3,2,0,15,1,0
9918,-133.333333333333,3,2,0,15,0,0
17029,580.905631880101,3,2,0,15,1,0
17029,-133.333333333333,3,2,0,15,0,0
22257,-120.481927710843,3,2,0,15,0,0
23999,576.923076923077,3,2,0,25,1,0
23999,-120.481927710843,3,2,0,25,0,0
27172,-100,3,2,0,25,0,0
27244,-100,3,2,0,5,0,0
27460,-120.481927710843,3,2,0,25,0,0
30922,-100,3,2,0,25,0,0
30994,-100,3,2,0,5,0,0
31210,-120.481927710843,3,2,0,25,0,0
32652,-100,3,2,0,25,0,0
32724,-100,3,2,0,5,0,0
32941,-120.481927710843,3,2,0,25,0,0
34383,-100,3,2,0,25,0,0
34455,-100,3,2,0,5,0,0
34672,-120.481927710843,3,2,0,25,0,0
38133,-100,3,2,0,25,0,0
38205,-100,3,2,0,5,0,0
38422,-100,3,2,0,40,0,0
41162,-100,3,2,0,30,0,0
41306,-100,3,2,0,40,0,0
45200,-100,3,2,0,30,0,0
45345,-100,3,2,0,40,0,0
46931,-100,3,2,0,30,0,0
47075,-100,3,2,0,40,0,0
48662,-100,3,2,0,30,0,0
48806,-100,3,2,0,40,0,0
49960,600,3,2,0,40,1,0
51760,600,4,2,0,40,1,0
51760,-200,4,2,0,40,0,0
54160,-200,4,2,0,15,0,0
56860,-100,4,2,0,30,0,0
56935,-100,4,2,0,5,0,0
57160,-200,4,2,0,15,0,0
61360,-200,4,2,0,30,0,0
61660,-100,4,2,0,30,0,0
61735,-100,4,2,0,5,0,0
61960,-200,4,2,0,15,0,0
66460,-100,4,2,0,30,0,0
66535,-100,4,2,0,15,0,0
66760,-100,4,2,0,30,0,0
72160,-100,4,2,0,40,0,0
72760,-100,4,2,0,50,0,0
73360,576.923076923077,3,2,0,60,1,0
73360,-90.9090909090909,3,2,0,60,0,0
97590,600,3,2,0,60,1,0
99090,666.666666666667,3,2,0,40,1,0
99423,666.666666666667,3,2,0,40,1,0

[Colours]
Combo1 : 168,224,251
Combo2 : 227,71,26
Combo3 : 51,87,172
Combo4 : 240,232,60

[HitObjects]
52,260,9918,6,0,P|88:252|127:260,1,75.0000028610231,2|0,0:0|0:0,0:0:0:0:
196,299,10510,1,0,0:0:0:0:
256,354,10806,1,0,0:0:0:0:
316,299,11103,1,2,0:0:0:0:
376,354,11399,1,0,0:0:0:0:
435,296,11695,2,0,L|451:213,1,75.0000028610231,4|0,0:3|0:0,0:0:0:0:
412,148,12288,1,0,0:0:0:0:
471,90,12584,1,0,0:0:0:0:
507,164,12880,1,2,0:0:0:0:
435,15,13473,5,4,0:3:0:0:
394,87,13769,1,0,0:0:0:0:
312,100,14066,1,0,0:0:0:0:
256,38,14362,1,0,0:0:0:0:
200,100,14658,1,2,0:0:0:0:
118,87,14955,1,0,0:0:0:0:
77,15,15251,2,0,L|53:15,2,18.7500007152558,4|0|0,0:3|0:0|0:0,0:0:0:0:
200,100,15843,1,2,0:0:0:0:
256,40,16140,1,0,0:0:0:0:
312,100,16436,1,0,0:0:0:0:
256,192,16732,5,0,0:0:0:0:
339,181,17029,2,0,L|415:168,1,75.0000028610231,4|0,0:3|0:0,0:0:0:0:
494,154,17609,1,0,0:0:0:0:
466,232,17900,1,0,0:0:0:0:
504,304,18190,1,2,0:0:0:0:
348,358,18771,1,4,0:3:0:0:
348,358,19062,1,0,0:0:0:0:
299,291,19352,1,2,0:0:0:0:
213,291,19643,1,0,0:0:0:0:
164,358,19933,1,0,0:0:0:0:
256,220,20514,6,0,L|256:144,1,75.0000028610231,4|0,0:3|0:0,0:0:0:0:
198,85,21095,1,0,0:0:0:0:
256,26,21385,1,0,0:0:0:0:
314,85,21676,1,2,0:0:0:0:
438,275,22257,6,0,B|422:313|369:313|354:279|354:275|354:271|354:237|282:237|282:271|282:275|282:279|282:336|229:336|229:279|229:275|229:271|229:237|157:237|157:271|157:275|157:279|142:313|89:313|73:275,1,415.000006015778,4|0,3:0|0:0,0:0:0:0:
27,202,23999,5,4,0:3:0:0:
27,202,24287,1,2,0:0:0:0:
42,112,24575,1,0,0:0:0:0:
119,63,24864,1,4,0:3:0:0:
209,75,25152,1,0,0:0:0:0:
273,139,25441,1,0,0:0:0:0:
269,230,25729,2,0,L|266:317,1,83.0000012031555,2|0,0:0|0:0,0:0:0:0:
340,366,26306,1,4,0:0:0:0:
430,356,26595,1,0,0:0:0:0:
488,285,26883,1,2,0:0:0:0:
470,192,27172,6,0,L|465:157,1,25,2|0,0:0|0:0,0:0:0:0:
352,17,27460,5,2,0:0:0:0:
261,27,27749,1,0,0:0:0:0:
223,109,28037,1,0,0:0:0:0:
256,193,28325,1,0,0:0:0:0:
289,275,28614,1,2,0:0:0:0:
251,357,28902,1,0,0:0:0:0:
160,367,29191,2,0,L|146:364,2,10.3750001503944
5,324,29768,1,2,0:0:0:0:
23,234,30056,1,0,0:0:0:0:
113,244,30345,1,0,0:0:0:0:
137,156,30633,2,0,L|150:93,1,62.2500009023667,2|0,0:0|0:0,0:0:0:0:
152,88,30922,6,0,L|163:46,1,25,2|0,0:0|0:0,0:0:0:0:
312,23,31499,1,0,0:0:0:0:
278,107,31787,1,0,0:0:0:0:
356,155,32075,1,2,0:0:0:0:
318,238,32364,2,0,L|331:311,1,62.2500009023667,2|0,0:0|0:0,0:0:0:0:
331,307,32652,6,0,L|338:346,1,25,2|0,0:0|0:0,0:0:0:0:
460,231,33229,1,2,0:0:0:0:
490,144,33518,1,0,0:0:0:0:
413,94,33806,1,0,0:0:0:0:
378,178,34095,2,0,L|313:185,1,62.2500009023667,2|0,0:0|0:0,0:0:0:0:
309,186,34383,6,0,L|262:190,1,25,2|0,0:0|0:0,0:0:0:0:
134,251,34960,1,0,0:0:0:0:
168,334,35249,1,4,0:0:0:0:
256,353,35537,1,2,0:0:0:0:
344,334,35825,1,0,0:0:0:0:
378,251,36114,1,4,0:3:0:0:
413,166,36402,6,0,L|444:85,1,83.0000012031555,2|0,0:0|0:0,0:0:0:0:
369,34,36979,1,0,0:0:0:0:
330,117,37268,1,2,0:0:0:0:
256,62,37556,1,0,0:0:0:0:
182,117,37845,1,0,0:0:0:0:
143,34,38133,2,0,L|107:33,1,25,2|2,0:0|0:0,0:0:0:0:
25,192,38422,5,4,0:0:0:0:
64,294,38710,1,0,0:0:0:0:
165,336,38999,1,2,0:0:0:0:
260,281,39287,1,0,0:0:0:0:
282,173,39575,2,0,P|306:119|436:74,1,200,4|2,0:3|0:0,0:0:0:0:
507,158,40441,1,0,0:0:0:0:
490,271,40729,2,0,P|451:311|347:315,1,150,4|0,0:0|0:0,0:0:0:0:
340,307,41306,5,4,0:0:0:0:
256,378,41595,1,0,0:0:0:0:
172,307,41883,1,2,0:0:0:0:
256,235,42172,1,0,0:0:0:0:
340,165,42460,1,2,0:0:0:0:
256,93,42749,1,0,0:0:0:0:
172,165,43037,1,4,0:3:0:0:
172,165,43181,1,0,0:0:0:0:
172,165,43325,1,0,0:0:0:0:
256,235,43614,1,2,0:0:0:0:
172,307,43902,1,0,0:0:0:0:
91,231,44191,2,0,P|67:189|71:135,1,100,2|0,0:0|0:0,0:0:0:0:
187,15,44768,6,0,L|170:179,1,150,4|0,0:0|0:0,0:0:0:0:
169,190,45345,1,2,0:0:0:0:
157,299,45633,1,0,0:0:0:0:
256,347,45922,1,4,0:0:0:0:
325,15,46499,6,0,L|342:179,1,150,4|0,0:0|0:0,0:0:0:0:
343,190,47075,1,2,0:0:0:0:
355,299,47364,1,0,0:0:0:0:
256,347,47652,1,4,0:0:0:0:
196,92,48229,6,0,P|256:132|316:92,1,150,4|0,0:0|0:0,0:0:0:0:
323,72,48806,1,2,0:0:0:0:
421,21,49095,1,0,0:0:0:0:
497,99,49383,1,4,0:0:0:0:
400,152,49672,1,0,0:0:0:0:
464,235,49960,5,4,0:0:0:0:
444,343,50260,1,0,0:0:0:0:
335,358,50560,1,2,0:0:0:0:
256,280,50860,1,0,0:0:0:0:
177,358,51160,1,0,0:0:0:0:
68,343,51460,1,0,0:0:0:0:
48,235,51760,1,4,0:3:0:0:
48,235,52060,1,4,0:3:0:0:
435,320,54160,6,0,B|392:260|303:260|255:313|255:320|255:325|207:378|119:378|76:320,1,400,2|0,0:0|0:0,0:0:0:0:
25,236,56860,2,0,L|17:189,1,25,2|0,0:0|0:0,0:0:0:0:
77,64,58960,6,0,B|119:123|208:123|256:70|256:64|256:58|304:5|392:5|435:64,1,400,2|2,0:0|0:0,0:0:0:0:
487,148,61660,2,0,L|495:195,1,25,2|0,0:0|0:0,0:0:0:0:
104,232,63760,6,0,B|132:332|256:388|380:332|408:232,1,400,2|0,0:0|0:0,0:0:0:0:
407,143,66460,2,0,L|407:99,1,25,2|0,0:0|0:0,0:0:0:0:
156,64,69760,5,4,0:0:0:0:
356,64,70060,1,2,0:0:0:0:
256,128,70360,2,0,L|256:280,1,150,2|8,0:0|0:3,0:0:0:0:
256,304,70960,1,4,0:3:0:0:
160,359,71260,2,0,P|114:367|56:335,2,100,2|0|0,0:0|0:0|0:0,0:0:0:0:
256,304,72160,1,0,3:0:0:0:
352,359,72460,1,0,3:0:0:0:
460,339,72760,1,0,3:0:0:0:
495,235,73060,1,0,3:0:0:0:
455,115,73360,5,4,0:0:0:0:
453,126,73936,1,0,0:0:0:0:
334,99,74225,1,4,0:3:0:0:
256,192,74513,1,2,0:0:0:0:
178,285,74802,1,4,0:3:0:0:
59,258,75090,2,0,P|34:210|62:93,1,165.000005035401,4|0,0:3|0:0,0:0:0:0:
70,88,75667,1,2,0:0:0:0:
190,73,75956,1,0,0:0:0:0:
233,185,76244,2,0,L|233:295,1,110.000003356934,2|0,0:0|0:0,0:0:0:0:
320,379,76821,5,4,0:0:0:0:
440,368,77110,1,0,0:3:0:0:
357,280,77398,1,0,0:0:0:0:
475,255,77686,1,4,0:3:0:0:
385,174,77975,1,2,0:0:0:0:
500,137,78263,1,4,0:3:0:0:
408,58,78552,2,0,P|349:30|256:59,1,165.000005035401,4|0,0:3|0:0,0:0:0:0:
249,77,79129,1,2,0:0:0:0:
195,185,79417,2,0,P|148:230|94:222,1,110.000003356934,0|2,0:0|0:0,0:0:0:0:
18,65,79994,5,4,0:3:0:0:
10,174,80283,1,4,0:3:0:0:
10,174,80571,1,4,0:0:0:0:
165,326,80860,1,2,0:0:0:0:
106,228,81148,1,0,0:0:0:0:
215,228,81436,1,2,0:0:0:0:
389,336,81725,5,4,0:3:0:0:
280,323,82013,1,4,0:3:0:0:
280,323,82302,1,4,0:0:0:0:
478,269,82590,1,2,0:0:0:0:
378,220,82879,1,0,0:0:0:0:
470,160,83167,1,2,0:0:0:0:
367,1,83456,5,4,0:3:0:0:
371,111,83744,1,4,0:3:0:0:
371,111,84033,1,4,0:0:0:0:
296,271,84321,1,2,0:0:0:0:
388,217,84610,1,0,0:0:0:0:
279,164,84898,1,2,0:0:0:0:
314,372,85186,5,4,0:3:0:0:
204,326,85475,1,4,0:3:0:0:
204,326,85763,1,4,0:0:0:0:
66,365,86052,1,2,0:0:0:0:
66,365,86340,1,4,0:3:0:0:
22,223,86629,1,2,0:0:0:0:
22,223,86917,1,0,0:0:0:0:
173,139,87206,6,0,P|146:93|152:36,1,110.000003356934,4|2,0:0|0:0,0:0:0:0:
296,72,87783,2,0,P|256:104|216:72,1,110.000003356934,2|0,0:0|0:0,0:0:0:0:
360,37,88360,2,0,P|365:91|339:139,1,110.000003356934,2|0,0:0|0:0,0:0:0:0:
184,214,88936,2,0,B|144:286|160:390|256:450|352:390|368:286|328:214,1,440.000013427735,4|0,0:0|0:0,0:0:0:0:
256,132,90379,1,0,0:0:0:0:
170,63,90667,6,0,P|110:51|65:73,1,110.000003356934,4|0,0:0|0:0,0:0:0:0:
110,172,91244,2,0,P|170:184|215:162,1,110.000003356934,2|0,0:0|0:0,0:0:0:0:
342,63,91821,2,0,P|402:51|447:73,1,110.000003356934,2|0,0:0|0:0,0:0:0:0:
402,172,92398,2,0,P|342:184|297:162,1,110.000003356934,2|0,0:0|0:0,0:0:0:0:
256,44,92975,6,0,B|207:78|207:152|251:192|256:192|260:192|304:232|304:305|256:340,1,330.000010070801,6|0,0:0|0:0,0:0:0:0:
152,348,94129,6,0,L|43:317,1,110.000003356934,4|0,0:0|0:0,0:0:0:0:
75,152,94706,2,0,L|151:230,1,110.000003356934,2|0,0:0|0:0,0:0:0:0:
204,119,95283,2,0,L|176:9,1,110.000003356934,2|0,0:0|0:0,0:0:0:0:
334,12,95860,2,0,L|308:119,1,110.000003356934,2|0,0:0|0:0,0:0:0:0:
360,230,96436,2,0,L|437:152,1,110.000003356934,2|0,0:0|0:0,0:0:0:0:
465,317,97013,2,0,L|360:348,1,110.000003356934,2|0,0:0|0:0,0:0:0:0:
256,192,97590,5,6,0:0:0:0:
256,192,97740,12,4,99423,0:0:0:0:
