osu file format v14

[General]
AudioFilename: audio.ogg
AudioLeadIn: 0
PreviewTime: 56716
Countdown: 0
SampleSet: Soft
StackLeniency: 0.7
Mode: 0
LetterboxInBreaks: 0
WidescreenStoryboard: 1

[Editor]
DistanceSpacing: 1.3
BeatDivisor: 4
GridSize: 16
TimelineZoom: 1.4

[Metadata]
Title:Oogesa ni Ai to Yobun da
TitleUnicode:大げさに愛と呼ぶんだ
Artist:Various Artists
ArtistUnicode:Various Artists
Creator:Garden
Version:Normal
Source:大室家 dear sisters
Tags:ohmuro-ke ohmuroke oomuro-ke oomuroke omrk ending ed anime movie japanese pop jpop j-pop 大室花子 日高里菜 小川こころ 倉知玲鳳 相馬未来 伊藤彩沙 高崎みさき 古賀葵 Hanako Ohmuro Oomuro Rina Hidaka Kokoro Ogawa Reo Kurachi Mirai Soma Souma Ayasa Ito Itou Misaki Takasaki Aoi Koga ゆるゆり yuruyuri
BeatmapID:4525240
BeatmapSetID:2147375

[Difficulty]
HPDrainRate:2
CircleSize:3
OverallDifficulty:4
ApproachRate:5.7
SliderMultiplier:1.2
SliderTickRate:1

[Events]
//Background and Video events
0,0,"BG.jpg",0,0
Video,0,"ed.avi"
//Break Periods
//Storyboard Layer 0 (Background)
//Storyboard Layer 1 (Fail)
//Storyboard Layer 2 (Pass)
//Storyboard Layer 3 (Foreground)
//Storyboard Layer 4 (Overlay)
//Storyboard Sound Samples

[TimingPoints]
1404,468.75,4,2,1,40,1,0
1404,-125,4,2,1,40,0,0
7497,-125,4,2,1,50,0,0
8904,-111.111111111111,4,2,1,60,0,0
15935,-100,4,2,1,60,0,0
16404,-100,4,2,1,70,0,0
23904,-111.111111111111,4,2,1,60,0,0
30935,-100,4,2,1,60,0,0
57185,-83.3333333333333,4,2,1,60,0,0
57654,468.75,4,2,1,75,1,0
57654,-90.9090909090909,4,2,1,75,0,0
89411,-90.9090909090909,4,2,1,40,0,0
91404,468.75,4,2,1,70,1,0
91404,-90.9090909090909,4,2,1,70,0,0

[Colours]
Combo1 : 255,181,106
Combo2 : 199,141,141
Combo3 : 255,222,106
Combo4 : 186,155,137

[HitObjects]
161,345,1404,6,0,L|350:313,1,192,2|2,0:0|0:0,0:0:0:0:
494,320,3044,2,0,P|502:263|469:233,1,96,2|0,0:0|0:0,0:0:0:0:
433,219,3747,2,0,P|444:183|454:137,1,72,2|2,0:0|0:0,0:0:0:0:
353,79,4685,6,0,L|371:9,2,72,2|2|0,0:0|0:0|0:0,0:0:0:0:
311,103,5622,2,0,P|273:94|223:85,1,72,2|2,0:0|0:0,0:0:0:0:
139,153,6560,6,0,P|101:145|50:132,2,72,2|2|0,0:0|0:0|0:0,0:0:0:0:
165,192,7497,2,0,P|202:199|254:213,2,72,2|2|0,0:0|0:0|0:0,0:0:0:0:
119,207,8435,1,2,0:0:0:0:
3,234,8904,6,0,P|-2:288|62:312,1,107.999996704102,2|0,3:2|1:0,0:0:0:0:
151,352,9841,2,0,P|227:339|239:305,1,107.999996704102,2|0,1:2|1:0,0:0:0:0:
248,270,10544,1,2,3:2:0:0:
248,270,10779,1,0,3:0:0:0:
325,180,11247,2,0,P|316:140|311:100,2,80.9999975280763,2|0|0,1:2|1:0|0:0,0:0:0:0:
367,214,12185,1,2,1:2:0:0:
455,253,12536,6,0,P|459:296|468:343,1,80.9999975280763,4|2,3:2|3:2,0:0:0:0:
425,369,13122,1,2,1:2:0:0:
339,324,13474,6,0,P|295:328|249:337,1,80.9999975280763,4|2,3:2|3:2,0:0:0:0:
223,294,14060,1,2,1:2:0:0:
279,215,14411,6,0,P|274:171|266:125,1,80.9999975280763,4|2,3:2|3:2,0:0:0:0:
309,99,14997,1,2,3:2:0:0:
253,19,15349,1,2,1:2:0:0:
88,32,15935,6,0,P|40:78|53:129,1,120,14|4,1:1|3:2,0:0:0:0:
149,211,16872,1,10,1:2:0:0:
106,336,17341,2,0,P|169:320|252:319,1,120,2|8,3:2|1:2,0:0:0:0:
279,340,18044,2,0,P|339:318|335:249,1,120,2|2,0:0|0:0,0:0:0:0:
321,213,18747,2,0,P|334:173|349:119,2,90,10|2|2,1:2|1:2|0:0,0:0:0:0:
266,238,19685,1,10,1:2:0:0:
192,171,20036,6,0,P|203:126|219:84,1,90,4|2,3:2|3:2,0:0:0:0:
237,28,20622,1,10,1:2:0:0:
317,87,20974,6,0,P|364:102|420:109,1,90,4|2,3:2|3:2,0:0:0:0:
459,83,21560,1,10,1:2:0:0:
512,167,21911,6,0,P|500:211|485:254,1,90,4|2,3:2|3:2,0:0:0:0:
463,308,22497,1,10,1:2:0:0:
369,274,22849,1,0,1:0:0:0:
369,274,23904,6,0,P|348:316|285:313,1,107.999996704102,4|2,3:2|3:2,0:0:0:0:
213,276,24724,1,2,3:2:0:0:
213,276,25779,6,0,L|230:159,1,107.999996704102,2|2,3:2|3:2,0:0:0:0:
310,133,26599,1,2,3:2:0:0:
310,133,27654,6,0,P|325:73|280:40,1,107.999996704102,2|2,3:2|3:2,0:0:0:0:
209,22,28474,1,2,3:2:0:0:
209,22,29529,6,0,P|160:35|96:40,1,107.999996704102,2|2,3:2|3:2,0:0:0:0:
46,109,30349,1,2,3:2:0:0:
196,176,30935,6,0,P|267:160|331:158,1,120,2|4,3:2|3:2,0:0:0:0:
412,69,31872,2,0,P|481:96|482:151,1,120,10|0,1:2|3:0,0:0:0:0:
459,189,32575,1,2,0:0:0:0:
459,189,32810,2,0,P|452:227|446:256,1,60,10|2,1:2|0:0,0:0:0:0:
439,307,33279,5,2,3:2:0:0:
311,338,33747,2,0,P|319:293|327:249,2,90,10|2|0,1:2|0:0|0:0,0:0:0:0:
261,371,34685,2,0,P|223:364|180:355,1,60,8|2,1:2|0:0,0:0:0:0:
166,311,35154,1,2,3:2:0:0:
38,278,35622,2,0,P|29:322|21:366,2,90,10|2|2,1:2|0:0|0:0,0:0:0:0:
2,230,36560,2,0,P|7:200|15:171,1,60,10|0,1:2|0:0,0:0:0:0:
65,136,37029,6,0,P|95:187|159:184,1,120,2|10,3:2|1:2,0:0:0:0:
225,124,37849,2,0,P|233:79|242:35,1,90,2|4,3:2|3:1,0:0:0:0:
302,17,38435,1,10,1:2:0:0:
302,17,38669,6,0,P|370:56|363:102,1,120,4|10,3:2|3:2,0:0:0:0:
332,136,39372,1,10,1:2:0:0:
332,136,39607,1,2,0:0:0:0:
332,136,39841,2,0,P|318:180|310:229,1,90,2|2,3:2|0:0,0:0:0:0:
251,302,40544,6,0,P|274:353|331:357,1,120,2|10,0:0|3:2,0:0:0:0:
395,340,41247,1,10,1:2:0:0:
395,340,41482,1,2,0:0:0:0:
395,340,41716,2,0,P|403:295|416:252,1,90,2|2,3:2|0:0,0:0:0:0:
478,175,42419,6,0,P|468:116|409:97,1,120,2|2,0:0|0:0,0:0:0:0:
362,119,43122,2,0,P|353:150|342:193,1,60,10|0,1:2|0:0,0:0:0:0:
292,202,43591,1,2,3:2:0:0:
236,119,43943,1,2,3:2:0:0:
187,39,44294,1,0,1:0:0:0:
187,39,44529,6,0,P|140:31|92:15,1,90,4|2,3:2|1:2,0:0:0:0:
48,43,45114,1,2,1:2:0:0:
48,43,45349,2,0,P|31:118|100:150,1,150,2|10,1:2|1:2,0:0:0:0:
145,153,46169,5,4,3:2:0:0:
92,276,46638,1,2,3:2:0:0:
92,276,46872,2,0,P|100:312|107:347,1,60,10|0,1:2|0:0,0:0:0:0:
159,360,47341,2,0,P|205:343|220:302,1,90,2|2,3:2|0:0,0:0:0:0:
220,208,48044,6,0,P|270:224|338:239,1,120,2|10,0:0|3:2,0:0:0:0:
395,218,48747,1,10,1:2:0:0:
395,218,48982,1,2,0:0:0:0:
395,218,49216,2,0,P|406:165|420:126,2,90,10|2|0,3:2|1:2|1:0,0:0:0:0:
438,260,50154,6,0,P|457:308|402:355,1,120,4|10,3:2|1:2,0:0:0:0:
360,364,50857,1,0,0:0:0:0:
360,364,51091,2,0,P|292:344|239:336,1,120,2|10,3:2|1:2,0:0:0:0:
206,297,51794,1,2,0:0:0:0:
206,297,52029,5,2,3:2:0:0:
21,240,52732,1,2,1:2:0:0:
21,240,52966,2,0,P|6:286|3:343,2,90,2|2|2,3:2|1:2|1:2,0:0:0:0:
0,185,53904,6,0,P|-5:131|52:94,1,120,10|10,3:2|3:2,0:0:0:0:
103,99,54607,1,10,3:2:0:0:
133,150,54841,2,0,P|122:179|114:221,1,60,10|10,3:2|3:2,0:0:0:0:
151,257,55310,2,0,P|180:267|222:276,1,60,10|10,3:2|3:2,0:0:0:0:
268,263,55779,5,10,3:2:0:0:
287,206,56013,1,2,3:2:0:0:
250,158,56247,1,2,3:2:0:0:
270,101,56482,1,2,3:2:0:0:
468,14,57185,2,0,P|454:46|438:90,1,71.9999978027344,14|0,1:0|0:0,0:0:0:0:
477,158,57654,6,0,P|485:220|430:265,1,132.00000402832,4|10,3:2|1:2,0:0:0:0:
360,303,58357,1,2,0:0:0:0:
289,254,58591,2,0,P|243:264|186:274,2,99.0000030212403,2|2|2,3:2|0:0|0:0,0:0:0:0:
342,186,59529,5,2,3:2:0:0:
269,141,59763,1,0,0:0:0:0:
328,79,59997,2,0,B|380:66|377:110|422:98,2,99.0000030212403,10|2|2,1:2|0:0|0:0,0:0:0:0:
250,40,60935,1,10,1:2:0:0:
126,4,61286,6,0,P|134:52|143:101,1,99.0000030212403,2|2,0:1|0:1,0:0:0:0:
157,186,61872,1,10,1:2:0:0:
28,173,62224,6,0,P|36:221|45:270,1,99.0000030212403,2|2,0:1|0:1,0:0:0:0:
59,355,62810,1,10,1:2:0:0:
176,303,63161,6,0,P|224:294|273:285,1,99.0000030212403,2|2,0:1|1:2,0:0:0:0:
323,215,63747,2,0,P|371:205|420:197,2,99.0000030212403,2|2|2,1:0|0:1|0:1,0:0:0:0:
245,178,64685,6,0,P|205:110|235:69,1,132.00000402832,14|4,1:0|3:2,0:0:0:0:
386,3,65622,2,0,P|395:37|402:82,1,66.0000020141602,10|0,1:2|0:0,0:0:0:0:
479,100,66091,2,0,P|509:135|489:193,2,99.0000030212403,2|2|2,3:2|0:0|0:0,0:0:0:0:
400,67,67029,5,2,3:2:0:0:
373,148,67263,1,2,0:0:0:0:
345,228,67497,2,0,B|400:240|372:267|426:279,2,99.0000030212403,10|2|2,1:2|0:0|0:0,0:0:0:0:
263,201,68435,1,10,1:2:0:0:
224,323,68786,6,0,P|177:314|116:296,1,99.0000030212403,2|2,0:1|1:1,0:0:0:0:
44,278,69372,1,10,1:2:0:0:
127,180,69724,6,0,P|136:133|154:72,1,99.0000030212403,2|2,0:1|1:1,0:0:0:0:
172,1,70310,1,10,1:2:0:0:
278,72,70661,6,0,P|325:81|386:99,1,99.0000030212403,4|2,3:2|3:1,0:0:0:0:
458,117,71247,1,10,1:0:0:0:
382,221,71599,6,0,P|329:210|272:195,1,99.0000030212403,10|0,1:0|1:0,0:0:0:0:
211,242,72185,2,0,P|200:268|191:313,1,66.0000020141602,14|0,1:1|0:0,0:0:0:0:
265,348,72654,6,0,P|361:327|370:284,1,132.00000402832,4|10,3:2|1:2,0:0:0:0:
382,221,73357,1,2,0:0:0:0:
455,176,73591,2,0,P|501:194|499:265,2,99.0000030212403,2|2|2,3:2|0:0|0:0,0:0:0:0:
394,115,74529,5,2,3:2:0:0:
319,157,74763,1,0,0:0:0:0:
259,95,74997,2,0,B|271:46|297:68|310:12,2,99.0000030212403,10|2|2,1:2|0:0|0:0,0:0:0:0:
187,142,75935,1,10,1:2:0:0:
71,200,76286,6,0,P|61:246|53:306,1,99.0000030212403,2|2,0:1|0:1,0:0:0:0:
111,361,76872,1,10,1:2:0:0:
220,292,77224,6,0,P|266:301|326:310,1,99.0000030212403,2|2,0:1|0:1,0:0:0:0:
381,252,77810,1,10,1:2:0:0:
287,164,78161,6,0,P|296:117|305:58,1,99.0000030212403,2|2,0:1|1:2,0:0:0:0:
247,4,78747,1,2,1:0:0:0:
161,100,79099,6,0,P|151:146|143:206,1,99.0000030212403,2|2,0:1|0:1,0:0:0:0:
211,250,79685,2,0,P|281:279|272:330,1,132.00000402832,14|4,1:0|3:2,0:0:0:0:
112,374,80622,6,0,P|66:364|32:355,1,66.0000020141602,10|0,1:2|0:0,0:0:0:0:
3,285,81091,2,0,P|18:229|27:190,2,99.0000030212403,2|2|2,3:2|0:0|0:0,0:0:0:0:
47,359,82029,5,2,3:2:0:0:
125,325,82263,1,2,0:0:0:0:
204,293,82497,2,0,B|262:313|218:333|284:354,2,99.0000030212403,10|2|2,1:2|0:0|0:0,0:0:0:0:
172,212,83435,1,10,1:2:0:0:
290,163,83786,6,0,P|301:114|312:63,1,99.0000030212403,2|2,0:1|1:1,0:0:0:0:
382,18,84372,1,10,1:2:0:0:
479,101,84724,6,0,P|467:149|457:201,1,99.0000030212403,2|2,0:1|1:1,0:0:0:0:
387,246,85310,1,10,1:2:0:0:
357,371,85661,6,0,B|294:359|332:332|275:320,1,99.0000030212403,4|2,3:2|3:1,0:0:0:0:
192,303,86247,1,10,1:0:0:0:
256,192,86599,1,10,1:0:0:0:
256,192,86833,1,10,1:0:0:0:
154,112,87185,6,0,P|167:64|179:16,2,99.0000030212403,10|4|2,1:0|3:2|1:2,0:0:0:0:
78,152,88122,1,2,1:2:0:0:
109,277,88474,6,0,P|156:316|197:308,1,99.0000030212403,4|2,3:2|3:2,0:0:0:0:
255,255,89060,2,0,B|268:217|242:231|255:191,1,66.0000020141602,0|0,1:0|1:0,0:0:0:0:
256,192,89411,12,4,91404,3:2:0:0:
