osu file format v14

[General]
AudioFilename: audio.ogg
AudioLeadIn: 0
PreviewTime: 56716
Countdown: 0
SampleSet: Soft
StackLeniency: 0.7
Mode: 0
LetterboxInBreaks: 0
WidescreenStoryboard: 0

[Editor]
DistanceSpacing: 0.9
BeatDivisor: 4
GridSize: 32
TimelineZoom: 1.4

[Metadata]
Title:Oogesa ni Ai to Yobun da
TitleUnicode:大げさに愛と呼ぶんだ
Artist:Various Artists
ArtistUnicode:Various Artists
Creator:Garden
Version:Insane
Source:大室家 dear sisters
Tags:ohmuro-ke ohmuroke oomuro-ke oomuroke omrk ending ed anime movie japanese pop jpop j-pop 大室花子 日高里菜 小川こころ 倉知玲鳳 相馬未来 伊藤彩沙 高崎みさき 古賀葵 Hanako Ohmuro Oomuro Rina Hidaka Kokoro Ogawa Reo Kurachi Mirai Soma Souma Ayasa Ito Itou Misaki Takasaki Aoi Koga ゆるゆり yuruyuri
BeatmapID:4523277
BeatmapSetID:2147375

[Difficulty]
HPDrainRate:6
CircleSize:4
OverallDifficulty:8
ApproachRate:8.8
SliderMultiplier:1.8
SliderTickRate:1

[Events]
//Background and Video events
0,0,"BG.jpg",0,0
Video,0,"ed.avi"
//Break Periods
//Storyboard Layer 0 (Background)
//Storyboard Layer 1 (Fail)
//Storyboard Layer 2 (Pass)
//Storyboard Layer 3 (Foreground)
//Storyboard Layer 4 (Overlay)
//Storyboard Sound Samples

[TimingPoints]
1404,468.75,4,2,1,40,1,0
1404,-133.333333333333,4,2,1,40,0,0
7497,-113.636363636364,4,2,1,50,0,0
8435,-100,4,2,1,50,0,0
8904,-111.111111111111,4,2,1,60,0,0
12185,-83.3333333333333,4,2,1,60,0,0
12536,-111.111111111111,4,2,1,60,0,0
13122,-83.3333333333333,4,2,1,60,0,0
13474,-111.111111111111,4,2,1,60,0,0
14060,-83.3333333333333,4,2,1,60,0,0
14411,-111.111111111111,4,2,1,60,0,0
14997,-83.3333333333333,4,2,1,60,0,0
15935,-66.6666666666667,4,2,1,60,0,0
16404,-111.111111111111,4,2,1,70,0,0
16872,-83.3333333333333,4,2,1,70,0,0
19919,-76.9230769230769,4,2,1,70,0,0
23083,-83.3333333333333,4,2,1,70,0,0
23904,-100,4,2,1,60,0,0
37497,-83.3333333333333,4,2,1,60,0,0
38200,-66.6666666666667,4,2,1,60,0,0
39372,-90.9090909090909,4,2,1,60,0,0
44529,-76.9230769230769,4,2,1,60,0,0
46169,-66.6666666666667,4,2,1,60,0,0
46872,-90.9090909090909,4,2,1,60,0,0
56833,-50,4,2,1,60,0,0
57654,468.75,4,2,1,75,1,0
57654,-100,4,2,1,75,0,0
58122,-66.6666666666667,4,2,1,75,0,0
64099,-57.1428571428571,4,2,1,75,0,0
64685,-50,4,2,1,75,0,0
65154,-100,4,2,1,75,0,0
65622,-66.6666666666667,4,2,1,75,0,0
70661,-57.1428571428571,4,2,1,75,0,0
71833,-50,4,2,1,75,0,0
72654,-100,4,2,1,75,0,0
73122,-66.6666666666667,4,2,1,75,0,0
79099,-57.1428571428571,4,2,1,75,0,0
79685,-50,4,2,1,75,0,0
80154,-100,4,2,1,75,0,0
80622,-66.6666666666667,4,2,1,75,0,0
85661,-57.1428571428571,4,2,1,75,0,0
86833,-66.6666666666667,4,2,1,75,0,0
87536,-50,4,2,1,75,0,0
89060,-66.6666666666667,4,2,1,75,0,0
89411,-83.3333333333333,4,2,1,40,0,0
90583,-66.6666666666667,4,2,1,75,0,0
91404,468.75,4,2,1,70,1,0
91404,-111.111111111111,4,2,1,70,0,0
91872,-83.3333333333333,4,2,1,70,0,0
94919,-76.9230769230769,4,2,1,70,0,0

[Colours]
Combo1 : 255,181,106
Combo2 : 199,141,141
Combo3 : 255,222,106
Combo4 : 186,155,137

[HitObjects]
65,157,1404,6,0,P|103:105|177:122,1,135.000005149842,2|0,0:0|0:0,0:0:0:0:
166,112,2341,2,0,P|146:179|213:204,1,135.000005149842,2|0,0:0|0:0,0:0:0:0:
261,265,3044,2,0,P|269:230|287:174,1,67.5000025749208,2|0,0:0|0:0,0:0:0:0:
240,129,3513,1,0,0:0:0:0:
373,97,3747,2,0,P|387:44|402:-4,2,101.250003862381,2|2|0,0:0|0:0|0:0,0:0:0:0:
444,228,4685,6,0,P|456:185|467:147,1,67.5000025749208,2|0,0:0|0:0,0:0:0:0:
462,163,5036,2,0,P|411:176|351:185,1,101.250003862381,2|0,0:0|0:0,0:0:0:0:
240,45,5622,1,2,0:0:0:0:
298,113,5857,1,2,0:0:0:0:
298,113,5974,2,0,P|355:105|403:92,1,101.250003862381,2|0,0:0|0:0,0:0:0:0:
262,262,6560,6,0,P|274:219|285:181,1,67.5000025749208,2|0,0:0|0:0,0:0:0:0:
280,197,6911,2,0,P|229:210|169:219,1,101.250003862381,2|0,0:0|0:0,0:0:0:0:
298,113,7497,1,2,0:0:0:0:
132,146,7732,1,2,0:0:0:0:
132,146,7849,2,0,P|145:106|170:31,1,118.800003625488,2|0,0:0|0:0,0:0:0:0:
169,33,8435,6,0,P|68:46|64:134,1,180,2|2,0:0|3:2,0:0:0:0:
53,109,9372,1,0,1:0:0:0:
183,244,9724,1,0,1:0:0:0:
199,228,9841,1,2,1:2:0:0:
181,217,9958,2,0,P|139:227|94:231,1,80.9999975280763,2|0,0:0|0:0,0:0:0:0:
82,218,10310,1,0,1:0:0:0:
160,60,10544,2,0,P|147:98|134:152,1,80.9999975280763,2|0,3:2|3:0,0:0:0:0:
136,137,11013,5,2,0:0:0:0:
276,183,11247,1,2,1:2:0:0:
271,201,11364,2,0,P|261:242|247:291,1,80.9999975280763,2|0,0:0|1:0,0:0:0:0:
244,299,11716,2,0,P|206:307|165:272,1,80.9999975280763,2|0,3:2|0:0,0:0:0:0:
352,243,12185,5,2,1:2:0:0:
367,252,12302,2,0,P|375:221|384:191,1,53.9999983520508,2|0,3:2|0:0,0:0:0:0:
417,26,12536,2,0,B|397:99|368:49|351:123,1,121.499996292114,4|2,3:2|3:2,0:0:0:0:
456,182,13122,5,2,1:2:0:0:
471,173,13239,2,0,P|448:150|426:127,1,53.9999983520508,2|0,3:2|0:0,0:0:0:0:
300,17,13474,2,0,B|354:70|296:70|350:122,1,121.499996292114,4|2,3:2|3:2,0:0:0:0:
455,61,14060,5,2,1:2:0:0:
455,43,14177,2,0,P|424:51|393:58,1,53.9999983520508,2|0,3:2|0:0,0:0:0:0:
234,113,14411,2,0,B|307:93|278:143|351:121,1,121.499996292114,4|2,3:2|3:2,0:0:0:0:
151,0,14997,6,0,P|85:21|103:78,1,107.999996704102,2|0,3:2|3:0,0:0:0:0:
82,49,15349,1,2,1:2:0:0:
144,196,15583,5,2,1:2:0:0:
161,150,15700,1,2,1:2:0:0:
116,129,15818,1,0,3:0:0:0:
63,193,15935,2,0,B|123:200|147:162|126:143|170:92|232:119,1,202.500007724762,14|0,1:1|0:0,0:0:0:0:
170,29,16404,6,0,P|183:85|239:98,1,121.499996292114,4|0,3:2|0:0,0:0:0:0:
304,179,16872,6,0,P|316:127|335:76,1,107.999996704102,10|0,1:2|0:0,0:0:0:0:
408,23,17224,1,2,0:0:0:0:
429,16,17341,1,2,3:2:0:0:
445,25,17458,2,0,P|432:77|413:128,1,107.999996704102,2|2,0:2|0:0,0:0:0:0:
428,141,17810,1,8,1:2:0:0:
273,265,18044,2,0,P|316:202|390:219,1,161.999995056153,2|0,0:0|0:0,0:0:0:0:
424,248,18513,6,0,P|409:249|350:262,1,53.9999983520508,2|0,0:0|0:0,0:0:0:0:
221,352,18747,2,0,P|279:341|352:334,1,107.999996704102,10|0,1:2|0:0,0:0:0:0:
300,208,19099,2,0,P|291:235|275:276,1,53.9999983520508,2|0,1:2|3:0,0:0:0:0:
393,174,19333,1,0,1:0:0:0:
378,158,19450,2,0,P|384:138|399:113,2,26.9999991760254,2|0|0,0:0|0:0|0:0,0:0:0:0:
345,58,19685,1,10,1:2:0:0:
225,166,19919,5,2,3:2:0:0:
215,197,20036,2,0,P|141:175|139:119,1,116.999994644165,4|0,3:2|0:0,0:0:0:0:
110,103,20388,2,0,P|141:111|168:117,1,58.4999973220826,2|0,3:2|0:0,0:0:0:0:
264,34,20622,1,10,1:2:0:0:
246,3,20739,2,0,P|238:33|225:67,1,58.4999973220826,2|0,0:0|0:0,0:0:0:0:
44,165,20974,2,0,B|131:104|43:93|148:33,1,175.499991966248,4|2,3:2|3:2,0:0:0:0:
253,218,21560,5,10,1:2:0:0:
215,197,21677,2,0,P|186:207|145:216,1,58.4999973220826,2|0,3:2|0:0,0:0:0:0:
9,265,21911,2,0,P|67:266|101:311,1,116.999994644165,4|0,3:2|0:0,0:0:0:0:
137,299,22263,2,0,P|124:325|115:353,1,58.4999973220826,2|0,3:2|0:0,0:0:0:0:
303,199,22497,5,10,1:2:0:0:
323,157,22614,1,0,1:0:0:0:
303,114,22732,1,0,1:0:0:0:
256,106,22849,1,0,1:0:0:0:
196,247,23083,1,0,1:0:0:0:
196,247,23200,2,0,P|208:215|218:188,1,53.9999983520508,2|0,1:2|0:0,0:0:0:0:
168,116,23435,1,2,1:2:0:0:
168,116,23552,1,2,0:3:0:0:
168,116,23669,2,0,P|179:85|195:49,1,53.9999983520508,2|0,0:3|0:0,0:0:0:0:
274,19,23904,5,4,3:2:0:0:
274,19,24372,2,0,P|324:39|329:88,1,90,2|2,3:2|0:0,0:0:0:0:
314,97,24724,2,0,P|390:78|456:67,1,135,2|0,3:2|0:0,0:0:0:0:
445,68,25310,2,0,P|432:113|419:162,1,90,10|0,0:0|0:0,0:0:0:0:
459,295,25779,6,0,P|441:250|371:256,1,90,2|0,3:2|0:0,0:0:0:0:
332,175,26247,2,0,P|322:219|311:262,1,90,2|0,3:2|0:0,0:0:0:0:
326,290,26599,2,0,P|243:261|248:215,1,135,2|0,3:2|0:0,0:0:0:0:
242,227,27185,1,10,0:0:0:0:
318,167,27419,6,0,L|330:123,2,45,2|2|0,0:0|0:0|3:0,0:0:0:0:
318,167,28122,2,0,P|275:158|214:139,1,90,2|0,3:2|0:0,0:0:0:0:
220,113,28474,2,0,P|204:47|129:52,1,135,2|0,3:2|0:0,0:0:0:0:
145,40,29060,2,0,P|136:89|119:136,1,90,10|0,0:0|0:0,0:0:0:0:
235,274,29529,6,0,P|175:268|154:218,1,90,2|0,3:2|0:0,0:0:0:0:
122,127,29997,1,2,3:2:0:0:
77,225,30232,1,2,0:0:0:0:
77,225,30349,2,0,P|155:205|215:180,1,135,2|0,3:2|0:0,0:0:0:0:
297,211,30935,6,0,B|314:121|367:174|390:63,1,180,2|4,3:2|3:2,0:0:0:0:
390,64,31755,5,0,1:0:0:0:
359,59,31872,2,0,P|381:115|394:174,1,90,10|0,1:2|0:0,0:0:0:0:
435,196,32224,2,0,P|427:175|422:154,1,45,2|0,0:0|3:0,0:0:0:0:
311,362,32575,1,2,0:0:0:0:
454,277,32810,1,10,1:2:0:0:
273,237,33044,1,2,0:0:0:0:
273,237,33161,2,0,P|280:263|286:288,1,45,2|2,0:0|3:2,0:0:0:0:
422,153,33513,5,2,0:0:0:0:
393,365,33747,2,0,P|378:314|371:260,1,90,10|2,1:2|0:0,0:0:0:0:
401,254,34099,1,2,0:0:0:0:
401,254,34216,2,0,P|381:342|276:353,1,180,2|8,3:2|1:2,0:0:0:0:
154,244,34919,1,2,0:0:0:0:
154,244,35036,1,2,0:0:0:0:
154,244,35154,6,0,P|200:257|300:285,1,135,2|0,3:2|0:0,0:0:0:0:
303,264,35622,1,10,1:2:0:0:
403,169,35857,1,2,0:0:0:0:
403,169,35974,2,0,P|372:177|344:186,1,45,2|0,0:0|3:2,0:0:0:0:
230,18,36325,1,2,0:0:0:0:
257,179,36560,2,0,P|271:132|287:73,1,90,10|0,1:2|0:0,0:0:0:0:
330,35,36911,2,0,P|323:57|318:79,1,45,2|2,0:0|3:2,0:0:0:0:
173,236,37263,5,2,0:0:0:0:
359,180,37497,1,10,1:2:0:0:
215,8,37732,1,2,0:0:0:0:
215,8,37849,2,0,P|202:59|185:121,1,107.999996704102,2|0,3:2|3:0,0:0:0:0:
151,145,38200,2,0,L|168:79,1,67.5000025749208,4|0,3:1|0:0,0:0:0:0:
310,256,38435,1,10,1:2:0:0:
58,275,38669,6,0,P|116:197|213:204,1,202.500007724762,4|0,3:2|0:0,0:0:0:0:
247,192,39138,2,0,P|233:226|218:269,1,67.5000025749208,10|0,3:2|0:0,0:0:0:0:
290,374,39372,2,0,P|331:309|304:272,1,99.0000030212403,10|0,1:2|0:0,0:0:0:0:
305,278,39724,1,2,0:0:0:0:
305,278,39841,2,0,P|242:293|149:312,1,148.50000453186,2|2,3:2|0:0,0:0:0:0:
144,290,40310,1,10,1:2:0:0:
361,189,40544,6,0,P|412:244|441:235,1,99.0000030212403,2|0,0:0|3:0,0:0:0:0:
404,56,41013,2,0,P|393:89|383:122,1,49.5000015106202,10|0,3:2|0:0,0:0:0:0:
270,191,41247,2,0,P|288:132|308:77,1,99.0000030212403,10|0,1:2|0:0,0:0:0:0:
315,70,41599,1,2,0:0:0:0:
315,70,41716,2,0,P|271:10|180:35,1,148.50000453186,2|2,3:2|0:0,0:0:0:0:
183,30,42185,1,10,1:2:0:0:
23,11,42419,6,0,P|19:56|68:84,1,99.0000030212403,2|0,0:0|3:0,0:0:0:0:
198,248,42888,1,2,0:0:0:0:
145,115,43122,2,0,P|135:156|114:216,1,99.0000030212403,10|0,1:2|0:0,0:0:0:0:
105,246,43474,1,2,0:0:0:0:
105,246,43591,6,0,P|68:260|-15:270,1,99.0000030212403,2|0,3:2|0:0,0:0:0:0:
0,302,43943,2,0,P|27:358|70:352,1,99.0000030212403,2|0,3:2|0:0,0:0:0:0:
147,381,44294,5,0,1:0:0:0:
141,357,44411,1,0,1:0:0:0:
161,334,44529,2,0,B|173:270|208:304|216:225,1,116.999994644165,4|2,3:2|3:2,0:0:0:0:
206,212,44880,5,2,1:2:0:0:
179,137,45114,5,2,1:2:0:0:
153,60,45349,5,2,1:2:0:0:
0,29,45583,5,2,1:2:0:0:
15,66,45700,1,10,1:2:0:0:
30,104,45818,1,0,1:0:0:0:
45,141,45935,2,0,P|80:128|112:120,1,58.4999973220826,10|0,1:2|1:0,0:0:0:0:
322,187,46169,6,0,P|292:95|197:86,1,202.500007724762,4|0,3:2|0:0,0:0:0:0:
165,61,46638,2,0,P|172:100|195:146,1,67.5000025749208,2|0,3:2|0:0,0:0:0:0:
143,303,46872,2,0,P|83:294|76:246,1,99.0000030212403,10|0,1:2|0:0,0:0:0:0:
90,234,47224,1,2,0:0:0:0:
90,234,47341,2,0,P|153:219|244:195,1,148.50000453186,2|2,3:2|0:0,0:0:0:0:
247,178,47810,1,10,1:2:0:0:
343,38,48044,6,0,P|324:81|277:90,1,99.0000030212403,2|0,0:0|3:0,0:0:0:0:
326,231,48513,2,0,P|333:207|341:183,1,49.5000015106202,10|0,3:2|0:0,0:0:0:0:
445,92,48747,2,0,P|437:115|429:139,1,49.5000015106202,10|0,1:2|0:0,0:0:0:0:
512,307,48982,1,2,0:0:0:0:
512,307,49099,1,2,0:0:0:0:
512,307,49216,2,0,P|502:238|413:236,1,148.50000453186,10|2,3:2|1:2,0:0:0:0:
413,236,49685,1,10,1:2:0:0:
331,63,49919,1,0,1:0:0:0:
331,63,50036,1,0,1:0:0:0:
331,63,50154,6,0,P|362:131|454:123,1,148.50000453186,4|0,3:2|1:0,0:0:0:0:
457,115,50622,2,0,P|470:67|485:15,1,99.0000030212403,10|0,1:2|0:0,0:0:0:0:
316,204,51091,2,0,P|297:276|273:355,1,148.50000453186,2|0,3:2|1:0,0:0:0:0:
247,370,51560,1,10,1:2:0:0:
413,236,51794,1,2,0:0:0:0:
154,339,52029,6,0,P|99:316|110:181,1,198.000006042481,2|8,3:2|1:2,0:0:0:0:
230,118,52732,1,2,1:2:0:0:
230,118,52849,1,0,1:0:0:0:
230,118,52966,1,2,3:2:0:0:
178,247,53200,1,0,1:0:0:0:
178,247,53318,1,2,1:2:0:0:
295,324,53552,1,0,1:0:0:0:
295,324,53669,1,2,1:2:0:0:
412,249,53904,5,10,3:2:0:0:
441,165,54138,1,10,3:2:0:0:
368,113,54372,1,10,3:2:0:0:
295,324,54607,5,10,3:2:0:0:
277,331,54724,1,0,3:0:0:0:
258,338,54841,1,10,3:2:0:0:
74,266,55075,1,10,3:2:0:0:
144,64,55310,1,10,3:2:0:0:
144,64,55544,6,0,P|155:94|161:112,1,49.5000015106202,10|0,3:2|3:0,0:0:0:0:
10,214,55779,5,10,3:2:0:0:
53,190,55896,1,2,3:2:0:0:
98,169,56013,1,2,3:2:0:0:
143,150,56130,1,2,3:2:0:0:
190,134,56247,1,2,3:2:0:0:
238,120,56364,1,2,3:2:0:0:
286,109,56482,1,2,3:2:0:0:
335,100,56599,1,4,3:1:0:0:
335,100,56833,5,8,3:0:0:0:
351,109,56950,2,0,P|390:69|366:26,1,90,4|0,3:0|0:0,0:0:0:0:
309,0,57185,2,0,B|297:18|296:34|296:34|377:84|409:168|397:264,1,270,14|0,1:0|0:0,0:0:0:0:
480,293,57654,6,0,P|477:230|416:221,1,135,4|0,3:2|0:0,0:0:0:0:
283,384,58122,6,0,P|344:354|420:353,1,135.000005149842,10|0,1:2|0:0,0:0:0:0:
228,238,58474,1,2,0:0:0:0:
267,263,58591,1,2,3:2:0:0:
248,306,58708,2,0,P|201:337|108:338,1,135.000005149842,2|0,0:0|0:0,0:0:0:0:
84,309,59060,1,10,1:2:0:0:
195,66,59294,2,0,L|171:131,1,67.5000025749208,2|0,0:0|0:0,0:0:0:0:
156,256,59529,6,0,B|142:184|109:234|89:143,1,135.000005149842,2|0,3:2|0:0,0:0:0:0:
355,232,59997,2,0,B|283:245|333:278|242:298,1,135.000005149842,10|0,1:2|0:0,0:0:0:0:
231,209,60349,2,0,P|242:177|256:146,1,67.5000025749208,2|0,0:0|3:0,0:0:0:0:
327,47,60583,1,2,0:0:0:0:
286,65,60700,2,0,P|314:78|351:88,1,67.5000025749208,2|0,0:0|0:0,0:0:0:0:
117,6,60935,2,0,P|179:19|195:81,1,135.000005149842,10|0,1:2|0:0,0:0:0:0:
154,156,61286,1,2,0:0:0:0:
128,126,61404,6,0,P|100:116|63:107,1,67.5000025749208,2|0,3:1|0:0,0:0:0:0:
15,181,61638,2,0,P|26:149|37:118,1,67.5000025749208,2|0,0:1|0:0,0:0:0:0:
0,0,61872,2,0,B|-3:75|54:44|52:129,1,135.000005149842,10|0,1:2|0:0,0:0:0:0:
93,196,62224,1,2,0:0:0:0:
79,239,62341,6,0,P|89:272|102:302,1,67.5000025749208,2|0,3:1|0:0,0:0:0:0:
22,352,62575,2,0,P|54:341|85:328,1,67.5000025749208,2|0,0:1|0:0,0:0:0:0:
201,378,62810,2,0,B|108:356|169:332|73:308,1,135.000005149842,10|0,1:2|0:0,0:0:0:0:
253,256,63161,6,0,P|258:289|270:320,1,67.5000025749208,2|0,0:1|3:0,0:0:0:0:
351,361,63396,1,2,0:3:0:0:
397,365,63513,1,2,1:2:0:0:
428,329,63630,1,2,0:3:0:0:
413,284,63747,2,0,P|398:224|379:139,1,135.000005149842,2|0,1:0|0:0,0:0:0:0:
472,164,64099,6,0,P|457:206|411:215,1,78.7500007510185,2|0,0:1|3:0,0:0:0:0:
255,69,64333,1,2,0:0:0:0:
285,40,64450,2,0,P|322:48|338:83,1,78.7500007510185,2|0,0:1|0:0,0:0:0:0:
428,75,64685,6,0,B|416:103|383:121|383:121|327:100|222:123|187:200,1,270,14|0,1:0|0:0,0:0:0:0:
103,112,65154,6,0,P|166:104|195:161,1,135,4|0,3:2|0:0,0:0:0:0:
229,336,65622,6,0,P|246:271|284:216,1,135.000005149842,10|0,1:2|0:0,0:0:0:0:
142,340,65974,1,2,0:0:0:0:
117,380,66091,1,2,3:2:0:0:
70,373,66208,2,0,P|35:330|25:237,1,135.000005149842,2|0,0:0|0:0,0:0:0:0:
44,211,66560,1,10,1:2:0:0:
210,45,66794,2,0,P|205:88|176:106,1,67.5000025749208,2|0,0:0|0:0,0:0:0:0:
53,122,67029,6,0,B|143:141|93:174|165:188,1,135.000005149842,2|2,3:2|0:0,0:0:0:0:
245,336,67497,1,10,1:2:0:0:
213,315,67614,2,0,B|232:225|265:275|279:203,1,135.000005149842,2|2,0:2|0:0,0:0:0:0:
259,171,67966,1,2,3:2:0:0:
423,6,68200,2,0,P|400:65|336:71,1,135.000005149842,2|10,0:0|1:2,0:0:0:0:
293,91,68552,2,0,P|295:58|330:25,1,67.5000025749208,2|0,0:0|0:0,0:0:0:0:
342,161,68786,1,2,0:0:0:0:
368,191,68904,6,0,P|396:201|433:210,1,67.5000025749208,2|0,3:1|0:0,0:0:0:0:
474,134,69138,2,0,P|460:168|452:197,1,67.5000025749208,2|0,1:1|0:0,0:0:0:0:
481,319,69372,1,10,1:2:0:0:
512,333,69489,2,0,B|496:254|454:295|448:218,1,135.000005149842,2|2,1:2|0:0,0:0:0:0:
372,284,69841,6,0,P|358:314|348:347,1,67.5000025749208,2|0,3:1|0:0,0:0:0:0:
262,335,70075,2,0,P|293:345|325:359,1,67.5000025749208,2|0,1:1|0:0,0:0:0:0:
283,152,70310,1,10,1:2:0:0:
263,189,70427,2,0,P|281:231|300:268,1,67.5000025749208,2|0,1:2|0:0,0:0:0:0:
103,384,70661,6,0,B|131:286|163:362|194:264,1,157.500001502037,4|0,3:2|0:0,0:0:0:0:
74,170,71013,2,0,P|91:205|108:240,1,78.7500007510185,2|0,3:1|0:0,0:0:0:0:
266,28,71247,5,10,1:0:0:0:
187,33,71364,1,2,3:2:0:0:
142,98,71482,1,2,3:2:0:0:
175,174,71599,1,10,1:0:0:0:
175,174,71833,5,10,1:0:0:0:
192,184,71950,2,0,P|233:216|209:267,1,90,0|0,1:0|1:0,0:0:0:0:
118,329,72185,2,0,B|151:309|172:308|172:308|176:225|268:164|336:203,1,270,14|0,1:1|0:0,0:0:0:0:
349,85,72654,6,0,P|293:123|330:191,1,135,4|0,3:2|0:0,0:0:0:0:
438,284,73122,6,0,P|408:223|407:147,1,135.000005149842,10|0,1:2|0:0,0:0:0:0:
311,278,73474,1,2,0:0:0:0:
350,303,73591,1,2,3:2:0:0:
331,346,73708,2,0,P|284:377|191:378,1,135.000005149842,2|0,0:0|0:0,0:0:0:0:
169,353,74060,1,10,1:2:0:0:
196,108,74294,2,0,L|220:173,1,67.5000025749208,2|0,0:0|0:0,0:0:0:0:
235,298,74529,6,0,B|249:226|282:276|302:185,1,135.000005149842,2|0,3:2|0:0,0:0:0:0:
36,274,74997,2,0,B|108:287|58:320|149:340,1,135.000005149842,10|0,1:2|0:0,0:0:0:0:
160,251,75349,2,0,P|149:219|135:188,1,67.5000025749208,2|0,0:0|3:0,0:0:0:0:
62,87,75583,1,2,0:0:0:0:
103,105,75700,2,0,P|75:118|38:128,1,67.5000025749208,2|0,0:0|0:0,0:0:0:0:
273,32,75935,2,0,P|211:45|195:107,1,135.000005149842,10|0,1:2|0:0,0:0:0:0:
250,176,76286,1,2,0:0:0:0:
276,146,76404,6,0,P|304:136|341:127,1,67.5000025749208,2|0,3:1|0:0,0:0:0:0:
389,201,76638,2,0,P|378:169|367:138,1,67.5000025749208,2|0,0:1|0:0,0:0:0:0:
411,0,76872,2,0,B|414:75|357:44|359:129,1,135.000005149842,10|0,1:2|0:0,0:0:0:0:
310,222,77224,1,2,0:0:0:0:
327,259,77341,6,0,P|317:292|304:322,1,67.5000025749208,2|0,3:1|0:0,0:0:0:0:
375,371,77575,2,0,P|343:360|311:346,1,67.5000025749208,2|0,0:1|0:0,0:0:0:0:
198,374,77810,2,0,B|290:371|240:330|318:326,1,135.000005149842,10|0,1:2|0:0,0:0:0:0:
466,271,78161,6,0,P|436:287|404:295,1,67.5000025749208,2|0,0:1|3:0,0:0:0:0:
262,152,78396,1,2,0:3:0:0:
276,100,78513,1,2,1:2:0:0:
327,83,78630,1,2,0:3:0:0:
373,113,78747,2,0,P|352:175|335:243,1,135.000005149842,2|0,1:0|0:0,0:0:0:0:
499,81,79099,6,0,P|484:123|438:132,1,78.7500007510185,2|0,0:1|3:0,0:0:0:0:
251,244,79333,1,2,0:0:0:0:
218,261,79450,2,0,P|186:245|180:199,1,78.7500007510185,2|0,0:1|0:0,0:0:0:0:
331,347,79685,6,0,B|308:291|203:268|147:289|147:289|114:271|102:243,1,270,14|0,1:0|0:0,0:0:0:0:
34,152,80154,6,0,P|31:222|97:234,1,135,4|0,3:2|0:0,0:0:0:0:
117,118,80622,6,0,P|126:53|172:-3,1,135.000005149842,10|0,1:2|0:0,0:0:0:0:
294,125,80974,1,2,0:0:0:0:
300,171,81091,1,2,3:2:0:0:
264,200,81208,2,0,P|225:162|219:64,1,135.000005149842,2|0,0:0|0:0,0:0:0:0:
241,47,81560,1,10,1:2:0:0:
468,29,81794,2,0,P|437:81|437:107,1,67.5000025749208,2|0,0:0|0:0,0:0:0:0:
308,111,82029,6,0,B|389:125|338:157|420:177,1,135.000005149842,2|2,3:2|0:0,0:0:0:0:
293,363,82497,1,10,1:2:0:0:
261,342,82614,2,0,B|280:252|313:302|327:230,1,135.000005149842,2|2,0:2|0:0,0:0:0:0:
294,206,82966,1,2,3:2:0:0:
56,291,83200,2,0,P|79:350|143:356,1,135.000005149842,2|10,0:0|1:2,0:0:0:0:
183,384,83552,2,0,P|173:354|172:309,1,67.5000025749208,2|0,0:0|0:0,0:0:0:0:
134,240,83786,1,2,0:0:0:0:
114,205,83904,6,0,P|86:195|49:186,1,67.5000025749208,2|0,3:1|0:0,0:0:0:0:
52,96,84138,2,0,P|42:128|29:159,1,67.5000025749208,2|0,1:1|0:0,0:0:0:0:
232,86,84372,1,10,1:2:0:0:
246,55,84489,2,0,B|167:71|208:113|131:119,1,135.000005149842,2|2,1:2|0:0,0:0:0:0:
246,211,84841,6,0,P|255:178|269:148,1,67.5000025749208,2|0,3:1|0:0,0:0:0:0:
360,161,85075,2,0,P|329:147|297:137,1,67.5000025749208,2|0,1:1|0:0,0:0:0:0:
335,341,85310,1,10,1:2:0:0:
355,304,85427,2,0,P|337:262|318:225,1,67.5000025749208,2|0,1:2|0:0,0:0:0:0:
510,114,85661,6,0,B|479:212|447:136|419:234,1,157.500001502037,4|0,3:2|0:0,0:0:0:0:
389,25,86013,2,0,P|406:60|423:95,1,78.7500007510185,2|0,3:1|0:0,0:0:0:0:
263,314,86247,5,10,1:0:0:0:
235,236,86364,1,2,3:2:0:0:
279,165,86482,1,2,3:2:0:0:
361,151,86599,1,10,1:0:0:0:
96,72,86833,5,10,1:1:0:0:
65,116,86950,1,2,3:2:0:0:
87,165,87068,1,2,3:2:0:0:
137,184,87185,2,0,P|180:178|204:149,1,67.5000025749208,10|0,1:0|1:0,0:0:0:0:
287,14,87419,1,0,1:0:0:0:
204,44,87536,6,0,B|202:60|181:76|181:76|259:77|306:128,1,180,4|0,3:2|0:0,0:0:0:0:
306,128,87888,1,2,1:2:0:0:
473,14,88122,1,2,1:2:0:0:
502,33,88239,2,0,P|507:87|450:102,1,90,8|0,3:0|0:0,0:0:0:0:
358,276,88474,6,0,B|353:248|332:232|332:232|382:218|426:159|390:100,1,180,4|0,3:2|0:2,0:0:0:0:
402,137,88825,1,2,3:2:0:0:
441,310,89060,1,0,1:0:0:0:
441,310,89177,2,0,L|455:375,1,67.5000025749208,0|0,1:0|1:0,0:0:0:0:
256,192,89411,12,0,90466,0:0:0:0:
256,336,90583,5,2,1:2:0:0:
256,336,90700,2,0,B|271:292|236:307|263:257,1,67.5000025749208,0|0,1:0|3:0,0:0:0:0:
162,277,90935,2,0,B|288:272|206:330|353:321,1,202.500007724762,14|0,1:0|0:0,0:0:0:0:
442,249,91404,6,0,P|420:297|338:288,1,121.499996292114,4|0,3:2|0:0,0:0:0:0:
359,210,91872,6,0,P|371:158|390:107,1,107.999996704102,10|0,1:2|0:0,0:0:0:0:
286,18,92224,1,2,0:0:0:0:
307,11,92341,1,2,3:2:0:0:
323,20,92458,2,0,P|310:72|291:123,1,107.999996704102,2|2,0:2|0:0,0:0:0:0:
272,134,92810,1,8,1:2:0:0:
77,167,93044,2,0,P|104:99|192:89,1,161.999995056153,2|0,0:0|0:0,0:0:0:0:
220,64,93513,6,0,P|193:59|170:45,1,53.9999983520508,2|0,0:0|0:0,0:0:0:0:
374,165,93747,2,0,P|324:146|272:134,1,107.999996704102,10|0,1:2|0:0,0:0:0:0:
193,170,94099,2,0,P|179:199|182:240,1,53.9999983520508,2|0,1:2|3:0,0:0:0:0:
248,323,94333,1,2,0:0:0:0:
237,311,94450,2,0,P|251:282|248:241,1,53.9999983520508,2|0,0:2|0:0,0:0:0:0:
336,253,94685,1,10,1:2:0:0:
151,335,94919,5,2,3:2:0:0:
114,330,95036,2,0,P|68:289|86:240,1,116.999994644165,4|0,3:2|0:0,0:0:0:0:
107,213,95388,2,0,P|133:224|165:228,1,58.4999973220826,2|0,3:2|0:0,0:0:0:0:
274,155,95622,1,10,1:2:0:0:
252,123,95739,2,0,P|244:153|235:181,1,58.4999973220826,2|0,0:0|0:0,0:0:0:0:
29,33,95974,2,0,B|132:64|35:101|159:134,1,175.499991966248,4|2,3:2|3:2,0:0:0:0:
241,0,96560,5,10,1:2:0:0:
231,34,96677,2,0,P|202:44|161:53,1,58.4999973220826,2|0,3:2|0:0,0:0:0:0:
356,209,96911,2,0,P|333:157|272:156,1,116.999994644165,4|0,3:2|0:0,0:0:0:0:
252,123,97263,2,0,P|244:153|234:184,1,58.4999973220826,2|0,3:2|0:0,0:0:0:0:
326,62,97497,5,10,1:2:0:0:
260,273,97732,1,0,1:0:0:0:
269,288,97849,1,2,1:2:0:0:
