osu file format v14

[General]
AudioFilename: audio.ogg
AudioLeadIn: 0
PreviewTime: 56716
Countdown: 0
SampleSet: Soft
StackLeniency: 0.7
Mode: 0
LetterboxInBreaks: 0
WidescreenStoryboard: 1

[Editor]
DistanceSpacing: 1.4
BeatDivisor: 4
GridSize: 16
TimelineZoom: 1.4

[Metadata]
Title:Oogesa ni Ai to Yobun da
TitleUnicode:大げさに愛と呼ぶんだ
Artist:Various Artists
ArtistUnicode:Various Artists
Creator:Garden
Version:Hard
Source:大室家 dear sisters
Tags:ohmuro-ke ohmuroke oomuro-ke oomuroke omrk ending ed anime movie japanese pop jpop j-pop 大室花子 日高里菜 小川こころ 倉知玲鳳 相馬未来 伊藤彩沙 高崎みさき 古賀葵 Hanako Ohmuro Oomuro Rina Hidaka Kokoro Ogawa Reo Kurachi Mirai Soma Souma Ayasa Ito Itou Misaki Takasaki Aoi Koga ゆるゆり yuruyuri
BeatmapID:4524587
BeatmapSetID:2147375

[Difficulty]
HPDrainRate:4
CircleSize:4
OverallDifficulty:6
ApproachRate:7.5
SliderMultiplier:1.5
SliderTickRate:1

[Events]
//Background and Video events
0,0,"BG.jpg",0,0
Video,0,"ed.avi"
//Break Periods
//Storyboard Layer 0 (Background)
//Storyboard Layer 1 (Fail)
//Storyboard Layer 2 (Pass)
//Storyboard Layer 3 (Foreground)
//Storyboard Layer 4 (Overlay)
//Storyboard Sound Samples

[TimingPoints]
1404,468.75,4,2,1,40,1,0
1404,-133.333333333333,4,2,1,40,0,0
7497,-133.333333333333,4,2,1,50,0,0
8435,-111.111111111111,4,2,1,50,0,0
8904,-111.111111111111,4,2,1,60,0,0
9372,-100,4,2,1,60,0,0
15935,-76.9230769230769,4,2,1,60,0,0
16404,-90.9090909090909,4,2,1,70,0,0
23904,-100,4,2,1,60,0,0
56833,-66.6666666666667,4,2,1,60,0,0
57654,468.75,4,2,1,75,1,0
57654,-111.111111111111,4,2,1,75,0,0
58122,-83.3333333333333,4,2,1,75,0,0
64099,-74.0740740740741,4,2,1,75,0,0
64685,-66.6666666666667,4,2,1,75,0,0
65154,-111.111111111111,4,2,1,75,0,0
65622,-83.3333333333333,4,2,1,75,0,0
71247,-74.0740740740741,4,2,1,75,0,0
71833,-66.6666666666667,4,2,1,75,0,0
72654,-111.111111111111,4,2,1,75,0,0
73122,-83.3333333333333,4,2,1,75,0,0
79099,-74.0740740740741,4,2,1,75,0,0
79685,-66.6666666666667,4,2,1,75,0,0
80154,-111.111111111111,4,2,1,75,0,0
80622,-83.3333333333333,4,2,1,75,0,0
85661,-74.0740740740741,4,2,1,75,0,0
87536,-66.6666666666667,4,2,1,75,0,0
89060,-83.3333333333333,4,2,1,75,0,0
89411,-83.3333333333333,4,2,1,40,0,0
90935,-83.3333333333333,4,2,1,75,0,0
91404,468.75,4,2,1,70,1,0
91404,-90.9090909090909,4,2,1,70,0,0

[Colours]
Combo1 : 255,181,106
Combo2 : 199,141,141
Combo3 : 255,222,106
Combo4 : 186,155,137

[HitObjects]
106,331,1404,6,0,P|177:316|202:269,1,112.500004291535,2|0,0:0|0:0,0:0:0:0:
197,286,2341,2,0,P|150:249|161:186,1,112.500004291535,2|0,0:0|0:0,0:0:0:0:
214,152,3044,2,0,P|240:160|268:167,2,56.2500021457673,2|0|0,0:0|0:0|0:0,0:0:0:0:
151,200,3747,2,0,P|106:183|100:142,1,84.3750032186509,2|2,0:0|0:0,0:0:0:0:
129,36,4450,6,0,P|160:34|191:22,1,56.2500021457673,2|0,0:0|0:0,0:0:0:0:
260,62,4919,1,0,0:0:0:0:
260,62,5036,2,0,P|265:107|286:154,1,84.3750032186509,2|0,0:0|0:0,0:0:0:0:
332,201,5622,2,0,P|365:169|354:125,2,84.3750032186509,2|2|0,0:0|0:0|0:0,0:0:0:0:
255,218,6560,5,2,0:0:0:0:
311,279,6794,1,0,0:0:0:0:
311,279,6911,2,0,P|352:288|400:292,1,84.3750032186509,2|0,0:0|0:0,0:0:0:0:
463,254,7497,2,0,P|506:280|500:324,2,84.3750032186509,2|2|0,0:0|0:0|0:0,0:0:0:0:
406,197,8435,6,0,B|418:121|461:159|471:80,1,134.999995880127,2|2,0:0|3:2,0:0:0:0:
470,83,9372,6,0,P|426:77|373:57,1,75,0|0,1:0|0:0,0:0:0:0:
377,53,9724,2,0,P|382:33|388:10,2,37.5,0|2|2,1:0|1:2|0:0,0:0:0:0:
300,112,10193,1,0,0:0:0:0:
300,112,10310,2,0,P|288:147|278:183,1,75,0|2,1:0|3:2,0:0:0:0:
336,269,10779,5,0,3:0:0:0:
419,219,11013,1,2,0:0:0:0:
336,269,11247,2,0,P|321:327|362:353,2,112.5,2|0|0,1:2|1:0|0:0,0:0:0:0:
419,219,12185,5,2,1:2:0:0:
419,219,12302,1,2,3:2:0:0:
334,170,12536,2,0,B|261:175|300:207|234:214,1,112.5,4|2,3:2|3:2,0:0:0:0:
149,262,13122,5,2,1:2:0:0:
149,262,13239,1,2,3:2:0:0:
234,213,13474,2,0,B|266:147|218:165|245:104,1,112.5,4|2,3:2|3:2,0:0:0:0:
245,7,14060,5,2,1:2:0:0:
245,7,14177,1,2,3:2:0:0:
245,105,14411,2,0,B|285:165|294:115|333:169,1,112.5,4|2,3:2|3:2,0:0:0:0:
419,219,14997,6,0,P|401:252|394:292,1,75,2|0,3:2|3:0,0:0:0:0:
396,309,15349,1,2,1:2:0:0:
313,373,15583,1,2,1:2:0:0:
294,368,15700,1,2,1:2:0:0:
276,362,15818,1,0,3:0:0:0:
257,356,15935,2,0,P|278:309|289:246,1,97.4999955368044,14|0,1:1|0:0,0:0:0:0:
213,186,16404,6,0,P|117:193|99:279,1,165.000005035401,4|10,3:2|1:2,0:0:0:0:
287,264,17224,1,2,0:0:0:0:
298,251,17341,1,2,3:2:0:0:
296,235,17458,2,0,P|310:181|328:132,1,82.5000025177003,2|2,0:2|0:0,0:0:0:0:
330,139,17810,1,8,1:2:0:0:
423,191,18044,6,0,P|483:124|441:52,1,165.000005035401,2|2,0:0|0:0,0:0:0:0:
368,3,18747,1,10,1:2:0:0:
269,130,19099,1,2,1:2:0:0:
278,145,19216,2,0,L|322:156,2,41.2500012588501,0|0|2,3:0|1:0|0:0,0:0:0:0:
201,221,19685,1,10,1:2:0:0:
125,152,19919,5,2,3:2:0:0:
125,152,20036,2,0,P|137:87|158:30,1,123.75000377655,4|2,3:2|3:2,0:0:0:0:
262,4,20622,1,10,1:2:0:0:
262,4,20739,1,2,0:0:0:0:
336,81,20974,2,0,P|324:146|303:203,1,123.75000377655,4|2,3:2|3:2,0:0:0:0:
201,221,21560,1,10,1:2:0:0:
201,221,21677,1,2,3:2:0:0:
304,200,21911,6,0,B|377:219|323:251|400:268,1,123.75000377655,4|2,3:2|3:2,0:0:0:0:
474,345,22497,2,0,P|433:352|395:368,1,82.5000025177003,10|0,1:2|1:0,0:0:0:0:
376,377,22849,1,0,1:0:0:0:
302,305,23083,1,0,1:0:0:0:
302,305,23200,1,2,1:2:0:0:
333,207,23435,1,2,1:2:0:0:
333,207,23552,1,2,0:3:0:0:
333,207,23669,1,2,0:3:0:0:
425,168,23904,5,4,3:2:0:0:
425,168,24372,2,0,P|465:114|430:68,1,112.5,2|2,3:2|3:2,0:0:0:0:
255,6,25310,2,0,P|261:41|273:87,1,75,10|0,0:0|0:0,0:0:0:0:
223,147,25779,5,2,3:2:0:0:
223,147,26247,2,0,P|155:140|140:100,1,112.5,2|2,3:2|3:2,0:0:0:0:
27,278,27185,6,0,P|106:251|196:238,1,150,10|0,0:0|3:0,0:0:0:0:
171,239,28122,2,0,P|171:295|240:302,1,112.5,2|2,3:2|3:2,0:0:0:0:
413,379,29060,2,0,P|404:327|392:284,1,75,10|0,0:0|0:0,0:0:0:0:
326,263,29529,5,2,3:2:0:0:
326,263,29997,2,0,P|308:204|349:175,1,112.5,2|2,3:2|3:2,0:0:0:0:
505,60,30935,6,0,B|421:59|464:3|372:3,1,150,2|4,3:2|3:2,0:0:0:0:
373,3,31872,6,0,L|350:100,1,75,10|0,1:2|0:0,0:0:0:0:
369,96,32224,2,0,P|363:121|357:147,1,37.5,2|0,0:0|3:0,0:0:0:0:
287,185,32575,1,2,0:0:0:0:
230,114,32810,2,0,P|240:73|251:33,1,75,10|2,1:2|0:0,0:0:0:0:
230,18,33161,1,2,0:0:0:0:
230,18,33279,6,0,P|193:28|137:41,1,75,2|2,3:2|0:0,0:0:0:0:
90,96,33747,1,10,1:2:0:0:
165,161,33982,1,2,0:0:0:0:
165,161,34099,1,2,0:0:0:0:
165,161,34216,2,0,P|149:238|67:246,1,150,2|8,3:2|1:2,0:0:0:0:
15,199,34919,2,0,L|23:157,2,37.5,2|2|2,0:0|0:0|3:2,0:0:0:0:
68,371,35622,6,0,P|110:361|162:353,1,75,10|2,1:2|0:0,0:0:0:0:
166,348,35974,2,0,P|171:325|178:298,1,37.5,2|0,0:0|3:2,0:0:0:0:
251,264,36325,1,2,0:0:0:0:
194,193,36560,2,0,P|200:158|211:109,1,75,10|0,1:2|0:0,0:0:0:0:
220,93,36911,1,2,0:0:0:0:
220,93,37029,5,2,3:2:0:0:
296,46,37263,1,2,0:0:0:0:
349,118,37497,2,0,P|341:154|334:191,1,75,10|2,1:2|0:0,0:0:0:0:
330,215,37849,1,2,3:2:0:0:
251,264,38083,1,0,3:0:0:0:
251,264,38200,2,0,P|244:289|242:306,2,37.5,4|0|10,3:1|0:0|1:2,0:0:0:0:
317,355,38669,6,0,P|416:337|436:294,1,150,4|10,3:2|3:2,0:0:0:0:
489,228,39372,2,0,P|452:219|413:211,1,75,10|0,1:2|0:0,0:0:0:0:
389,186,39724,1,2,0:0:0:0:
389,186,39841,2,0,B|400:118|428:158|444:83,1,112.5,2|2,3:2|0:0,0:0:0:0:
433,69,40310,1,10,1:2:0:0:
368,6,40544,6,0,P|332:18|296:26,1,75,2|0,0:0|3:0,0:0:0:0:
242,98,41013,1,10,3:2:0:0:
308,158,41247,2,0,P|300:197|287:232,1,75,10|0,1:2|0:0,0:0:0:0:
277,264,41599,1,2,0:0:0:0:
277,264,41716,2,0,B|201:250|252:215|165:208,1,112.5,2|2,3:2|0:0,0:0:0:0:
159,213,42185,1,10,1:2:0:0:
80,256,42419,6,0,P|29:207|67:127,1,150,2|2,0:0|0:0,0:0:0:0:
35,49,43122,2,0,P|80:61|125:67,1,75,10|0,1:2|0:0,0:0:0:0:
184,17,43591,5,2,3:2:0:0:
230,144,43943,5,2,3:2:0:0:
279,279,44294,5,0,1:0:0:0:
279,279,44411,1,0,1:0:0:0:
279,279,44529,2,0,P|269:318|265:355,1,75,4|2,3:2|3:2,0:0:0:0:
284,371,44880,1,2,1:2:0:0:
363,329,45114,1,2,1:2:0:0:
441,285,45349,2,0,P|447:248|455:211,1,75,2|2,1:2|1:2,0:0:0:0:
445,190,45700,2,0,P|426:187|408:183,2,37.5,10|0|10,1:2|1:0|1:2,0:0:0:0:
377,99,46169,6,0,P|305:96|264:156,1,150,4|2,3:2|3:2,0:0:0:0:
214,230,46872,2,0,P|251:235|287:243,1,75,10|0,1:2|0:0,0:0:0:0:
315,269,47224,1,2,0:0:0:0:
315,269,47341,2,0,P|328:332|279:361,1,112.5,2|2,3:2|0:0,0:0:0:0:
270,367,47810,1,10,1:2:0:0:
180,376,48044,6,0,P|166:336|160:296,1,75,2|0,0:0|3:0,0:0:0:0:
214,230,48513,1,10,3:2:0:0:
143,174,48747,1,10,1:2:0:0:
93,251,48982,1,2,0:0:0:0:
93,251,49099,1,2,0:0:0:0:
93,251,49216,2,0,P|19:236|18:200,2,112.5,10|2|0,3:2|1:2|1:0,0:0:0:0:
118,219,50036,1,0,1:0:0:0:
118,219,50154,6,0,B|139:156|78:178|99:113,1,112.5,4|0,3:2|1:0,0:0:0:0:
109,95,50622,2,0,P|151:86|184:73,1,75,10|0,1:2|0:0,0:0:0:0:
266,47,51091,2,0,B|244:109|305:87|285:153,1,112.5,2|0,3:2|1:0,0:0:0:0:
280,172,51560,1,10,1:2:0:0:
334,243,51794,1,2,0:0:0:0:
256,289,52029,6,0,P|197:299|137:319,2,112.5,2|2|2,3:2|0:0|1:2,0:0:0:0:
315,356,52966,1,2,3:2:0:0:
442,262,53318,1,2,1:2:0:0:
360,129,53669,1,2,1:2:0:0:
443,78,53904,6,0,P|454:34|465:-8,2,75,10|10|10,3:2|3:2|3:2,0:0:0:0:
360,129,54607,1,10,3:2:0:0:
291,60,54841,1,10,3:2:0:0:
211,116,55075,2,0,P|201:152|192:188,1,75,10|10,3:2|3:2,0:0:0:0:
257,274,55544,5,10,3:2:0:0:
257,274,55661,1,0,3:0:0:0:
257,274,55779,2,0,P|282:279|300:281,3,37.5,10|2|2|2,3:2|3:2|3:2|3:2,0:0:0:0:
330,257,56247,1,2,3:2:0:0:
335,239,56364,1,2,3:2:0:0:
340,220,56482,1,2,3:2:0:0:
345,201,56599,1,4,3:1:0:0:
447,124,56833,5,8,3:0:0:0:
447,124,56950,2,0,P|437:159|430:190,1,56.2500021457673,4|0,3:0|0:0,0:0:0:0:
432,178,57185,2,0,B|414:163|394:159|394:159|314:182|314:182|281:175|264:139,1,168.750006437302,14|0,1:0|0:0,0:0:0:0:
266,143,57654,6,0,P|261:88|184:88,1,134.999995880127,4|10,3:2|1:2,0:0:0:0:
26,22,58474,6,0,L|41:75,1,44.999998626709,2|2,0:0|3:2,0:0:0:0:
74,83,58708,2,0,P|85:132|100:181,1,89.9999972534181,2|0,0:0|0:0,0:0:0:0:
77,203,59060,1,10,1:2:0:0:
184,247,59294,1,2,0:0:0:0:
157,361,59529,5,2,3:2:0:0:
198,251,59763,1,2,0:0:0:0:
309,286,59997,2,0,P|363:238|335:175,2,134.999995880127,10|2|2,1:2|0:0|0:0,0:0:0:0:
198,251,60935,6,0,P|184:197|171:150,1,89.9999972534181,10|0,1:2|0:0,0:0:0:0:
166,129,61286,1,2,0:0:0:0:
166,129,61404,1,2,3:1:0:0:
132,17,61638,1,2,0:1:0:0:
243,52,61872,6,0,P|296:38|344:25,1,89.9999972534181,10|0,1:2|0:0,0:0:0:0:
365,20,62224,1,2,0:0:0:0:
365,20,62341,1,2,3:1:0:0:
468,73,62575,1,2,0:1:0:0:
369,137,62810,6,0,P|381:180|391:224,1,89.9999972534181,10|0,1:2|0:0,0:0:0:0:
427,235,63161,2,0,P|434:267|443:292,1,44.999998626709,2|0,0:1|3:0,0:0:0:0:
337,340,63513,2,0,P|344:361|347:383,2,44.999998626709,2|2|2,1:2|0:3|1:0,0:0:0:0:
243,277,63982,5,2,0:0:0:0:
243,277,64099,2,0,B|183:289|225:318|142:332,2,101.250000386238,2|2|0,0:1|0:1|0:0,0:0:0:0:
287,264,64685,6,0,B|263:262|238:246|238:246|211:180|211:180|191:164|141:158,1,168.750006437302,14|0,1:0|0:0,0:0:0:0:
149,159,65154,6,0,P|129:100|188:68,1,134.999995880127,4|10,3:2|1:2,0:0:0:0:
349,12,65974,6,0,L|334:65,1,44.999998626709,2|2,0:0|3:2,0:0:0:0:
351,88,66208,2,0,P|394:97|438:110,1,89.9999972534181,2|0,0:0|0:0,0:0:0:0:
475,94,66560,1,10,1:2:0:0:
510,205,66794,1,2,0:0:0:0:
398,242,67029,2,0,P|354:232|310:219,1,89.9999972534181,2|2,3:2|0:0,0:0:0:0:
248,126,67497,1,10,1:2:0:0:
248,126,67614,2,0,P|262:80|274:34,1,89.9999972534181,2|2,0:2|0:0,0:0:0:0:
251,10,67966,1,2,3:2:0:0:
134,3,68200,6,0,P|129:55|165:81,1,89.9999972534181,2|10,0:0|1:2,0:0:0:0:
154,77,68552,2,0,P|97:92|94:134,1,89.9999972534181,2|2,0:0|0:0,0:0:0:0:
92,152,68904,1,2,3:1:0:0:
196,204,69138,1,2,1:1:0:0:
99,267,69372,5,10,1:2:0:0:
99,267,69489,2,0,P|94:326|146:346,1,89.9999972534181,2|2,1:2|0:0,0:0:0:0:
153,359,69841,1,2,3:1:0:0:
256,304,70075,1,2,1:1:0:0:
196,204,70310,5,10,1:2:0:0:
201,182,70427,1,2,1:2:0:0:
207,160,70544,1,0,1:0:0:0:
213,138,70661,2,0,P|294:150|309:211,1,134.999995880127,4|2,3:2|3:1,0:0:0:0:
350,318,71247,6,0,P|399:277|372:222,1,101.250000386238,10|2,1:0|3:2,0:0:0:0:
395,245,71599,1,10,1:0:0:0:
265,308,71833,5,10,1:0:0:0:
265,308,71950,2,0,B|247:381,1,56.2500021457673,0|0,1:0|1:0,0:0:0:0:
251,362,72185,2,0,B|282:349|305:347|305:347|368:383|368:383|403:376|431:361,1,168.750006437302,14|0,1:1|0:0,0:0:0:0:
429,363,72654,6,0,P|489:332|471:261,1,134.999995880127,4|10,3:2|1:2,0:0:0:0:
485,97,73474,6,0,L|432:112,1,44.999998626709,2|2,0:0|3:2,0:0:0:0:
424,145,73708,2,0,P|375:156|326:171,1,89.9999972534181,2|0,0:0|0:0,0:0:0:0:
300,150,74060,1,10,1:2:0:0:
191,106,74294,1,2,0:0:0:0:
135,209,74529,5,2,3:2:0:0:
174,99,74763,1,2,0:0:0:0:
64,57,74997,2,0,P|6:113|40:169,2,134.999995880127,10|2|2,1:2|0:0|0:0,0:0:0:0:
174,99,75935,6,0,P|159:139|144:190,1,89.9999972534181,10|0,1:2|0:0,0:0:0:0:
139,222,76286,1,2,0:0:0:0:
139,222,76404,1,2,3:1:0:0:
28,259,76638,1,2,0:1:0:0:
120,330,76872,6,0,P|173:316|221:303,1,89.9999972534181,10|0,1:2|0:0,0:0:0:0:
243,300,77224,1,2,0:0:0:0:
243,300,77341,1,2,3:1:0:0:
336,370,77575,1,2,0:1:0:0:
352,253,77810,6,0,P|361:209|374:165,1,89.9999972534181,10|0,1:2|0:0,0:0:0:0:
348,139,78161,2,0,P|354:117|358:95,1,44.999998626709,2|0,0:1|3:0,0:0:0:0:
253,43,78513,2,0,P|255:20|263:0,2,44.999998626709,2|2|2,1:2|0:3|1:0,0:0:0:0:
157,109,78982,5,2,0:0:0:0:
157,109,79099,2,0,B|97:97|139:68|56:54,2,101.250000386238,2|2|0,0:1|0:1|0:0,0:0:0:0:
199,123,79685,6,0,B|179:123|150:141|150:141|115:200|115:200|92:212|57:210,1,168.750006437302,14|0,1:0|0:0,0:0:0:0:
48,211,80154,6,0,P|32:284|90:296,1,134.999995880127,4|10,3:2|1:2,0:0:0:0:
236,371,80974,6,0,L|248:327,1,44.999998626709,2|2,0:0|3:2,0:0:0:0:
276,307,81208,2,0,P|323:320|364:324,1,89.9999972534181,2|0,0:0|0:0,0:0:0:0:
392,352,81560,1,10,1:2:0:0:
475,270,81794,1,2,0:0:0:0:
392,187,82029,2,0,P|344:173|303:169,1,89.9999972534181,2|2,3:2|0:0,0:0:0:0:
204,227,82497,1,10,1:2:0:0:
204,227,82614,2,0,P|195:274|178:319,1,89.9999972534181,2|2,0:2|0:0,0:0:0:0:
166,346,82966,1,2,3:2:0:0:
66,285,83200,6,0,P|37:252|45:209,1,89.9999972534181,2|10,0:0|1:2,0:0:0:0:
45,209,83552,2,0,P|99:196|115:153,1,89.9999972534181,2|2,0:0|0:0,0:0:0:0:
117,130,83904,1,2,3:1:0:0:
30,51,84138,1,2,1:1:0:0:
144,18,84372,5,10,1:2:0:0:
144,18,84489,2,0,P|199:36|213:81,1,89.9999972534181,2|2,1:2|0:0,0:0:0:0:
218,96,84841,1,2,3:1:0:0:
206,212,85075,1,2,1:1:0:0:
313,163,85310,5,10,1:2:0:0:
335,168,85427,1,2,1:2:0:0:
357,174,85544,1,0,1:0:0:0:
379,180,85661,2,0,P|394:277|349:307,1,151.875000579357,4|2,3:2|3:1,0:0:0:0:
240,360,86247,6,0,P|227:305|216:250,1,101.250000386238,10|2,1:0|3:2,0:0:0:0:
211,220,86599,1,10,1:0:0:0:
117,302,86833,1,10,1:1:0:0:
117,302,86950,1,2,3:2:0:0:
49,198,87185,5,10,1:0:0:0:
42,173,87302,1,0,1:0:0:0:
36,148,87419,1,0,1:0:0:0:
30,124,87536,2,0,B|63:103|83:75|83:75|119:115|119:115|145:107|189:100,1,168.750006437302,4|2,3:2|1:2,0:0:0:0:
275,0,88122,1,2,1:2:0:0:
275,0,88239,2,0,P|242:11|198:19,1,56.2500021457673,8|0,3:0|0:0,0:0:0:0:
221,15,88474,6,0,B|214:57|256:72|256:72|278:93|277:120|277:120|252:133|258:175,1,168.750006437302,4|2,3:2|3:2,0:0:0:0:
256,192,88943,1,0,1:0:0:0:
259,197,89060,2,0,B|248:225|267:218|259:245,2,44.999998626709,0|0|0,1:0|1:0|1:0,0:0:0:0:
256,192,89411,12,14,90935,1:0:0:0:
256,192,91404,5,4,3:2:0:0:
