osu file format v14

[General]
AudioFilename: audio.mp3
AudioLeadIn: 0
PreviewTime: 55190
Countdown: 0
SampleSet: Soft
StackLeniency: 0.2
Mode: 0
LetterboxInBreaks: 0
StoryFireInFront: 0
WidescreenStoryboard: 1

[Editor]
Bookmarks: 159556,173077,188288,245550,262491,273786,285080,296374,299197,310491,321786,330256,335903,347197,358491,361315,372609,383903,392462,403668,417874,423344,428991,440374,451668,462962,474256,497232,506999,508395,519558,530720,540488,541883,553046,564209,569790,580953,590720,592116,603279,614441,626999,638162,649325,660488,670255,671651,682813,692581,693976,705139,710720
DistanceSpacing: 0.6
BeatDivisor: 4
GridSize: 16
TimelineZoom: 2.1

[Metadata]
Title:OneRoom Ending Song Anthology
TitleUnicode:OneRoom Ending Song Anthology
Artist:Various Artists
ArtistUnicode:Various Artists
Creator:Naotoshi
Version:OneDiff
Source:OneRoom
Tags:anime kantoku lolis compilation harumachi clover 春待ちクローバー aozora yell 夏空エール kibou refrain 希望リフレイン Mao Ichimichi M・A・O 真央市道 Rie Murakawa 梨衣村川 Mimori Suzuko すずこ三森 one room akitoshi corinn noffy
BeatmapID:1414519
BeatmapSetID:668069

[Difficulty]
HPDrainRate:5
CircleSize:4.2
OverallDifficulty:8.3
ApproachRate:9.1
SliderMultiplier:1.6
SliderTickRate:1

[Events]
//Background and Video events
0,0,"3 edited.jpg",0,0
//Break Periods
2,239185,244260
2,417809,422143
2,477633,482695
2,649525,659092
//Storyboard Layer 0 (Background)
//Storyboard Layer 1 (Fail)
//Storyboard Layer 2 (Pass)
//Storyboard Layer 3 (Foreground)
//Storyboard Sound Samples

[TimingPoints]
676,422.5352112676,4,2,2,60,1,0
12718,-100,4,2,2,50,0,0
14197,-100,4,2,2,45,0,0
40394,-100,4,2,2,65,0,0
41239,-100,4,2,2,45,0,0
47999,-133.3333333333,4,2,2,50,0,0
53070,-100,4,2,2,55,0,0
56450,-83.33333333333,4,2,2,75,0,1
86873,-100,4,2,2,45,0,0
99549,-100,4,2,2,65,0,0
100394,-100,4,2,2,45,0,0
107154,-100,4,2,2,50,0,0
112225,-100,4,2,2,55,0,0
115605,-83.33333333333,4,2,2,75,0,1
142647,-83.33333333333,4,2,2,50,0,0
144126,-113.6363636364,4,2,2,55,0,0
152788,-100,4,2,2,55,0,0
153422,-90.90909090909,4,2,2,55,0,0
154056,-83.33333333333,4,2,2,55,0,0
159126,-50,4,2,2,75,0,1
159443,-40,4,2,2,5,0,0
159549,-66.66666666667,4,2,2,75,0,1
173070,-100,4,2,2,45,0,0
195042,-83.33333333333,4,2,2,75,0,1
216908,-83.33333333333,4,2,2,55,0,0
222084,-100,4,2,2,60,0,0
238985,-100,4,2,0,5,0,0
244139,352.9411764706,4,2,1,60,1,0
251021,-100,4,2,1,55,0,0
296197,-100,4,2,1,60,0,0
299021,-83.33333333333,4,2,1,75,0,1
321786,-100,4,2,1,75,0,1
327168,-83.33333333333,4,2,1,75,0,1
330080,-83.33333333333,4,2,1,60,0,0
335727,-100,4,2,1,55,0,0
358315,-100,4,2,1,60,0,0
361138,-83.33333333333,4,2,1,75,0,1
384609,-100,4,2,1,75,0,1
389374,-83.33333333333,4,2,1,75,0,1
392197,-83.33333333333,4,2,1,60,0,0
403491,-100,4,2,1,60,0,1
417786,-100,4,2,2,45,0,0
423080,-100,4,2,1,60,0,0
428903,-83.33333333333,4,2,1,75,0,1
440374,-100,4,2,1,75,0,1
445491,-83.33333333333,4,2,1,75,0,1
451491,-83.33333333333,4,2,1,60,0,0
477433,-83.33333333333,4,2,1,5,0,0
483279,348.8372093023,4,2,2,25,1,0
483279,-166.6666666667,4,2,2,25,0,0
508395,-100,4,2,1,60,0,0
519558,-100,4,2,1,45,0,0
522348,-133.3333333333,4,2,1,45,0,0
530633,-133.3333333333,4,2,1,5,0,0
530720,-133.3333333333,4,2,1,45,0,0
540488,-133.3333333333,4,2,2,25,0,0
541883,-83.33333333333,4,2,1,75,0,1
564209,-95.2380952381,4,2,1,60,0,0
569790,-133.3333333333,4,2,1,45,0,0
592116,-83.33333333333,4,2,1,75,0,1
614441,-133.3333333333,4,2,1,45,0,0
615837,-90.90909090909,4,2,1,60,0,0
660139,-100,4,2,1,45,0,0
660488,-95.2380952381,4,2,1,45,0,0
670255,-95.2380952381,4,2,2,25,0,0
671651,-83.33333333333,4,2,1,75,0,1
692581,-200,4,2,1,45,0,0
693540,-200,4,2,1,5,0,0
693627,-66.66666666667,4,2,1,55,0,0
693976,-100,4,2,1,60,0,0
710720,-100,4,2,1,5,0,0

[Colours]
Combo1 : 201,156,95
Combo2 : 238,206,96
Combo3 : 174,243,105
Combo4 : 69,145,228
Combo5 : 205,11,210
Combo6 : 89,205,238

[HitObjects]
242,206,464,5,0,3:0:0:0:
223,175,570,1,0,3:0:0:0:
237,143,676,2,0,B|275:131|311:130|311:130|349:164|407:148,1,160,6|0,0:0|1:0,0:0:0:0:
512,38,1309,2,0,P|437:23|372:75,1,160,2|0,0:0|0:0,0:0:0:0:
469,191,1943,2,0,L|456:91,1,80,0|0,1:0|0:0,0:0:0:0:
512,273,2366,6,0,B|464:297|417:266|417:266|384:283|333:278,1,160,2|0,0:0|1:0,0:0:0:0:
249,321,2999,1,2,0:0:0:0:
249,321,3105,1,0,0:0:0:0:
249,321,3211,2,0,P|195:314|159:315,1,80,0|0,1:0|0:0,0:0:0:0:
271,221,3633,1,0,1:0:0:0:
164,195,3845,1,0,0:0:0:0:
164,195,3950,1,0,0:0:0:0:
164,195,4056,70,0,P|120:145|193:121,1,160,2|0,0:0|1:0,0:0:0:0:
244,234,4690,2,0,P|203:271|100:263,1,160,2|0,0:0|0:0,0:0:0:0:
40,133,5323,2,0,P|59:86|101:39,1,80,0|0,1:0|0:0,0:0:0:0:
152,141,5746,6,0,B|214:161|269:138|269:138|318:178,1,160,2|0,0:0|1:0,0:0:0:0:
361,89,6380,1,2,0:0:0:0:
361,89,6485,1,0,0:0:0:0:
361,89,6591,1,0,1:0:0:0:
212,58,6802,1,4,0:0:0:0:
313,8,7014,1,0,1:0:0:0:
263,197,7225,2,0,L|266:259,1,40,4|0,0:0|3:0,0:0:0:0:
331,132,7436,70,0,P|257:104|189:142,1,160,6|0,0:0|1:0,0:0:0:0:
184,316,8070,2,0,P|246:278|255:174,1,160,2|0,0:0|0:0,0:0:0:0:
135,160,8598,1,2,0:0:0:0:
103,176,8704,2,0,P|135:205|190:223,1,80,0|0,1:0|0:0,0:0:0:0:
360,218,9126,6,0,P|421:200|514:259,1,160,2|0,0:0|1:0,0:0:0:0:
414,370,9760,1,2,0:0:0:0:
414,370,9866,1,0,0:0:0:0:
414,370,9971,2,0,L|423:274,1,80,0|0,1:0|0:0,0:0:0:0:
266,183,10394,2,0,L|274:262,1,80,0|0,1:0|0:0,0:0:0:0:
186,338,10711,1,0,0:0:0:0:
149,327,10816,70,0,L|58:317,1,80,6|2,0:0|0:0,0:0:0:0:
69,318,11450,1,2,0:0:0:0:
65,191,11661,2,0,L|97:115,1,80,6|2,0:0|0:0,0:0:0:0:
183,229,12084,1,0,1:0:0:0:
360,179,12295,6,0,P|329:111|262:46,1,160,2|0,0:0|3:0,0:0:0:0:
245,41,12823,1,8,3:0:0:0:
219,37,12929,1,0,1:0:0:0:
431,107,13140,1,8,3:0:0:0:
431,107,13245,1,8,3:0:0:0:
431,107,13352,2,0,P|494:103|529:110,1,80,8|4,3:0|3:0,0:0:0:0:
404,267,13774,2,0,P|341:271|306:264,1,80,0|0,1:0|0:0,0:0:0:0:
360,179,14197,69,6,0:0:0:0:
169,206,14619,2,0,P|147:259|147:311,1,80,0|0,1:0|3:0,0:0:0:0:
283,329,15042,2,0,P|248:283|203:257,1,80,2|0,0:0|3:0,0:0:0:0:
57,291,15464,1,0,1:0:0:0:
119,366,15676,2,0,P|175:358|220:332,1,80,0|2,3:0|0:0,0:0:0:0:
322,236,16098,5,0,0:0:0:0:
312,361,16309,1,0,1:0:0:0:
220,241,16521,2,0,B|223:156,1,80,2|0,0:0|1:0,0:0:0:0:
237,37,16943,1,8,0:1:0:0:
337,99,17154,1,8,0:1:0:0:
141,128,17366,1,0,3:0:0:0:
141,128,17471,1,0,3:0:0:0:
141,128,17577,70,0,L|60:114,2,80,2|0|0,0:0|3:0|1:0,0:0:0:0:
283,233,18211,2,0,L|204:246,1,80,2|2,0:0|0:0,0:0:0:0:
136,350,18633,1,0,0:0:0:0:
261,328,18845,1,0,1:0:0:0:
110,260,19056,1,0,3:0:0:0:
110,260,19161,1,0,3:0:0:0:
110,260,19267,6,0,L|9:232,1,80,2|0,0:0|3:0,0:0:0:0:
101,165,19690,1,0,1:0:0:0:
204,246,19901,2,0,L|230:347,1,80,2|0,0:0|1:0,0:0:0:0:
126,301,20324,1,8,0:1:0:0:
145,172,20535,1,8,0:1:0:0:
293,221,20746,1,0,3:0:0:0:
222,91,20957,69,6,0:0:0:0:
391,150,21380,2,0,P|406:186|411:226,1,80,0|0,1:0|3:0,0:0:0:0:
337,298,21802,2,0,P|298:293|261:277,1,80,2|0,0:0|3:0,0:0:0:0:
323,207,22225,1,0,1:0:0:0:
237,173,22436,2,0,P|260:142|293:118,1,80,2|0,0:0|3:1,0:0:0:0:
488,111,22859,5,0,3:0:0:0:
390,21,23070,1,0,1:0:0:0:
391,150,23281,2,0,L|385:245,1,80,2|0,0:0|1:0,0:0:0:0:
313,334,23704,1,0,3:0:0:0:
451,308,23915,1,0,1:0:0:0:
295,255,24126,1,0,3:0:0:0:
295,255,24232,1,0,3:0:0:0:
295,255,24337,70,0,L|180:261,1,80,2|2,0:0|0:0,0:0:0:0:
143,309,24760,1,0,1:0:0:0:
154,151,24971,2,0,L|118:223,1,80,2|0,0:0|3:0,0:0:0:0:
144,58,25394,1,0,1:0:0:0:
233,89,25605,2,0,L|265:162,1,80,2|0,1:2|0:0,0:0:0:0:
348,230,25922,1,0,0:0:0:0:
377,237,26028,6,0,P|417:225|477:231,1,80,2|2,0:0|0:0,0:0:0:0:
454,225,26661,2,0,P|476:162|429:64,1,160,6|2,0:0|0:0,0:0:0:0:
302,143,27295,2,0,P|363:158|386:155,1,80,0|2,1:0|0:0,0:0:0:0:
289,44,27718,69,6,0:0:0:0:
165,282,28140,2,0,L|164:196,1,80,0|0,1:0|3:0,0:0:0:0:
34,96,28563,2,0,L|108:138,1,80,2|0,0:0|0:0,0:0:0:0:
252,212,28985,1,0,1:0:0:0:
260,75,29196,2,0,L|191:115,1,80,0|2,3:0|0:0,0:0:0:0:
347,137,29619,5,0,3:0:0:0:
362,41,29830,1,0,1:0:0:0:
438,173,30042,2,0,P|445:134|435:96,1,80,2|0,0:0|1:0,0:0:0:0:
363,252,30464,1,0,3:0:0:0:
485,273,30676,1,0,1:0:0:0:
353,363,30887,1,0,0:0:0:0:
353,363,30992,1,0,0:0:0:0:
353,363,31098,70,0,P|294:353|255:359,1,80,2|0,0:0|3:0,0:0:0:0:
207,277,31521,1,0,1:0:0:0:
49,337,31732,2,0,P|93:297|113:263,1,80,0|2,0:0|0:0,0:0:0:0:
207,277,32154,1,0,0:0:0:0:
234,110,32366,2,0,P|245:168|265:202,1,80,0|0,1:0|0:0,0:0:0:0:
402,273,32788,5,2,0:0:0:0:
332,219,32999,1,0,0:0:0:0:
363,194,33104,1,0,0:0:0:0:
401,184,33210,1,0,1:0:0:0:
485,240,33422,2,0,P|488:293|470:332,1,80,0|2,3:0|0:0,0:0:0:0:
305,308,33845,1,8,0:0:0:0:
332,218,34056,1,8,1:0:0:0:
390,362,34267,1,0,0:0:0:0:
417,168,34478,69,6,0:0:0:0:
196,68,34901,2,0,P|123:61|87:73,1,80,0|0,1:0|3:0,0:0:0:0:
249,155,35323,2,0,P|291:95|299:58,1,80,2|0,0:0|3:0,0:0:0:0:
257,5,35746,1,0,1:0:0:0:
147,157,35957,2,0,P|177:223|205:248,1,80,0|2,0:0|0:0,0:0:0:0:
296,231,36380,5,0,3:0:0:0:
241,311,36591,1,0,1:0:0:0:
249,155,36802,1,2,0:0:0:0:
249,155,36908,1,0,0:0:0:0:
249,155,37014,1,0,1:0:0:0:
388,170,37225,69,2,2:2:0:0:
335,63,37436,1,2,1:2:0:0:
249,155,37647,1,0,3:0:0:0:
49,44,37859,2,0,P|124:54|213:45,1,160,6|0,0:0|1:0,0:0:0:0:
135,163,38492,1,0,0:0:0:0:
18,125,38704,2,0,P|26:192|23:223,1,80,2|0,0:0|3:0,0:0:0:0:
105,330,39126,2,0,P|105:290|112:250,1,80,0|0,1:0|0:0,0:0:0:0:
225,296,39549,5,6,0:0:0:0:
298,264,39760,2,0,P|263:283|225:297,1,80,2|0,0:0|1:0,0:0:0:0:
210,175,40183,1,6,0:0:0:0:
385,241,40394,69,0,1:0:0:0:
400,215,40499,1,0,3:0:0:0:
399,185,40605,1,0,1:0:0:0:
384,160,40710,1,0,3:0:0:0:
357,147,40816,5,0,1:0:0:0:
389,123,40921,1,0,3:0:0:0:
427,114,41027,1,2,3:2:0:0:
466,122,41133,1,2,3:2:0:0:
498,146,41239,69,6,0:0:0:0:
241,48,41661,1,0,1:0:0:0:
334,28,41873,1,2,0:0:0:0:
201,135,42295,1,2,0:0:0:0:
171,225,42507,1,0,1:0:0:0:
313,120,42929,5,2,0:0:0:0:
336,316,43352,1,0,1:0:0:0:
441,280,43563,1,2,0:0:0:0:
230,338,43985,1,0,0:0:0:0:
125,302,44196,1,0,1:0:0:0:
130,173,44619,69,2,0:0:0:0:
307,249,45042,1,0,1:0:0:0:
311,138,45253,1,2,0:0:0:0:
505,265,45676,1,2,0:0:0:0:
407,318,45887,1,0,1:0:0:0:
451,118,46309,5,2,0:0:0:0:
267,71,46732,1,0,1:0:0:0:
377,33,46943,1,2,0:0:0:0:
276,262,47366,1,2,0:0:0:0:
220,161,47577,1,0,1:0:0:0:
220,161,47683,1,8,3:0:0:0:
220,161,47788,1,8,3:0:0:0:
248,273,47999,69,6,0:0:0:0:
141,242,48211,1,2,0:0:0:0:
114,134,48422,1,0,1:0:0:0:
194,57,48633,1,6,0:0:0:0:
327,195,49056,1,2,0:0:0:0:
300,88,49267,1,0,1:0:0:0:
354,304,49690,5,6,0:0:0:0:
247,273,49902,1,2,0:0:0:0:
220,165,50113,1,0,1:0:0:0:
300,88,50324,1,6,0:0:0:0:
433,226,50747,1,2,0:0:0:0:
406,119,50958,1,0,1:0:0:0:
327,195,51168,1,0,3:0:0:0:
195,69,51380,69,6,0:0:0:0:
208,265,51591,1,0,0:0:0:0:
114,120,51802,5,0,1:0:0:0:
92,315,52013,1,0,0:0:0:0:
282,125,52225,69,2,0:0:0:0:
295,321,52436,1,2,0:0:0:0:
201,176,52647,5,0,1:0:0:0:
179,371,52858,1,0,0:0:0:0:
340,220,53070,70,0,P|394:211|438:221,2,80,6|0|0,0:0|3:0|1:0,0:0:0:0:
390,304,53704,1,0,0:0:0:0:
501,156,53915,2,0,L|486:59,1,80,2|0,0:0|0:0,0:0:0:0:
272,82,54337,2,0,L|260:162,1,80,0|0,1:0|0:0,0:0:0:0:
349,350,54760,5,0,1:0:0:0:
209,280,54971,1,0,0:0:0:0:
341,247,55183,1,0,1:0:0:0:
126,366,55394,1,0,0:0:0:0:
101,361,55499,1,0,0:0:0:0:
76,356,55605,69,0,1:0:0:0:
209,280,55816,1,0,1:0:0:0:
19,241,56028,1,0,1:0:0:0:
127,199,56239,1,4,3:0:0:0:
237,363,56450,6,0,P|310:372|368:351,1,95.99999707031,6|0,0:0|0:0,0:0:0:0:
431,242,56873,2,0,P|358:233|305:249,1,95.99999707031,0|0,1:0|0:0,0:0:0:0:
495,341,57295,1,2,0:0:0:0:
499,158,57506,1,0,0:0:0:0:
382,317,57718,1,0,1:0:0:0:
264,194,57929,1,0,3:0:0:0:
264,194,58035,1,0,3:0:0:0:
264,194,58140,70,0,P|193:190|140:208,1,95.99999707031,2|0,0:0|0:0,0:0:0:0:
82,313,58563,1,0,1:0:0:0:
216,277,58774,1,0,0:0:0:0:
69,216,58985,2,0,L|45:105,2,95.99999707031,2|0|0,0:0|3:0|1:0,0:0:0:0:
148,75,59619,1,0,3:0:0:0:
356,147,59830,6,0,P|363:82|343:22,1,95.99999707031,2|0,0:0|0:0,0:0:0:0:
240,209,60253,2,0,P|236:248|258:313,1,95.99999707031,0|0,1:0|0:0,0:0:0:0:
412,353,60676,1,2,0:0:0:0:
329,242,60887,1,0,0:0:0:0:
169,355,61098,1,0,1:0:0:0:
240,209,61309,1,0,0:0:0:0:
68,73,61521,70,0,P|58:132|77:197,1,95.99999707031,2|0,0:0|0:0,0:0:0:0:
162,260,61943,1,0,1:0:0:0:
288,132,62154,2,0,P|222:121|165:133,2,95.99999707031,0|2|0,0:0|0:0|3:0,0:0:0:0:
365,219,62788,1,0,1:0:0:0:
366,73,62999,1,0,3:0:0:0:
366,73,63105,1,0,3:0:0:0:
366,73,63211,6,0,L|482:90,1,95.99999707031,6|0,0:0|0:0,0:0:0:0:
233,213,63633,2,0,L|117:230,1,95.99999707031,0|0,1:0|0:0,0:0:0:0:
331,313,64056,1,2,0:0:0:0:
343,153,64267,1,0,0:0:0:0:
443,229,64478,1,0,1:0:0:0:
227,324,64690,1,0,3:0:0:0:
227,324,64795,1,0,3:0:0:0:
227,324,64901,70,0,P|157:321|119:329,1,95.99999707031,6|0,0:0|0:0,0:0:0:0:
29,130,65323,2,0,P|99:127|137:135,1,95.99999707031,0|0,1:0|3:0,0:0:0:0:
258,229,65746,1,2,0:0:0:0:
74,217,65957,1,0,0:0:0:0:
246,93,66168,1,0,1:0:0:0:
182,298,66380,1,0,3:0:0:0:
182,298,66485,1,0,3:0:0:0:
182,298,66591,6,0,P|189:243|176:199,1,95.99999707031,6|0,0:0|0:0,0:0:0:0:
0,188,67014,2,0,P|44:221|88:232,1,95.99999707031,0|0,1:0|0:0,0:0:0:0:
172,84,67436,2,0,P|120:105|89:138,1,95.99999707031,2|0,0:0|0:0,0:0:0:0:
84,12,67859,1,0,1:0:0:0:
251,147,68070,1,0,3:0:0:0:
251,147,68176,1,0,3:0:0:0:
251,147,68281,69,6,0:0:0:0:
164,338,68492,1,0,3:0:0:0:
347,90,68704,5,6,0:0:0:0:
330,299,68915,1,0,3:0:0:0:
417,3,69126,69,6,0:0:0:0:
473,205,69337,1,0,3:0:0:0:
433,204,69442,1,0,3:0:0:0:
393,212,69548,1,0,1:0:0:0:
358,231,69653,1,0,3:0:0:0:
324,251,69759,1,0,3:0:0:0:
285,260,69865,1,0,3:0:0:0:
245,256,69971,6,0,P|231:177|239:141,1,95.99999707031,6|0,0:0|0:0,0:0:0:0:
431,291,70394,2,0,P|432:338|419:384,1,95.99999707031,0|0,1:0|0:0,0:0:0:0:
342,180,70816,1,2,0:0:0:0:
510,238,71028,1,0,0:0:0:0:
345,326,71239,1,0,1:0:0:0:
446,148,71450,1,0,3:0:0:0:
446,148,71556,1,0,3:0:0:0:
446,148,71661,70,0,P|379:140|334:150,1,95.99999707031,2|0,0:0|0:0,0:0:0:0:
247,247,72084,1,0,1:0:0:0:
235,69,72295,1,0,3:0:0:0:
170,149,72506,2,0,P|215:165|292:160,2,95.99999707031,2|0|0,0:0|3:0|1:0,0:0:0:0:
24,61,73140,1,0,3:0:0:0:
24,61,73246,1,0,3:0:0:0:
24,61,73352,6,0,P|89:52|146:68,1,95.99999707031,6|0,0:0|0:0,0:0:0:0:
127,276,73774,2,0,P|62:285|5:269,1,95.99999707031,0|0,1:0|0:0,0:0:0:0:
198,194,74197,1,2,0:0:0:0:
195,361,74408,1,0,0:0:0:0:
78,197,74619,1,0,1:0:0:0:
278,278,74830,1,0,0:0:0:0:
331,42,75042,70,0,P|306:99|315:154,1,95.99999707031,6|0,0:0|0:0,0:0:0:0:
427,255,75464,1,0,1:0:0:0:
403,118,75676,1,0,3:0:0:0:
403,118,75781,1,0,3:0:0:0:
403,118,75887,1,4,3:0:0:0:
320,241,76098,1,4,3:0:0:0:
508,170,76309,1,0,1:0:0:0:
278,126,76521,1,0,3:0:0:0:
278,126,76626,1,0,3:0:0:0:
278,126,76732,6,0,L|253:218,1,95.99999707031,6|0,0:0|0:0,0:0:0:0:
181,39,77154,1,0,1:0:0:0:
91,155,77366,1,0,3:0:0:0:
91,155,77471,1,0,3:0:0:0:
91,155,77577,1,4,3:0:0:0:
168,321,77788,1,4,3:0:0:0:
203,199,77999,1,0,1:0:0:0:
13,74,78211,70,0,P|-17:138|38:244,1,191.9999941406,6|4,0:0|3:0,0:0:0:0:
209,174,78845,1,0,1:0:0:0:
91,155,79056,1,0,0:0:0:0:
150,263,79267,1,4,3:0:0:0:
244,87,79478,1,4,3:0:0:0:
383,205,79690,1,0,1:0:0:0:
210,358,79901,6,0,P|148:376|47:313,1,191.9999941406,6|4,0:0|3:0,0:0:0:0:
150,263,80535,1,0,1:0:0:0:
49,191,80746,1,0,3:0:0:0:
49,191,80852,1,0,3:0:0:0:
49,191,80957,1,4,3:0:0:0:
162,148,81168,1,4,3:0:0:0:
150,263,81380,1,0,1:0:0:0:
420,225,81591,70,0,B|329:195|311:248|224:213,1,191.9999941406,6|4,0:0|3:0,0:0:0:0:
373,304,82225,1,0,1:0:0:0:
284,135,82436,1,0,3:0:0:0:
284,135,82542,1,0,3:0:0:0:
284,135,82647,2,0,P|279:88|298:45,1,95.99999707031,4|4,3:0|3:0,0:0:0:0:
453,145,83070,1,0,1:0:0:0:
430,142,83176,1,0,3:0:0:0:
407,135,83281,1,0,3:0:0:0:
385,124,83387,1,0,3:0:0:0:
366,109,83492,5,4,1:2:0:0:
294,212,83704,1,0,3:0:0:0:
294,212,83915,1,0,3:0:0:0:
261,62,84126,69,4,1:2:0:0:
294,212,84337,1,0,3:0:0:0:
294,212,84549,1,0,3:0:0:0:
152,104,84760,5,4,1:2:0:0:
294,212,84971,1,0,3:0:0:0:
294,212,85183,1,0,3:0:0:0:
120,210,85394,69,4,1:2:0:0:
261,62,85605,1,4,1:2:0:0:
294,212,85816,1,0,3:0:0:0:
140,81,86028,5,4,1:2:0:0:
349,42,86450,1,4,1:2:0:0:
294,212,86873,69,6,0:0:0:0:
133,260,87295,2,0,L|213:254,1,80,0|0,1:0|3:0,0:0:0:0:
71,189,87718,2,0,L|36:261,1,80,2|0,0:0|3:0,0:0:0:0:
29,103,88140,1,0,1:0:0:0:
163,170,88352,2,0,L|117:104,1,80,0|2,3:0|0:0,0:0:0:0:
252,138,88774,5,0,0:0:0:0:
250,48,88985,1,0,1:0:0:0:
347,177,89197,2,0,P|351:122|337:86,1,80,2|0,0:0|1:0,0:0:0:0:
271,240,89619,1,8,0:1:0:0:
393,263,89830,1,8,0:1:0:0:
312,355,90042,1,0,3:0:0:0:
312,355,90147,1,0,3:0:0:0:
312,355,90253,70,0,P|243:368|199:361,1,80,2|0,0:0|3:0,0:0:0:0:
164,293,90676,1,0,1:0:0:0:
85,371,90887,2,0,L|65:269,1,80,2|2,0:0|0:0,0:0:0:0:
155,141,91309,5,0,0:0:0:0:
250,277,91521,1,0,1:0:0:0:
322,162,91732,1,0,3:0:0:0:
322,162,91837,1,0,3:0:0:0:
322,162,91943,70,0,L|419:153,2,80,2|0|0,0:0|3:0|1:0,0:0:0:0:
460,69,92577,2,0,P|502:136|477:233,1,160,2|8,0:0|0:1,0:0:0:0:
379,255,93211,1,8,0:1:0:0:
480,330,93422,1,0,3:0:0:0:
480,330,93528,1,0,0:0:0:0:
480,330,93633,5,6,0:0:0:0:
245,299,94056,2,0,P|235:242|246:200,1,80,0|0,1:0|3:0,0:0:0:0:
144,91,94478,2,0,P|182:101|215:124,1,80,2|0,0:0|3:0,0:0:0:0:
144,188,94900,1,0,1:0:0:0:
372,110,95112,2,0,P|343:137|307:154,1,80,0|2,3:0|0:0,0:0:0:0:
372,17,95535,1,0,3:0:0:0:
452,154,95746,1,0,1:0:0:0:
262,62,95957,1,2,0:0:0:0:
262,62,96063,1,0,0:0:0:0:
262,62,96168,1,0,1:0:0:0:
165,164,96380,69,0,3:0:0:0:
37,144,96591,1,0,1:0:0:0:
175,275,96802,1,0,3:0:0:0:
175,275,96908,1,0,3:0:0:0:
175,275,97014,6,0,P|113:228|36:240,1,160,2|0,0:0|1:0,0:0:0:0:
89,322,97647,1,2,0:0:0:0:
218,186,97859,2,0,P|192:257|219:351,1,160,0|2,3:0|1:2,0:0:0:0:
324,268,98492,1,0,0:0:0:0:
324,268,98598,1,0,0:0:0:0:
324,268,98704,69,2,0:0:0:0:
399,289,98915,2,0,P|352:270|300:269,1,80,2|0,0:0|1:0,0:0:0:0:
451,201,99337,1,6,0:0:0:0:
341,363,99549,5,0,1:0:0:0:
378,377,99654,1,0,3:0:0:0:
417,376,99760,1,0,1:0:0:0:
453,359,99865,1,0,3:0:0:0:
480,330,99971,69,0,1:0:0:0:
447,308,100076,1,0,3:0:0:0:
428,273,100182,1,0,3:0:0:0:
428,233,100287,1,0,3:0:0:0:
447,198,100394,5,6,0:0:0:0:
370,152,100816,1,0,1:0:0:0:
282,199,101028,1,2,0:0:0:0:
194,152,101450,1,2,0:0:0:0:
106,199,101661,1,0,1:0:0:0:
75,314,102084,69,2,0:0:0:0:
152,268,102506,1,0,1:0:0:0:
240,315,102718,1,2,0:0:0:0:
328,268,103140,1,0,0:0:0:0:
416,315,103351,1,0,1:0:0:0:
412,214,103774,5,2,0:0:0:0:
320,164,104197,1,0,1:0:0:0:
338,61,104408,1,0,3:0:0:0:
441,47,104830,1,2,0:0:0:0:
486,140,105042,1,0,1:0:0:0:
305,268,105464,69,2,0:0:0:0:
320,164,105887,1,0,1:0:0:0:
423,146,106098,1,2,0:0:0:0:
471,238,106520,1,2,0:0:0:0:
399,312,106732,1,0,1:0:0:0:
399,312,106837,1,8,3:0:0:0:
399,312,106943,1,8,3:0:0:0:
251,330,107154,5,6,0:0:0:0:
279,190,107366,1,2,0:0:0:0:
146,234,107577,1,0,1:0:0:0:
305,268,107788,1,6,0:0:0:0:
171,312,108211,1,2,0:0:0:0:
200,174,108422,1,0,1:0:0:0:
310,176,108845,69,6,0:0:0:0:
445,130,109057,1,2,0:0:0:0:
340,37,109268,1,0,1:0:0:0:
390,191,109479,1,6,0:0:0:0:
285,97,109902,1,2,0:0:0:0:
419,53,110113,1,0,1:0:0:0:
311,227,110323,1,0,3:0:0:0:
311,227,110429,1,0,0:0:0:0:
311,227,110535,5,6,0:0:0:0:
113,174,110746,1,0,0:0:0:0:
302,130,110957,69,0,1:0:0:0:
132,258,111168,1,0,0:0:0:0:
238,57,111380,5,2,0:0:0:0:
222,298,111591,1,2,0:0:0:0:
144,52,111802,69,0,1:0:0:0:
312,270,112014,1,0,0:0:0:0:
312,270,112119,1,0,0:0:0:0:
312,270,112225,6,0,L|406:249,2,80,6|0|0,0:0|3:0|1:0,0:0:0:0:
415,154,112859,1,0,3:0:0:0:
232,229,113070,2,0,P|222:287|242:329,1,80,2|0,0:0|3:0,0:0:0:0:
480,287,113492,2,0,P|487:248|476:210,1,80,0|0,1:0|3:0,0:0:0:0:
244,127,113915,69,0,1:0:0:0:
449,110,114126,1,0,3:0:0:0:
323,214,114337,1,0,1:0:0:0:
144,75,114549,5,0,3:0:0:0:
72,284,114760,1,0,1:0:0:0:
255,156,114971,1,0,1:0:0:0:
31,143,115183,1,0,1:0:0:0:
219,278,115394,1,4,3:0:0:0:
219,278,115499,1,0,3:0:0:0:
219,278,115605,70,0,P|240:346|224:389,1,95.99999707031,6|0,0:0|0:0,0:0:0:0:
106,201,116028,2,0,P|108:161|144:105,1,95.99999707031,0|0,1:0|0:0,0:0:0:0:
156,344,116450,1,2,0:0:0:0:
30,246,116661,1,0,0:0:0:0:
190,182,116873,1,0,1:0:0:0:
28,111,117084,1,0,3:0:0:0:
28,111,117190,1,0,3:0:0:0:
28,111,117295,6,0,P|19:59|40:8,1,95.99999707031,2|0,0:0|0:0,0:0:0:0:
214,70,117718,1,0,1:0:0:0:
107,70,117929,1,0,0:0:0:0:
182,160,118140,2,0,P|239:160|280:142,2,95.99999707031,2|0|0,0:0|3:0|1:0,0:0:0:0:
340,79,118774,1,0,3:0:0:0:
349,307,118985,70,0,P|333:263|338:216,1,95.99999707031,2|0,0:0|0:0,0:0:0:0:
479,35,119408,2,0,P|490:81|479:128,1,95.99999707031,0|0,1:0|0:0,0:0:0:0:
419,249,119830,1,2,0:0:0:0:
403,78,120042,1,0,0:0:0:0:
512,231,120253,1,0,1:0:0:0:
303,156,120464,1,0,0:0:0:0:
241,370,120676,6,0,P|194:379|147:376,1,95.99999707031,2|0,0:0|0:0,0:0:0:0:
109,237,121098,1,0,1:0:0:0:
198,295,121309,1,0,0:0:0:0:
198,295,121415,1,0,0:0:0:0:
198,295,121521,2,0,P|205:220|195:179,1,95.99999707031,2|0,0:0|3:0,0:0:0:0:
140,79,121943,1,0,1:0:0:0:
281,143,122154,1,0,3:0:0:0:
281,143,122260,1,0,3:0:0:0:
281,143,122366,70,0,L|302:261,1,95.99999707031,6|0,0:0|0:0,0:0:0:0:
429,330,122788,2,0,L|446:231,1,95.99999707031,0|0,1:0|0:0,0:0:0:0:
320,326,123211,1,2,0:0:0:0:
204,270,123422,1,0,0:0:0:0:
382,175,123633,1,0,1:0:0:0:
193,112,123845,1,0,3:0:0:0:
193,112,123950,1,0,3:0:0:0:
193,112,124056,6,0,P|130:107|74:125,1,95.99999707031,6|0,0:0|0:0,0:0:0:0:
382,175,124478,2,0,P|445:180|487:166,1,95.99999707031,0|0,1:0|3:0,0:0:0:0:
319,45,124901,1,2,0:0:0:0:
261,225,125112,1,0,0:0:0:0:
423,98,125323,1,0,1:0:0:0:
409,280,125535,1,0,3:0:0:0:
409,280,125640,1,0,3:0:0:0:
409,280,125746,70,0,P|348:279|304:288,1,95.99999707031,6|0,0:0|0:0,0:0:0:0:
129,217,126168,2,0,P|190:218|234:209,1,95.99999707031,0|0,1:0|0:0,0:0:0:0:
345,99,126591,2,0,L|312:190,1,95.99999707031,2|0,0:0|0:0,0:0:0:0:
223,374,127014,1,0,1:0:0:0:
58,318,127225,1,0,3:0:0:0:
58,318,127330,1,0,3:0:0:0:
58,318,127436,5,6,0:0:0:0:
103,91,127647,1,0,3:0:0:0:
225,267,127859,69,6,0:0:0:0:
180,40,128070,1,0,3:0:0:0:
303,328,128281,5,6,0:0:0:0:
311,108,128492,1,0,3:0:0:0:
332,141,128597,1,0,3:0:0:0:
344,179,128703,1,0,1:0:0:0:
348,219,128808,1,0,3:0:0:0:
341,258,128914,1,0,3:0:0:0:
326,295,129020,1,0,3:0:0:0:
302,327,129126,70,0,P|387:332|429:348,1,95.99999707031,6|0,0:0|0:0,0:0:0:0:
198,227,129549,2,0,P|113:222|71:206,1,95.99999707031,0|0,1:0|0:0,0:0:0:0:
211,324,129971,1,2,0:0:0:0:
28,279,130183,1,0,0:0:0:0:
163,136,130394,1,0,1:0:0:0:
114,330,130605,1,0,3:0:0:0:
114,330,130711,1,0,3:0:0:0:
114,330,130816,6,0,L|110:218,1,95.99999707031,2|0,0:0|0:0,0:0:0:0:
10,115,131239,1,0,1:0:0:0:
200,175,131450,1,0,3:0:0:0:
112,105,131661,2,0,P|110:48|127:3,2,95.99999707031,2|0|0,0:0|3:0|1:0,0:0:0:0:
313,55,132295,1,0,3:0:0:0:
313,55,132401,1,0,3:0:0:0:
313,55,132506,70,0,P|266:49|220:59,1,95.99999707031,6|0,0:0|0:0,0:0:0:0:
385,177,132929,2,0,P|431:187|478:181,1,95.99999707031,0|0,1:0|0:0,0:0:0:0:
410,10,133352,1,2,0:0:0:0:
274,145,133563,1,0,0:0:0:0:
438,104,133774,1,0,1:0:0:0:
295,258,133985,1,0,0:0:0:0:
271,261,134090,1,0,0:0:0:0:
244,263,134197,6,0,P|175:261|133:269,1,95.99999707031,6|0,0:0|0:0,0:0:0:0:
309,344,134619,1,0,1:0:0:0:
73,334,134830,1,0,3:0:0:0:
56,289,134935,1,0,3:0:0:0:
57,241,135041,1,4,3:0:0:0:
179,126,135253,1,4,3:0:0:0:
148,265,135464,1,0,1:0:0:0:
255,329,135676,1,0,3:0:0:0:
469,211,135887,70,0,P|398:203|346:217,1,95.99999707031,6|0,0:0|0:0,0:0:0:0:
255,329,136309,1,0,1:0:0:0:
424,302,136521,1,0,3:0:0:0:
424,302,136626,1,0,3:0:0:0:
424,302,136732,5,4,3:0:0:0:
232,202,136943,1,4,3:0:0:0:
317,104,137154,1,0,1:0:0:0:
424,302,137366,2,0,P|348:352|249:324,1,191.9999941406,6|4,0:0|3:0,0:0:0:0:
314,162,137999,1,0,1:0:0:0:
330,259,138211,1,0,0:0:0:0:
330,259,138316,1,0,0:0:0:0:
330,259,138422,69,4,3:0:0:0:
483,141,138633,1,4,3:0:0:0:
372,76,138845,1,0,1:0:0:0:
188,168,139056,2,0,B|113:205|63:136|-8:178,1,191.9999941406,6|4,0:0|3:0,0:0:0:0:
138,89,139690,1,0,1:0:0:0:
45,259,139901,1,0,3:0:0:0:
45,259,140006,1,0,3:0:0:0:
45,259,140112,2,0,L|60:363,1,95.99999707031,4|4,3:0|3:0,0:0:0:0:
220,259,140535,1,0,1:0:0:0:
416,341,140746,6,0,P|339:327|195:363,1,191.9999941406,6|4,0:0|3:0,0:0:0:0:
386,225,141380,1,0,1:0:0:0:
512,282,141591,1,0,3:0:0:0:
512,282,141697,1,0,3:0:0:0:
512,282,141802,1,4,3:0:0:0:
493,168,142014,1,4,3:0:0:0:
313,286,142225,69,0,1:0:0:0:
292,257,142330,1,0,3:0:0:0:
284,222,142436,1,0,3:0:0:0:
292,187,142541,1,0,3:0:0:0:
313,158,142647,5,4,1:2:0:0:
116,121,142859,1,2,0:0:0:0:
70,187,143281,1,2,0:0:0:0:
116,253,143704,1,2,0:0:0:0:
196,282,144126,70,0,P|230:229|154:208,1,140.8000042969,2|2,0:0|0:0,0:0:0:0:
176,361,144760,2,0,P|228:355|296:291,1,140.8000042969,0|2,1:0|0:0,0:0:0:0:
323,211,145394,1,2,0:0:0:0:
448,314,145605,1,0,1:0:0:0:
447,106,146028,5,2,0:0:0:0:
323,211,146239,1,2,0:0:0:0:
368,145,146661,1,2,0:0:0:0:
323,79,147084,1,2,0:0:0:0:
244,71,147506,70,0,P|192:84|83:65,1,140.8000042969,2|2,0:0|0:0,0:0:0:0:
37,23,148140,2,0,P|73:85|44:162,1,140.8000042969,0|2,1:0|0:0,0:0:0:0:
73,253,148774,1,2,0:0:0:0:
110,252,148880,1,0,3:0:0:0:
150,247,148985,1,0,1:0:0:0:
351,324,149408,5,2,0:0:0:0:
150,247,149619,1,2,0:0:0:0:
104,181,150042,1,2,0:0:0:0:
150,115,150464,1,2,0:0:0:0:
230,119,150887,70,0,P|310:115|386:88,1,140.800004296875,2|2,0:0|0:0,0:0:0:0:
413,219,151521,1,0,1:0:0:0:
310,205,151732,1,0,0:0:0:0:
310,205,151837,1,0,0:0:0:0:
310,205,151943,2,0,P|319:266|311:304,1,70.40000214844,2|2,0:0|0:0,0:0:0:0:
209,335,152366,2,0,P|209:300|218:266,1,70.40000214844,0|0,1:0|3:0,0:0:0:0:
121,372,152788,6,0,L|95:191,1,160,6|0,0:0|1:0,0:0:0:0:
218,264,153422,2,0,L|193:89,1,176.0000053711,6|0,0:0|0:0,0:0:0:0:
318,191,154056,2,0,L|289:-10,1,191.9999941406,6|0,0:0|1:0,0:0:0:0:
406,89,154690,2,0,P|470:103|511:98,1,95.99999707031,0|0,3:0|1:0,0:0:0:0:
468,5,155112,1,0,3:0:0:0:
383,177,155323,69,0,1:0:0:0:
472,260,155535,1,0,3:0:0:0:
472,260,155640,1,0,3:0:0:0:
472,260,155746,2,0,L|476:318,1,47.99999853516,0|0,1:0|0:0,0:0:0:0:
341,356,155957,2,0,L|347:305,1,47.99999853516,0|0,3:0|0:0,0:0:0:0:
241,217,156168,6,0,B|152:249|138:190|33:233,1,191.9999941406,6|0,0:0|1:0,0:0:0:0:
192,135,156802,1,0,3:0:0:0:
192,135,156908,1,0,3:0:0:0:
192,135,157014,1,0,1:0:0:0:
102,306,157225,69,0,3:0:0:0:
87,70,157436,1,0,1:0:0:0:
296,224,157647,2,0,L|290:128,1,95.99999707031,6|0,0:0|0:0,0:0:0:0:
446,85,158070,5,2,0:0:0:0:
242,36,158281,1,0,1:0:0:0:
378,160,158492,1,0,3:0:0:0:
380,207,158598,1,0,3:0:0:0:
383,255,158703,1,4,3:0:0:0:
258,382,158915,1,4,3:0:0:0:
162,273,159126,70,8,B|169:297|85:288|117:227|161:217|210:265|210:265|226:256|245:256|245:256|262:265|288:269,1,240,6|8,1:2|0:2,0:2:0:0:
368,296,159549,6,0,P|431:247|363:108,1,240.0000091553,6|0,0:0|1:0,0:0:0:0:
230,179,160183,2,0,P|284:202|353:200,1,120.000004577637
181,296,160605,69,0,3:0:0:0:
143,110,160816,1,0,1:0:0:0:
267,247,161028,1,2,0:0:0:0:
267,247,161133,1,0,3:0:0:0:
267,247,161239,6,0,P|279:312|254:366,1,120.0000045776,2|0,0:0|0:0,0:0:0:0:
45,154,161661,2,0,P|83:199|140:218,1,120.0000045776,0|0,1:0|0:0,0:0:0:0:
333,45,162084,2,0,P|275:55|232:96,1,120.0000045776,2|0,0:0|0:0,0:0:0:0:
317,138,162506,1,0,1:0:0:0:
471,46,162718,1,2,0:0:0:0:
471,46,162823,1,0,3:0:0:0:
471,46,162929,69,2,0:0:0:0:
355,268,163140,1,0,0:0:0:0:
381,93,163352,1,0,1:0:0:0:
439,223,163563,1,0,0:0:0:0:
355,176,163774,1,2,0:0:0:0:
274,315,163985,1,0,0:0:0:0:
432,325,164197,1,0,1:0:0:0:
260,133,164408,1,2,0:0:0:0:
260,133,164514,1,0,3:0:0:0:
260,133,164619,6,0,P|195:121|127:120,1,120.0000045776,2|0,0:0|0:0,0:0:0:0:
49,241,165042,1,0,1:0:0:0:
245,221,165253,2,0,B|287:227|335:201|335:201|370:233|370:233|417:209|481:227,1,240.0000091553,2|0,0:0|0:0,0:0:0:0:
260,133,165887,1,0,1:0:0:0:
427,323,166098,1,0,3:0:0:0:
427,323,166204,1,0,3:0:0:0:
427,323,166309,70,0,P|343:338|194:308,1,240.0000091553,6|0,0:0|1:0,0:0:0:0:
109,166,166943,1,0,3:0:0:0:
109,166,167049,1,0,3:0:0:0:
109,166,167154,1,0,1:0:0:0:
8,338,167366,5,4,3:0:0:0:
214,211,167577,1,0,1:0:0:0:
7,186,167788,2,0,P|22:104|171:94,1,240.0000091553,6|4,0:0|3:0,0:0:0:0:
353,210,168422,69,0,1:0:0:0:
299,95,168633,1,0,3:0:0:0:
299,95,168739,1,0,3:0:0:0:
299,95,168845,2,0,P|369:106|427:95,1,120.0000045776,2|4,0:0|3:0,0:0:0:0:
234,163,169267,1,0,1:0:0:0:
369,13,169478,6,0,P|458:9|514:115,1,180.0000068665,6|0,0:0|0:0,0:0:0:0:
497,117,169901,1,4,3:0:0:0:
486,157,170006,1,0,0:0:0:0:
442,143,170112,69,0,1:0:0:0:
434,184,170217,1,0,0:0:0:0:
437,226,170323,1,0,3:0:0:0:
456,263,170429,1,0,0:0:0:0:
502,261,170535,5,4,3:0:0:0:
465,292,170640,1,0,0:0:0:0:
424,279,170746,1,0,3:0:0:0:
382,283,170852,1,0,3:0:0:0:
347,258,170957,69,0,1:0:0:0:
305,262,171063,1,0,0:0:0:0:
277,293,171168,6,0,P|209:303|280:238,1,240.0000091553,6|4,0:0|3:0,0:0:0:0:
100,334,171802,1,0,1:0:0:0:
149,141,172014,1,0,3:0:0:0:
149,141,172119,1,0,3:0:0:0:
149,141,172225,69,4,3:0:0:0:
259,364,172436,1,4,3:0:0:0:
60,205,172647,2,0,L|-10:187,1,60.00000228882,0|0,1:0|0:0,0:0:0:0:
303,163,172859,2,0,L|386:144,1,60.00000228882,0|0,1:0|0:0,0:0:0:0:
174,8,173070,6,0,B|193:50|178:80|178:80|190:95|190:95|168:138|180:165,1,160,6|0,0:0|1:0,0:0:0:0:
260,146,173704,1,2,0:0:0:0:
218,309,174126,1,2,0:0:0:0:
157,230,174337,1,0,1:0:0:0:
317,285,174760,69,2,0:0:0:0:
354,200,175183,1,0,1:0:0:0:
409,278,175394,1,2,0:0:0:0:
210,279,175816,1,0,1:0:0:0:
265,201,176027,1,0,0:0:0:0:
354,200,176450,5,2,0:0:0:0:
308,285,176873,1,0,1:0:0:0:
265,201,177084,1,2,0:0:0:0:
448,193,177506,1,2,0:0:0:0:
393,115,177717,1,0,1:0:0:0:
356,200,178140,69,2,0:0:0:0:
207,115,178563,1,0,1:0:0:0:
262,193,178774,1,2,0:0:0:0:
170,200,179196,1,2,0:0:0:0:
301,278,179407,1,0,1:0:0:0:
301,278,179514,1,8,3:0:0:0:
301,278,179619,1,8,3:0:0:0:
132,308,179830,5,6,0:0:0:0:
2,182,180042,1,2,0:0:0:0:
31,283,180253,1,0,1:0:0:0:
75,107,180464,1,6,0:0:0:0:
175,132,180886,1,2,0:0:0:0:
204,232,181098,1,0,1:0:0:0:
380,275,181309,69,0,0:0:0:0:
380,275,181415,1,0,0:0:0:0:
380,275,181521,1,6,0:0:0:0:
331,102,181733,1,2,0:0:0:0:
405,174,181944,1,0,1:0:0:0:
230,131,182155,1,6,0:0:0:0:
204,232,182577,1,2,0:0:0:0:
280,304,182789,1,0,1:0:0:0:
106,247,182999,1,0,3:0:0:0:
106,247,183105,1,0,0:0:0:0:
106,247,183211,5,6,0:0:0:0:
165,39,183422,1,0,0:0:0:0:
28,173,183633,69,8,1:0:0:0:
278,109,183845,1,0,0:0:0:0:
50,48,184056,5,2,0:0:0:0:
249,251,184267,1,2,0:0:0:0:
165,39,184478,69,8,1:0:0:0:
106,247,184689,1,0,0:0:0:0:
278,109,184901,6,0,P|350:100|385:106,2,80,6|0|8,0:0|3:0|1:0,0:0:0:0:
423,175,185535,1,0,0:0:0:0:
204,169,185746,2,0,P|189:104|197:66,1,80,2|0,0:2|0:0,0:0:0:0:
324,195,186168,2,0,P|323:234|310:272,1,80,8|0,1:0|0:0,0:0:0:0:
202,311,186485,1,0,0:0:0:0:
170,333,186591,70,0,L|83:338,1,80,0|0,1:0|0:0,0:0:0:0:
17,224,187014,1,8,1:0:0:0:
221,251,187225,1,8,0:3:0:0:
239,286,187330,1,8,0:3:0:0:
249,325,187436,1,4,1:3:0:0:
314,155,187647,1,0,1:0:0:0:
387,354,187859,1,8,1:3:0:0:
221,251,188070,1,4,3:0:0:0:
441,235,188281,5,4,3:0:0:0:
441,235,189549,1,4,3:0:0:0:
261,211,189971,69,4,3:0:0:0:
261,211,191661,5,4,3:0:0:0:
261,211,192929,1,4,3:0:0:0:
1,272,193352,69,4,3:0:0:0:
73,148,193774,5,4,3:0:0:0:
128,322,193985,1,0,1:0:0:0:
128,322,194197,1,0,1:0:0:0:
209,220,194408,69,0,3:0:0:0:
209,220,194514,1,0,3:0:0:0:
209,220,194619,2,0,L|261:219,1,40,0|0,1:0|3:0,0:0:0:0:
361,310,194830,2,0,L|309:309,1,40,0|0,3:0|3:0,0:0:0:0:
462,244,195042,6,0,P|482:319|467:366,1,95.99999707031,6|0,0:0|0:0,0:0:0:0:
323,144,195464,2,0,P|321:96|340:52,1,95.99999707031,0|0,1:0|0:0,0:0:0:0:
263,224,195887,1,2,0:0:0:0:
419,114,196098,1,0,0:0:0:0:
224,86,196309,1,0,1:0:0:0:
357,227,196521,1,0,3:0:0:0:
357,227,196626,1,0,3:0:0:0:
356,226,196732,70,0,L|344:358,1,95.99999707031,6|0,0:0|0:0,0:0:0:0:
171,213,197154,2,0,L|162:118,1,95.99999707031,0|0,1:0|3:0,0:0:0:0:
103,293,197577,1,2,0:0:0:0:
274,251,197788,1,0,0:0:0:0:
64,153,197999,1,0,1:0:0:0:
237,44,198211,1,0,3:0:0:0:
237,44,198316,1,0,3:0:0:0:
237,44,198422,6,0,P|262:123|258:158,1,95.99999707031,6|0,0:0|0:0,0:0:0:0:
445,140,198845,2,0,P|398:135|354:115,1,95.99999707031,0|0,1:0|0:0,0:0:0:0:
257,228,199161,1,0,0:0:0:0:
258,270,199267,2,0,P|286:231|325:204,1,95.99999707031,2|0,0:0|0:0,0:0:0:0:
152,270,199690,1,0,1:0:0:0:
360,301,199901,1,2,2:2:0:0:
360,301,200006,1,0,0:0:0:0:
360,301,200112,69,6,0:0:0:0:
139,174,200323,1,0,3:0:0:0:
353,114,200535,5,6,0:0:0:0:
171,325,200746,1,0,3:0:0:0:
167,44,200957,69,6,0:0:0:0:
246,291,201168,1,0,3:0:0:0:
285,311,201273,1,0,3:0:0:0:
328,311,201379,1,0,1:0:0:0:
370,298,201484,1,0,3:0:0:0:
412,286,201590,1,0,3:0:0:0:
455,289,201696,1,0,3:0:0:0:
495,305,201802,6,0,L|504:194,1,95.99999707031,6|0,0:0|0:0,0:0:0:0:
322,105,202225,2,0,L|329:200,1,95.99999707031,0|0,1:0|0:0,0:0:0:0:
408,51,202647,1,2,0:0:0:0:
227,159,202859,1,0,0:0:0:0:
434,155,203070,1,0,1:0:0:0:
233,51,203281,2,0,L|168:58,1,47.99999853516,0|0,3:0|3:0,0:0:0:0:
20,197,203492,69,0,3:3:0:0:
233,241,203704,1,0,0:0:0:0:
110,132,203915,1,0,1:0:0:0:
147,313,204126,1,0,3:0:0:0:
196,230,204337,2,0,P|135:222|97:228,2,95.99999707031,2|0|0,0:0|3:0|1:0,0:0:0:0:
343,346,204971,1,0,3:0:0:0:
343,346,205077,1,0,3:0:0:0:
343,346,205183,6,0,L|320:239,1,95.99999707031,6|0,0:0|0:0,0:0:0:0:
464,75,205605,2,0,L|443:168,1,95.99999707031,0|0,1:0|0:0,0:0:0:0:
238,179,206028,1,2,0:0:0:0:
364,59,206239,1,0,0:0:0:0:
416,253,206450,1,0,1:0:0:0:
291,107,206661,1,0,0:0:0:0:
291,107,206767,1,0,0:0:0:0:
291,107,206873,70,0,P|228:95|173:104,1,95.99999707031,6|0,0:0|0:0,0:0:0:0:
58,247,207295,1,0,1:0:0:0:
72,90,207506,1,0,3:0:0:0:
72,90,207612,1,0,3:0:0:0:
72,90,207718,5,4,3:0:0:0:
187,184,207929,1,4,3:0:0:0:
97,168,208140,1,0,1:0:0:0:
230,287,208352,1,0,3:0:0:0:
230,287,208457,1,0,3:0:0:0:
230,287,208563,70,0,P|305:281|356:297,1,95.99999707031,6|0,0:0|0:0,0:0:0:0:
478,366,208985,1,0,1:0:0:0:
434,194,209197,1,0,3:0:0:0:
434,194,209302,1,0,3:0:0:0:
434,194,209408,1,4,3:0:0:0:
279,361,209619,1,4,3:0:0:0:
466,282,209830,1,0,1:0:0:0:
485,95,210042,6,0,P|398:85|324:194,1,191.9999941406,6|4,0:0|3:0,0:0:0:0:
195,98,210676,1,0,1:0:0:0:
241,269,210887,1,0,0:0:0:0:
241,269,210992,1,0,0:0:0:0:
241,269,211098,1,4,3:0:0:0:
52,151,211309,69,4,3:0:0:0:
255,165,211521,1,0,1:0:0:0:
310,371,211732,2,0,P|223:386|135:325,1,191.9999941406,6|4,0:0|3:0,0:0:0:0:
158,164,212366,1,0,1:0:0:0:
241,269,212577,1,0,3:0:0:0:
241,269,212683,1,0,3:0:0:0:
241,269,212788,1,4,3:0:0:0:
70,242,212999,1,4,3:0:0:0:
158,164,213211,1,0,1:0:0:0:
359,263,213422,6,0,P|443:286|515:188,1,191.9999941406,6|4,0:0|3:0,0:0:0:0:
299,133,214056,1,0,1:0:0:0:
425,201,214267,1,0,3:0:0:0:
425,201,214373,1,0,3:0:0:0:
425,201,214478,1,4,3:0:0:0:
386,75,214690,1,4,3:0:0:0:
281,228,214901,1,0,1:0:0:0:
245,230,215006,1,0,3:0:0:0:
209,232,215112,1,0,3:0:0:0:
173,235,215217,1,0,3:0:0:0:
137,237,215323,69,4,1:2:0:0:
99,50,215535,1,0,3:0:0:0:
7,303,215746,5,0,1:0:0:0:
45,115,215957,1,0,3:0:0:0:
45,115,216063,1,0,3:0:0:0:
45,115,216168,69,0,1:0:0:0:
158,319,216380,1,0,3:0:0:0:
134,138,216592,5,0,1:0:0:0:
277,352,216802,1,6,0:0:0:0:
277,352,218704,69,4,1:2:0:0:
353,235,218915,1,0,3:0:0:0:
353,235,219126,1,0,3:0:0:0:
175,263,219337,5,4,1:2:0:0:
353,235,219549,1,0,3:0:0:0:
353,235,219760,1,0,3:0:0:0:
171,123,219971,69,4,1:2:0:0:
353,235,220183,1,0,3:0:0:0:
353,235,220394,1,0,3:0:0:0:
327,90,220605,5,4,1:2:0:0:
175,263,220816,1,4,1:2:0:0:
353,235,221028,1,0,3:0:0:0:
475,93,221239,70,0,L|463:218,1,95.99999707031,4|0,1:2|3:0,0:0:0:0:
362,330,221661,2,0,L|352:234,1,95.99999707031,4|0,1:2|0:0,0:0:0:0:
263,171,221978,1,0,0:0:0:0:
232,198,222084,6,0,P|148:220|84:171,1,160,6|0,0:0|1:0,0:0:0:0:
101,11,222718,2,0,P|151:41|162:152,1,160,2|0,0:0|0:0,0:0:0:0:
12,78,223352,2,0,L|97:100,1,80,0|0,1:0|0:0,0:0:0:0:
252,76,223774,70,0,B|293:61|324:63|324:63|365:93|433:85,1,160,2|0,0:0|1:0,0:0:0:0:
459,158,224408,2,0,P|490:99|437:0,1,160,2|0,0:0|0:0,0:0:0:0:
311,146,225042,1,0,1:0:0:0:
398,222,225253,1,0,0:0:0:0:
398,222,225359,1,0,0:0:0:0:
398,222,225464,6,0,P|326:261|244:242,1,160,2|0,0:0|1:0,0:0:0:0:
191,170,226098,2,0,P|218:249|182:325,1,160,2|0,0:0|0:0,0:0:0:0:
52,262,226732,2,0,L|145:242,1,80,0|0,1:0|0:0,0:0:0:0:
80,148,227049,1,0,0:0:0:0:
44,173,227154,70,0,P|-13:145|50:91,1,160,2|0,0:0|1:0,0:0:0:0:
217,172,227788,1,2,0:0:0:0:
253,18,227999,1,0,1:0:0:0:
335,198,228211,1,4,0:0:0:0:
296,105,228422,1,0,1:0:0:0:
214,285,228634,1,4,0:0:0:0:
408,266,228845,6,0,P|433:183|379:113,1,160,6|0,0:0|1:0,0:0:0:0:
334,323,229478,2,0,P|403:356|480:324,1,160,2|0,0:0|0:0,0:0:0:0:
322,227,230112,2,0,P|274:248|235:300,1,80,0|0,1:0|0:0,0:0:0:0:
154,359,230535,70,0,P|107:371|13:320,1,160,2|0,0:0|1:0,0:0:0:0:
115,122,231168,2,0,B|78:195|131:206|101:279,1,160,2|0,0:0|0:0,0:0:0:0:
187,169,231802,1,0,1:0:0:0:
24,235,232014,1,0,0:0:0:0:
24,235,232119,1,0,0:0:0:0:
24,235,232225,6,0,L|18:150,1,80,6|2,0:0|0:0,0:0:0:0:
18,153,232859,1,2,0:0:0:0:
130,58,233070,2,0,L|115:159,1,80,6|2,0:0|0:0,0:0:0:0:
203,220,233492,1,0,1:0:0:0:
273,122,233704,70,0,P|190:114|94:151,1,160,2|0,0:0|3:0,0:0:0:0:
70,222,234232,1,8,3:0:0:0:
98,247,234337,2,0,P|108:295|100:356,1,80,4|0,1:3|3:0,0:0:0:0:
36,384,234654,1,8,3:0:0:0:
8,359,234759,2,0,P|-2:311|6:250,1,80,4|4,3:3|3:0,0:0:0:0:
155,201,235183,1,0,1:0:0:0:
263,339,235394,1,0,0:0:0:0:
263,339,235499,1,0,0:0:0:0:
263,339,235605,5,6,0:0:0:0:
256,192,235711,12,0,238985,0:0:0:0:
178,157,244844,5,8,0:0:0:0:
213,143,244933,1,0,0:0:0:0:
252,140,245021,2,0,L|266:200,1,40,8|0,3:0|0:2,0:0:0:0:
360,119,245197,2,0,L|370:81,1,40,8|0,3:0|0:0,0:0:0:0:
316,267,245374,2,0,P|280:282|240:283,1,80,6|0,0:0|0:0,0:0:0:0:
103,188,245727,5,2,0:0:0:0:
112,356,245903,1,8,0:0:0:0:
343,235,246080,2,0,P|304:243|259:231,1,80,6|0,0:0|0:0,0:0:0:0:
99,162,246433,69,2,0:0:0:0:
95,334,246609,1,8,0:0:0:0:
384,261,246786,2,0,P|344:263|306:251,1,80,6|0,0:0|0:0,0:0:0:0:
102,136,247139,5,2,0:0:0:0:
97,360,247315,1,8,0:0:0:0:
412,236,247491,2,0,P|358:218|302:234,1,80,6|0,0:0|0:0,0:0:0:0:
128,313,247844,69,8,0:0:0:0:
357,304,248021,1,8,0:0:0:0:
232,214,248197,2,0,L|73:206,1,160,6|2,0:0|0:0,0:0:0:0:
166,89,248727,1,8,0:0:0:0:
69,265,249080,5,2,0:0:0:0:
223,150,249256,1,0,0:0:0:0:
189,323,249433,1,8,0:0:0:0:
82,170,249609,2,0,P|28:178|-13:205,1,80,6|0,0:0|0:0,0:0:0:0:
202,240,249962,1,2,0:0:0:0:
146,62,250139,1,10,0:0:0:0:
302,145,250315,1,0,3:0:0:0:
302,145,250403,1,0,3:0:0:0:
302,145,250491,69,0,0:0:0:0:
269,54,250668,1,8,0:0:0:0:
317,43,250756,1,8,0:0:0:0:
363,60,250844,1,8,0:0:0:0:
394,98,250932,1,8,0:0:0:0:
400,147,251021,6,0,P|390:237|413:329,1,160,6|2,0:0|0:0,0:0:0:0:
283,230,251550,2,0,P|225:227|172:237,1,80,8|0,0:0|3:0,0:0:0:0:
115,308,251815,1,0,3:0:0:0:
73,347,251903,2,0,L|93:166,1,160,2|8,0:0|0:0,0:0:0:0:
39,90,252433,70,0,P|99:77|185:133,1,160,2|2,0:0|0:0,0:0:0:0:
252,231,252962,2,0,P|321:238|359:216,1,80,8|0,0:0|3:0,0:0:0:0:
362,219,253227,1,0,3:0:0:0:
397,222,253315,1,2,0:0:0:0:
297,145,253491,5,2,0:0:0:0:
397,93,253668,1,8,0:0:0:0:
221,71,253844,2,0,P|189:141|230:233,1,160,6|2,0:0|0:0,0:0:0:0:
324,307,254374,2,0,P|384:297|434:308,1,80,8|0,0:0|3:0,0:0:0:0:
495,344,254639,1,0,3:0:0:0:
459,378,254727,2,0,L|441:205,1,160,2|8,0:0|0:0,0:0:0:0:
481,119,255256,70,0,P|412:117|341:184,1,160,2|2,0:0|0:0,0:0:0:0:
249,249,255786,2,0,P|179:260|145:251,1,80,8|0,0:0|3:0,0:0:0:0:
139,241,256050,1,0,3:0:0:0:
98,245,256139,1,2,0:0:0:0:
202,163,256315,5,2,0:0:0:0:
126,331,256491,1,8,0:0:0:0:
15,219,256668,2,0,P|37:154|12:66,1,160,6|2,0:0|0:0,0:0:0:0:
139,121,257197,2,0,P|203:125|238:111,1,80,8|0,0:0|0:0,0:0:0:0:
373,30,257550,2,0,L|333:209,1,160,2|8,0:0|0:0,0:0:0:0:
238,319,258080,2,0,L|214:230,1,80,2|0,0:0|0:0,0:0:0:0:
126,311,258433,1,0,0:0:0:0:
335,349,258609,2,0,L|422:330,1,80,8|0,0:0|0:0,0:0:0:0:
444,325,258874,1,0,0:0:0:0:
480,317,258962,1,2,0:0:0:0:
348,229,259139,69,2,0:0:0:0:
248,364,259315,1,8,0:0:0:0:
158,216,259491,2,0,L|134:388,1,160,6|2,0:0|0:0,0:0:0:0:
52,275,260021,1,8,0:0:0:0:
246,271,260197,1,0,3:0:0:0:
153,136,260374,2,0,L|159:236,1,80,2|0,0:0|0:0,0:0:0:0:
64,97,260727,1,8,0:0:0:0:
243,115,260903,6,0,P|299:111|352:99,1,80,2|0,0:0|0:0,0:0:0:0:
351,267,261256,2,0,P|365:230|384:195,1,80,2|8,0:0|0:0,0:0:0:0:
196,212,261609,2,0,P|221:243|242:276,1,80,8|2,0:0|0:0,0:0:0:0:
115,169,261962,1,8,0:0:0:0:
289,194,262139,1,8,0:0:0:0:
157,301,262315,70,0,P|92:291|-9:305,1,160,6|2,0:0|0:0,0:0:0:0:
38,115,262844,2,0,L|28:229,1,80,8|8,0:0|0:0,0:0:0:0:
137,100,263197,1,6,0:0:0:0:
20,21,263374,1,0,0:0:0:0:
31,194,263550,1,8,0:0:0:0:
202,163,263727,6,0,P|273:153|375:180,1,160,6|2,0:0|0:0,0:0:0:0:
442,265,264256,1,8,0:0:0:0:
333,329,264433,2,0,L|358:171,1,160,6|2,0:0|0:0,0:0:0:0:
442,99,264962,1,8,0:0:0:0:
259,175,265139,70,0,P|272:120|363:73,1,160,6|2,0:0|0:0,0:0:0:0:
154,180,265668,2,0,L|139:79,1,80,8|8,0:0|0:0,0:0:0:0:
68,216,266021,1,6,0:0:0:0:
221,258,266197,1,0,0:0:0:0:
255,102,266374,1,8,0:0:0:0:
291,332,266550,6,0,P|221:354|129:305,1,160,6|2,0:0|0:0,0:0:0:0:
100,211,267080,1,8,0:0:0:0:
255,102,267256,2,0,P|233:176|218:275,1,160,6|8,0:0|0:0,0:0:0:0:
340,160,267786,1,8,0:0:0:0:
370,278,267962,70,0,P|296:246|207:264,1,160,6|2,0:0|0:0,0:0:0:0:
456,315,268491,2,0,L|454:228,1,80,8|0,0:0|3:0,0:0:0:0:
369,118,268844,1,6,0:0:0:0:
506,163,269021,1,2,0:0:0:0:
369,207,269197,1,8,0:0:0:0:
453,76,269374,6,0,P|400:30|300:54,1,160,6|2,0:0|0:0,0:0:0:0:
248,131,269903,1,8,0:0:0:0:
207,42,270080,2,0,L|202:214,1,160,6|2,0:0|0:0,0:0:0:0:
117,126,270609,1,8,0:0:0:0:
125,277,270786,70,0,P|179:307|294:256,1,160,6|2,0:0|0:0,0:0:0:0:
46,215,271315,2,0,P|25:283|31:325,1,80,8|6,0:0|0:0,0:0:0:0:
202,201,271668,1,0,0:0:0:0:
166,360,271844,1,2,0:0:0:0:
125,277,272021,1,8,0:0:0:0:
270,284,272197,6,0,P|351:280|438:270,1,160,6|2,0:0|0:0,0:0:0:0:
338,179,272727,1,8,0:0:0:0:
482,186,272903,1,6,0:0:0:0:
307,75,273080,1,8,0:0:0:0:
411,89,273256,1,2,0:0:0:0:
232,146,273433,1,8,0:0:0:0:
103,62,273609,70,0,L|111:221,1,160,6|2,0:0|0:0,0:0:0:0:
47,315,274139,1,8,0:0:0:0:
188,305,274315,1,0,3:0:0:0:
188,305,274403,1,0,3:0:0:0:
188,305,274491,2,0,P|261:303|299:316,1,80,2|0,0:0|0:0,0:0:0:0:
358,355,274844,1,8,0:0:0:0:
512,254,275021,6,0,P|423:245|328:268,1,160,2|2,0:0|0:0,0:0:0:0:
273,179,275550,1,8,0:0:0:0:
379,158,275727,1,0,3:0:0:0:
379,158,275815,1,0,3:0:0:0:
379,158,275903,1,2,0:0:0:0:
221,88,276080,69,0,0:0:0:0:
213,271,276256,1,8,0:0:0:0:
106,128,276433,2,0,L|115:299,1,160,6|2,0:0|0:0,0:0:0:0:
17,163,276962,1,8,0:0:0:0:
198,179,277139,1,0,3:0:0:0:
137,41,277315,6,0,P|80:41|45:53,1,80,2|2,0:0|0:0,0:0:0:0:
239,101,277668,1,8,0:0:0:0:
329,13,277844,2,0,L|328:109,1,80,2|0,0:0|0:0,0:0:0:0:
412,162,278197,1,2,0:0:0:0:
292,209,278374,2,0,L|186:220,1,80,8|0,0:0|3:0,0:0:0:0:
176,223,278639,1,0,3:0:0:0:
139,227,278727,1,2,0:0:0:0:
303,307,278903,69,2,0:0:0:0:
383,176,279080,1,8,0:0:0:0:
250,68,279256,2,0,P|157:51|96:88,1,160,6|2,0:0|0:0,0:0:0:0:
184,163,279786,1,8,0:0:0:0:
73,188,279962,1,0,0:0:0:0:
165,324,280139,2,0,L|143:235,1,80,2|2,0:0|0:0,0:0:0:0:
95,378,280491,1,8,0:0:0:0:
261,334,280668,6,0,L|278:167,1,160,2|2,0:0|0:0,0:0:0:0:
389,95,281197,2,0,B|318:110|319:66|220:94,1,160,8|2,0:0|0:0,0:0:0:0:
359,8,281727,1,2,0:0:0:0:
473,150,281903,1,8,0:0:0:0:
277,174,282080,70,0,P|235:184|190:206,1,80,6|0,0:0|0:0,0:0:0:0:
364,254,282433,1,2,0:0:0:0:
179,316,282609,1,8,0:0:0:0:
303,352,282786,1,0,3:0:0:0:
303,352,282874,1,0,3:0:0:0:
303,352,282962,6,0,L|268:278,1,80,2|2,0:0|0:0,0:0:0:0:
110,242,283315,1,8,0:0:0:0:
85,350,283491,2,0,P|150:345|179:328,1,80,2|0,0:0|0:0,0:0:0:0:
237,299,283756,1,0,0:0:0:0:
268,279,283844,2,0,P|319:271|362:288,1,80,2|8,0:0|0:0,0:0:0:0:
432,357,284197,2,0,L|455:253,1,80,0|2,3:0|0:0,0:0:0:0:
394,184,284550,1,8,0:0:0:0:
510,179,284727,1,8,0:0:0:0:
327,107,284903,70,0,P|287:167|328:260,1,160,6|2,0:0|0:0,0:0:0:0:
228,339,285433,2,0,L|132:335,1,80,8|2,0:0|0:0,0:0:0:0:
80,232,285786,1,6,0:0:0:0:
181,241,285962,1,0,0:0:0:0:
52,322,286139,1,8,0:0:0:0:
34,155,286315,6,0,B|83:133|119:146|104:160|148:153|127:165|164:170|213:141,1,160,6|2,0:0|0:0,0:0:0:0:
240,236,286844,1,8,0:0:0:0:
156,72,287021,2,0,P|229:74|274:160,1,160,6|2,0:0|0:0,0:0:0:0:
333,217,287550,1,8,0:0:0:0:
189,152,287727,70,0,L|192:332,1,160,6|2,0:0|0:0,0:0:0:0:
309,270,288256,2,0,P|384:260|420:269,1,80,8|0,0:0|0:0,0:0:0:0:
479,333,288609,1,6,0:0:0:0:
458,204,288786,1,0,0:0:0:0:
362,346,288962,1,8,0:0:0:0:
328,169,289139,6,0,L|314:81,1,80,6|0,0:0|0:0,0:0:0:0:
231,147,289491,1,2,0:0:0:0:
416,119,289668,1,8,0:0:0:0:
204,61,289844,2,0,L|187:222,1,160,6|8,0:0|0:0,0:0:0:0:
102,135,290374,1,8,0:0:0:0:
283,168,290550,70,0,L|265:330,1,160,6|2,0:0|0:0,0:0:0:0:
146,249,291080,2,0,P|83:239|41:246,1,80,8|0,0:0|3:0,0:0:0:0:
150,150,291433,1,6,0:0:0:0:
247,306,291609,1,2,0:0:0:0:
95,333,291786,1,8,0:0:0:0:
252,205,291962,6,0,P|338:188|447:187,1,160,6|2,0:0|0:0,0:0:0:0:
312,90,292491,1,8,0:0:0:0:
494,139,292668,2,0,P|504:199|493:242,1,80,6|0,0:0|0:0,0:0:0:0:
372,360,293021,2,0,P|369:320|379:281,1,80,2|8,0:0|0:0,0:0:0:0:
252,205,293374,70,0,P|174:186|94:191,1,160,6|2,0:0|0:0,0:0:0:0:
168,361,293903,2,0,P|179:315|176:264,1,80,8|6,0:0|0:0,0:0:0:0:
81,376,294256,1,0,0:0:0:0:
267,298,294433,1,2,0:0:0:0:
105,223,294609,1,8,0:0:0:0:
259,125,294786,6,0,L|217:226,1,80,6|0,0:0|0:0,0:0:0:0:
367,92,295138,1,2,0:0:0:0:
271,18,295315,1,8,0:0:0:0:
343,192,295491,2,0,L|362:295,1,80,6|8,0:0|0:0,0:0:0:0:
171,324,295844,69,2,0:0:0:0:
259,125,296021,2,0,L|208:140,1,40,8|8,0:0|0:0,0:0:0:0:
74,258,296197,2,0,P|54:332|60:364,1,80,6|0,0:0|0:0,0:0:0:0:
207,309,296550,5,8,0:0:0:0:
244,103,296727,1,8,0:0:0:0:
74,258,296903,2,0,P|81:346|93:367,1,80,6|0,0:0|0:0,0:0:0:0:
243,294,297256,70,0,L|250:248,1,40,8|8,0:0|0:0,0:0:0:0:
244,103,297433,2,0,L|210:50,1,40,8|8,0:0|0:0,0:0:0:0:
74,258,297609,2,0,P|110:338|129:353,1,80,6|0,0:0|0:0,0:0:0:0:
326,174,297962,5,2,0:0:0:0:
457,364,298138,1,8,0:0:0:0:
326,174,298315,1,2,0:0:0:0:
103,330,298491,69,12,0:0:0:0:
222,69,298668,1,8,0:0:0:0:
103,330,298844,1,12,0:0:0:0:
326,174,299021,6,0,P|409:156|448:169,1,95.99999707031,6|0,0:0|0:0,0:0:0:0:
149,220,299374,2,0,P|101:221|56:203,1,95.99999707031,2|8,0:0|0:0,0:0:0:0:
221,127,299727,1,0,0:0:0:0:
239,280,299903,1,2,0:0:0:0:
118,121,300080,2,0,L|138:6,1,95.99999707031,2|8,0:0|0:0,0:0:0:0:
339,224,300433,70,0,P|239:211|106:230,1,191.9999941406,6|2,0:0|0:0,0:0:0:0:
354,140,300962,1,8,0:0:0:0:
247,305,301138,1,0,0:0:0:0:
154,136,301315,1,2,0:0:0:0:
48,305,301491,2,0,L|37:203,1,95.99999707031,2|8,0:0|0:0,0:0:0:0:
201,57,301844,6,0,L|167:269,1,191.9999941406,6|2,0:0|0:0,0:0:0:0:
286,122,302374,1,8,0:0:0:0:
90,123,302550,1,0,0:0:0:0:
274,224,302727,1,2,0:0:0:0:
302,27,302903,2,0,P|389:16|426:31,1,95.99999707031,2|8,0:0|0:0,0:0:0:0:
463,210,303256,70,0,P|370:228|271:223,1,191.9999941406,6|2,0:0|0:0,0:0:0:0:
0,145,303786,2,0,P|95:140|190:159,1,191.9999941406,8|2,0:0|0:0,0:0:0:0:
186,244,304315,1,2,0:0:0:0:
274,134,304491,1,8,0:0:0:0:
99,290,304668,6,0,P|196:336|285:267,1,191.999994140625,6|2,0:0|0:0,0:0:0:0:
385,199,305197,1,8,0:0:0:0:
361,359,305374,1,0,0:0:0:0:
189,246,305550,1,2,0:0:0:0:
350,276,305727,1,2,0:0:0:0:
160,147,305903,1,8,0:0:0:0:
265,301,306080,70,0,L|281:183,1,95.99999707031,6|0,0:0|0:0,0:0:0:0:
161,55,306433,1,2,0:0:0:0:
83,176,306609,1,8,0:0:0:0:
234,117,306786,2,0,P|300:111|345:131,1,95.99999707031,0|2,0:0|0:0,0:0:0:0:
423,241,307138,5,2,0:0:0:0:
447,96,307315,1,8,0:0:0:0:
279,196,307491,2,0,L|274:314,1,95.99999707031,6|0,0:0|0:0,0:0:0:0:
469,231,307844,69,2,0:0:0:0:
420,68,308021,1,8,0:0:0:0:
244,223,308197,2,0,L|239:341,1,95.99999707031,6|0,0:0|0:0,0:0:0:0:
477,197,308550,5,2,0:0:0:0:
377,53,308727,1,8,0:0:0:0:
289,321,308903,2,0,P|338:241|347:124,1,191.9999941406,6|2,0:0|0:0,0:0:0:0:
227,195,309433,69,8,0:0:0:0:
134,67,309609,1,0,0:0:0:0:
70,183,309786,1,8,0:2:0:0:
76,193,309874,1,8,0:0:0:0:
80,204,309962,2,0,L|82:275,1,47.99999853516,8|0,3:0|3:0,0:0:0:0:
166,346,310138,2,0,L|168:280,1,47.99999853516,4|0,3:0|0:0,0:0:0:0:
168,160,310315,6,0,P|269:135|348:171,1,191.9999941406,6|2,0:0|0:0,0:0:0:0:
260,353,310844,2,0,L|253:232,1,95.99999707031,8|0,0:0|0:0,0:0:0:0:
167,298,311197,1,2,0:0:0:0:
342,265,311374,2,0,L|346:149,1,95.99999707031,2|8,0:0|0:0,0:0:0:0:
184,86,311727,70,0,P|87:67|-6:104,1,191.9999941406,6|2,0:0|0:0,0:0:0:0:
98,204,312256,1,8,0:0:0:0:
277,136,312433,2,0,P|284:101|269:31,1,95.99999707031,0|2,0:0|0:0,0:0:0:0:
181,269,312786,2,0,P|171:315|178:362,1,95.99999707031,2|8,0:0|0:0,0:0:0:0:
426,316,313138,6,0,P|370:269|310:345,1,191.9999941406,6|2,0:0|0:0,0:0:0:0:
500,372,313668,1,8,0:0:0:0:
454,197,313844,2,0,P|448:105|463:73,1,95.99999707031,0|2,0:0|0:0,0:0:0:0:
251,150,314197,2,0,P|257:197|246:244,1,95.99999707031,2|8,0:0|0:0,0:0:0:0:
0,191,314550,70,0,P|63:156|172:191,1,191.9999941406,6|2,0:0|0:0,0:0:0:0:
342,55,315080,2,0,P|279:20|170:55,1,191.9999941406,8|2,0:0|0:0,0:0:0:0:
257,126,315609,1,2,0:0:0:0:
155,165,315786,1,8,0:0:0:0:
448,103,315962,6,0,L|415:314,1,191.9999941406,6|2,0:0|0:0,0:0:0:0:
197,328,316491,2,0,L|184:230,1,95.99999707031,8|0,0:0|0:0,0:0:0:0:
270,168,316844,1,2,0:0:0:0:
91,279,317021,2,0,P|80:213|91:172,1,95.99999707031,2|8,0:0|0:0,0:0:0:0:
265,60,317374,70,0,B|392:68,1,95.99999707031,6|0,0:0|0:0,0:0:0:0:
249,164,317727,1,2,0:0:0:0:
164,53,317903,1,8,0:0:0:0:
160,215,318080,2,0,P|237:266|344:214,1,191.9999941406,6|2,0:0|0:0,0:0:0:0:
450,173,318609,1,8,0:0:0:0:
492,321,318786,6,0,P|381:248|300:236,1,191.9999941406,6|2,0:0|0:0,0:0:0:0:
99,351,319315,2,0,P|179:358|220:350,1,95.99999707031,8|0,0:0|0:0,0:0:0:0:
51,264,319668,1,2,0:0:0:0:
239,262,319844,2,0,L|251:135,1,95.99999707031,2|8,0:0|0:0,0:0:0:0:
32,72,320197,70,0,L|54:299,1,191.9999941406,6|2,0:0|0:0,0:0:0:0:
170,90,320727,2,0,L|144:222,1,95.99999707031,8|2,0:0|0:0,0:0:0:0:
330,85,321080,2,0,L|356:217,1,95.99999707031,8|2,0:0|0:0,0:0:0:0:
203,293,321433,2,0,P|251:283|299:293,1,95.99999707031,8|0,0:0|0:0,0:0:0:0:
170,148,321786,6,0,P|236:110|268:109,2,80,6|0|8,0:0|0:0|0:0,0:0:0:0:
312,70,322315,1,0,3:0:0:0:
312,70,322403,1,0,3:0:0:0:
312,70,322491,2,0,P|267:34|219:24,1,80,2|0,0:0|0:0,0:0:0:0:
337,160,322844,69,8,0:0:0:0:
427,193,323021,1,0,0:0:0:0:
352,324,323197,2,0,P|304:265|375:262,1,160,6|8,0:0|0:0,0:0:0:0:
435,310,323727,2,0,P|495:320|529:307,1,80,0|2,0:0|0:0,0:0:0:0:
471,152,324080,2,0,L|475:244,1,80,2|8,0:0|0:0,0:0:0:0:
391,124,324433,6,0,B|404:73|477:40|541:98,1,160,6|2,0:0|0:0,0:0:0:0:
346,41,324962,2,0,L|355:206,1,160,8|2,0:0|0:0,0:0:0:0:
261,128,325491,1,2,0:0:0:0:
216,226,325668,1,8,0:0:0:0:
292,286,325844,70,0,P|190:255|132:279,1,160,6|2,0:0|0:0,0:0:0:0:
354,200,326374,2,0,P|456:231|514:207,1,160,8|2,0:0|0:0,0:0:0:0:
332,104,326903,5,2,0:0:0:0:
437,134,327080,1,8,0:0:0:0:
254,46,327256,2,0,P|234:92|252:170,1,95.99999707031,6|0,0:0|0:0,0:0:0:0:
336,84,327609,69,2,0:0:0:0:
463,127,327786,1,8,0:0:0:0:
222,45,327962,2,4,P|218:95|262:162,1,95.99999707031,4|2,3:2|0:0,0:0:0:0:
340,64,328315,5,2,0:0:0:0:
489,120,328491,1,8,0:0:0:0:
191,219,328668,2,0,P|149:162|246:154,1,191.9999941406,6|2,0:0|0:0,0:0:0:0:
150,305,329197,2,0,L|32:318,1,95.99999707031,8|0,0:0|3:0,0:0:0:0:
71,225,329550,1,2,0:0:0:0:
243,300,329727,2,0,L|354:304,1,95.99999707031,2|8,0:0|0:0,0:0:0:0:
388,88,330080,70,0,P|413:153|404:204,1,95.99999707031,6|0,0:0|0:0,0:0:0:0:
231,177,330433,1,2,0:0:0:0:
212,41,330609,1,8,0:0:0:0:
420,85,330786,6,0,P|421:154|395:199,1,95.99999707031,6|0,0:0|0:0,0:0:0:0:
210,180,331138,1,2,0:0:0:0:
209,10,331315,1,8,0:0:0:0:
451,93,331491,70,0,P|428:158|388:192,1,95.99999707031,6|0,0:0|0:0,0:0:0:0:
189,183,331844,1,2,0:0:0:0:
242,23,332021,1,8,0:0:0:0:
477,111,332197,6,0,P|433:165|384:182,1,95.99999707031,6|0,0:0|0:0,0:0:0:0:
189,185,332550,1,8,0:0:0:0:
385,88,332727,1,8,0:0:0:0:
184,275,332903,70,0,P|99:204|119:126,1,191.9999941406,6|2,0:0|0:0,0:0:0:0:
257,206,333433,2,0,L|278:331,1,95.99999707031,8|0,0:0|0:0,0:0:0:0:
368,153,333786,5,2,0:0:0:0:
243,93,333962,1,2,0:0:0:0:
128,173,334138,1,8,0:0:0:0:
257,206,334315,2,0,P|312:194|381:207,1,95.99999707031,6|0,0:0|0:0,0:0:0:0:
448,325,334668,1,2,0:0:0:0:
310,280,334844,1,8,0:0:0:0:
453,122,335021,2,0,P|471:166|470:214,1,95.9999970703126,8|0,0:0|3:0,0:0:0:0:
350,158,335374,69,2,0:0:0:0:
339,124,335462,1,0,0:0:0:0:
342,88,335550,1,8,0:0:0:0:
358,56,335638,1,8,0:0:0:0:
386,34,335727,6,0,P|349:79|223:83,1,160,6|0,0:0|0:0,0:0:0:0:
159,30,336256,1,2,0:0:0:0:
146,139,336433,1,0,0:0:0:0:
249,256,336609,2,0,L|252:92,1,160,2|2,0:0|0:0,0:0:0:0:
330,186,337138,2,0,P|279:208|165:185,1,160,0|0,0:0|0:0,0:0:0:0:
104,124,337668,1,2,0:0:0:0:
68,211,337844,1,0,0:0:0:0:
275,232,338197,69,0,0:0:0:0:
433,160,338374,1,2,0:0:0:0:
259,143,338550,2,0,P|340:172|361:267,1,160,8|0,0:0|0:0,0:0:0:0:
183,221,339080,2,0,L|169:110,1,80,2|0,0:0|0:0,0:0:0:0:
275,232,339433,2,0,L|271:337,1,80,2|0,0:0|0:0,0:0:0:0:
182,329,339786,1,2,0:0:0:0:
361,283,339962,6,0,B|446:281|415:344|534:344,1,160,4|0,3:2|0:0,0:0:0:0:
426,198,340491,2,0,P|485:179|487:268,1,160,2|2,0:0|0:0,0:0:0:0:
329,181,341021,1,0,0:0:0:0:
458,89,341197,1,8,0:0:0:0:
347,95,341374,70,0,B|252:95|286:157|184:146,1,160,6|0,0:0|0:0,0:0:0:0:
124,18,341903,2,0,P|118:57|121:97,1,80,2|0,0:0|0:0,0:0:0:0:
204,62,342256,2,0,P|137:56|38:90,1,160,2|2,0:0|0:0,0:0:0:0:
66,173,342786,2,0,P|133:179|232:145,1,160,0|0,0:0|0:0,0:0:0:0:
291,218,343315,1,2,0:0:0:0:
200,267,343491,1,0,0:0:0:0:
481,307,343844,5,0,0:0:0:0:
396,267,344021,1,2,0:0:0:0:
241,355,344197,2,0,P|154:335|84:348,1,160,8|0,0:0|0:0,0:0:0:0:
8,220,344727,2,0,L|33:114,1,80,2|0,0:0|0:0,0:0:0:0:
168,227,345080,2,0,L|135:61,1,160,2|2,0:0|0:0,0:0:0:0:
291,106,345609,70,0,P|349:123|396:120,1,80,0|2,0:0|0:0,0:0:0:0:
344,271,345962,2,0,P|367:238|398:213,1,80,0|2,0:0|0:0,0:0:0:0:
251,252,346315,2,0,P|236:193|210:154,1,80,0|2,0:0|0:0,0:0:0:0:
86,123,346668,1,8,0:0:0:0:
152,229,346844,1,2,0:0:0:0:
189,71,347021,6,0,B|275:49|271:105|366:66,1,160,6|2,0:0|0:0,0:0:0:0:
450,148,347550,2,0,L|457:260,1,80,8|6,0:0|0:0,0:0:0:0:
399,318,347903,1,0,0:0:0:0:
350,214,348080,1,2,0:0:0:0:
496,321,348256,1,8,0:0:0:0:
297,287,348433,70,0,P|218:286|131:321,1,160,6|2,0:0|0:0,0:0:0:0:
45,228,348962,1,8,0:0:0:0:
170,156,349138,2,0,L|140:326,1,160,6|2,0:0|0:0,0:0:0:0:
266,220,349668,1,8,0:0:0:0:
106,81,349844,6,0,P|177:58|256:116,1,160,6|2,0:0|0:0,0:0:0:0:
348,160,350374,2,0,P|409:165|458:155,1,80,8|6,0:0|0:0,0:0:0:0:
507,105,350639,1,2,0:0:0:0:
487,74,350727,2,0,P|447:71|407:76,1,80,0|2,0:0|0:0,0:0:0:0:
320,21,351080,1,8,0:0:0:0:
234,218,351256,70,0,L|251:58,1,160,6|2,0:0|0:0,0:0:0:0:
133,90,351786,1,8,0:0:0:0:
311,179,351962,2,0,P|248:147|143:189,1,160,6|2,0:0|0:0,0:0:0:0:
104,264,352491,1,8,0:0:0:0:
254,384,352668,6,0,P|213:301|242:222,1,160,6|2,0:0|0:0,0:0:0:0:
382,318,353197,2,0,P|323:302|279:305,1,80,8|6,0:0|0:0,0:0:0:0:
458,249,353550,1,0,0:0:0:0:
371,222,353727,1,2,0:0:0:0:
471,334,353903,1,8,0:0:0:0:
444,159,354080,70,0,P|448:77|482:1,1,160,6|2,0:0|0:0,0:0:0:0:
364,64,354609,1,8,0:0:0:0:
242,21,354786,2,0,P|189:19|148:29,1,80,6|0,0:0|0:0,0:0:0:0:
166,124,355138,2,0,P|219:126|260:116,1,80,2|8,0:0|0:0,0:0:0:0:
75,90,355491,6,0,L|56:280,1,160,6|2,0:0|0:0,0:0:0:0:
192,343,356021,2,0,P|113:346|90:354,1,80,8|6,0:0|0:0,0:0:0:0:
256,270,356374,1,0,0:0:0:0:
318,362,356550,1,2,0:0:0:0:
374,266,356727,1,8,0:0:0:0:
192,343,356903,70,0,L|183:236,1,80,6|0,0:0|0:0,0:0:0:0:
217,138,357256,1,2,0:0:0:0:
277,222,357433,1,8,0:0:0:0:
91,216,357609,1,6,0:0:0:0:
224,39,357962,5,2,0:0:0:0:
355,156,358138,2,0,L|298:171,1,40,8|8,0:0|0:0,0:0:0:0:
210,255,358315,2,0,P|150:260|113:269,1,80,6|0,0:0|0:0,0:0:0:0:
245,33,358668,69,8,0:0:0:0:
363,183,358844,1,8,0:0:0:0:
188,263,359021,2,0,P|122:256|80:259,1,80,6|0,0:0|0:0,0:0:0:0:
272,31,359374,5,8,0:0:0:0:
364,201,359550,1,8,0:0:0:0:
158,281,359727,2,0,P|111:233|10:254,1,160,6|2,0:0|0:0,0:0:0:0:
249,337,360256,1,8,0:0:0:0:
185,135,360433,1,2,0:0:0:0:
489,238,360609,69,8,0:0:0:0:
175,250,360786,1,8,0:0:0:0:
446,124,360962,1,8,0:0:0:0:
260,331,361138,6,0,P|290:259|232:147,1,191.9999941406,6|2,0:0|0:0,0:0:0:0:
83,94,361668,1,8,0:0:0:0:
226,12,361844,1,0,0:0:0:0:
145,163,362021,1,2,0:0:0:0:
287,73,362197,2,0,P|348:68|403:83,1,95.99999707031,2|8,0:0|0:0,0:0:0:0:
432,322,362550,70,0,P|451:218|492:132,1,191.9999941406,6|2,0:0|0:0,0:0:0:0:
353,220,363080,1,8,0:0:0:0:
341,343,363256,1,0,0:0:0:0:
247,186,363433,1,2,0:0:0:0:
163,299,363609,2,0,P|233:283|296:285,1,95.99999707031,2|8,0:0|0:0,0:0:0:0:
84,359,363962,6,0,P|72:292|104:163,1,191.9999941406,6|2,0:0|0:0,0:0:0:0:
193,21,364491,1,8,0:0:0:0:
71,34,364668,1,0,0:0:0:0:
271,98,364844,1,2,0:0:0:0:
393,41,365021,2,0,P|403:88|398:144,1,95.99999707031,2|8,0:0|0:0,0:0:0:0:
205,198,365374,70,0,P|109:159|0:196,1,191.9999941406,6|2,0:0|0:0,0:0:0:0:
242,304,365903,2,0,L|252:97,1,191.9999941406,8|2,0:0|0:0,0:0:0:0:
347,170,366433,1,2,0:0:0:0:
150,239,366609,1,8,0:0:0:0:
178,51,366786,6,0,P|240:21|301:24,1,95.99999707031,6|0,0:0|0:0,0:0:0:0:
438,113,367138,2,0,P|390:105|349:80,1,95.99999707031,2|8,0:0|0:0,0:0:0:0:
202,137,367491,1,0,0:0:0:0:
308,275,367668,2,0,P|311:220|297:175,1,95.99999707031,2|2,0:0|0:0,0:0:0:0:
392,330,368021,1,8,0:0:0:0:
218,228,368197,70,0,P|132:227|92:231,1,95.99999707031,6|0,0:0|0:0,0:0:0:0:
19,360,368550,1,2,0:0:0:0:
169,327,368727,1,8,0:0:0:0:
30,180,368903,2,0,P|22:238|35:282,1,95.99999707031,0|2,0:0|0:0,0:0:0:0:
152,88,369256,5,2,0:0:0:0:
265,204,369433,1,8,0:0:0:0:
381,49,369609,2,0,P|403:131|414:162,1,95.99999707031,6|0,0:0|0:0,0:0:0:0:
129,106,369962,69,2,0:0:0:0:
279,215,370139,1,8,0:0:0:0:
385,26,370315,2,0,P|426:113|444:146,1,95.99999707031,6|0,0:0|0:0,0:0:0:0:
128,133,370668,5,2,0:0:0:0:
303,218,370845,1,8,0:0:0:0:
386,8,371021,2,0,P|444:91|460:202,1,191.9999941406,6|2,0:0|0:0,0:0:0:0:
267,328,371550,69,8,0:0:0:0:
437,359,371727,1,0,0:0:0:0:
353,251,371903,1,8,0:0:0:0:
353,251,371991,1,8,0:0:0:0:
353,251,372080,2,0,L|354:318,1,47.99999853516,8|0,3:0|3:0,0:0:0:0:
241,186,372256,2,0,L|242:139,1,47.99999853516,4|0,3:0|0:0,0:0:0:0:
129,269,372433,6,0,P|20:269|-25:178,1,191.999994140625,6|2,0:0|0:0,0:0:0:0:
109,48,372962,1,8,0:0:0:0:
69,192,373138,1,0,0:0:0:0:
15,75,373315,1,2,0:0:0:0:
166,148,373491,2,0,P|237:158|300:144,1,95.99999707031,2|8,0:0|0:0,0:0:0:0:
425,30,373844,70,0,P|496:100|468:193,1,191.999994140625,6|2,0:0|0:0,0:0:0:0:
355,261,374374,1,8,0:0:0:0:
311,107,374550,2,0,P|373:120|418:121,1,95.99999707031,0|2,0:0|0:0,0:0:0:0:
263,207,374903,2,0,P|215:210|168:221,1,95.99999707031,2|8,0:0|0:0,0:0:0:0:
382,292,375256,6,0,P|369:199|366:87,1,191.999994140625,6|2,0:0|0:0,0:0:0:0:
187,119,375786,2,0,P|113:123|63:105,1,95.99999707031,8|0,0:0|0:0,0:0:0:0:
255,23,376138,1,2,0:0:0:0:
254,208,376315,2,0,P|256:272|261:332,1,95.9999970703126,2|8,0:0|0:0,0:0:0:0:
0,240,376668,70,0,P|59:212|174:282,1,191.9999941406,6|2,0:0|0:0,0:0:0:0:
371,153,377197,2,0,P|283:181|206:130,1,191.9999941406,8|2,0:0|0:0,0:0:0:0:
299,79,377727,1,2,0:0:0:0:
208,22,377903,1,8,0:0:0:0:
425,48,378080,6,0,P|403:129|412:247,1,191.9999941406,6|2,0:0|0:0,0:0:0:0:
280,349,378609,2,0,P|204:331|158:339,1,95.99999707031,8|0,0:0|0:0,0:0:0:0:
30,371,378962,1,2,0:0:0:0:
105,180,379138,2,0,L|101:284,1,95.99999707031,2|8,0:0|0:0,0:0:0:0:
361,133,379491,70,0,P|296:94|196:136,1,191.9999941406,6|2,0:0|0:0,0:0:0:0:
194,286,380021,1,8,0:0:0:0:
276,185,380197,2,0,B|305:229|363:236|402:220|402:220|428:243|479:249,1,191.9999941406,6|2,0:0|0:0,0:0:0:0:
392,330,380727,1,8,0:0:0:0:
475,145,380903,6,0,P|483:81|468:20,1,95.99999707031,6|0,0:0|0:0,0:0:0:0:
355,87,381256,1,2,0:0:0:0:
443,235,381433,2,0,P|392:213|334:211,1,95.99999707031,8|0,0:0|0:0,0:0:0:0:
204,273,381786,1,2,0:0:0:0:
78,168,381962,2,0,P|85:233|85:269,1,95.99999707031,2|8,0:0|0:0,0:0:0:0:
15,51,382315,70,0,P|115:51|188:115,1,191.9999941406,6|2,0:0|0:0,0:0:0:0:
302,200,382844,2,0,P|352:199|416:173,1,95.99999707031,8|2,0:0|0:0,0:0:0:0:
227,284,383197,2,0,P|177:283|113:257,1,95.99999707031,8|2,0:0|0:0,0:0:0:0:
325,288,383550,2,0,L|321:392,1,95.99999707031,8|0,0:0|0:0,0:0:0:0:
196,197,383903,6,0,P|172:150|73:201,1,191.9999941406,6|8,0:0|0:0,0:0:0:0:
157,296,384433,1,0,3:0:0:0:
157,296,384521,1,0,3:0:0:0:
157,296,384609,2,0,P|216:287|253:292,1,80,2|0,0:0|0:0,0:0:0:0:
369,349,384962,2,0,P|423:343|463:321,1,80,8|0,0:0|0:0,0:0:0:0:
352,138,385315,70,0,P|333:220|413:260,1,160,6|8,0:0|0:0,0:0:0:0:
441,121,385844,2,0,L|436:34,1,80,0|2,0:0|0:0,0:0:0:0:
293,0,386197,2,0,L|284:114,1,80,2|8,0:0|0:0,0:0:0:0:
276,233,386550,2,0,P|201:259|110:208,1,160,6|2,0:0|0:0,0:0:0:0:
203,150,387080,1,8,0:0:0:0:
97,112,387256,1,0,3:0:0:0:
97,112,387344,1,0,3:0:0:0:
97,112,387433,2,0,P|42:130|0:128,2,80,2|2|8,0:0|0:0|0:0,0:0:0:0:
207,19,387962,6,0,P|208:79|232:195,1,160,6|2,0:0|0:0,0:0:0:0:
343,285,388491,2,0,P|359:206|363:127,1,160,8|2,0:0|0:0,0:0:0:0:
438,265,389021,69,2,0:0:0:0:
248,313,389197,1,8,0:0:0:0:
272,159,389374,2,0,P|281:106|280:30,1,95.9999970703126,6|0,0:0|0:0,0:0:0:0:
459,289,389727,5,2,0:0:0:0:
234,328,389903,1,8,0:0:0:0:
253,132,390080,2,0,P|254:80|249:28,1,95.9999970703126,0|2,3:0|0:0,0:0:0:0:
479,302,390433,69,2,0:0:0:0:
211,348,390609,1,8,0:0:0:0:
71,125,390786,2,0,P|173:64|234:115,1,191.9999941406,6|2,0:0|0:0,0:0:0:0:
283,246,391315,2,0,P|350:261|400:248,1,95.99999707031,8|0,0:0|3:0,0:0:0:0:
469,184,391668,1,2,0:0:0:0:
357,74,391844,2,0,L|344:185,1,95.99999707031,8|4,0:3|0:3,0:0:0:0:
216,280,392197,6,0,B|155:298|106:284|77:238|77:238|75:179,1,191.999994140625,6|2,0:0|0:0,0:0:0:0:
188,83,392727,2,0,L|172:180,1,95.99999707031,8|0,0:0|0:0,0:0:0:0:
306,249,393080,1,2,0:0:0:0:
396,164,393256,1,2,0:0:0:0:
285,151,393433,1,8,0:0:0:0:
405,260,393609,70,0,L|364:367,1,95.99999707031,6|0,0:0|0:0,0:0:0:0:
396,164,393962,2,0,L|323:74,1,95.99999707031,2|8,0:0|0:0,0:0:0:0:
209,221,394315,2,0,L|314:220,2,95.99999707031,0|2|2,0:0|0:0|0:0,0:0:0:0:
137,289,394844,1,8,0:0:0:0:
62,133,395021,6,0,P|90:67|185:126,1,191.9999941406,6|2,0:0|0:0,0:0:0:0:
79,231,395550,2,0,P|58:298|59:339,1,95.99999707031,8|0,0:0|0:0,0:0:0:0:
215,215,395903,1,2,0:0:0:0:
238,348,396080,1,2,0:0:0:0:
151,291,396256,1,8,0:0:0:0:
316,276,396433,70,0,B|412:263|408:333|509:332,1,191.9999941406,6|2,0:0|0:0,0:0:0:0:
357,179,396962,2,0,P|354:132|373:88,1,95.99999707031,8|0,0:0|0:0,0:0:0:0:
501,146,397315,2,0,P|504:193|486:238,1,95.99999707031,2|2,0:0|0:0,0:0:0:0:
348,365,397668,1,8,0:0:0:0:
230,324,397844,6,0,P|151:305|36:357,1,191.9999941406,6|2,0:0|0:0,0:0:0:0:
93,204,398374,2,0,P|109:141|105:93,1,95.99999707031,8|0,0:0|0:0,0:0:0:0:
183,220,398727,1,2,0:0:0:0:
9,260,398903,1,2,0:0:0:0:
20,145,399080,1,8,0:0:0:0:
142,291,399256,70,0,P|171:253|188:208,1,95.99999707031,6|0,0:0|0:0,0:0:0:0:
364,173,399609,2,0,P|316:166|269:175,1,95.99999707031,2|8,0:0|0:0,0:0:0:0:
146,43,399962,2,0,P|164:87|196:124,2,95.99999707031,0|2|2,0:0|0:0|0:0,0:0:0:0:
52,110,400491,1,8,0:0:0:0:
0,284,400668,6,0,P|65:208|181:214,1,191.9999941406,6|2,0:0|0:0,0:0:0:0:
243,342,401197,2,0,P|258:266|260:217,1,95.99999707031,8|0,0:0|0:0,0:0:0:0:
370,335,401550,2,0,P|361:287|359:240,1,95.99999707031,2|2,0:0|0:0,0:0:0:0:
461,285,401903,1,8,0:0:0:0:
284,166,402080,70,0,P|337:136|461:211,1,191.9999941406,6|2,0:0|0:0,0:0:0:0:
253,271,402609,2,0,P|192:230|159:187,1,95.99999707031,8|0,0:0|0:0,0:0:0:0:
47,339,402962,2,0,P|113:306|166:299,1,95.99999707031,2|2,0:0|0:0,0:0:0:0:
52,226,403315,1,8,0:0:0:0:
52,226,403403,1,0,0:0:0:0:
52,226,403491,6,0,P|129:198|148:93,1,160,6|2,0:0|0:0,0:0:0:0:
31,49,404021,2,0,P|46:117|49:139,1,80,8|0,0:0|0:0,0:0:0:0:
2,309,404374,1,2,0:0:0:0:
121,204,404550,1,2,0:0:0:0:
225,232,404727,1,8,0:0:0:0:
101,365,404903,70,0,P|188:358|262:318,1,160,6|2,0:0|0:0,0:0:0:0:
454,350,405433,2,0,P|490:281|492:257,1,80,8|0,0:0|0:0,0:0:0:0:
355,129,405786,1,2,0:0:0:0:
380,266,405962,1,2,0:0:0:0:
453,182,406138,1,8,0:0:0:0:
285,207,406315,6,0,P|298:132|334:30,1,160,6|2,0:0|0:0,0:0:0:0:
195,141,406844,1,8,0:0:0:0:
61,43,407021,2,0,P|-11:44|-41:53,2,80,0|2|2,0:0|0:0|0:0,0:0:0:0:
23,149,407550,1,8,0:0:0:0:
184,29,407727,70,0,P|180:137|154:222,1,160,6|2,0:0|0:0,0:0:0:0:
48,356,408256,1,8,0:0:0:0:
28,214,408433,1,0,0:0:0:0:
174,343,408609,1,2,0:0:0:0:
357,283,408786,1,2,0:0:0:0:
254,234,408962,1,4,0:3:0:0:
439,344,409138,6,0,P|457:277|399:185,1,160,6|2,0:0|0:0,0:0:0:0:
261,120,409668,1,8,0:0:0:0:
287,259,409844,1,0,0:0:0:0:
362,109,410021,69,2,0:0:0:0:
144,158,410197,1,2,0:0:0:0:
290,8,410374,1,8,0:0:0:0:
240,224,410550,2,0,P|177:261|74:235,1,160,6|2,0:0|0:0,0:0:0:0:
43,20,411080,1,8,0:0:0:0:
154,177,411256,2,0,P|170:129|160:67,2,80,0|2|2,0:0|0:0|0:0,0:0:0:0:
72,116,411786,1,8,0:0:0:0:
263,60,411962,6,0,P|337:68|435:123,1,160,6|2,0:0|0:0,0:0:0:0:
283,240,412491,1,8,0:0:0:0:
467,210,412668,1,0,3:0:0:0:
385,358,412844,2,0,P|382:291|390:247,1,80,2|2,0:0|0:0,0:0:0:0:
240,166,413197,1,8,0:0:0:0:
72,314,413374,70,0,P|148:293|225:312,1,160,6|2,0:0|0:0,0:0:0:0:
60,210,413903,2,0,P|64:151|75:114,1,80,8|0,0:0|0:0,0:0:0:0:
224,61,414256,1,2,0:0:0:0:
296,210,414433,2,0,P|232:192|199:192,1,80,2|8,0:0|0:0,0:0:0:0:
192,282,414786,6,0,B|273:265|270:327|359:296,1,160,6|8,0:0|0:0,0:0:0:0:
440,143,415315,1,8,0:0:0:0:
320,215,415491,1,2,0:0:0:0:
453,349,415668,1,8,0:0:0:0:
409,221,415844,1,2,0:0:0:0:
220,376,416021,1,8,0:0:0:0:
99,229,416197,70,0,P|141:208|249:260,1,160,6|8,0:0|0:0,0:0:0:0:
162,303,416727,5,8,0:0:0:0:
83,124,416903,1,8,0:0:0:0:
77,323,417080,69,8,0:0:0:0:
175,110,417256,1,8,0:0:0:0:
249,286,417433,5,8,0:0:0:0:
122,42,417609,1,6,0:0:0:0:
223,84,422727,70,0,L|308:92,1,80
421,159,423080,1,8,0:0:0:0:
270,277,423256,6,0,P|278:192|339:156,1,160,6|0,0:0|3:0,0:0:0:0:
349,242,423786,69,0,3:0:0:0:
171,282,423962,1,0,3:0:0:0:
348,331,424138,5,0,3:0:0:0:
177,194,424314,1,0,3:0:0:0:
259,368,424491,69,0,3:0:0:0:
280,186,424668,2,0,P|255:133|233:111,1,80,8|0,0:0|3:0,0:0:0:0:
87,237,425021,5,0,3:0:0:0:
153,92,425197,1,0,3:0:0:0:
231,271,425374,2,0,P|288:287|329:282,1,80,0|0,3:0|3:0,0:0:0:0:
433,94,425727,69,0,3:0:0:0:
285,197,425903,1,0,3:0:0:0:
149,59,426080,2,0,P|90:50|52:56,1,80,6|0,0:0|0:0,0:0:0:0:
408,55,426433,5,2,0:0:0:0:
247,211,426609,1,8,0:0:0:0:
128,32,426786,2,0,P|44:17|13:25,1,80,6|0,0:0|0:0,0:0:0:0:
367,37,427138,69,2,0:0:0:0:
216,226,427315,1,8,0:0:0:0:
9,76,427491,2,0,P|66:51|163:82,1,160,6|2,0:0|0:0,0:0:0:0:
204,272,428021,1,8,0:0:0:0:
228,291,428109,1,8,0:0:0:0:
259,309,428197,5,2,0:0:0:0:
396,343,428374,1,8,0:3:0:0:
488,287,428550,1,8,3:3:0:0:
483,202,428727,1,4,3:3:0:0:
344,88,428903,70,0,P|271:70|139:142,1,191.9999941406,6|2,0:0|0:0,0:0:0:0:
86,280,429433,2,0,P|16:295|-24:284,1,95.99999707031,8|0,0:0|0:0,0:0:0:0:
174,203,429786,1,2,0:0:0:0:
261,347,429962,2,0,P|334:350|382:323,1,95.99999707031,2|8,0:0|0:0,0:0:0:0:
443,86,430315,6,0,P|428:204|437:281,1,191.9999941406,6|2,0:0|0:0,0:0:0:0:
307,140,430844,1,8,0:0:0:0:
176,266,431021,2,0,P|110:247|68:242,1,95.99999707031,0|2,0:0|0:0,0:0:0:0:
131,75,431374,2,0,P|178:66|223:52,1,95.99999707031,2|8,0:0|0:0,0:0:0:0:
319,327,431727,70,0,P|319:223|243:140,1,191.9999941406,6|2,0:0|0:0,0:0:0:0:
165,343,432256,1,8,0:0:0:0:
79,195,432433,2,0,P|147:185|193:194,1,95.99999707031,0|2,0:0|0:0,0:0:0:0:
417,266,432786,2,0,P|426:212|418:166,1,95.99999707031,2|8,0:0|0:0,0:0:0:0:
286,63,433138,6,0,B|218:36|182:99|97:70,1,191.9999941406,6|2,0:0|0:0,0:0:0:0:
219,265,433668,2,0,P|279:251|238:154,1,191.9999941406,8|2,0:0|0:0,0:0:0:0:
158,198,434197,1,2,0:0:0:0:
74,136,434374,1,8,0:0:0:0:
71,325,434550,70,0,P|154:285|282:313,1,191.9999941406,6|2,0:0|0:0,0:0:0:0:
433,235,435080,2,0,P|457:282|464:333,1,95.99999707031,8|0,0:0|0:0,0:0:0:0:
315,379,435433,1,2,0:0:0:0:
323,198,435609,2,0,P|329:136|322:90,1,95.99999707031,2|8,0:0|0:0,0:0:0:0:
131,184,435962,6,0,P|194:157|249:150,1,95.99999707031,6|0,0:0|0:0,0:0:0:0:
59,132,436315,1,2,0:0:0:0:
100,266,436491,1,8,0:0:0:0:
148,74,436668,2,0,P|241:58|315:141,1,191.9999941406,6|2,0:0|0:0,0:0:0:0:
280,226,437197,1,8,0:0:0:0:
512,289,437374,70,0,P|425:279|334:342,1,191.9999941406,6|2,0:0|0:0,0:0:0:0:
170,356,437903,2,0,P|130:322|106:281,1,95.99999707031,8|0,0:0|0:0,0:0:0:0:
290,180,438256,1,2,0:0:0:0:
128,185,438433,2,0,P|55:179|11:169,1,95.99999707031,2|8,0:0|0:0,0:0:0:0:
241,88,438786,6,0,B|343:56|343:130|448:94,1,191.9999941406,6|2,0:0|0:0,0:0:0:0:
285,173,439315,2,0,L|292:288,1,95.99999707031,8|0,0:0|0:0,0:0:0:0:
109,284,439668,2,0,P|143:251|186:229,1,95.99999707031,2|2,0:0|0:0,0:0:0:0:
330,361,440021,2,0,P|282:363|237:349,1,95.99999707031,8|0,0:0|0:0,0:0:0:0:
468,251,440374,70,0,P|463:291|448:328,1,80,6|0,0:0|0:0,0:0:0:0:
434,156,440727,1,8,0:0:0:0:
378,257,440903,1,0,3:0:0:0:
378,257,440991,1,0,3:0:0:0:
378,257,441080,2,0,P|318:243|283:244,1,80,2|0,0:0|0:0,0:0:0:0:
165,301,441433,1,8,0:0:0:0:
204,192,441609,1,0,0:0:0:0:
255,350,441786,6,0,P|187:335|95:361,1,160,6|8,0:0|0:0,0:0:0:0:
18,302,442315,2,0,P|32:253|27:197,1,80,0|2,0:0|0:0,0:0:0:0:
132,143,442668,2,0,P|122:199|130:247,1,80,2|8,0:0|0:0,0:0:0:0:
258,257,443021,70,0,P|330:232|432:261,1,160,6|2,0:0|0:0,0:0:0:0:
471,162,443550,2,0,P|472:108|453:67,1,80,8|0,0:0|3:0,0:0:0:0:
347,47,443903,1,2,0:0:0:0:
382,133,444080,1,2,0:0:0:0:
286,117,444256,1,8,0:0:0:0:
165,210,444433,6,0,P|85:214|33:135,1,160,6|2,0:0|0:0,0:0:0:0:
140,60,444962,2,0,P|124:117|121:154,2,80,8|0|2,0:0|3:0|0:0,0:0:0:0:
247,155,445491,69,2,0:0:0:0:
168,323,445668,1,8,0:0:0:0:
360,187,445844,2,0,P|361:127|343:85,1,95.99999707031,6|0,0:0|0:0,0:0:0:0:
215,138,446197,5,2,0:0:0:0:
185,361,446374,1,8,0:0:0:0:
376,190,446550,2,0,P|395:126|393:74,1,95.9999970703126,4|2,3:2|0:0,0:0:0:0:
185,153,446903,69,2,0:0:0:0:
210,377,447080,1,8,0:0:0:0:
360,83,447256,2,0,P|384:128|347:276,1,191.9999941406,6|2,0:0|0:0,0:0:0:0:
181,185,447786,2,0,P|244:162|301:166,1,95.99999707031,8|0,0:0|3:0,0:0:0:0:
162,296,448138,1,2,0:0:0:0:
77,178,448315,1,2,0:0:0:0:
77,178,448403,1,0,0:0:0:0:
77,178,448491,1,8,0:0:0:0:
251,254,448668,6,0,P|248:139|190:50,1,191.9999941406,6|2,0:0|0:0,0:0:0:0:
61,49,449197,1,8,0:0:0:0:
164,183,449374,1,2,0:0:0:0:
368,66,449550,1,8,0:0:0:0:
329,232,449727,1,2,0:0:0:0:
218,26,449903,69,8,0:0:0:0:
64,168,450080,2,0,P|59:243|152:308,1,191.9999941406,6|8,0:0|0:0,0:0:0:0:
309,247,450609,1,8,0:0:0:0:
150,211,450786,2,0,P|231:181|270:183,1,95.99999707031,2|8,0:0|0:0,0:0:0:0:
362,330,451138,2,0,P|316:341|270:332,1,95.99999707031,2|8,0:0|0:0,0:0:0:0:
461,234,451491,6,0,B|493:170|451:80|451:80|427:128,1,191.999994140625,6|2,0:0|0:0,0:0:0:0:
301,230,452021,2,0,P|238:234|181:216,1,95.99999707031,8|0,0:0|0:0,0:0:0:0:
126,65,452374,1,2,0:0:0:0:
252,139,452550,1,2,0:0:0:0:
84,176,452727,1,8,0:0:0:0:
235,54,452903,70,0,P|293:55|343:82,1,95.99999707031,6|0,0:0|0:0,0:0:0:0:
426,52,453256,2,0,P|421:99|399:141,1,95.99999707031,2|8,0:0|0:0,0:0:0:0:
267,240,453609,2,0,L|266:145,2,95.99999707031,0|2|2,0:0|0:0|0:0,0:0:0:0:
353,214,454138,1,8,0:0:0:0:
168,163,454315,6,0,P|101:154|25:243,1,191.9999941406,6|2,0:0|0:0,0:0:0:0:
128,379,454844,1,8,0:0:0:0:
118,241,455021,1,0,0:0:0:0:
275,374,455197,1,2,0:0:0:0:
262,223,455374,1,2,0:0:0:0:
201,307,455550,1,8,0:0:0:0:
201,145,455727,70,0,P|270:126|358:205,1,191.999994140625,6|2,0:0|0:0,0:0:0:0:
251,324,456256,2,0,L|261:205,1,95.99999707031,8|0,0:0|0:0,0:0:0:0:
124,213,456609,2,0,L|132:308,1,95.99999707031,2|2,0:0|0:0,0:0:0:0:
30,263,456962,1,8,0:0:0:0:
186,129,457138,6,0,B|85:91|83:162|-13:117,1,191.9999941406,6|2,0:0|0:0,0:0:0:0:
124,26,457668,1,8,0:0:0:0:
40,48,457844,1,0,0:0:0:0:
131,204,458021,1,2,0:0:0:0:
44,228,458197,1,2,0:0:0:0:
217,283,458374,1,8,0:0:0:0:
328,129,458550,70,0,P|399:125|452:146,1,95.99999707031,2|0,0:0|0:0,0:0:0:0:
229,164,458903,2,0,L|241:58,1,95.99999707031,2|8,0:0|0:0,0:0:0:0:
373,212,459256,2,0,L|391:312,2,95.99999707031,0|2|2,0:0|0:0|0:0,0:0:0:0:
485,253,459786,1,8,0:0:0:0:
304,364,459962,6,0,B|210:320|96:338,1,191.9999941406,6|2,0:0|0:0,0:0:0:0:
29,209,460491,2,0,P|21:150|42:111,1,95.99999707031,8|0,0:0|0:0,0:0:0:0:
215,115,460844,1,2,0:0:0:0:
113,168,461021,1,2,0:0:0:0:
215,225,461197,1,8,0:0:0:0:
264,15,461374,70,0,P|263:69|324:210,1,191.9999941406,6|2,0:0|0:0,0:0:0:0:
455,91,461903,2,0,L|351:73,1,95.99999707031,8|0,0:0|0:0,0:0:0:0:
427,198,462256,1,2,0:0:0:0:
378,293,462433,1,2,0:0:0:0:
312,195,462609,1,8,0:0:0:0:
81,294,462786,6,0,P|167:259|275:302,1,191.9999941406,6|2,0:0|0:0,0:0:0:0:
416,196,463315,2,0,P|420:120|402:69,1,95.99999707031,8|0,0:0|0:0,0:0:0:0:
290,50,463668,1,2,0:0:0:0:
194,67,463844,1,2,0:0:0:0:
327,148,464021,1,8,0:0:0:0:
123,150,464197,70,0,P|95:92|61:56,1,95.99999707031,6|0,0:0|0:0,0:0:0:0:
69,238,464550,2,0,P|133:242|181:231,1,95.99999707031,2|8,0:0|0:0,0:0:0:0:
273,239,464903,2,0,P|236:292|222:339,2,95.99999707031,0|2|2,0:0|0:2|0:0,0:0:0:0:
331,328,465433,1,8,0:0:0:0:
222,148,465609,6,0,P|296:144|373:239,1,191.9999941406,6|2,0:0|0:0,0:0:0:0:
147,206,466138,2,0,L|130:85,1,95.99999707031,8|0,0:0|0:0,0:0:0:0:
264,241,466491,1,2,0:0:0:0:
187,296,466668,1,2,0:0:0:0:
54,232,466844,1,8,0:0:0:0:
239,140,467021,70,0,B|328:123|338:202|431:179,1,191.999994140625,6|0,0:0|0:0,0:0:0:0:
263,320,467550,2,0,P|269:269|268:209,1,95.99999707031,8|0,0:0|0:0,0:0:0:0:
177,256,467903,1,2,0:0:0:0:
358,279,468080,1,2,0:0:0:0:
266,186,468256,1,8,0:0:0:0:
29,246,468433,6,0,P|54:196|169:229,1,191.9999941406,6|2,0:0|0:0,0:0:0:0:
41,329,468962,1,8,0:0:0:0:
128,298,469138,1,0,0:0:0:0:
265,372,469315,1,2,0:0:0:0:
335,306,469491,2,0,P|404:301|450:320,1,95.99999707031,2|8,0:0|0:0,0:0:0:0:
276,169,469844,70,0,L|267:264,1,95.99999707031,6|0,0:0|0:0,0:0:0:0:
168,104,470197,2,0,L|176:214,1,95.99999707031,2|8,0:0|0:0,0:0:0:0:
342,104,470550,2,0,P|284:84|240:90,2,95.99999707031,0|2|2,0:0|0:0|0:0,0:0:0:0:
389,201,471080,1,8,0:0:0:0:
471,55,471256,6,0,B|428:133|507:165|459:267,1,191.9999941406,6|2,0:0|0:0,0:0:0:0:
274,231,471786,2,0,P|334:196|385:198,1,95.99999707031,8|0,0:0|0:0,0:0:0:0:
187,251,472138,1,2,0:0:0:0:
249,139,472315,1,2,0:0:0:0:
339,270,472491,1,8,0:0:0:0:
164,166,472668,70,0,P|104:149|12:240,1,191.9999941406,6|2,0:0|0:0,0:0:0:0:
125,355,473197,2,0,P|210:344|250:360,1,95.99999707031,8|0,0:0|0:0,0:0:0:0:
114,246,473550,1,8,0:0:0:0:
28,326,473727,1,2,0:0:0:0:
231,249,473903,2,0,P|217:204|188:148,1,95.9999970703126,8|2,0:0|0:0,0:0:0:0:
401,135,474256,5,8,0:0:0:0:
370,317,474433,1,8,0:0:0:0:
378,327,474786,69,8,0:0:0:0:
386,115,474962,1,8,0:0:0:0:
374,99,475315,5,8,0:0:0:0:
386,335,475491,1,6,0:0:0:0:
256,192,475580,12,6,476550,0:0:0:0:
256,192,476638,12,0,477433,0:0:0:0:
178,152,483279,6,0,P|240:133|310:168,1,143.9999956055,2|0,0:0|0:0,0:0:0:0:
372,201,483976,2,0,P|310:182|240:217,1,143.9999956055,0|0,3:0|0:0,0:0:0:0:
315,278,484674,1,2,0:0:0:0:
92,326,486069,6,0,L|82:216,1,95.99999707031,2|0,0:0|0:0,0:0:0:0:
178,230,486767,2,0,L|194:127,1,95.99999707031,0|0,3:0|0:0,0:0:0:0:
93,131,487465,1,2,0:0:0:0:
257,83,488162,70,0,P|312:79|367:96,1,95.99999707031,0|0,3:0|0:0,0:0:0:0:
456,57,488860,2,0,L|431:165,1,95.99999707031,2|0,0:0|0:0,0:0:0:0:
342,182,489558,2,0,L|358:287,1,95.99999707031,0|0,3:0|0:0,0:0:0:0:
451,317,490255,6,0,L|472:211,2,95.99999707031,2|0|0,0:0|0:0|3:0,0:0:0:0:
325,344,491651,69,2,0:0:0:0:
160,235,493046,5,2,0:0:0:0:
325,126,494441,69,2,0:0:0:0:
325,344,495837,5,2,0:0:0:0:
132,249,497232,70,0,P|74:236|31:249,1,95.99999707031,2|0,0:0|3:0,0:0:0:0:
150,157,497930,2,0,P|198:142|251:155,1,95.9999970703126
309,211,498453,2,0,L|362:186,1,47.9999985351563
456,218,499325,6,0,P|414:213|353:230,1,95.99999707031,2|0,0:0|3:0,0:0:0:0:
181,214,500023,2,0,P|186:238|242:290,1,95.9999970703126
233,139,500720,1,2,0:0:0:0:
268,211,501069,1,0,3:0:0:0:
131,40,501418,70,0,P|84:33|40:50,1,95.99999707031,2|0,0:0|3:0,0:0:0:0:
8,230,502116,2,0,P|15:182|12:135,1,95.99999707031,2|0,0:0|3:0,0:0:0:0:
61,310,502813,5,2,0:0:0:0:
244,244,503511,1,2,0:0:0:0:
178,314,503685,2,0,P|154:248|127:220,1,95.99999707031
48,204,504209,1,2,0:0:0:0:
197,135,504906,69,2,0:0:0:0:
288,178,505081,2,0,P|340:163|389:160,1,95.99999707031,0|0,0:0|0:0,0:0:0:0:
468,207,505604,1,2,0:0:0:0:
333,271,505953,1,0,3:0:0:0:
432,310,506127,2,0,L|421:194,1,95.99999707031,0|0,0:0|0:0,0:0:0:0:
288,333,506825,1,0,0:0:0:0:
173,294,506999,5,2,0:0:0:0:
357,116,508395,70,0,L|248:112,1,80,12|2,0:0|0:0,0:0:0:0:
140,221,508744,2,0,L|249:217,1,80,8|2,0:0|0:0,0:0:0:0:
104,128,509092,1,8,0:0:0:0:
58,263,509267,1,2,0:0:0:0:
6,124,509441,2,0,P|31:59|62:27,1,80,8|0,0:0|0:0,0:0:0:0:
182,144,509790,6,0,L|269:124,1,80,8|2,0:0|0:0,0:0:0:0:
445,229,510139,2,0,L|358:209,1,80,8|2,0:0|0:0,0:0:0:0:
388,308,510488,1,8,0:0:0:0:
489,310,510662,1,2,0:0:0:0:
303,278,510837,2,0,L|218:306,1,80,8|2,0:0|0:0,0:0:0:0:
19,187,511185,70,0,P|9:240|30:292,1,80,12|2,0:0|0:0,0:0:0:0:
153,384,511534,2,0,L|146:293,1,80,8|2,0:0|0:0,0:0:0:0:
180,167,511883,1,8,0:0:0:0:
97,230,512058,1,2,0:0:0:0:
123,89,512232,2,0,P|189:71|229:83,1,80,8|2,0:0|0:0,0:0:0:0:
338,198,512581,5,8,0:0:0:0:
327,80,512755,1,2,0:0:0:0:
233,177,512930,1,8,0:0:0:0:
417,150,513104,1,2,0:0:0:0:
438,175,513191,1,8,0:0:0:0:
444,208,513278,1,8,0:0:0:0:
435,239,513365,1,8,0:0:0:0:
411,263,513453,1,8,0:0:0:0:
380,269,513540,1,8,0:0:0:0:
347,266,513627,2,0,L|330:220,1,40,8|2,0:3|0:0,0:0:0:0:
269,318,513802,2,0,L|231:304,1,40,4|0,3:3|3:0,0:0:0:0:
135,349,513976,70,0,P|133:302|114:258,1,80,12|2,0:0|0:0,0:0:0:0:
28,183,514325,1,8,0:0:0:0:
10,286,514499,1,2,0:0:0:0:
143,179,514674,2,0,P|194:170|248:172,1,80,8|2,0:0|0:0,0:0:0:0:
383,256,515023,2,0,P|343:264|304:266,1,80,8|2,0:0|0:0,0:0:0:0:
437,153,515372,6,0,L|439:60,1,80,12|2,0:0|0:0,0:0:0:0:
349,162,515720,1,8,0:0:0:0:
431,248,515895,1,2,0:0:0:0:
267,306,516069,2,0,P|305:271|338:247,1,80,8|0,0:0|0:0,0:0:0:0:
157,157,516418,2,0,P|188:181|218:209,1,80,8|2,0:0|0:0,0:0:0:0:
68,98,516767,70,0,B|117:55|170:48|229:85,1,160,12|8,0:0|0:0,0:0:0:0:
376,238,517465,2,0,P|315:199|281:195,1,80,8|2,0:0|0:0,0:0:0:0:
186,258,517813,2,0,L|90:243,1,80,8|0,0:0|0:0,0:0:0:0:
264,319,518162,5,12,0:0:0:0:
225,173,518337,1,2,0:0:0:0:
212,169,518424,1,0,0:0:0:0:
198,167,518511,1,10,0:0:0:0:
69,169,518685,1,2,0:0:0:0:
63,140,518773,1,2,0:0:0:0:
63,105,518860,2,0,L|75:63,1,40,8|2,0:0|0:0,0:0:0:0:
205,38,519034,1,2,0:0:0:0:
269,154,519209,1,8,0:0:0:0:
241,166,519296,1,2,0:0:0:0:
212,170,519383,1,2,0:0:0:0:
182,168,519470,1,2,0:0:0:0:
154,158,519558,69,2,0:0:0:0:
223,294,519906,1,2,0:0:0:0:
71,286,520255,1,2,0:0:0:0:
229,206,520604,1,2,0:0:0:0:
381,214,520953,5,2,0:0:0:0:
228,288,521301,1,2,0:0:0:0:
387,303,521651,1,2,0:0:0:0:
251,203,521999,1,2,0:0:0:0:
312,78,522348,70,0,P|360:79|387:91,1,60.00000228882,2|0,0:0|0:0,0:0:0:0:
389,92,522610,1,2,0:0:0:0:
407,105,522697,2,0,L|482:100,1,60.00000228882,2|0,0:0|0:0,0:0:0:0:
483,181,523046,2,0,L|412:187,1,60.00000228882,2|0,0:0|0:0,0:0:0:0:
341,231,523395,2,0,L|268:228,1,60.00000228882,2|0,0:0|0:0,0:0:0:0:
204,274,523744,5,2,0:0:0:0:
153,212,523918,1,0,0:0:0:0:
152,335,524092,1,2,0:0:0:0:
91,272,524267,69,0,0:0:0:0:
234,198,524441,1,2,0:0:0:0:
152,335,524615,1,0,0:0:0:0:
289,350,524790,6,0,P|349:341|417:346,1,120.0000045776,2|2,0:0|0:0,0:0:0:0:
475,224,525488,1,2,0:0:0:0:
314,164,525837,1,2,0:0:0:0:
357,257,526185,2,0,L|283:261,1,60.00000228882,2|0,0:0|0:0,0:0:0:0:
227,185,526534,70,0,P|216:132|188:58,2,120.0000045776,2|2|2,0:0|0:0|0:0,0:0:0:0:
157,307,527581,2,0,P|105:306|78:309,1,60.00000228882,2|0,0:0|0:0,0:0:0:0:
25,351,527930,1,2,0:0:0:0:
25,261,528104,1,0,0:0:0:0:
128,199,528453,1,0,0:0:0:0:
14,138,528802,1,0,0:0:0:0:
101,108,528976,2,0,P|147:107|174:113,1,60.00000228882,2|0,0:0|0:0,0:0:0:0:
251,158,529325,5,2,0:0:0:0:
245,61,529499,1,0,0:0:0:0:
342,146,529848,1,0,0:0:0:0:
251,246,530197,1,0,0:0:0:0:
326,312,530372,2,0,P|372:298|433:292,1,90.00000343323,2|0,0:0|0:0,0:0:0:0:
452,292,530720,70,0,P|465:241|465:218,1,60.00000228882,2|0,0:0|0:0,0:0:0:0:
447,112,531069,2,0,P|419:84|387:60,1,60.00000228882,2|0,0:0|0:0,0:0:0:0:
256,89,531418,2,0,P|284:76|309:60,1,60.00000228882,2|0,0:0|0:0,0:0:0:0:
171,62,531767,1,2,0:0:0:0:
215,169,531941,2,0,P|143:153|96:167,1,120.0000045776,2|0,3:2|0:0,0:0:0:0:
52,248,532465,2,0,L|19:251,4,30.00000114441,2|0|0|0|2,0:0|0:0|3:0|0:0|0:0,0:0:0:0:
139,308,532988,2,0,P|144:359|137:385,2,60.00000228882,0|2|0,0:0|0:0|3:0,0:0:0:0:
255,254,533511,6,0,B|320:245|309:291|394:276,1,120.0000045776,2|2,0:0|0:0,0:0:0:0:
424,192,534034,2,0,P|395:184|366:185,1,60.00000228882,0|2,3:0|0:0,0:0:0:0:
287,128,534383,2,0,L|283:83,2,30.00000114441,0|0|2,0:0|0:0|0:0,0:0:0:0:
164,119,534732,2,0,L|167:149,4,30.00000114441,0|0|2|0|0,3:0|0:0|0:0|0:0|0:0,0:0:0:0:
100,49,535255,1,2,0:0:0:0:
55,145,535430,2,0,L|48:224,2,60.00000228882,0|2|0,3:0|0:0|0:0,0:0:0:0:
129,253,535953,2,0,L|135:321,1,60.00000228882,2|0,0:0|3:0,0:0:0:0:
263,233,536302,70,0,P|318:224|344:228,1,60.0000022888184,2|0,0:0|0:0,0:0:0:0:
426,283,536651,2,0,P|471:275|492:268,1,60.0000022888184,2|0,0:0|3:0,0:0:0:0:
497,164,536999,1,2,0:0:0:0:
497,164,537087,1,0,0:0:0:0:
497,164,537174,2,0,L|438:148,1,60.00000228882,0|2,0:0|0:0,0:0:0:0:
317,169,537523,6,0,P|334:128|308:45,1,120.0000045776,0|0,3:0|0:0,0:0:0:0:
211,116,538046,2,0,L|249:115,4,30.00000114441,2|0|0|0|2,0:0|0:0|3:0|0:0|0:0,0:0:0:0:
132,171,538569,1,0,0:0:0:0:
129,75,538744,1,2,0:0:0:0:
65,228,539092,69,2,0:0:0:0:
223,223,539267,1,0,0:0:0:0:
62,266,539441,5,2,0:0:0:0:
211,182,539616,1,0,3:0:0:0:
71,314,539790,69,2,0:0:0:0:
190,168,539965,1,0,0:0:0:0:
190,168,540052,1,0,0:0:0:0:
190,168,540139,1,2,0:0:0:0:
60,131,540313,1,0,3:0:0:0:
60,131,540401,1,0,0:0:0:0:
60,131,540488,5,2,0:0:0:0:
138,63,540662,1,0,0:0:0:0:
287,120,540837,69,2,0:0:0:0:
320,124,540924,1,0,0:0:0:0:
351,127,541011,1,0,0:0:0:0:
263,207,541185,5,2,0:0:0:0:
230,211,541272,1,0,0:0:0:0:
199,214,541359,1,0,0:0:0:0:
339,282,541534,69,2,0:0:0:0:
354,251,541622,1,0,0:0:0:0:
363,220,541709,1,0,0:0:0:0:
466,315,541883,6,0,P|469:244|480:173,1,143.9999956055,12|0,0:0|0:0,0:0:0:0:
454,88,542232,2,0,P|410:72|362:69,1,95.99999707031,8|2,0:0|0:0,0:0:0:0:
259,172,542581,2,0,P|202:183|113:164,1,143.9999956055,8|0,0:0|0:0,0:0:0:0:
44,100,542930,1,8,0:0:0:0:
51,280,543104,1,2,0:0:0:0:
51,280,543191,1,0,0:0:0:0:
51,280,543278,70,0,P|107:276|155:288,1,95.99999707031,8|2,0:0|0:0,0:0:0:0:
333,361,543627,2,0,P|277:365|229:353,1,95.99999707031,8|2,0:0|0:0,0:0:0:0:
209,204,543976,2,0,P|228:136|298:156,1,143.9999956055,8|0,0:0|0:0,0:0:0:0:
347,215,544325,2,0,P|383:138|352:71,1,143.9999956055,8|0,0:0|0:0,0:0:0:0:
284,41,544674,5,12,0:0:0:0:
468,114,544848,1,2,0:0:0:0:
287,142,545023,2,0,L|172:141,1,95.99999707031,8|2,0:0|0:0,0:0:0:0:
85,263,545372,2,0,P|65:219|108:130,1,143.9999956055,8|0,0:0|0:0,0:0:0:0:
152,204,545720,1,8,0:0:0:0:
248,62,545895,1,2,0:0:0:0:
248,62,545982,1,0,0:0:0:0:
248,62,546069,70,0,P|308:66|356:80,1,95.99999707031,8|2,0:0|0:0,0:0:0:0:
462,163,546418,2,0,P|466:232|478:279,1,95.99999707031,8|2,0:0|0:0,0:0:0:0:
325,311,546767,2,0,P|274:276|175:270,1,143.9999956055,8|0,0:0|0:0,0:0:0:0:
124,328,547116,2,0,P|91:216|98:171,1,143.9999956055,8|0,0:0|3:0,0:0:0:0:
163,121,547465,6,0,P|222:106|273:116,1,95.99999707031,12|2,0:0|0:0,0:0:0:0:
401,192,547813,2,0,P|354:204|308:196,1,95.99999707031,8|2,0:0|0:0,0:0:0:0:
455,116,548162,65,8,0:0:0:0:
392,296,548337,2,0,P|402:368|477:303,1,191.9999941406,2|2,0:0|0:0,0:0:0:0:
308,196,548860,70,0,B|222:170|213:237|108:190,1,191.9999941406,12|8,0:0|0:0,0:0:0:0:
36,249,549383,1,2,0:0:0:0:
137,383,549558,1,8,0:0:0:0:
272,278,549732,2,0,P|311:347|204:345,1,191.9999941406,2|2,0:0|0:0,0:0:0:0:
397,228,550255,6,0,P|413:159|398:108,1,95.99999707031,12|2,0:0|0:0,0:0:0:0:
277,67,550604,2,0,P|274:114|290:160,1,95.99999707031,8|2,0:0|0:0,0:0:0:0:
172,172,550953,2,0,L|71:149,2,95.99999707031,8|2|8,0:0|0:0|0:0,0:0:0:0:
248,306,551476,1,2,0:0:0:0:
248,306,551563,1,0,0:0:0:0:
248,306,551651,70,0,L|306:295,1,47.99999853516,12|0,0:0|0:0,0:0:0:0:
392,241,551825,2,0,L|456:246,1,47.99999853516,2|0,0:0|0:0,0:0:0:0:
299,200,551999,1,8,0:0:0:0:
312,180,552086,1,0,0:0:0:0:
330,164,552173,1,2,0:0:0:0:
351,152,552260,1,2,0:0:0:0:
375,147,552348,5,8,0:0:0:0:
308,40,552523,1,2,0:2:0:0:
281,81,552610,1,2,0:0:0:0:
245,114,552697,1,8,0:3:0:0:
199,124,552784,1,2,0:0:0:0:
150,122,552872,1,4,0:3:0:0:
108,103,552959,1,2,0:0:0:0:
74,64,553046,69,2,0:0:0:0:
85,249,553220,1,0,0:0:0:0:
90,266,553308,1,0,0:0:0:0:
95,286,553395,2,0,P|158:272|209:284,1,95.99999707031,8|0,0:0|0:0,0:0:0:0:
353,358,553744,2,0,P|378:293|371:231,1,95.99999707031,2|2,0:0|0:0,0:0:0:0:
367,236,554005,1,0,0:0:0:0:
353,214,554092,1,8,0:0:0:0:
487,138,554267,6,0,B|395:159|390:90|290:134,1,191.9999941406,6|2,0:0|0:0,0:0:0:0:
333,306,554790,2,0,P|335:258|353:214,1,95.99999707031,8|0,0:0|0:0,0:0:0:0:
199,253,555139,2,0,P|152:244|83:253,1,95.99999707031,2|2,0:0|0:0,0:0:0:0:
247,359,555488,1,8,0:0:0:0:
274,335,555575,1,8,0:0:0:0:
293,305,555662,1,8,0:0:0:0:
302,270,555749,1,8,0:0:0:0:
301,235,555837,69,2,0:0:0:0:
172,117,556011,1,0,0:0:0:0:
375,177,556185,2,0,P|314:143|232:167,1,143.9999956055,8|8,0:0|0:0,0:0:0:0:
190,214,556534,2,0,P|123:232|68:213,1,95.99999707031,2|2,0:0|0:0,0:0:0:0:
24,100,556883,1,8,0:0:0:0:
5,302,557058,6,0,P|22:242|133:272,1,191.9999941406,6|2,0:0|0:0,0:0:0:0:
121,360,557581,1,8,0:0:0:0:
271,272,557755,1,0,3:0:0:0:
287,273,557842,1,0,3:0:0:0:
304,275,557930,2,0,L|404:284,1,95.99999707031,8|0,0:0|0:0,0:0:0:0:
424,285,558191,1,2,0:0:0:0:
447,281,558278,2,0,L|462:224,1,47.99999853516,10|2,3:2|0:0,0:0:0:0:
353,146,558453,2,0,L|364:193,1,47.99999853516,2|2,3:2|0:0,0:0:0:0:
439,80,558627,70,0,P|397:47|261:96,1,191.9999941406,6|8,0:0|0:0,0:0:0:0:
204,209,559151,1,2,0:0:0:0:
175,215,559238,1,0,0:0:0:0:
146,225,559325,1,8,3:2:0:0:
6,121,559499,2,0,P|58:65|112:140,1,191.9999941406,2|2,3:2|0:0,0:0:0:0:
34,251,560023,6,0,P|29:305|51:353,1,95.99999707031,6|0,0:0|0:0,0:0:0:0:
188,355,560372,2,0,P|243:341|277:313,1,95.99999707031,8|2,0:0|0:0,0:0:0:0:
337,176,560720,1,8,0:0:0:0:
191,231,560895,2,0,P|162:162|256:126,1,191.9999941406,2|2,0:0|0:0,0:0:0:0:
373,269,561418,70,0,P|443:295|532:216,2,191.9999941406,6|8|0,0:0|0:0|0:0,0:0:0:0:
423,105,562290,2,0,L|440:202,1,95.99999707031,2|8,0:0|0:0,0:0:0:0:
320,76,562639,1,0,0:0:0:0:
223,189,562813,5,8,0:0:0:0:
197,190,562901,1,0,3:0:0:0:
173,191,562988,2,0,L|107:213,1,47.99999853516,0|0,3:0|3:0,0:0:0:0:
204,302,563162,1,2,0:0:0:0:
230,301,563250,1,0,3:0:0:0:
254,300,563337,2,0,L|320:278,1,47.99999853516,0|0,3:0|3:0,0:0:0:0:
411,206,563511,70,0,L|429:141,1,47.99999853516,8|8,3:0|3:0,0:0:0:0:
424,348,563685,2,0,L|459:382,1,47.99999853516,4|4,3:0|3:0,0:0:0:0:
267,375,563860,1,2,0:0:0:0:
264,339,563947,1,0,0:0:0:0:
253,305,564034,1,0,3:0:0:0:
234,274,564121,1,0,3:0:0:0:
208,249,564209,6,0,P|152:231|115:234,1,83.99999743652,6|0,0:0|0:0,0:0:0:0:
300,168,564558,2,0,L|326:80,1,83.99999743652,8|2,0:0|0:0,0:0:0:0:
212,144,564906,1,8,0:0:0:0:
390,181,565081,2,0,P|449:169|491:139,2,83.99999743652,2|8|2,0:0|0:0|0:0,0:0:0:0:
246,49,565604,70,0,B|157:20|153:76|75:53,1,167.9999948731,8|8,0:0|0:0,0:0:0:0:
156,186,566127,1,2,0:0:0:0:
35,267,566302,2,0,B|106:245|110:301|199:272,1,167.9999948731,8|8,0:0|0:0,0:0:0:0:
292,208,566825,1,2,0:0:0:0:
354,360,566999,6,0,P|366:302|384:265,1,83.99999743652,12|2,0:0|0:0,0:0:0:0:
348,113,567348,2,0,P|286:102|229:111,1,83.99999743652,8|2,0:0|0:0,0:0:0:0:
90,202,567697,2,0,L|174:209,1,83.99999743652,8|2,0:0|0:0,0:0:0:0:
99,21,568046,2,0,P|73:54|56:93,1,83.9999974365235,8|2,0:0|0:0,0:0:0:0:
199,28,568395,69,12,0:0:0:0:
181,195,568569,1,2,0:0:0:0:
183,223,568656,1,2,0:0:0:0:
188,257,568744,1,8,0:0:0:0:
214,240,568831,1,0,3:0:0:0:
245,231,568918,1,2,0:0:0:0:
276,230,569005,1,2,0:0:0:0:
307,237,569092,5,8,0:0:0:0:
319,208,569179,1,8,0:0:0:0:
326,177,569266,1,8,0:0:0:0:
326,146,569353,1,8,0:0:0:0:
320,115,569440,1,8,0:3:0:0:
278,106,569528,1,8,0:0:0:0:
236,102,569615,1,4,0:3:0:0:
194,99,569703,1,8,0:2:0:0:
155,98,569790,70,0,P|102:121|78:179,1,120.0000045776,6|8,0:0|0:0,0:0:0:0:
164,184,570313,2,0,P|182:239|157:302,1,120.0000045776
44,254,570837,2,0,P|76:243|112:243,1,60.00000228882,8|0,0:0|0:0,0:0:0:0:
248,323,571185,6,0,P|315:338|383:308,1,120.0000045776,2|8,0:0|0:0,0:0:0:0:
417,246,571709,2,0,P|428:129|439:102,1,120.0000045776,2|0,0:0|0:0,0:0:0:0:
308,249,572232,2,0,P|306:203|299:162,1,60.00000228882,8|0,0:0|0:0,0:0:0:0:
185,266,572581,70,0,B|134:289|113:256|57:281,1,120.0000045776,2|8,0:0|0:0,0:0:0:0:
149,194,573104,2,0,P|129:159|49:165,1,120.000004577637,2|0,0:0|0:0,0:0:0:0:
0,224,573627,1,8,0:0:0:0:
248,164,573976,6,0,P|298:131|363:145,1,120.0000045776,2|8,0:0|0:0,0:0:0:0:
428,202,574499,2,0,P|464:183|496:151,1,60.00000228882,2|0,0:0|3:0,0:0:0:0:
301,245,575023,1,8,0:0:0:0:
206,186,575372,70,0,P|185:241|204:299,1,120.0000045776,2|8,0:0|0:0,0:0:0:0:
304,356,576069,2,0,P|321:299|300:244,1,120.0000045776,0|8,3:0|0:0,0:0:0:0:
387,147,576767,6,0,P|430:129|504:150,2,120.0000045776,2|8|0,0:0|0:0|3:0,0:0:0:0:
449,311,577813,1,8,0:0:0:0:
447,220,577988,1,2,0:0:0:0:
447,220,578075,1,0,0:0:0:0:
447,220,578162,70,0,P|376:237|306:234,1,120.0000045776,2|8,0:0|0:0,0:0:0:0:
188,162,578860,1,0,3:0:0:0:
118,220,579034,2,0,P|73:227|37:244,2,60.00000228882,0|8|0,0:0|0:0|0:0,0:0:0:0:
227,352,579558,6,0,P|247:301|229:217,1,120.0000045776,2|8,0:0|0:0,0:0:0:0:
155,277,580081,1,2,0:0:0:0:
335,328,580255,1,0,3:0:0:0:
351,328,580342,1,0,3:0:0:0:
366,327,580430,1,8,0:0:0:0:
462,216,580604,1,8,0:0:0:0:
378,155,580778,1,8,0:0:0:0:
362,190,580866,1,8,0:0:0:0:
359,227,580953,69,6,0:0:0:0:
180,134,581302,1,8,0:0:0:0:
210,279,581651,2,0,P|161:255|77:285,1,120.0000045776,0|8,3:0|0:0,0:0:0:0:
32,328,582174,1,2,0:0:0:0:
32,328,582261,1,0,0:0:0:0:
32,328,582348,6,0,P|44:265|14:198,1,120.0000045776,2|8,0:0|0:0,0:0:0:0:
96,122,582872,2,0,P|147:103|175:96,1,60.00000228882,0|0,0:0|3:0,0:0:0:0:
235,189,583220,1,2,0:0:0:0:
244,194,583308,1,0,0:0:0:0:
252,199,583395,2,0,L|317:210,1,60.00000228882,8|0,0:0|0:0,0:0:0:0:
442,154,583744,70,0,P|441:112|365:76,1,120.0000045776,2|8,0:0|0:0,0:0:0:0:
301,177,584267,1,2,0:0:0:0:
301,190,584354,1,0,0:0:0:0:
300,207,584441,2,0,L|286:285,1,60.00000228882,0|0,3:0|0:0,0:0:0:0:
140,345,584790,2,0,P|169:341|199:334,1,60.00000228882,8|0,0:0|0:0,0:0:0:0:
381,314,585139,2,0,P|429:313|462:320,1,60.00000228882,2|2,0:0|0:0,0:0:0:0:
317,370,585488,1,8,0:0:0:0:
413,229,585662,1,0,0:0:0:0:
269,157,585837,5,2,0:0:0:0:
357,111,586011,1,2,0:0:0:0:
319,244,586185,1,8,0:0:0:0:
137,196,586534,70,0,P|78:207|18:212,1,120.0000045776,6|8,0:0|0:0,0:0:0:0:
95,56,587232,2,0,P|145:58|177:70,2,60.0000022888184,2|0|2,0:0|0:0|0:0,0:0:0:0:
235,131,587755,1,2,0:0:0:0:
265,136,587842,1,2,0:0:0:0:
292,150,587930,2,0,P|306:107|303:65,1,60.00000228882,0|2,3:0|0:0,0:0:0:0:
375,196,588278,2,0,P|319:188|252:224,1,120.0000045776,8|0,0:0|3:0,0:0:0:0:
188,334,588976,1,8,0:0:0:0:
286,308,589151,1,2,0:0:0:0:
286,308,589238,1,2,0:0:0:0:
286,308,589325,5,6,0:0:0:0:
77,257,589499,1,0,3:0:0:0:
296,274,589674,69,0,3:0:0:0:
77,302,589848,1,0,3:0:0:0:
305,241,590023,5,0,3:0:0:0:
54,179,590197,1,0,3:0:0:0:
320,210,590372,69,0,3:0:0:0:
54,233,590546,1,0,3:0:0:0:
170,38,590720,5,8,0:0:0:0:
381,91,590895,1,2,0:0:0:0:
381,91,590982,1,2,0:0:0:0:
381,91,591069,1,8,0:0:0:0:
214,186,591244,69,8,0:0:0:0:
354,297,591418,1,2,0:0:0:0:
361,267,591505,1,2,0:0:0:0:
360,238,591592,1,8,0:0:0:0:
351,209,591679,1,0,0:0:0:0:
335,184,591766,1,8,0:0:0:0:
266,134,592116,6,0,P|191:121|117:145,1,143.9999956055,12|0,0:0|0:0,0:0:0:0:
65,212,592465,2,0,P|75:277|107:360,1,143.9999956055,8|0,0:0|0:0,0:0:0:0:
192,334,592813,2,0,P|260:315|313:316,1,95.99999707031,8|2,0:0|0:0,0:0:0:0:
467,364,593162,1,8,0:0:0:0:
413,221,593337,1,2,0:0:0:0:
409,201,593424,1,0,0:0:0:0:
403,178,593511,70,0,P|402:121|421:78,1,95.99999707031,8|2,0:0|0:0,0:0:0:0:
279,167,593860,2,0,P|294:211|292:259,1,95.99999707031,8|2,0:0|0:0,0:0:0:0:
183,123,594209,2,0,P|223:79|306:71,1,143.9999956055,8|0,0:0|0:0,0:0:0:0:
370,148,594558,2,0,P|403:211|448:267,1,143.9999956055,8|0,0:0|0:0,0:0:0:0:
423,356,594906,5,12,0:0:0:0:
280,238,595081,1,2,0:0:0:0:
137,368,595255,2,0,P|181:351|229:357,1,95.99999707031,8|2,0:0|0:0,0:0:0:0:
55,300,595604,2,0,P|79:245|92:151,1,143.9999956055,8|0,0:0|0:0,0:0:0:0:
35,84,595953,1,8,0:0:0:0:
187,34,596127,1,2,0:0:0:0:
187,34,596215,1,0,0:0:0:0:
187,34,596302,70,0,P|255:46|379:24,1,191.9999941406,8|8,0:0|0:0,0:0:0:0:
228,207,596999,2,0,P|222:260|290:339,1,143.9999956055,8|0,0:0|0:0,0:0:0:0:
359,299,597348,2,0,P|432:268|505:283,1,143.9999956055,8|0,0:0|3:0,0:0:0:0:
500,192,597697,6,0,P|502:137|495:80,1,95.99999707031,12|2,0:0|0:0,0:0:0:0:
345,47,598046,2,0,P|334:116|337:168,1,95.99999707031,8|2,0:0|0:0,0:0:0:0:
151,61,598395,65,8,0:0:0:0:
33,255,598569,2,0,P|8:196|58:83,1,191.9999941406,2|2,0:0|0:0,0:0:0:0:
153,249,599092,70,0,P|226:258|276:250,1,95.99999707031,12|0,0:0|0:0,0:0:0:0:
416,210,599441,2,0,P|339:190|300:189,1,95.99999707031,8|0,0:0|0:0,0:0:0:0:
472,334,599790,1,8,0:0:0:0:
493,146,599965,2,0,P|487:70|367:63,1,191.9999941406,2|2,0:0|0:0,0:0:0:0:
258,196,600488,6,0,P|198:206|77:151,2,191.9999941406,12|8|8,0:0|0:0|0:0,0:0:0:0:
82,64,601534,1,8,0:0:0:0:
14,208,601709,1,2,0:0:0:0:
14,234,601796,1,0,0:0:0:0:
23,260,601883,70,0,P|96:272|123:287,1,95.9999970703126,12|2,0:0|0:0,0:0:0:0:
134,303,602145,1,2,0:0:0:0:
158,330,602232,2,0,L|230:331,1,47.99999853516,8|0,0:0|0:0,0:0:0:0:
302,272,602406,2,0,L|366:272,1,47.99999853516,2|2,0:0|0:0,0:0:0:0:
231,198,602581,2,0,P|260:141|259:80,1,95.99999707031,8|2,0:0|0:0,0:0:0:0:
255,75,602842,1,2,0:0:0:0:
240,41,602930,2,0,L|175:34,1,47.99999853516,8|0,0:0|0:0,0:0:0:0:
62,140,603104,2,0,L|119:128,1,47.99999853516,2|2,0:0|0:0,0:0:0:0:
231,198,603278,5,2,0:0:0:0:
396,130,603453,1,0,3:0:0:0:
412,161,603540,1,0,3:0:0:0:
432,198,603627,2,0,P|425:257|430:303,1,95.99999707031,8|0,0:0|0:0,0:0:0:0:
301,222,603976,1,2,0:0:0:0:
195,321,604151,1,2,3:2:0:0:
166,326,604238,1,0,3:2:0:0:
136,333,604325,1,8,0:0:0:0:
12,229,604499,70,0,P|46:148|141:190,1,191.9999941406,6|2,0:0|0:0,0:0:0:0:
278,229,605023,2,0,P|338:241|401:229,1,95.99999707031,8|0,0:0|0:0,0:0:0:0:
441,125,605372,2,0,P|496:203|491:258,1,143.999995605469,2|0,0:0|0:0,0:0:0:0:
454,329,605720,2,0,P|383:330|284:341,1,143.999995605469,8|0,0:0|0:0,0:0:0:0:
217,373,606069,5,2,0:0:0:0:
119,215,606244,1,0,0:0:0:0:
59,356,606418,2,0,P|117:319|213:286,1,143.9999956055,8|8,0:0|0:0,0:0:0:0:
291,279,606767,2,0,P|311:220|299:109,1,143.9999956055,10|0,0:0|0:0,0:0:0:0:
227,78,607116,1,8,0:0:0:0:
424,142,607290,70,0,P|499:94|429:50,1,191.9999941406,6|2,0:0|0:0,0:0:0:0:
334,128,607813,2,0,P|341:183|376:226,1,95.99999707031,8|0,0:0|3:0,0:0:0:0:
477,364,608162,5,8,0:0:0:0:
450,340,608249,1,8,0:0:0:0:
417,326,608336,1,8,0:0:0:0:
381,323,608423,1,2,0:0:0:0:
347,333,608511,1,8,0:3:0:0:
315,316,608598,1,2,0:0:0:0:
280,309,608685,1,8,0:3:0:0:
244,313,608773,1,4,0:3:0:0:
211,328,608860,70,0,P|175:234|199:124,1,191.9999941406,6|8,0:0|0:0,0:0:0:0:
464,64,609558,1,8,0:0:0:0:
332,172,609732,2,0,P|332:241|416:177,1,191.9999941406,2|2,0:0|0:0,0:0:0:0:
294,91,610255,6,0,P|227:66|110:109,1,191.9999941406,6|8,0:0|0:0,0:0:0:0:
34,345,610953,1,8,0:0:0:0:
188,169,611127,2,0,P|284:191|275:284,1,191.9999941406,2|2,0:0|0:0,0:0:0:0:
88,203,611651,70,0,P|86:139|58:8,2,191.9999941406,6|8|0,0:0|0:0|0:0,0:0:0:0:
9,253,612523,1,2,0:0:0:0:
106,303,612697,1,8,0:0:0:0:
259,153,612872,1,0,0:0:0:0:
394,258,613046,5,8,0:0:0:0:
438,251,613133,1,0,3:0:0:0:
477,243,613220,2,0,L|492:165,1,47.99999853516,0|0,3:0|3:0,0:0:0:0:
388,355,613395,1,2,0:0:0:0:
344,348,613482,1,0,3:0:0:0:
305,340,613569,2,0,L|290:262,1,47.99999853516,0|0,3:0|3:0,0:0:0:0:
346,139,613744,69,8,3:0:0:0:
312,105,613831,1,8,3:0:0:0:
266,94,613918,1,4,3:0:0:0:
221,109,614005,1,4,3:0:0:0:
190,145,614092,2,0,L|181:232,1,47.99999853516,2|0,0:0|0:0,0:0:0:0:
98,99,614267,2,0,L|90:24,1,47.99999853516,0|0,3:0|3:0,0:0:0:0:
23,191,614441,5,6,0:0:0:0:
97,246,614790,1,0,0:0:0:0:
20,279,615139,1,0,0:0:0:0:
93,333,615488,1,0,0:0:0:0:
189,201,615837,70,0,P|262:174|383:201,1,176.0000053711,6|8,0:0|0:0,0:0:0:0:
438,276,616360,1,0,0:0:0:0:
468,133,616534,2,0,L|485:10,2,88.00000268555,2|2|8,0:0|0:0|0:0,0:0:0:0:
316,56,617058,6,0,P|252:41|135:91,1,176.0000053711,6|2,0:0|0:0,0:0:0:0:
117,240,617581,2,0,P|78:155|9:81,1,176.0000053711,8|2,0:0|0:0,0:0:0:0:
8,224,618104,1,2,0:0:0:0:
84,334,618278,1,8,0:0:0:0:
200,231,618453,1,0,3:0:0:0:
243,224,618540,1,0,3:0:0:0:
282,225,618627,70,0,P|359:230|452:194,1,176.0000053711,6|8,0:0|0:0,0:0:0:0:
416,54,619151,1,0,3:0:0:0:
416,54,619238,1,0,3:0:0:0:
416,54,619325,1,2,0:0:0:0:
333,150,619499,1,0,0:0:0:0:
239,45,619674,1,8,0:0:0:0:
166,203,619848,6,0,P|195:303|255:359,1,176.0000053711,6|2,0:0|0:0,0:0:0:0:
472,289,620372,2,0,P|409:264|337:278,1,132.0000040283,10|0,0:0|3:0,0:0:0:0:
267,256,620720,2,0,P|288:194|307:164,1,88.00000268555,2|0,0:0|0:0,0:0:0:0:
429,79,621069,2,0,P|449:117|461:160,1,88.00000268555,8|0,0:0|3:0,0:0:0:0:
268,71,621418,70,0,P|209:51|114:72,1,132.0000040283,6|0,0:0|0:0,0:0:0:0:
75,130,621767,2,0,P|104:233|87:278,1,132.0000040283,8|0,0:0|3:0,0:0:0:0:
30,316,622116,1,2,0:0:0:0:
193,229,622290,2,0,P|251:220|307:238,1,88.00000268555,2|8,0:0|0:0,0:0:0:0:
442,345,622639,6,0,P|380:345|335:346,1,88.00000268555,2|6,0:0|0:0,0:0:0:0:
383,213,622988,1,0,0:0:0:0:
220,90,623162,1,8,0:0:0:0:
179,210,623337,1,0,0:0:0:0:
308,169,623511,1,0,0:0:0:0:
103,113,623685,1,2,0:0:0:0:
187,305,623860,1,8,0:0:0:0:
220,90,624034,1,0,0:0:0:0:
306,249,624209,70,0,P|369:267|424:268,1,88.00000268555,6|0,0:0|0:0,0:0:0:0:
173,201,624558,2,0,P|241:178|286:180,1,88.00000268555,8|0,0:0|0:0,0:0:0:0:
108,280,624906,1,0,0:0:0:0:
232,260,625081,1,2,0:0:0:0:
76,196,625255,1,8,0:0:0:0:
159,95,625430,1,0,3:0:0:0:
159,95,625517,1,0,3:0:0:0:
159,95,625604,6,0,P|207:84|273:88,1,88.00000268555,2|0,0:0|3:0,0:0:0:0:
273,90,625866,1,0,3:0:0:0:
303,101,625953,1,8,0:0:0:0:
417,203,626127,1,0,3:0:0:0:
427,238,626215,1,0,3:0:0:0:
433,274,626302,70,0,B|367:257|314:314|317:284,1,88.00000268555,2|0,0:0|3:0,0:0:0:0:
216,360,626651,1,8,0:0:0:0:
219,327,626738,1,8,0:0:0:0:
215,294,626825,1,8,0:0:0:0:
204,263,626912,1,8,0:0:0:0:
186,236,626999,6,0,P|136:205|32:259,1,176.0000053711,4|8,0:0|0:0,0:0:0:0:
298,20,627697,2,0,P|229:70|222:156,1,176.0000053711,8|8,0:0|0:0,0:0:0:0:
440,206,628395,2,0,P|418:156|290:123,1,176.0000053711,8|8,0:0|0:0,0:0:0:0:
182,262,629092,2,0,P|227:228|347:208,1,176.0000053711,8|8,0:0|0:0,0:0:0:0:
105,335,629790,70,0,P|82:287|131:165,2,176.0000053711,12|8|8,0:0|0:0|0:0,0:0:0:0:
292,298,630837,1,8,0:0:0:0:
196,351,631011,1,2,0:0:0:0:
380,326,631185,5,8,0:0:0:0:
243,167,631534,1,8,0:0:0:0:
440,207,631883,2,0,P|445:135|359:56,1,176.0000053711,8|8,0:0|0:0,0:0:0:0:
235,111,632406,1,2,0:0:0:0:
203,113,632494,1,2,0:0:0:0:
172,111,632581,70,0,P|164:54|269:34,1,176.0000053711,12|8,0:0|0:0,0:0:0:0:
292,211,633278,2,0,P|278:272|251:313,1,88.00000268555,8|0,0:0|0:0,0:0:0:0:
129,340,633627,1,8,0:0:0:0:
52,252,633802,1,2,0:0:0:0:
41,230,633889,1,2,0:0:0:0:
34,206,633976,6,0,B|127:180|209:222,1,176.0000053711,8|8,0:0|0:0,0:0:0:0:
390,204,634674,2,0,P|441:192|487:157,1,88.00000268555,8|2,0:0|0:0,0:0:0:0:
487,62,635023,1,8,0:0:0:0:
311,122,635197,1,2,0:0:0:0:
295,134,635284,1,2,0:0:0:0:
284,152,635372,70,0,P|279:215|290:262,1,88.00000268555,12|2,0:0|0:0,0:0:0:0:
331,316,635633,1,0,3:0:0:0:
349,338,635720,2,0,P|291:321|171:347,1,176.0000053711,8|8,0:0|0:0,0:0:0:0:
35,261,636418,2,0,P|21:195|39:144,1,88.00000268555,8|2,0:0|0:0,0:0:0:0:
163,108,636767,6,0,P|168:172|152:214,1,88.00000268555,8|2,0:0|0:0,0:0:0:0:
68,38,637116,2,0,P|122:2|250:35,2,176.000005371094,8|8|8,0:0|0:0|0:0,0:0:0:0:
37,142,637988,1,2,0:0:0:0:
284,119,638162,2,0,P|267:177|349:246,1,176.000005371094,4|0,0:0|0:0,0:0:0:0:
490,124,638860,70,0,P|443:91|362:261,1,308.0000093994,8|0,0:0|0:0,0:0:0:0:
417,292,639558,1,2,0:0:0:0:
416,186,639732,2,0,P|342:167|239:203,1,176.0000053711,8|0,0:0|0:0,0:0:0:0:
163,280,640255,2,0,P|111:243|129:123,1,176.0000053711,8|0,0:0|0:0,0:0:0:0:
55,310,640953,6,0,P|107:270|241:293,1,176.0000053711,6|0,0:0|0:0,0:0:0:0:
346,333,641651,2,0,P|406:344|501:285,1,176.0000053711,12|0,0:0|0:0,0:0:0:0:
462,133,642348,69,2,0:0:0:0:
403,238,642523,2,0,P|372:163|278:154,1,176.0000053711,8|0,0:0|0:0,0:0:0:0:
197,232,643046,2,0,P|138:235|103:123,1,176.0000053711,8|2,0:0|0:0,0:0:0:0:
168,68,643569,1,8,0:0:0:0:
290,190,643744,6,0,P|290:257|477:224,1,308.0000093994,6|0,0:0|0:0,0:0:0:0:
483,165,644441,2,0,P|420:108|335:116,1,176.000005371094,8|0,0:0|0:0,0:0:0:0:
198,214,645139,70,0,P|120:232|93:225,1,88.00000268555,2|8,0:0|0:0,0:0:0:0:
23,133,645488,1,2,0:0:0:0:
131,142,645662,1,0,0:0:0:0:
22,250,645837,2,0,P|10:308|33:360,1,88.00000268555,8|0,0:0|0:0,0:0:0:0:
243,346,646185,2,0,P|250:303|238:261,1,88.00000268555
137,311,646534,6,0,L|346:294,1,176.0000053711,6|0,0:0|0:0,0:0:0:0:
445,244,647058,1,0,0:0:0:0:
281,194,647232,1,8,0:0:0:0:
452,61,647581,2,0,P|450:116|464:156,1,88.00000268555,0|2,0:0|0:0,0:0:0:0:
273,141,647930,69,8,0:0:0:0:
340,66,648104,1,2,0:0:0:0:
362,200,648278,1,2,0:0:0:0:
206,216,648453,5,8,0:0:0:0:
273,141,648627,1,2,0:0:0:0:
295,275,648801,1,2,0:0:0:0:
144,295,648976,70,0,P|87:316|41:347,1,88.00000268555,8|2,0:0|0:0,0:0:0:0:
15,255,649325,1,0,0:0:0:0:
154,183,660139,6,0,P|208:144|281:181,1,120
314,213,660488,70,0,P|363:215|430:121,1,167.9999948731,6|2,0:0|0:0,0:0:0:0:
217,134,661185,2,0,L|225:236,1,83.9999974365235,2|2,0:0|0:0,0:0:0:0:
273,293,661534,1,0,0:0:0:0:
99,352,661883,2,0,L|113:184,1,167.9999948731,2|2,0:0|0:0,0:0:0:0:
65,93,662581,2,0,P|11:67|-21:65,2,83.99999743652,2|0|2,0:0|0:0|0:0,0:0:0:0:
175,57,663278,6,0,P|244:42|334:81,1,167.9999948731,2|2,0:0|0:0,0:0:0:0:
253,180,663976,2,0,P|233:236|235:281,2,83.99999743652,2|0|2,0:0|0:0|0:0,0:0:0:0:
321,333,664674,2,0,L|422:335,1,83.99999743652,2|0,0:0|0:0,0:0:0:0:
490,279,665023,1,2,0:0:0:0:
283,245,665372,70,0,B|210:245|211:310|126:309,1,167.9999948731,2|2,0:0|0:0,0:0:0:0:
76,185,665895,1,8,0:0:0:0:
101,192,665982,1,8,0:0:0:0:
123,210,666069,1,8,0:0:0:0:
38,278,666244,2,0,L|31:185,1,83.99999743652,8|2,0:0|0:0,0:0:0:0:
125,106,666767,5,2,0:0:0:0:
214,268,667116,1,4,0:3:0:0:
262,116,667465,1,8,0:0:0:0:
162,162,667639,2,0,L|268:155,1,83.99999743652,8|2,0:0|0:0,0:0:0:0:
370,271,668162,1,2,0:0:0:0:
416,92,668511,1,2,0:0:0:0:
302,153,668685,1,8,0:0:0:0:
302,153,668773,1,8,0:0:0:0:
302,153,668860,69,8,0:0:0:0:
410,205,669034,1,0,3:0:0:0:
251,237,669209,5,0,3:0:0:0:
387,111,669383,1,0,3:0:0:0:
187,145,669558,69,8,0:0:0:0:
396,260,669732,1,8,0:0:0:0:
137,265,669906,5,8,0:0:0:0:
283,61,670081,1,8,0:0:0:0:
275,219,670255,69,2,0:0:0:0:
157,162,670430,1,0,0:0:0:0:
47,198,670604,1,2,0:0:0:0:
25,188,670691,1,0,0:0:0:0:
7,173,670778,1,0,0:0:0:0:
29,65,670953,5,2,0:0:0:0:
142,105,671127,1,2,0:0:0:0:
180,216,671302,1,2,0:0:0:0:
109,323,671476,1,2,0:0:0:0:
60,193,671651,69,12,0:0:0:0:
189,328,671825,1,8,0:0:0:0:
230,103,671999,5,8,0:0:0:0:
274,284,672173,1,8,0:0:0:0:
331,125,672348,69,8,0:0:0:0:
315,157,672435,1,8,0:0:0:0:
289,181,672522,1,8,0:0:0:0:
256,195,672609,1,8,0:0:0:0:
220,197,672697,1,8,3:3:0:0:
176,178,672784,1,8,0:0:0:0:
128,181,672872,1,4,0:3:0:0:
87,205,672958,1,8,0:0:0:0:
61,245,673046,5,6,0:0:0:0:
254,351,673220,1,0,0:0:0:0:
57,352,673395,1,8,0:0:0:0:
176,267,673569,1,0,3:0:0:0:
204,266,673656,1,0,3:0:0:0:
230,272,673744,2,0,P|288:277|340:280,1,95.99999707031,8|0,0:0|0:0,0:0:0:0:
512,121,674092,2,0,P|454:126|402:129,1,95.99999707031,8|2,0:0|0:0,0:0:0:0:
464,293,674441,69,12,0:0:0:0:
324,172,674616,1,0,3:0:0:0:
294,151,674703,1,0,3:0:0:0:
264,128,674790,2,0,P|154:148|115:202,1,143.9999956055,8|0,0:0|3:0,0:0:0:0:
80,248,675139,2,0,P|9:225|-8:131,1,143.9999956055,2|0,0:0|0:0,0:0:0:0:
29,85,675488,1,8,0:0:0:0:
188,185,675662,1,0,3:0:0:0:
200,212,675749,1,0,1:0:0:0:
202,242,675837,6,0,L|206:351,1,95.99999707031,2|0,1:2|0:0,0:0:0:0:
346,199,676185,2,0,L|342:311,1,95.99999707031,8|0,0:0|0:0,0:0:0:0:
240,115,676534,1,8,0:0:0:0:
445,139,676709,1,8,0:0:0:0:
234,210,676883,1,2,0:0:0:0:
349,59,677058,1,8,0:0:0:0:
469,231,677232,70,0,P|461:294|445:335,1,95.99999707031,6|0,0:0|0:0,0:0:0:0:
234,210,677581,2,0,P|219:164|215:116,1,95.99999707031,8|2,0:0|0:0,0:0:0:0:
337,272,677930,1,8,0:0:0:0:
125,214,678104,2,0,P|60:198|32:309,1,191.9999941406,2|2,0:0|0:0,0:0:0:0:
210,363,678627,6,0,P|274:344|334:341,1,95.99999707031,12|0,0:0|0:0,0:0:0:0:
500,209,678976,2,0,P|454:193|407:186,1,95.99999707031,8|0,0:0|0:0,0:0:0:0:
421,346,679325,1,8,0:0:0:0:
193,239,679499,2,0,P|226:168|305:242,1,191.9999941406,2|2,0:0|0:0,0:0:0:0:
94,263,680023,70,0,P|93:191|83:150,1,95.99999707031,12|2,0:0|0:0,0:0:0:0:
210,68,680372,2,0,P|279:60|341:77,1,95.99999707031,8|2,0:0|0:0,0:0:0:0:
423,167,680720,2,0,P|416:215|418:263,2,95.99999707031,8|0|8,0:0|0:0|0:0,0:0:0:0:
255,182,681244,1,2,0:0:0:0:
246,217,681331,1,0,0:0:0:0:
243,249,681418,5,8,0:0:0:0:
365,342,681592,1,2,0:0:0:0:
330,329,681680,1,2,0:0:0:0:
292,337,681767,2,0,L|237:346,1,47.99999853516,8|0,0:0|0:0,0:0:0:0:
111,294,681941,1,2,0:0:0:0:
88,265,682028,1,2,0:0:0:0:
73,230,682116,69,8,0:0:0:0:
227,100,682290,1,2,0:0:0:0:
270,114,682377,1,2,0:0:0:0:
303,141,682465,1,8,0:3:0:0:
326,178,682552,1,0,3:0:0:0:
345,214,682639,2,0,L|346:287,1,47.99999853516,4|0,0:3|3:0,0:0:0:0:
228,279,682813,5,2,0:0:0:0:
458,254,682988,1,2,0:0:0:0:
468,214,683075,1,2,0:0:0:0:
479,173,683162,2,0,P|472:115|458:63,1,95.99999707031,8|0,0:0|0:0,0:0:0:0:
302,26,683511,1,2,0:0:0:0:
182,152,683685,1,2,0:0:0:0:
144,156,683773,1,2,0:0:0:0:
109,162,683860,1,8,0:0:0:0:
311,117,684034,70,0,P|308:200|205:287,1,191.9999941406,6|2,0:0|0:0,0:0:0:0:
73,304,684558,2,0,P|12:295|-29:301,1,95.99999707031,8|0,0:0|0:0,0:0:0:0:
157,159,684906,2,0,P|164:232|158:329,1,143.9999956055,2|0,0:0|0:0,0:0:0:0:
246,365,685255,2,0,P|325:338|371:326,1,95.99999707031,8|0,0:0|0:0,0:0:0:0:
455,316,685517,1,8,0:0:0:0:
492,325,685604,5,10,0:0:0:0:
400,194,685778,1,0,0:0:0:0:
267,309,685953,2,0,P|211:253|204:149,1,143.9999956055,8|8,0:0|0:0,0:0:0:0:
219,96,686302,2,0,P|294:112|381:78,1,143.999995605469,2|0,0:0|0:0,0:0:0:0:
290,22,686651,1,8,0:0:0:0:
456,54,686825,70,0,P|445:150|447:250,1,191.9999941406,6|2,0:0|0:0,0:0:0:0:
259,216,687348,2,0,P|169:208|130:222,1,95.99999707031,8|0,0:0|3:0,0:0:0:0:
40,325,687697,1,8,0:0:0:0:
84,141,687872,1,8,0:0:0:0:
99,110,687959,1,2,0:0:0:0:
117,78,688046,2,0,P|182:65|239:77,1,95.99999707031,2|2,0:0|0:0,0:0:0:0:
347,160,688395,6,0,P|257:197|165:149,1,191.9999941406,6|8,0:0|0:0,0:0:0:0:
484,230,689092,1,8,0:0:0:0:
311,326,689267,2,0,P|317:274|417:310,1,191.9999941406,2|2,0:0|0:0,0:0:0:0:
212,345,689790,70,0,P|105:313|16:320,1,191.9999941406,6|8,0:0|0:0,0:0:0:0:
147,82,690488,1,8,0:0:0:0:
314,188,690662,2,0,P|318:119|219:132,1,191.9999941406,2|2,0:0|0:0,0:0:0:0:
362,280,691185,5,6,0:0:0:0:
406,270,691273,1,0,3:0:0:0:
447,260,691360,2,0,L|467:210,1,47.99999853516,0|0,3:0|3:0,0:0:0:0:
258,244,691534,1,8,0:0:0:0:
247,282,691622,1,0,3:0:0:0:
257,326,691709,2,0,L|204:354,1,47.9999985351563
49,304,691883,69,10,0:3:0:0:
54,274,691970,1,0,3:0:0:0:
71,250,692057,1,10,0:3:0:0:
97,235,692144,1,0,3:0:0:0:
126,233,692231,1,8,0:3:0:0:
154,244,692319,1,0,3:0:0:0:
174,266,692406,1,4,3:3:0:0:
232,360,692581,6,0,P|210:302|318:201,1,220,4|0,0:0|0:0,0:0:0:0:
393,221,693627,70,0,P|425:171|356:51,1,180.0000068665
298,91,693976,6,0,P|228:122|194:120,1,80,12|2,0:0|0:0,0:0:0:0:
50,52,694325,2,0,P|88:61|122:83,1,80,8|2,0:0|0:0,0:0:0:0:
74,236,694674,2,0,L|144:164,1,80,8|2,0:0|0:0,0:0:0:0:
267,242,695023,2,0,P|203:259|161:250,1,80,8|2,0:0|0:0,0:0:0:0:
357,280,695372,70,0,L|380:191,1,80,8|2,0:0|0:0,0:0:0:0:
467,102,695720,2,0,L|495:206,1,80,8|2,0:0|0:0,0:0:0:0:
384,118,696069,1,8,0:0:0:0:
307,170,696244,1,2,0:0:0:0:
258,9,696418,2,0,L|304:87,1,80,8|2,0:0|0:0,0:0:0:0:
98,100,696767,5,12,0:0:0:0:
180,52,696941,2,0,P|192:109|183:148,2,80,2|8|2,0:0|0:0|0:0,0:0:0:0:
15,55,697465,2,0,P|3:112|12:151,1,80,8|2,0:0|0:0,0:0:0:0:
96,211,697813,2,0,P|167:198|203:207,1,80,8|2,0:0|0:0,0:0:0:0:
324,273,698162,69,8,0:0:0:0:
275,165,698337,1,2,0:0:0:0:
224,287,698511,1,8,0:0:0:0:
380,342,698685,1,2,0:0:0:0:
397,333,698772,1,8,0:0:0:0:
416,327,698859,1,8,0:0:0:0:
436,324,698946,1,8,0:0:0:0:
456,325,699033,1,8,0:0:0:0:
379,203,699209,2,0,P|358:127|367:93,1,80,8|0,0:0|3:0,0:0:0:0:
114,151,699558,6,0,P|187:124|260:177,1,160,12|8,0:0|0:0,0:0:0:0:
178,219,700081,1,2,0:0:0:0:
266,278,700255,1,8,0:0:0:0:
78,304,700430,2,0,P|129:300|163:310,2,80,2|8|2,0:0|0:0|0:0,0:0:0:0:
25,191,700953,69,0,3:0:0:0:
72,8,701127,2,0,P|44:59|38:99,1,80,8|0,0:0|0:0,0:0:0:0:
151,133,701476,1,2,0:0:0:0:
350,89,701651,2,0,B|342:55|342:55|293:25|303:71|222:44,1,160,8|8,0:0|0:0,0:0:0:0:
278,149,702174,1,2,0:0:0:0:
441,128,702348,6,0,P|425:188|432:229,1,80,12|2,0:0|0:0,0:0:0:0:
343,273,702697,2,0,L|251:253,1,80,8|2,0:0|0:0,0:0:0:0:
438,325,703046,2,0,P|489:305|528:317,1,80,8|2,0:0|0:0,0:0:0:0:
348,372,703395,2,0,L|261:385,1,80,8|2,0:0|0:0,0:0:0:0:
116,375,703744,69,8,0:3:0:0:
77,332,703860,1,0,3:0:0:0:
59,276,703976,1,0,3:0:0:0:
108,222,704092,69,8,0:3:0:0:
115,163,704209,1,0,3:0:0:0:
104,105,704325,1,0,3:0:0:0:
52,52,704441,53,8,0:2:0:0:
168,35,704616,1,8,0:0:0:0:
255,147,704790,1,8,0:3:0:0:
369,115,704965,1,8,0:3:0:0:
468,212,705139,5,4,0:3:0:0:
256,192,705226,12,0,710720,0:0:0:0:
