osu file format v14

[General]
AudioFilename: ochamekinou.mp3
AudioLeadIn: 0
PreviewTime: 226691
Countdown: 0
SampleSet: Normal
StackLeniency: 0.7
Mode: 1
LetterboxInBreaks: 0
WidescreenStoryboard: 1

[Editor]
DistanceSpacing: 0.4
BeatDivisor: 12
GridSize: 32
TimelineZoom: 2.700001

[Metadata]
Title:Ochame Kinou
TitleUnicode:おちゃめ機能
Artist:Various Artists
ArtistUnicode:Various Artists
Creator:Jerry
Version:VTaiko
Source:
Tags:Japanese Pop j-pop jpop ホロライブ collab collaboration hololive idol project virtual vtuber バーチャルyoutuber cover カバー corp kijibato キジバト gojimajip ゴジマジP UTAU Kasane Teto 重音テト ラマーズP lamazep Mischievous Function 吹っ切れた Fukkireta chorus Charlotte Bathym- kitafuma Metzo Backfire Hivie radar 3san Peaceful ianpep Aloda tzechi Consified taiko_ryuki [zeth] neonat cdhsausageboy yassu- Vulkin Senritsu frz HiroK komasy Khoo Hao Yit ときのそら Tokino Sora ロボ子さん Roboco-san さくらみこ Sakura Miko 星街すいせい Hoshimachi Suisei Hoshimati 夜空メル Yozora Mel 夏色まつり Natsuiro Matsuri アキ・ローゼンタール Aki Rosenthal 大空スバル Oozora Subaru 癒月ちょこ Yuzuki Choco 紫咲シオン Murasaki Shion 百鬼あやめ Nakiri Ayame 湊あくあ Minato Aqua 大神ミオ Ookami Mio 猫又おかゆ Nekomata Okayu AZKi 兎田ぺこら Usada Pekora 潤羽るしあ Uruha Rushia 不知火フレア Shiranui Flare 白銀ノエル Shirogane Noel 宝鐘マリン Houshou Marine 角巻わため Tsunomaki Watame 常闇トワ Tokoyami Towa 天音かなた Amane Kanata 姫森ルーナ Himemori Luna 赤井はあと Akai Haato 谷郷元昭 Tanigo Motoaki YAGOO 戌神ころね Inugami Korone 桐生ココ Kiryu Coco 白上フブキ Shirakami Fubuki
BeatmapID:2396958
BeatmapSetID:1147932

[Difficulty]
HPDrainRate:6
CircleSize:5
OverallDifficulty:6
ApproachRate:5
SliderMultiplier:1.4
SliderTickRate:1

[Events]
//Background and Video events
0,0,"BG.jpg",0,0
//Break Periods
//Storyboard Layer 0 (Background)
//Storyboard Layer 1 (Fail)
//Storyboard Layer 2 (Pass)
//Storyboard Layer 3 (Foreground)
Sprite,Foreground,Centre,"SB\title.png",320,360 S,0,19297,,0.3 MX,1,19297,19997,1320,320 M,0,19997,25697,320,360 MX,2,22497,23497,320,-680
Sprite,Foreground,Centre,"SB\mappedby.png",320,360 S,0,22497,,0.3 MX,1,22497,23497,1320,320 M,0,23497,25697,320,360 MX,2,25697,26697,320,-680
Sprite,Foreground,Centre,"SB\storyboardby.png",320,360 S,0,25697,,0.3 MX,1,25697,26697,1320,320 M,0,26697,29897,320,360 MX,2,28897,29897,320,-680
Sprite,Foreground,Centre,"SB\specialthanks.png",320,360 S,0,28897,,0.3 MX,1,28897,29897,1320,320 M,0,29897,32097,320,360 MX,1,31097,32097,320,-680
Sprite,Foreground,Centre,"SB\Mappers\mapperbox.png",320,410 S,0,31097,,0.2 MX,1,31097,32097,1420,420 MX,0,37497,38497,420,-580
Sprite,Foreground,Centre,"SB\Mappers\mapperbox.png",320,410 S,0,37497,,0.2 MX,1,37497,38497,1420,420 MX,0,43897,44897,420,-580
Sprite,Foreground,Centre,"SB\Mappers\mapperbox.png",320,410 S,0,43897,,0.2 MX,1,43897,44897,1420,420 MX,0,50297,51297,420,-580
Sprite,Foreground,Centre,"SB\Mappers\mapperbox.png",320,410 S,0,50297,,0.2 MX,1,50297,51297,1420,420 MX,0,56697,57697,420,-580
Sprite,Foreground,Centre,"SB\Mappers\mapperbox.png",320,410 S,0,56697,,0.2 MX,1,56697,57697,1420,420 MX,0,63097,64097,420,-580
Sprite,Foreground,Centre,"SB\Mappers\mapperbox.png",320,410 S,0,63097,,0.2 MX,1,63097,64097,1420,420 MX,0,69497,70497,420,-580
Sprite,Foreground,Centre,"SB\Mappers\mapperbox.png",320,410 S,0,69497,,0.2 MX,1,69497,70497,1420,420 MX,0,75897,76897,420,-580
Sprite,Foreground,Centre,"SB\Mappers\mapperbox.png",320,410 S,0,75897,,0.2 MX,1,75897,76897,1420,420 MX,0,82297,83297,420,-580
Sprite,Foreground,Centre,"SB\Mappers\mapperbox.png",320,410 S,0,82297,,0.2 MX,1,82297,83297,1420,420 MX,0,88697,89697,420,-580
Sprite,Foreground,Centre,"SB\Mappers\mapperbox.png",320,410 S,0,88697,,0.2 MX,1,88697,89697,1420,420 MX,0,98297,99297,420,-580
Sprite,Foreground,Centre,"SB\Mappers\mapperbox.png",320,410 S,0,98297,,0.2 MX,1,98297,99297,1420,420 MX,0,104697,105697,420,-580
Sprite,Foreground,Centre,"SB\Mappers\mapperbox.png",320,410 S,0,104697,,0.2 MX,1,104697,105697,1420,420 MX,0,111097,112097,420,-580
Sprite,Foreground,Centre,"SB\Mappers\mapperbox.png",320,410 S,0,111097,,0.2 MX,1,111097,112097,1420,420 MX,0,117497,118497,420,-580
Sprite,Foreground,Centre,"SB\Mappers\mapperbox.png",320,410 S,0,117497,,0.2 MX,1,117497,118497,1420,420 MX,0,123897,124897,420,-580
Sprite,Foreground,Centre,"SB\Mappers\mapperbox.png",320,410 S,0,123897,,0.2 MX,1,123897,124897,1420,420 MX,0,130297,131297,420,-580
Sprite,Foreground,Centre,"SB\Mappers\mapperbox.png",320,410 S,0,130297,,0.2 MX,1,130297,131297,1420,420 MX,0,136697,137697,420,-580
Sprite,Foreground,Centre,"SB\Mappers\mapperbox.png",320,410 S,0,136697,,0.2 MX,1,136697,137697,1420,420 MX,0,143097,144097,420,-580
Sprite,Foreground,Centre,"SB\Mappers\mapperbox.png",320,410 S,0,143097,,0.2 MX,1,143097,144097,1420,420 MX,0,149497,150497,420,-580
Sprite,Foreground,Centre,"SB\Mappers\mapperbox.png",320,410 S,0,149497,,0.2 MX,1,149497,150497,1420,420 MX,0,155897,156897,420,-580
Sprite,Foreground,Centre,"SB\Mappers\mapperbox.png",320,410 S,0,155897,,0.2 MX,1,155897,156897,1420,420 MX,0,162297,163297,420,-580
Sprite,Foreground,Centre,"SB\Mappers\mapperbox.png",320,410 S,0,162297,,0.2 MX,1,162297,163297,1420,420 MX,0,200697,201697,420,-580
Sprite,Foreground,Centre,"SB\Mappers\mapperbox.png",320,410 S,0,200697,,0.2 MX,1,200697,201697,1420,420 MX,0,207097,208097,420,-580
Sprite,Foreground,Centre,"SB\Mappers\mapperbox.png",320,410 S,0,207097,,0.2 MX,1,207097,208097,1420,420 MX,0,213497,214497,420,-580
Sprite,Foreground,Centre,"SB\Mappers\mapperbox.png",320,410 S,0,213497,,0.2 MX,1,213497,214497,1420,420 MX,0,219897,220897,420,-580
Sprite,Foreground,Centre,"SB\Mappers\mapperbox.png",320,410 S,0,219897,,0.2 MX,1,219897,220897,1420,420 MX,0,226297,227297,420,-580
Sprite,Foreground,Centre,"SB\Mappers\charlotte.png",320,410 S,0,31097,,0.2 MX,1,31097,32097,1420,420 MX,0,37497,38497,420,-580
Sprite,Foreground,Centre,"SB\Mappers\bathym-.png",320,410 S,0,37497,,0.2 MX,1,37497,38497,1420,420 MX,0,43897,44897,420,-580
Sprite,Foreground,Centre,"SB\Mappers\kitafuma.png",320,410 S,0,43897,,0.2 MX,1,43897,44897,1420,420 MX,0,50297,51297,420,-580
Sprite,Foreground,Centre,"SB\Mappers\metzo.png",320,410 S,0,50297,,0.2 MX,1,50297,51297,1420,420 MX,0,56697,57697,420,-580
Sprite,Foreground,Centre,"SB\Mappers\backfire.png",320,410 S,0,56697,,0.2 MX,1,56697,57697,1420,420 MX,0,63097,64097,420,-580
Sprite,Foreground,Centre,"SB\Mappers\jerry.png",320,410 S,0,63097,,0.2 MX,1,63097,64097,1420,420 MX,0,69497,70497,420,-580
Sprite,Foreground,Centre,"SB\Mappers\hivie.png",320,410 S,0,69497,,0.2 MX,1,69497,70497,1420,420 MX,0,75897,76897,420,-580
Sprite,Foreground,Centre,"SB\Mappers\radar.png",320,410 S,0,75897,,0.2 MX,1,75897,76897,1420,420 MX,0,82297,83297,420,-580
Sprite,Foreground,Centre,"SB\Mappers\3san.png",320,410 S,0,82297,,0.2 MX,1,82297,83297,1420,420 MX,0,88697,89697,420,-580
Sprite,Foreground,Centre,"SB\Mappers\peaceful.png",320,410 S,0,88697,,0.2 MX,1,88697,89697,1420,420 MX,0,98297,99297,420,-580
Sprite,Foreground,Centre,"SB\Mappers\ianpep.png",320,410 S,0,98297,,0.2 MX,1,98297,99297,1420,420 MX,0,104697,105697,420,-580
Sprite,Foreground,Centre,"SB\Mappers\aloda.png",320,410 S,0,104697,,0.2 MX,1,104697,105697,1420,420 MX,0,111097,112097,420,-580
Sprite,Foreground,Centre,"SB\Mappers\tzechi.png",320,410 S,0,111097,,0.2 MX,1,111097,112097,1420,420 MX,0,117497,118497,420,-580
Sprite,Foreground,Centre,"SB\Mappers\consified.png",320,410 S,0,117497,,0.2 MX,1,117497,118497,1420,420 MX,0,123897,124897,420,-580
Sprite,Foreground,Centre,"SB\Mappers\ryuki.png",320,410 S,0,123897,,0.2 MX,1,123897,124897,1420,420 MX,0,130297,131297,420,-580
Sprite,Foreground,Centre,"SB\Mappers\zeth.png",320,410 S,0,130297,,0.2 MX,1,130297,131297,1420,420 MX,0,136697,137697,420,-580
Sprite,Foreground,Centre,"SB\Mappers\neonat.png",320,410 S,0,136697,,0.2 MX,1,136697,137697,1420,420 MX,0,143097,144097,420,-580
Sprite,Foreground,Centre,"SB\Mappers\cdhsausageboy.png",320,410 S,0,143097,,0.2 MX,1,143097,144097,1420,420 MX,0,149497,150497,420,-580
Sprite,Foreground,Centre,"SB\Mappers\yassu.png",320,410 S,0,149497,,0.2 MX,1,149497,150497,1420,420 MX,0,155897,156897,420,-580
Sprite,Foreground,Centre,"SB\Mappers\vulkin.png",320,410 S,0,155897,,0.2 MX,1,155897,156897,1420,420 MX,0,162297,163297,420,-580
Sprite,Foreground,Centre,"SB\Mappers\jerry.png",320,410 S,0,162297,,0.2 MX,1,162297,163297,1420,420 MX,0,200697,201697,420,-580
Sprite,Foreground,Centre,"SB\Mappers\senritsu.png",320,410 S,0,200697,,0.2 MX,1,200697,201697,1420,420 MX,0,207097,208097,420,-580
Sprite,Foreground,Centre,"SB\Mappers\frz.png",320,410 S,0,207097,,0.2 MX,1,207097,208097,1420,420 MX,0,213497,214497,420,-580
Sprite,Foreground,Centre,"SB\Mappers\hirok.png",320,410 S,0,213497,,0.2 MX,1,213497,214497,1420,420 MX,0,219897,220897,420,-580
Sprite,Foreground,Centre,"SB\Mappers\komasy.png",320,410 S,0,219897,,0.2 MX,1,219897,220897,1420,420 MX,0,226297,227297,420,-580
//Storyboard Layer 4 (Overlay)
//Storyboard Sound Samples

[TimingPoints]
91,400,4,1,0,60,1,0
4791,-80,4,1,0,60,0,0
5091,-66.6666666666667,4,1,0,60,0,0
5391,-57.1428571428571,4,1,0,60,0,0
5690,-100,4,1,0,60,0,0
6491,-100,4,1,0,70,0,1
19291,-100,4,1,0,60,0,0
68791,-80,4,1,0,60,0,0
69091,-66.6666666666667,4,1,0,60,0,0
69391,-57.1428571428571,4,1,0,60,0,0
69691,-100,4,1,0,60,0,0
70491,-100,4,1,0,70,0,1
94091,-100,4,1,0,60,0,0
97841,-103.423632506875,4,1,0,60,0,0
97941,-105.224944625373,4,1,0,60,0,0
98041,-107.090115261091,4,1,0,60,0,0
98241,-111.025991184536,4,1,0,60,0,0
98341,-113.104515358462,4,1,0,60,0,0
98441,-115.262348631721,4,1,0,60,0,0
98541,-117.504118519354,4,1,0,60,0,0
98641,-119.834676080879,4,1,0,60,0,0
98716,-121.03504327608,4,1,0,60,0,0
98841,-124.784902025134,4,1,0,60,0,0
100841,-125,4,1,0,60,0,0
100941,-123.086770018525,4,1,0,60,0,0
101041,-121.231224314134,4,1,0,60,0,0
101241,-117.682917500744,4,1,0,60,0,0
101341,-115.985599228,4,1,0,60,0,0
101441,-114.336545046884,4,1,0,60,0,0
101641,-111.175098556725,4,1,0,60,0,0
101741,-109.65910274729,4,1,0,60,0,0
101841,-108.183895312608,4,1,0,60,0,0
102041,-105.349322551181,4,1,0,60,0,0
102141,-103.987072327168,4,1,0,60,0,0
102241,-102.659602317233,4,1,0,60,0,0
102341,-101.365597327192,4,1,0,60,0,0
102441,-100.103707440909,4,1,0,60,0,0
136041,-80,4,1,0,60,0,0
136341,-66.6666666666667,4,1,0,60,0,0
136641,-57.1428571428571,4,1,0,60,0,0
136891,-100,4,1,0,60,0,0
137691,-100,4,1,0,70,0,1
161491,-100,4,1,0,60,0,0
161591,-100,4,1,0,30,0,0
162391,-100,4,1,0,60,0,0
198741,-101.818167008267,4,1,0,60,0,0
198841,-103.703672976689,4,1,0,60,0,0
198941,-105.660329512304,4,1,0,60,0,0
199041,-107.692357396473,4,1,0,60,0,0
199141,-109.803956016927,4,1,0,60,0,0
199241,-112.000017920003,4,1,0,60,0,0
199341,-114.285714285714,4,1,0,60,0,0
199441,-116.666647222225,4,1,0,60,0,0
199541,-119.148895608887,4,1,0,60,0,0
199641,-121.739066918748,4,1,0,60,0,0
199741,-124.44451081485,4,1,0,60,0,0
199841,-127.272773553736,4,1,0,60,0,0
199941,-129.87012987013,4,1,0,60,0,0
200041,-133.333333333333,4,1,0,60,0,0
201491,-100,4,1,0,60,0,0
201691,-100,4,1,0,70,0,1
224041,-98.159509202454,4,1,0,70,0,1
224191,-96.3855421686747,4,1,0,70,0,1
224241,-94.6745562130178,4,1,0,70,0,1
224341,-93.0232558139535,4,1,0,70,0,1
224441,-91.4285714285714,4,1,0,70,0,1
224591,-89.8876404494382,4,1,0,70,0,1
224641,-88.3977900552486,4,1,0,70,0,1
224791,-86.9565217391304,4,1,0,70,0,1
224841,-85.5614973262032,4,1,0,70,0,1
224941,-84.2105263157895,4,1,0,70,0,1
225041,-82.9015544041451,4,1,0,70,0,1
225141,-81.6326530612245,4,1,0,70,0,1
225241,-80.4020100502513,4,1,0,70,0,1
225391,-79.2079207920792,4,1,0,70,0,1
225441,-78.125,4,1,0,70,0,1
225491,-78.0487804878049,4,1,0,70,0,0
225591,-76.9230769230769,4,1,0,30,0,0
226591,-117.647058823529,4,1,0,70,0,0
226791,-111.111111111111,4,1,0,70,0,0
226991,-105.263157894737,4,1,0,70,0,0
227191,-100,4,1,0,70,0,0
227291,-100,4,1,0,70,0,1
251291,-100,4,1,0,60,0,0
251391,-103.225806451613,4,1,0,60,0,0
251591,-106.666666666667,4,1,0,60,0,0
251791,-110.344827586207,4,1,0,60,0,0
252191,-118.518518518519,4,1,0,60,0,0
252391,-123.076923076923,4,1,0,60,0,0
252791,-133.333333333333,4,1,0,60,0,0
255391,-50,4,1,0,60,0,0

[HitObjects]
256,192,91,5,12,0:0:0:0:
256,192,291,1,0,0:0:0:0:
256,192,491,1,8,0:0:0:0:
256,192,691,1,0,0:0:0:0:
256,192,791,1,8,0:0:0:0:
256,192,991,1,8,0:0:0:0:
256,192,1091,1,8,0:0:0:0:
256,192,1291,1,8,0:0:0:0:
256,192,1491,1,0,0:0:0:0:
256,192,1691,1,8,0:0:0:0:
256,192,1891,1,0,0:0:0:0:
256,192,2091,1,8,0:0:0:0:
256,192,2291,1,0,0:0:0:0:
256,192,2391,1,8,0:0:0:0:
256,192,2591,1,8,0:0:0:0:
256,192,2691,1,8,0:0:0:0:
256,192,2891,1,8,0:0:0:0:
256,192,3091,1,0,0:0:0:0:
256,192,3291,1,8,0:0:0:0:
256,192,3491,1,0,0:0:0:0:
256,192,3691,1,8,0:0:0:0:
256,192,3891,1,0,0:0:0:0:
256,192,3991,1,8,0:0:0:0:
256,192,4191,1,8,0:0:0:0:
256,192,4291,1,8,0:0:0:0:
256,192,4491,1,8,0:0:0:0:
256,192,4691,1,0,0:0:0:0:
256,192,4891,1,4,0:0:0:0:
256,192,5191,1,4,0:0:0:0:
256,192,5491,1,4,0:0:0:0:
256,192,5891,1,8,0:0:0:0:
256,192,5957,1,8,0:0:0:0:
256,192,6024,1,8,0:0:0:0:
256,192,6091,1,0,0:0:0:0:
256,192,6191,1,0,0:0:0:0:
256,192,6291,1,8,0:0:0:0:
256,192,6391,1,8,0:0:0:0:
256,192,6491,5,4,0:0:0:0:
256,192,6691,1,8,0:0:0:0:
256,192,6891,1,0,0:0:0:0:
256,192,7091,1,8,0:0:0:0:
256,192,7191,1,0,0:0:0:0:
256,192,7391,1,0,0:0:0:0:
256,192,7491,1,8,0:0:0:0:
256,192,7691,1,0,0:0:0:0:
256,192,7891,1,8,0:0:0:0:
256,192,7991,1,0,0:0:0:0:
256,192,8091,1,8,0:0:0:0:
256,192,8291,1,0,0:0:0:0:
256,192,8491,1,8,0:0:0:0:
256,192,8691,1,0,0:0:0:0:
256,192,8791,1,8,0:0:0:0:
256,192,8991,1,8,0:0:0:0:
256,192,9091,1,0,0:0:0:0:
256,192,9291,1,8,0:0:0:0:
256,192,9491,1,0,0:0:0:0:
256,192,9591,1,0,0:0:0:0:
256,192,9691,1,8,0:0:0:0:
256,192,9891,1,8,0:0:0:0:
256,192,10091,1,0,0:0:0:0:
256,192,10291,1,8,0:0:0:0:
256,192,10391,1,0,0:0:0:0:
256,192,10591,1,0,0:0:0:0:
256,192,10691,1,8,0:0:0:0:
256,192,10891,1,0,0:0:0:0:
256,192,11091,1,8,0:0:0:0:
256,192,11291,1,8,0:0:0:0:
256,192,11491,1,0,0:0:0:0:
256,192,11591,1,0,0:0:0:0:
256,192,11691,1,8,0:0:0:0:
256,192,11891,1,8,0:0:0:0:
256,192,12091,1,0,0:0:0:0:
256,192,12191,1,8,0:0:0:0:
256,192,12291,1,0,0:0:0:0:
256,192,12391,1,0,0:0:0:0:
256,192,12491,1,8,0:0:0:0:
256,192,12691,1,8,0:0:0:0:
256,192,12891,5,0,0:0:0:0:
256,192,13091,1,8,0:0:0:0:
256,192,13191,1,0,0:0:0:0:
256,192,13291,1,8,0:0:0:0:
256,192,13491,1,0,0:0:0:0:
256,192,13591,1,8,0:0:0:0:
256,192,13791,1,0,0:0:0:0:
256,192,13891,1,0,0:0:0:0:
256,192,13991,1,0,0:0:0:0:
256,192,14091,1,8,0:0:0:0:
256,192,14291,1,8,0:0:0:0:
256,192,14491,1,0,0:0:0:0:
256,192,14691,1,8,0:0:0:0:
256,192,14791,1,0,0:0:0:0:
256,192,14891,1,8,0:0:0:0:
256,192,15091,1,8,0:0:0:0:
256,192,15191,1,0,0:0:0:0:
256,192,15391,1,8,0:0:0:0:
256,192,15491,1,8,0:0:0:0:
256,192,15591,1,0,0:0:0:0:
256,192,15691,1,8,0:0:0:0:
256,192,15891,1,8,0:0:0:0:
256,192,16091,1,0,0:0:0:0:
256,192,16291,1,8,0:0:0:0:
256,192,16391,1,0,0:0:0:0:
256,192,16491,1,8,0:0:0:0:
256,192,16691,1,8,0:0:0:0:
256,192,16791,1,0,0:0:0:0:
256,192,16991,1,0,0:0:0:0:
256,192,17091,1,8,0:0:0:0:
256,192,17191,1,8,0:0:0:0:
256,192,17291,1,0,0:0:0:0:
256,192,17491,1,8,0:0:0:0:
256,192,17691,1,0,0:0:0:0:
256,192,17891,1,8,0:0:0:0:
256,192,17991,1,8,0:0:0:0:
256,192,18091,1,8,0:0:0:0:
256,192,18291,1,0,0:0:0:0:
256,192,18491,1,8,0:0:0:0:
256,192,18691,1,8,0:0:0:0:
256,192,18891,1,8,0:0:0:0:
256,192,18991,1,8,0:0:0:0:
256,192,19091,1,8,0:0:0:0:
256,192,19191,1,8,0:0:0:0:
256,192,19291,5,4,0:0:0:0:
256,192,19491,1,8,0:0:0:0:
256,192,19591,1,8,0:0:0:0:
256,192,19691,1,0,0:0:0:0:
256,192,19891,1,8,0:0:0:0:
256,192,19991,1,8,0:0:0:0:
256,192,20091,1,0,0:0:0:0:
256,192,20191,1,8,0:0:0:0:
256,192,20391,1,8,0:0:0:0:
256,192,20491,1,0,0:0:0:0:
256,192,20691,1,8,0:0:0:0:
256,192,20791,1,8,0:0:0:0:
256,192,20891,1,0,0:0:0:0:
256,192,21091,1,8,0:0:0:0:
256,192,21191,1,8,0:0:0:0:
256,192,21291,1,0,0:0:0:0:
256,192,21491,1,8,0:0:0:0:
256,192,21591,1,8,0:0:0:0:
256,192,21691,1,0,0:0:0:0:
256,192,21791,1,8,0:0:0:0:
256,192,21991,1,8,0:0:0:0:
256,192,22091,1,0,0:0:0:0:
256,192,22291,1,8,0:0:0:0:
256,192,22391,1,8,0:0:0:0:
256,192,22491,1,0,0:0:0:0:
256,192,22691,1,8,0:0:0:0:
256,192,22791,1,8,0:0:0:0:
256,192,22891,1,0,0:0:0:0:
256,192,23091,1,8,0:0:0:0:
256,192,23191,1,8,0:0:0:0:
256,192,23291,1,0,0:0:0:0:
256,192,23391,1,8,0:0:0:0:
256,192,23591,1,8,0:0:0:0:
256,192,23691,1,0,0:0:0:0:
256,192,23891,1,8,0:0:0:0:
256,192,23991,1,8,0:0:0:0:
256,192,24091,1,0,0:0:0:0:
256,192,24291,1,8,0:0:0:0:
256,192,24391,1,0,0:0:0:0:
256,192,24491,1,8,0:0:0:0:
256,192,24691,1,8,0:0:0:0:
256,192,24791,1,8,0:0:0:0:
256,192,24891,1,0,0:0:0:0:
256,192,24991,1,8,0:0:0:0:
256,192,25091,1,8,0:0:0:0:
256,192,25191,1,0,0:0:0:0:
256,192,25291,1,8,0:0:0:0:
256,192,25491,1,8,0:0:0:0:
256,192,25591,1,8,0:0:0:0:
256,192,25691,5,0,0:0:0:0:
256,192,25891,1,8,0:0:0:0:
256,192,25991,1,8,0:0:0:0:
256,192,26091,1,0,0:0:0:0:
256,192,26291,1,8,0:0:0:0:
256,192,26391,1,8,0:0:0:0:
256,192,26491,1,0,0:0:0:0:
256,192,26591,1,8,0:0:0:0:
256,192,26791,1,8,0:0:0:0:
256,192,26891,1,0,0:0:0:0:
256,192,27091,1,8,0:0:0:0:
256,192,27191,1,8,0:0:0:0:
256,192,27291,1,0,0:0:0:0:
256,192,27491,1,8,0:0:0:0:
256,192,27591,1,8,0:0:0:0:
256,192,27691,1,0,0:0:0:0:
256,192,27891,1,8,0:0:0:0:
256,192,27991,1,8,0:0:0:0:
256,192,28091,1,0,0:0:0:0:
256,192,28191,1,8,0:0:0:0:
256,192,28391,1,8,0:0:0:0:
256,192,28491,1,0,0:0:0:0:
256,192,28691,1,8,0:0:0:0:
256,192,28791,1,8,0:0:0:0:
256,192,28891,1,0,0:0:0:0:
256,192,29091,1,8,0:0:0:0:
256,192,29191,1,8,0:0:0:0:
256,192,29291,1,0,0:0:0:0:
256,192,29491,1,8,0:0:0:0:
256,192,29591,1,8,0:0:0:0:
256,192,29691,1,0,0:0:0:0:
256,192,29791,1,8,0:0:0:0:
256,192,29991,1,8,0:0:0:0:
256,192,30091,1,0,0:0:0:0:
256,192,30291,1,8,0:0:0:0:
256,192,30391,1,8,0:0:0:0:
256,192,30491,1,0,0:0:0:0:
256,192,30591,1,8,0:0:0:0:
256,192,30691,1,8,0:0:0:0:
256,192,30791,1,0,0:0:0:0:
256,192,30891,1,8,0:0:0:0:
256,192,30991,1,8,0:0:0:0:
256,192,31091,1,0,0:0:0:0:
256,192,31191,1,8,0:0:0:0:
256,192,31291,1,0,0:0:0:0:
256,192,31391,1,0,0:0:0:0:
256,192,31491,1,8,0:0:0:0:
256,192,31591,1,0,0:0:0:0:
256,192,31691,1,8,0:0:0:0:
256,192,31791,1,8,0:0:0:0:
256,192,31891,1,0,0:0:0:0:
256,192,31991,1,8,0:0:0:0:
256,190,32091,5,0,0:0:0:0:
263,191,32491,1,0,0:0:0:0:
270,188,32691,1,8,0:0:0:0:
268,193,32891,1,8,0:0:0:0:
278,189,32991,1,8,0:0:0:0:
278,189,33091,1,0,0:0:0:0:
276,197,33291,1,0,0:0:0:0:
289,198,33491,1,8,0:0:0:0:
276,197,33691,1,0,0:0:0:0:
290,200,33891,1,0,0:0:0:0:
278,189,33991,1,0,0:0:0:0:
276,197,34091,1,8,0:0:0:0:
280,202,34291,1,8,0:0:0:0:
278,193,34391,1,8,0:0:0:0:
276,197,34491,1,0,0:0:0:0:
285,199,34591,1,0,0:0:0:0:
285,199,34691,1,8,0:0:0:0:
276,197,34891,1,0,0:0:0:0:
276,197,35091,1,0,0:0:0:0:
286,200,35191,1,8,0:0:0:0:
276,197,35291,1,0,0:0:0:0:
271,195,35491,1,8,0:0:0:0:
276,197,35691,1,0,0:0:0:0:
270,196,35891,1,8,0:0:0:0:
277,188,35991,1,0,0:0:0:0:
269,195,36091,1,8,0:0:0:0:
278,197,36191,1,8,0:0:0:0:
274,191,36291,1,0,0:0:0:0:
276,197,36491,1,8,0:0:0:0:
267,207,36691,1,0,0:0:0:0:
276,197,36891,1,0,0:0:0:0:
285,200,36991,1,0,0:0:0:0:
270,203,37091,1,8,0:0:0:0:
283,200,37291,1,8,0:0:0:0:
270,203,37391,1,8,0:0:0:0:
270,203,37491,1,0,0:0:0:0:
283,200,37591,1,0,0:0:0:0:
289,204,37691,1,8,0:0:0:0:
300,205,37791,1,0,0:0:0:0:
290,204,37891,1,8,0:0:0:0:
283,200,38091,1,8,0:0:0:0:
283,200,38291,1,0,0:0:0:0:
289,197,38391,1,8,0:0:0:0:
256,192,38491,5,0,0:0:0:0:
256,192,38591,1,8,0:0:0:0:
256,192,38691,1,0,0:0:0:0:
256,192,38891,1,8,0:0:0:0:
256,192,39091,1,0,0:0:0:0:
256,192,39291,1,8,0:0:0:0:
256,192,39391,1,0,0:0:0:0:
256,192,39491,1,8,0:0:0:0:
256,192,39691,1,8,0:0:0:0:
256,192,39891,1,0,0:0:0:0:
256,192,40091,1,8,0:0:0:0:
256,192,40191,1,0,0:0:0:0:
256,192,40291,1,0,0:0:0:0:
256,192,40491,1,8,0:0:0:0:
256,192,40691,1,8,0:0:0:0:
256,192,40891,1,0,0:0:0:0:
256,192,40991,1,0,0:0:0:0:
256,192,41091,1,8,0:0:0:0:
256,192,41191,1,0,0:0:0:0:
256,192,41291,1,8,0:0:0:0:
256,192,41491,1,0,0:0:0:0:
256,192,41591,1,8,0:0:0:0:
256,192,41691,1,0,0:0:0:0:
256,192,41891,1,0,0:0:0:0:
256,192,42091,1,8,0:0:0:0:
256,192,42291,1,0,0:0:0:0:
256,192,42391,1,8,0:0:0:0:
256,192,42491,1,0,0:0:0:0:
256,192,42591,1,0,0:0:0:0:
256,192,42691,1,0,0:0:0:0:
256,192,42891,1,8,0:0:0:0:
256,192,43091,1,0,0:0:0:0:
256,192,43291,1,8,0:0:0:0:
256,192,43491,1,0,0:0:0:0:
256,192,43691,1,8,0:0:0:0:
256,192,43891,1,8,0:0:0:0:
256,192,44091,1,0,0:0:0:0:
256,192,44191,1,0,0:0:0:0:
256,192,44291,1,8,0:0:0:0:
256,192,44357,1,8,0:0:0:0:
256,192,44424,1,8,0:0:0:0:
256,192,44491,1,0,0:0:0:0:
256,192,44591,1,0,0:0:0:0:
256,192,44691,1,8,0:0:0:0:
256,192,44791,1,8,0:0:0:0:
256,192,44891,5,0,0:0:0:0:
256,192,45191,1,0,0:0:0:0:
256,192,45291,1,2,0:0:0:0:
256,192,45491,1,2,0:0:0:0:
256,192,45591,1,0,0:0:0:0:
256,192,45691,1,2,0:0:0:0:
256,192,45791,1,0,0:0:0:0:
256,192,45891,1,0,0:0:0:0:
256,192,46091,1,2,0:0:0:0:
256,192,46291,1,8,0:0:0:0:
256,192,46391,1,2,0:0:0:0:
256,192,46491,1,0,0:0:0:0:
256,192,46691,1,0,0:0:0:0:
256,192,46791,1,0,0:0:0:0:
256,192,46891,1,2,0:0:0:0:
256,192,47091,1,0,0:0:0:0:
256,192,47291,1,0,0:0:0:0:
256,192,47391,1,0,0:0:0:0:
256,192,47491,1,2,0:0:0:0:
256,192,47691,1,2,0:0:0:0:
256,192,47791,1,0,0:0:0:0:
256,192,47891,1,2,0:0:0:0:
256,192,47991,1,2,0:0:0:0:
256,192,48091,1,0,0:0:0:0:
256,192,48391,1,0,0:0:0:0:
256,192,48491,1,2,0:0:0:0:
256,192,48691,1,0,0:0:0:0:
256,192,48891,1,2,0:0:0:0:
256,192,48991,1,0,0:0:0:0:
256,192,49091,1,0,0:0:0:0:
256,192,49191,1,0,0:0:0:0:
256,192,49291,1,2,0:0:0:0:
256,192,49491,1,8,0:0:0:0:
256,192,49591,1,2,0:0:0:0:
256,192,49691,1,0,0:0:0:0:
256,192,49891,1,0,0:0:0:0:
256,192,50091,1,2,0:0:0:0:
256,192,50191,1,0,0:0:0:0:
256,192,50291,1,0,0:0:0:0:
256,192,50391,1,2,0:0:0:0:
256,192,50491,1,0,0:0:0:0:
256,192,50591,1,2,0:0:0:0:
256,192,50791,1,0,0:0:0:0:
256,192,50891,1,2,0:0:0:0:
256,192,51091,1,2,0:0:0:0:
256,192,51191,1,2,0:0:0:0:
256,192,51291,5,0,0:0:0:0:
256,192,51391,1,0,0:0:0:0:
256,192,51491,1,0,0:0:0:0:
256,192,51591,1,0,0:0:0:0:
256,192,51691,1,0,0:0:0:0:
256,192,51891,1,0,0:0:0:0:
256,192,52091,1,8,0:0:0:0:
256,192,52191,1,8,0:0:0:0:
256,192,52291,1,8,0:0:0:0:
256,192,52391,1,8,0:0:0:0:
256,192,52491,1,8,0:0:0:0:
256,192,52691,1,8,0:0:0:0:
256,192,52891,1,0,0:0:0:0:
256,192,52991,1,0,0:0:0:0:
256,192,53091,1,8,0:0:0:0:
256,192,53191,1,0,0:0:0:0:
256,192,53291,1,8,0:0:0:0:
256,192,53391,1,8,0:0:0:0:
256,192,53491,1,0,0:0:0:0:
256,192,53591,1,8,0:0:0:0:
256,192,53691,1,0,0:0:0:0:
256,192,53891,1,8,0:0:0:0:
256,192,53991,1,8,0:0:0:0:
256,192,54091,1,8,0:0:0:0:
256,192,54291,1,8,0:0:0:0:
256,192,54491,1,0,0:0:0:0:
256,192,54591,1,0,0:0:0:0:
256,192,54691,1,0,0:0:0:0:
256,192,54791,1,0,0:0:0:0:
256,192,54891,1,0,0:0:0:0:
256,192,55091,1,0,0:0:0:0:
256,192,55291,1,8,0:0:0:0:
256,192,55391,1,8,0:0:0:0:
256,192,55491,1,8,0:0:0:0:
256,192,55591,1,8,0:0:0:0:
256,192,55691,1,8,0:0:0:0:
256,192,55891,1,8,0:0:0:0:
256,192,56091,1,0,0:0:0:0:
256,192,56191,1,0,0:0:0:0:
256,192,56291,1,8,0:0:0:0:
256,192,56391,1,8,0:0:0:0:
256,192,56491,1,0,0:0:0:0:
256,192,56691,1,0,0:0:0:0:
256,192,56891,1,8,0:0:0:0:
256,192,56991,1,0,0:0:0:0:
256,192,57091,1,8,0:0:0:0:
256,192,57191,1,0,0:0:0:0:
256,192,57291,1,8,0:0:0:0:
348,206,57691,5,4,0:0:0:0:
361,186,57891,1,0,0:0:0:0:
359,191,58091,1,8,0:0:0:0:
358,191,58291,1,0,0:0:0:0:
363,186,58491,1,0,0:0:0:0:
370,163,58591,1,0,0:0:0:0:
370,164,58691,1,0,0:0:0:0:
370,163,58891,1,8,0:0:0:0:
370,163,59091,1,0,0:0:0:0:
370,163,59191,1,0,0:0:0:0:
370,163,59291,1,0,0:0:0:0:
371,155,59391,1,8,0:0:0:0:
372,154,59491,1,0,0:0:0:0:
372,154,59591,1,0,0:0:0:0:
372,154,59691,1,8,0:0:0:0:
372,154,59891,1,0,0:0:0:0:
372,149,59991,1,0,0:0:0:0:
372,153,60091,1,8,0:0:0:0:
372,149,60191,1,0,0:0:0:0:
372,148,60291,1,0,0:0:0:0:
372,149,60391,1,8,0:0:0:0:
372,154,60491,1,8,0:0:0:0:
371,148,60691,1,0,0:0:0:0:
372,148,60791,1,0,0:0:0:0:
371,148,60891,1,8,0:0:0:0:
372,153,61091,1,0,0:0:0:0:
372,149,61191,1,0,0:0:0:0:
372,148,61291,1,8,0:0:0:0:
372,149,61391,1,0,0:0:0:0:
370,149,61491,1,8,0:0:0:0:
348,140,61591,1,0,0:0:0:0:
371,148,61691,1,8,0:0:0:0:
366,146,61791,1,8,0:0:0:0:
371,148,61891,1,0,0:0:0:0:
372,153,62091,1,0,0:0:0:0:
410,173,62191,1,0,0:0:0:0:
390,168,62291,1,8,0:0:0:0:
388,168,62391,1,8,0:0:0:0:
384,164,62491,1,0,0:0:0:0:
378,162,62691,1,8,0:0:0:0:
394,169,62791,1,8,0:0:0:0:
410,140,62891,1,0,0:0:0:0:
399,165,62991,1,0,0:0:0:0:
394,165,63091,1,8,0:0:0:0:
399,165,63191,1,0,0:0:0:0:
398,165,63291,1,8,0:0:0:0:
398,166,63491,1,0,0:0:0:0:
415,195,63691,1,8,0:0:0:0:
256,192,63891,1,8,0:0:0:0:
256,192,64091,5,0,0:0:0:0:
256,192,64291,1,8,0:0:0:0:
256,192,64391,1,0,0:0:0:0:
256,192,64491,1,8,0:0:0:0:
256,192,64691,1,0,0:0:0:0:
256,192,64791,1,0,0:0:0:0:
256,192,64891,1,8,0:0:0:0:
256,192,64991,1,0,0:0:0:0:
256,192,65091,1,8,0:0:0:0:
256,192,65191,1,8,0:0:0:0:
256,192,65291,1,0,0:0:0:0:
256,192,65491,1,8,0:0:0:0:
256,192,65591,1,0,0:0:0:0:
256,192,65691,1,8,0:0:0:0:
256,192,65891,1,0,0:0:0:0:
256,192,65991,1,8,0:0:0:0:
256,192,66091,1,0,0:0:0:0:
256,192,66291,1,8,0:0:0:0:
256,192,66391,1,0,0:0:0:0:
256,192,66491,1,8,0:0:0:0:
256,192,66591,1,8,0:0:0:0:
256,192,66691,1,0,0:0:0:0:
256,192,66791,1,8,0:0:0:0:
256,192,66891,1,0,0:0:0:0:
256,192,67091,1,8,0:0:0:0:
256,192,67191,1,0,0:0:0:0:
256,192,67291,1,8,0:0:0:0:
256,192,67391,1,8,0:0:0:0:
256,192,67491,1,0,0:0:0:0:
256,192,67591,1,8,0:0:0:0:
256,192,67691,1,8,0:0:0:0:
256,192,67891,1,8,0:0:0:0:
256,192,67991,1,0,0:0:0:0:
256,192,68091,1,8,0:0:0:0:
256,192,68191,1,8,0:0:0:0:
256,192,68291,1,8,0:0:0:0:
256,192,68391,1,0,0:0:0:0:
256,192,68491,1,8,0:0:0:0:
256,192,68591,1,8,0:0:0:0:
256,192,68891,1,4,0:0:0:0:
256,192,69191,1,4,0:0:0:0:
256,192,69491,1,4,0:0:0:0:
256,192,69891,1,8,0:0:0:0:
256,192,70091,1,8,0:0:0:0:
256,192,70157,1,8,0:0:0:0:
256,192,70224,1,8,0:0:0:0:
256,192,70291,1,0,0:0:0:0:
256,192,70391,1,0,0:0:0:0:
256,192,70491,5,12,0:0:0:0:
256,192,70691,1,0,0:0:0:0:
256,192,70791,1,0,0:0:0:0:
256,192,70891,1,8,0:0:0:0:
256,192,71091,1,8,0:0:0:0:
256,192,71191,1,0,0:0:0:0:
256,192,71391,1,0,0:0:0:0:
256,192,71491,1,8,0:0:0:0:
256,192,71691,1,8,0:0:0:0:
256,192,71791,1,8,0:0:0:0:
256,192,71891,1,0,0:0:0:0:
256,192,72091,1,8,0:0:0:0:
256,192,72291,1,0,0:0:0:0:
256,192,72391,1,0,0:0:0:0:
256,192,72491,1,8,0:0:0:0:
256,192,72691,1,8,0:0:0:0:
256,192,72791,1,0,0:0:0:0:
256,192,72991,1,0,0:0:0:0:
256,192,73091,1,8,0:0:0:0:
256,192,73291,1,0,0:0:0:0:
256,192,73391,1,0,0:0:0:0:
256,192,73491,1,8,0:0:0:0:
256,192,73691,1,0,0:0:0:0:
256,192,73891,1,0,0:0:0:0:
256,192,73991,1,0,0:0:0:0:
256,192,74091,1,8,0:0:0:0:
256,192,74291,1,8,0:0:0:0:
256,192,74391,1,8,0:0:0:0:
256,192,74491,1,0,0:0:0:0:
256,192,74691,1,0,0:0:0:0:
256,192,74791,1,8,0:0:0:0:
256,192,74891,1,8,0:0:0:0:
256,192,74991,1,0,0:0:0:0:
256,192,75091,1,0,0:0:0:0:
256,192,75191,1,0,0:0:0:0:
256,192,75291,1,8,0:0:0:0:
256,192,75491,1,0,0:0:0:0:
256,192,75591,1,0,0:0:0:0:
256,192,75691,1,8,0:0:0:0:
256,192,75791,5,0,0:0:0:0:
256,192,75891,1,8,0:0:0:0:
256,192,75991,1,8,0:0:0:0:
256,192,76091,1,0,0:0:0:0:
256,192,76291,1,8,0:0:0:0:
256,192,76391,1,8,0:0:0:0:
256,192,76491,1,0,0:0:0:0:
256,192,76591,1,0,0:0:0:0:
256,192,76691,1,8,0:0:0:0:
97,302,76891,5,0,0:0:0:0:
97,302,76991,1,8,0:0:0:0:
97,302,77091,1,0,0:0:0:0:
97,302,77291,1,8,0:0:0:0:
97,302,77491,1,0,0:0:0:0:
97,302,77591,1,8,0:0:0:0:
97,302,77791,1,8,0:0:0:0:
97,302,77891,1,0,0:0:0:0:
94,306,77991,1,8,0:0:0:0:
94,306,78091,1,0,0:0:0:0:
97,302,78291,1,8,0:0:0:0:
97,302,78391,1,8,0:0:0:0:
97,302,78491,1,0,0:0:0:0:
97,302,78691,1,8,0:0:0:0:
97,297,78891,1,0,0:0:0:0:
97,302,78991,1,0,0:0:0:0:
97,302,79091,1,8,0:0:0:0:
100,318,79191,1,0,0:0:0:0:
95,309,79391,1,0,0:0:0:0:
95,309,79491,1,8,0:0:0:0:
95,309,79591,1,0,0:0:0:0:
95,309,79691,1,8,0:0:0:0:
109,305,79891,1,8,0:0:0:0:
105,307,80091,1,0,0:0:0:0:
105,307,80191,1,0,0:0:0:0:
105,304,80291,1,8,0:0:0:0:
105,304,80491,1,0,0:0:0:0:
105,307,80691,1,8,0:0:0:0:
105,307,80791,1,0,0:0:0:0:
118,301,80991,1,0,0:0:0:0:
118,301,81091,1,8,0:0:0:0:
117,301,81191,1,8,0:0:0:0:
117,301,81291,1,0,0:0:0:0:
123,302,81491,1,8,0:0:0:0:
123,303,81591,1,8,0:0:0:0:
122,313,81691,1,0,0:0:0:0:
122,313,81891,1,8,0:0:0:0:
122,313,82091,1,0,0:0:0:0:
122,313,82291,1,8,0:0:0:0:
121,313,82391,1,8,0:0:0:0:
122,313,82491,1,0,0:0:0:0:
122,313,82591,1,0,0:0:0:0:
122,313,82691,1,8,0:0:0:0:
122,313,82791,1,0,0:0:0:0:
121,303,82891,1,8,0:0:0:0:
121,303,82991,1,8,0:0:0:0:
121,303,83091,1,0,0:0:0:0:
114,298,83191,1,0,0:0:0:0:
399,338,83291,5,12,0:0:0:0:
374,318,83491,1,0,0:0:0:0:
374,318,83691,1,8,0:0:0:0:
361,342,83891,1,8,0:0:0:0:
361,342,83991,1,0,0:0:0:0:
361,342,84091,1,0,0:0:0:0:
361,342,84191,1,8,0:0:0:0:
373,306,84391,1,8,0:0:0:0:
373,306,84491,1,0,0:0:0:0:
380,323,84691,1,8,0:0:0:0:
369,264,84891,1,0,0:0:0:0:
369,264,84991,1,0,0:0:0:0:
369,264,85091,1,8,0:0:0:0:
369,264,85191,1,8,0:0:0:0:
369,264,85291,1,0,0:0:0:0:
280,305,85491,1,8,0:0:0:0:
306,310,85691,1,8,0:0:0:0:
306,310,85791,1,0,0:0:0:0:
306,310,85891,1,8,0:0:0:0:
306,310,85991,1,8,0:0:0:0:
306,310,86091,1,0,0:0:0:0:
381,344,86191,1,0,0:0:0:0:
345,328,86291,1,8,0:0:0:0:
320,320,86391,1,8,0:0:0:0:
372,349,86491,1,0,0:0:0:0:
388,342,86691,1,8,0:0:0:0:
388,342,86791,1,8,0:0:0:0:
388,342,86891,1,0,0:0:0:0:
308,321,87091,1,8,0:0:0:0:
308,321,87191,1,0,0:0:0:0:
308,321,87291,1,0,0:0:0:0:
308,321,87391,1,8,0:0:0:0:
322,318,87591,1,8,0:0:0:0:
322,318,87691,1,0,0:0:0:0:
375,289,87891,1,8,0:0:0:0:
457,360,88091,1,0,0:0:0:0:
426,321,88291,1,0,0:0:0:0:
426,321,88391,1,0,0:0:0:0:
426,321,88491,1,8,0:0:0:0:
442,298,88691,1,0,0:0:0:0:
393,352,88891,1,0,0:0:0:0:
393,352,88991,1,0,0:0:0:0:
393,352,89091,1,8,0:0:0:0:
393,352,89191,1,0,0:0:0:0:
393,352,89291,1,8,0:0:0:0:
256,192,89491,1,8,0:0:0:0:
256,192,89591,1,8,0:0:0:0:
193,114,89691,5,4,0:0:0:0:
363,245,89891,1,8,0:0:0:0:
256,50,89991,1,0,0:0:0:0:
380,173,90091,1,8,0:0:0:0:
272,209,90291,1,0,0:0:0:0:
272,209,90391,1,8,0:0:0:0:
272,209,90591,1,8,0:0:0:0:
272,209,90691,1,0,0:0:0:0:
308,205,90891,1,8,0:0:0:0:
308,205,91091,1,0,0:0:0:0:
418,259,91291,1,8,0:0:0:0:
418,259,91491,1,0,0:0:0:0:
418,259,91591,1,0,0:0:0:0:
420,243,91691,1,8,0:0:0:0:
278,217,91891,1,0,0:0:0:0:
278,217,91991,1,8,0:0:0:0:
278,217,92191,1,8,0:0:0:0:
278,217,92291,1,8,0:0:0:0:
278,217,92391,1,8,0:0:0:0:
278,217,92491,1,0,0:0:0:0:
362,288,92691,1,0,0:0:0:0:
362,288,92791,1,8,0:0:0:0:
362,288,92891,1,0,0:0:0:0:
362,288,93091,1,0,0:0:0:0:
362,288,93191,1,0,0:0:0:0:
264,131,93291,1,8,0:0:0:0:
264,131,93391,1,8,0:0:0:0:
264,131,93491,1,0,0:0:0:0:
302,227,93691,1,8,0:0:0:0:
302,227,93791,1,8,0:0:0:0:
302,227,93891,1,0,0:0:0:0:
302,227,93991,1,8,0:0:0:0:
302,227,94091,1,8,0:0:0:0:
302,227,94291,1,0,0:0:0:0:
302,227,94491,1,12,0:0:0:0:
371,132,94691,1,0,0:0:0:0:
371,132,94891,1,0,0:0:0:0:
371,132,95091,1,12,0:0:0:0:
371,132,95491,1,0,0:0:0:0:
371,132,95691,1,12,0:0:0:0:
309,112,96091,5,12,0:0:0:0:
384,139,96291,1,0,0:0:0:0:
384,139,96391,1,0,0:0:0:0:
384,139,96491,1,8,0:0:0:0:
155,134,96591,1,0,0:0:0:0:
160,130,96791,1,8,0:0:0:0:
160,130,96891,1,0,0:0:0:0:
160,130,96991,1,0,0:0:0:0:
160,129,97091,1,8,0:0:0:0:
256,192,97191,1,0,0:0:0:0:
164,130,97291,1,8,0:0:0:0:
185,35,97391,1,0,0:0:0:0:
185,35,97491,1,8,0:0:0:0:
251,99,97691,1,8,0:0:0:0:
251,99,97891,1,8,0:0:0:0:
251,99,97991,1,8,0:0:0:0:
256,142,98091,1,0,0:0:0:0:
256,142,98291,5,8,0:0:0:0:
485,149,98391,1,0,0:0:0:0:
446,135,98491,1,0,0:0:0:0:
256,142,98591,1,0,0:0:0:0:
303,98,98691,1,8,0:0:0:0:
303,98,98741,1,8,0:0:0:0:
252,44,98891,1,4,0:0:0:0:
200,196,99291,5,0,0:0:0:0:
80,164,99391,1,8,0:0:0:0:
245,199,99591,1,0,0:0:0:0:
130,189,99691,1,8,0:0:0:0:
221,124,99891,1,0,0:0:0:0:
302,139,100091,1,8,0:0:0:0:
116,195,100191,1,0,0:0:0:0:
87,197,100391,1,0,0:0:0:0:
281,100,100491,1,8,0:0:0:0:
239,167,100691,1,8,0:0:0:0:
176,117,100891,1,0,0:0:0:0:
166,136,100991,1,8,0:0:0:0:
161,105,101091,1,0,0:0:0:0:
270,166,101291,1,8,0:0:0:0:
270,166,101391,1,0,0:0:0:0:
148,112,101491,1,8,0:0:0:0:
129,140,101691,1,0,0:0:0:0:
215,174,101791,1,0,0:0:0:0:
115,117,101891,1,8,0:0:0:0:
217,138,102091,1,8,0:0:0:0:
239,144,102191,1,8,0:0:0:0:
164,207,102291,1,8,0:0:0:0:
164,207,102391,1,8,0:0:0:0:
164,207,102491,1,4,0:0:0:0:
188,189,102691,1,8,0:0:0:0:
216,103,102791,1,0,0:0:0:0:
144,174,102891,1,8,0:0:0:0:
196,194,103091,1,0,0:0:0:0:
209,162,103291,1,8,0:0:0:0:
193,157,103391,1,0,0:0:0:0:
137,157,103591,1,0,0:0:0:0:
266,172,103691,1,8,0:0:0:0:
207,155,103891,1,8,0:0:0:0:
272,106,104091,1,8,0:0:0:0:
222,205,104291,1,0,0:0:0:0:
192,127,104391,1,0,0:0:0:0:
186,90,104491,1,8,0:0:0:0:
269,180,104691,1,8,0:0:0:0:
242,117,104891,1,0,0:0:0:0:
201,136,104991,1,0,0:0:0:0:
306,151,105091,1,8,0:0:0:0:
256,192,105291,1,8,0:0:0:0:
171,103,105391,1,8,0:0:0:0:
256,152,105491,1,0,0:0:0:0:
258,174,105591,1,0,0:0:0:0:
256,192,105691,5,8,0:0:0:0:
256,192,105891,1,8,0:0:0:0:
256,192,105991,1,8,0:0:0:0:
256,192,106091,1,0,0:0:0:0:
256,192,106291,1,8,0:0:0:0:
256,192,106491,1,0,0:0:0:0:
256,192,106691,1,0,0:0:0:0:
256,192,106791,1,0,0:0:0:0:
256,192,106891,1,8,0:0:0:0:
256,192,107091,1,0,0:0:0:0:
256,192,107291,1,8,0:0:0:0:
256,192,107391,1,8,0:0:0:0:
256,192,107491,1,0,0:0:0:0:
256,192,107591,1,0,0:0:0:0:
256,192,107691,1,8,0:0:0:0:
256,192,107891,1,0,0:0:0:0:
256,192,108091,1,8,0:0:0:0:
256,192,108291,1,0,0:0:0:0:
256,192,108491,1,8,0:0:0:0:
256,192,108891,1,0,0:0:0:0:
256,192,109091,1,8,0:0:0:0:
256,192,109191,1,0,0:0:0:0:
256,192,109291,1,0,0:0:0:0:
256,192,109491,1,0,0:0:0:0:
256,192,109691,1,8,0:0:0:0:
256,192,109891,1,0,0:0:0:0:
256,192,109991,1,0,0:0:0:0:
256,192,110091,1,8,0:0:0:0:
256,192,110291,1,0,0:0:0:0:
256,192,110491,1,8,0:0:0:0:
256,192,110591,1,8,0:0:0:0:
256,192,110691,1,0,0:0:0:0:
256,192,110791,1,0,0:0:0:0:
256,192,110891,1,8,0:0:0:0:
256,192,111091,1,0,0:0:0:0:
256,192,111291,1,8,0:0:0:0:
256,192,111391,1,0,0:0:0:0:
256,192,111491,1,8,0:0:0:0:
256,192,111591,1,8,0:0:0:0:
256,192,111691,1,0,0:0:0:0:
256,192,111891,1,8,0:0:0:0:
126,195,112091,5,8,0:0:0:0:
126,195,112291,1,0,0:0:0:0:
130,191,112391,1,0,0:0:0:0:
130,191,112491,1,0,0:0:0:0:
126,195,112691,1,8,0:0:0:0:
111,156,112891,1,8,0:0:0:0:
109,168,112991,1,8,0:0:0:0:
109,168,113091,1,0,0:0:0:0:
110,168,113191,1,8,0:0:0:0:
110,169,113291,1,8,0:0:0:0:
110,168,113491,1,0,0:0:0:0:
92,166,113691,1,8,0:0:0:0:
97,164,113791,1,8,0:0:0:0:
93,165,113891,1,0,0:0:0:0:
96,164,114091,1,8,0:0:0:0:
96,164,114291,1,0,0:0:0:0:
96,164,114391,1,0,0:0:0:0:
96,164,114491,1,8,0:0:0:0:
97,164,114791,1,0,0:0:0:0:
93,165,114891,1,8,0:0:0:0:
96,164,115091,1,0,0:0:0:0:
126,195,115291,1,8,0:0:0:0:
133,203,115391,1,8,0:0:0:0:
126,195,115491,1,0,0:0:0:0:
130,191,115591,1,0,0:0:0:0:
130,200,115691,1,8,0:0:0:0:
130,200,115891,1,0,0:0:0:0:
111,156,116091,1,8,0:0:0:0:
109,168,116191,1,0,0:0:0:0:
109,168,116291,1,0,0:0:0:0:
110,168,116391,1,0,0:0:0:0:
110,169,116491,1,8,0:0:0:0:
110,168,116691,1,0,0:0:0:0:
92,166,116891,1,8,0:0:0:0:
97,164,116991,1,8,0:0:0:0:
93,165,117091,1,0,0:0:0:0:
96,164,117291,1,8,0:0:0:0:
96,164,117391,5,0,0:0:0:0:
96,164,117491,1,8,0:0:0:0:
96,164,117691,1,8,0:0:0:0:
128,149,117791,1,8,0:0:0:0:
128,149,117891,1,0,0:0:0:0:
97,164,117991,1,0,0:0:0:0:
128,149,118091,1,8,0:0:0:0:
128,149,118291,1,8,0:0:0:0:
103,59,118491,5,0,0:0:0:0:
41,82,118591,1,2,0:0:0:0:
78,242,118791,1,2,0:0:0:0:
33,191,118891,1,0,0:0:0:0:
15,135,119091,1,2,0:0:0:0:
140,252,119191,1,2,0:0:0:0:
194,233,119291,1,0,0:0:0:0:
223,183,119391,1,2,0:0:0:0:
174,141,119591,1,2,0:0:0:0:
132,142,119691,1,0,0:0:0:0:
298,148,119891,1,2,0:0:0:0:
261,203,119991,1,2,0:0:0:0:
309,238,120091,1,0,0:0:0:0:
351,150,120191,1,2,0:0:0:0:
374,199,120391,1,2,0:0:0:0:
363,251,120491,1,0,0:0:0:0:
412,175,120591,1,0,0:0:0:0:
449,214,120691,1,2,0:0:0:0:
473,259,120791,1,2,0:0:0:0:
171,200,120891,1,0,0:0:0:0:
179,242,121091,1,2,0:0:0:0:
191,271,121191,1,2,0:0:0:0:
245,270,121291,1,0,0:0:0:0:
290,269,121391,1,2,0:0:0:0:
326,246,121491,1,2,0:0:0:0:
345,347,121691,1,0,0:0:0:0:
289,371,121791,1,2,0:0:0:0:
230,367,121991,1,2,0:0:0:0:
176,366,122091,1,0,0:0:0:0:
76,51,122291,1,2,0:0:0:0:
74,114,122391,1,0,0:0:0:0:
71,171,122491,1,0,0:0:0:0:
75,230,122591,1,2,0:0:0:0:
135,228,122791,1,2,0:0:0:0:
190,224,122891,1,0,0:0:0:0:
312,123,123091,1,2,0:0:0:0:
298,175,123191,1,2,0:0:0:0:
321,217,123291,1,0,0:0:0:0:
355,113,123391,1,2,0:0:0:0:
386,152,123491,1,0,0:0:0:0:
389,192,123591,1,0,0:0:0:0:
368,226,123691,1,2,0:0:0:0:
200,240,123791,5,2,0:0:0:0:
212,287,123891,1,0,0:0:0:0:
229,320,123991,1,2,0:0:0:0:
248,358,124091,1,0,0:0:0:0:
298,349,124191,1,0,0:0:0:0:
348,348,124291,1,2,0:0:0:0:
390,344,124357,1,2,0:0:0:0:
437,336,124424,1,2,0:0:0:0:
350,82,124491,1,0,0:0:0:0:
441,68,124591,1,2,0:0:0:0:
485,319,124691,1,0,0:0:0:0:
256,193,124891,5,4,0:0:0:0:
256,193,125091,1,0,0:0:0:0:
256,193,125291,1,8,0:0:0:0:
256,193,125491,1,0,0:0:0:0:
256,193,125591,1,0,0:0:0:0:
256,193,125691,1,8,0:0:0:0:
256,193,125791,1,0,0:0:0:0:
256,193,125891,1,0,0:0:0:0:
256,193,125991,1,8,0:0:0:0:
256,193,126091,1,0,0:0:0:0:
256,193,126291,1,8,0:0:0:0:
256,193,126491,1,0,0:0:0:0:
256,193,126691,1,0,0:0:0:0:
256,193,126891,1,8,0:0:0:0:
256,193,127091,1,0,0:0:0:0:
256,193,127191,1,8,0:0:0:0:
256,193,127291,1,0,0:0:0:0:
256,193,127391,1,0,0:0:0:0:
256,193,127491,1,8,0:0:0:0:
256,193,127591,1,0,0:0:0:0:
256,193,127691,1,8,0:0:0:0:
256,193,127891,1,8,0:0:0:0:
256,193,128091,1,0,0:0:0:0:
256,193,128291,1,8,0:0:0:0:
256,193,128391,1,8,0:0:0:0:
256,193,128491,1,0,0:0:0:0:
256,193,128691,1,0,0:0:0:0:
256,193,128891,1,8,0:0:0:0:
256,193,129091,1,0,0:0:0:0:
256,193,129191,1,0,0:0:0:0:
256,193,129291,1,0,0:0:0:0:
256,193,129491,1,8,0:0:0:0:
256,193,129691,1,0,0:0:0:0:
256,193,129891,1,0,0:0:0:0:
249,191,129991,1,8,0:0:0:0:
256,193,130091,1,0,0:0:0:0:
256,193,130191,1,0,0:0:0:0:
256,193,130291,1,8,0:0:0:0:
256,193,130391,1,8,0:0:0:0:
256,193,130491,1,0,0:0:0:0:
256,192,130591,1,8,0:0:0:0:
256,192,130691,1,0,0:0:0:0:
256,192,130791,1,0,0:0:0:0:
256,192,130891,1,8,0:0:0:0:
256,193,130991,1,0,0:0:0:0:
256,193,131091,1,8,0:0:0:0:
256,192,131291,5,8,0:0:0:0:
256,192,131491,1,0,0:0:0:0:
256,192,131691,1,2,0:0:0:0:
256,192,131891,1,0,0:0:0:0:
256,192,131991,1,2,0:0:0:0:
256,192,132091,1,0,0:0:0:0:
256,192,132191,1,0,0:0:0:0:
256,192,132291,1,2,0:0:0:0:
256,192,132391,1,2,0:0:0:0:
256,192,132491,1,0,0:0:0:0:
256,192,132691,1,0,0:0:0:0:
256,192,132791,1,2,0:0:0:0:
256,192,132991,1,2,0:0:0:0:
256,192,133091,1,0,0:0:0:0:
256,192,133191,1,0,0:0:0:0:
256,192,133291,1,2,0:0:0:0:
256,192,133391,1,2,0:0:0:0:
256,192,133491,1,0,0:0:0:0:
256,192,133591,1,2,0:0:0:0:
256,192,133691,1,0,0:0:0:0:
256,192,133791,1,0,0:0:0:0:
256,192,133891,1,2,0:0:0:0:
256,192,133991,1,2,0:0:0:0:
256,192,134091,1,0,0:0:0:0:
256,192,134291,1,2,0:0:0:0:
256,192,134391,1,2,0:0:0:0:
256,192,134491,1,0,0:0:0:0:
256,192,134591,1,0,0:0:0:0:
256,192,134691,1,2,0:0:0:0:
256,192,134791,1,0,0:0:0:0:
256,192,134891,1,2,0:0:0:0:
256,192,134991,1,0,0:0:0:0:
256,192,135091,1,0,0:0:0:0:
256,192,135191,1,2,0:0:0:0:
256,192,135291,1,2,0:0:0:0:
256,192,135391,1,0,0:0:0:0:
256,192,135491,1,2,0:0:0:0:
256,192,135591,1,0,0:0:0:0:
256,192,135691,1,2,0:0:0:0:
256,192,135791,1,2,0:0:0:0:
256,192,136091,1,4,0:0:0:0:
256,192,136391,1,6,0:0:0:0:
256,192,136691,1,6,0:0:0:0:
256,192,137091,5,0,0:0:0:0:
256,192,137191,1,0,0:0:0:0:
256,192,137291,1,8,0:0:0:0:
256,192,137357,1,8,0:0:0:0:
256,192,137424,1,8,0:0:0:0:
256,192,137491,1,0,0:0:0:0:
256,192,137691,5,12,0:0:0:0:
256,192,137891,1,0,0:0:0:0:
256,192,138091,1,0,0:0:0:0:
256,192,138291,1,8,0:0:0:0:
256,192,138391,1,0,0:0:0:0:
256,192,138591,1,0,0:0:0:0:
256,192,138691,1,8,0:0:0:0:
256,192,138791,1,0,0:0:0:0:
256,192,138891,1,0,0:0:0:0:
256,192,139091,1,0,0:0:0:0:
256,192,139291,1,8,0:0:0:0:
256,192,139491,1,0,0:0:0:0:
256,192,139691,1,0,0:0:0:0:
256,192,139891,1,8,0:0:0:0:
256,192,139991,1,0,0:0:0:0:
256,192,140191,1,0,0:0:0:0:
256,192,140291,1,8,0:0:0:0:
256,192,140391,1,0,0:0:0:0:
256,192,140491,1,0,0:0:0:0:
256,192,140691,1,0,0:0:0:0:
256,192,140891,1,8,0:0:0:0:
256,192,141091,1,0,0:0:0:0:
256,192,141291,1,0,0:0:0:0:
256,192,141491,1,0,0:0:0:0:
256,192,141591,1,8,0:0:0:0:
256,192,141691,1,0,0:0:0:0:
256,192,141791,1,8,0:0:0:0:
256,192,141891,1,0,0:0:0:0:
256,192,142091,1,0,0:0:0:0:
256,192,142291,1,0,0:0:0:0:
256,192,142491,1,8,0:0:0:0:
256,192,142691,1,0,0:0:0:0:
256,192,142891,1,0,0:0:0:0:
256,192,143091,1,8,0:0:0:0:
256,192,143191,1,8,0:0:0:0:
256,192,143391,1,0,0:0:0:0:
256,192,143491,1,8,0:0:0:0:
256,192,143591,1,0,0:0:0:0:
256,192,143691,1,8,0:0:0:0:
389,195,144091,5,8,0:0:0:0:
300,176,144291,1,0,0:0:0:0:
379,191,144391,1,8,0:0:0:0:
379,191,144491,1,8,0:0:0:0:
268,202,144691,1,0,0:0:0:0:
220,177,144791,1,8,0:0:0:0:
324,194,144991,1,0,0:0:0:0:
207,226,145091,1,8,0:0:0:0:
207,226,145191,1,8,0:0:0:0:
207,226,145291,1,0,0:0:0:0:
349,191,145491,1,8,0:0:0:0:
389,195,145691,1,8,0:0:0:0:
300,176,145891,1,0,0:0:0:0:
379,191,145991,1,8,0:0:0:0:
379,191,146091,1,8,0:0:0:0:
220,177,146291,1,8,0:0:0:0:
268,202,146391,1,0,0:0:0:0:
207,226,146691,1,0,0:0:0:0:
207,226,146891,1,0,0:0:0:0:
349,191,147091,1,8,0:0:0:0:
389,195,147291,1,8,0:0:0:0:
300,176,147491,1,0,0:0:0:0:
379,191,147591,1,8,0:0:0:0:
379,191,147691,1,8,0:0:0:0:
268,202,147891,1,0,0:0:0:0:
220,177,147991,1,8,0:0:0:0:
324,194,148191,1,0,0:0:0:0:
207,226,148291,1,8,0:0:0:0:
207,226,148391,1,0,0:0:0:0:
207,226,148491,1,0,0:0:0:0:
349,191,148691,1,8,0:0:0:0:
385,213,148891,1,8,0:0:0:0:
250,206,149091,1,0,0:0:0:0:
250,206,149191,1,0,0:0:0:0:
343,215,149291,1,8,0:0:0:0:
322,203,149491,1,0,0:0:0:0:
328,211,149591,1,8,0:0:0:0:
275,180,149791,1,8,0:0:0:0:
239,213,149891,1,0,0:0:0:0:
215,85,150091,1,8,0:0:0:0:
256,192,150191,1,8,0:0:0:0:
388,194,150291,1,0,0:0:0:0:
255,192,150491,5,12,0:0:0:0:
256,192,150691,1,0,0:0:0:0:
255,192,150891,1,2,0:0:0:0:
266,197,151091,1,0,0:0:0:0:
266,200,151191,1,0,0:0:0:0:
266,200,151291,1,2,0:0:0:0:
266,202,151491,1,0,0:0:0:0:
266,202,151691,1,2,0:0:0:0:
266,203,151791,1,0,0:0:0:0:
266,205,151891,1,2,0:0:0:0:
270,210,151991,1,2,0:0:0:0:
266,207,152091,1,0,0:0:0:0:
266,207,152291,1,0,0:0:0:0:
265,207,152391,1,0,0:0:0:0:
266,207,152491,1,2,0:0:0:0:
268,212,152691,1,0,0:0:0:0:
266,205,152891,1,2,0:0:0:0:
274,207,153091,1,2,0:0:0:0:
274,207,153191,1,0,0:0:0:0:
274,207,153291,1,2,0:0:0:0:
272,218,153491,1,0,0:0:0:0:
262,219,153691,1,2,0:0:0:0:
263,221,153791,1,2,0:0:0:0:
263,230,153891,1,0,0:0:0:0:
256,214,154091,1,2,0:0:0:0:
256,214,154291,1,0,0:0:0:0:
256,214,154391,1,2,0:0:0:0:
256,214,154491,1,0,0:0:0:0:
256,215,154591,1,0,0:0:0:0:
256,215,154691,1,2,0:0:0:0:
256,214,154891,1,0,0:0:0:0:
256,214,155091,1,2,0:0:0:0:
256,214,155191,1,2,0:0:0:0:
256,233,155291,1,0,0:0:0:0:
263,230,155491,1,0,0:0:0:0:
266,207,155691,1,2,0:0:0:0:
254,201,155791,1,0,0:0:0:0:
256,208,155891,1,0,0:0:0:0:
266,207,155991,1,0,0:0:0:0:
263,230,156091,1,2,0:0:0:0:
266,207,156191,1,2,0:0:0:0:
266,207,156291,1,0,0:0:0:0:
267,212,156491,1,2,0:0:0:0:
267,212,156691,1,0,0:0:0:0:
256,192,156891,5,4,0:0:0:0:
256,192,157091,1,8,0:0:0:0:
256,192,157191,1,8,0:0:0:0:
256,192,157291,1,0,0:0:0:0:
256,192,157391,1,8,0:0:0:0:
256,192,157491,1,0,0:0:0:0:
256,192,157591,1,0,0:0:0:0:
256,192,157691,1,8,0:0:0:0:
256,192,157891,1,0,0:0:0:0:
256,192,157991,1,0,0:0:0:0:
256,192,158091,1,0,0:0:0:0:
256,192,158291,1,8,0:0:0:0:
256,192,158491,1,0,0:0:0:0:
256,192,158691,1,8,0:0:0:0:
256,192,158791,1,8,0:0:0:0:
256,192,158891,1,0,0:0:0:0:
256,192,158991,1,0,0:0:0:0:
256,192,159091,1,8,0:0:0:0:
256,192,159191,1,0,0:0:0:0:
256,192,159291,1,8,0:0:0:0:
256,192,159491,1,0,0:0:0:0:
256,192,159691,1,8,0:0:0:0:
256,192,159891,1,8,0:0:0:0:
256,192,159991,1,8,0:0:0:0:
256,192,160091,1,0,0:0:0:0:
256,192,160291,1,0,0:0:0:0:
256,192,160491,1,8,0:0:0:0:
256,192,160691,1,0,0:0:0:0:
256,192,160791,1,0,0:0:0:0:
256,192,160891,1,0,0:0:0:0:
256,192,160991,1,8,0:0:0:0:
256,192,161091,1,0,0:0:0:0:
256,192,161191,1,0,0:0:0:0:
256,192,161291,1,8,0:0:0:0:
256,192,161491,1,8,0:0:0:0:
256,192,161691,12,0,162291,0:0:0:0:
256,192,162491,5,8,0:0:0:0:
256,192,162591,1,8,0:0:0:0:
256,192,162691,1,8,0:0:0:0:
256,192,162891,1,0,0:0:0:0:
256,192,163091,1,8,0:0:0:0:
256,192,163157,1,8,0:0:0:0:
256,192,163224,1,8,0:0:0:0:
256,192,163291,1,0,0:0:0:0:
256,192,163491,1,8,0:0:0:0:
256,192,163591,1,0,0:0:0:0:
256,192,163691,1,8,0:0:0:0:
256,192,163891,1,0,0:0:0:0:
256,192,163991,1,8,0:0:0:0:
256,192,164191,1,8,0:0:0:0:
256,192,164291,1,0,0:0:0:0:
256,192,164391,1,0,0:0:0:0:
256,192,164491,1,8,0:0:0:0:
256,192,164691,1,0,0:0:0:0:
256,192,164791,1,8,0:0:0:0:
256,192,164891,1,0,0:0:0:0:
256,192,165091,1,8,0:0:0:0:
256,192,165191,1,0,0:0:0:0:
256,192,165291,1,8,0:0:0:0:
256,192,165491,1,0,0:0:0:0:
256,192,165591,1,8,0:0:0:0:
256,192,165791,1,8,0:0:0:0:
256,192,165891,1,8,0:0:0:0:
256,192,165991,1,0,0:0:0:0:
256,192,166091,1,8,0:0:0:0:
256,192,166291,1,0,0:0:0:0:
256,192,166391,1,8,0:0:0:0:
256,192,166491,1,0,0:0:0:0:
256,192,166691,1,8,0:0:0:0:
256,192,166791,1,0,0:0:0:0:
256,192,166891,1,8,0:0:0:0:
256,192,167091,1,0,0:0:0:0:
256,192,167191,1,8,0:0:0:0:
256,192,167391,1,8,0:0:0:0:
256,192,167491,1,0,0:0:0:0:
256,192,167691,1,8,0:0:0:0:
256,192,167891,1,8,0:0:0:0:
256,192,167991,1,8,0:0:0:0:
256,192,168091,1,0,0:0:0:0:
256,192,168291,1,8,0:0:0:0:
256,192,168391,1,0,0:0:0:0:
256,192,168491,1,8,0:0:0:0:
256,192,168691,1,0,0:0:0:0:
256,192,168791,1,8,0:0:0:0:
256,192,168991,1,8,0:0:0:0:
256,192,169091,1,0,0:0:0:0:
256,192,169191,1,0,0:0:0:0:
256,192,169291,1,8,0:0:0:0:
256,192,169491,1,0,0:0:0:0:
256,192,169591,1,8,0:0:0:0:
256,192,169691,5,8,0:0:0:0:
256,192,169791,1,0,0:0:0:0:
256,192,169891,1,8,0:0:0:0:
256,192,169991,1,8,0:0:0:0:
256,192,170091,1,0,0:0:0:0:
256,192,170291,1,8,0:0:0:0:
256,192,170391,1,0,0:0:0:0:
256,192,170591,1,0,0:0:0:0:
256,192,170691,1,8,0:0:0:0:
256,192,170891,1,8,0:0:0:0:
256,192,171091,1,8,0:0:0:0:
256,192,171191,1,0,0:0:0:0:
256,192,171291,1,8,0:0:0:0:
256,192,171491,1,0,0:0:0:0:
256,192,171591,1,0,0:0:0:0:
256,192,171691,1,8,0:0:0:0:
256,192,171891,1,0,0:0:0:0:
256,192,171991,1,8,0:0:0:0:
256,192,172191,1,8,0:0:0:0:
256,192,172291,1,0,0:0:0:0:
256,192,172491,1,8,0:0:0:0:
256,192,172691,1,8,0:0:0:0:
256,192,172791,1,8,0:0:0:0:
256,192,172891,1,0,0:0:0:0:
256,192,173091,1,0,0:0:0:0:
256,192,173191,1,0,0:0:0:0:
256,192,173291,1,8,0:0:0:0:
256,192,173491,1,0,0:0:0:0:
256,192,173591,1,8,0:0:0:0:
256,192,173791,1,8,0:0:0:0:
256,192,173891,1,0,0:0:0:0:
256,192,174091,1,8,0:0:0:0:
256,192,174191,1,0,0:0:0:0:
256,192,174291,1,8,0:0:0:0:
256,192,174391,1,8,0:0:0:0:
256,192,174491,1,4,0:0:0:0:
256,192,174791,1,4,0:0:0:0:
256,192,175091,1,4,0:0:0:0:
256,192,175491,1,0,0:0:0:0:
256,192,175591,1,0,0:0:0:0:
256,192,175691,1,8,0:0:0:0:
256,192,175757,1,8,0:0:0:0:
256,192,175824,1,8,0:0:0:0:
256,192,175891,1,0,0:0:0:0:
256,192,175991,1,0,0:0:0:0:
256,192,176091,5,12,0:0:0:0:
256,192,176291,1,0,0:0:0:0:
256,192,176491,1,8,0:0:0:0:
256,192,176591,1,8,0:0:0:0:
256,192,176691,1,0,0:0:0:0:
256,192,176791,1,8,0:0:0:0:
256,192,176991,1,0,0:0:0:0:
256,192,177091,1,8,0:0:0:0:
256,192,177291,1,8,0:0:0:0:
256,192,177491,1,0,0:0:0:0:
256,192,177591,1,0,0:0:0:0:
256,192,177691,1,8,0:0:0:0:
256,192,177891,1,0,0:0:0:0:
256,192,178091,1,8,0:0:0:0:
256,192,178291,1,0,0:0:0:0:
256,192,178391,1,0,0:0:0:0:
256,192,178591,1,8,0:0:0:0:
256,192,178691,1,0,0:0:0:0:
256,192,178791,1,0,0:0:0:0:
256,192,178891,1,8,0:0:0:0:
256,192,179291,1,0,0:0:0:0:
256,192,179491,1,8,0:0:0:0:
256,192,179591,1,0,0:0:0:0:
256,192,179691,1,8,0:0:0:0:
256,192,179891,1,0,0:0:0:0:
256,192,179991,1,0,0:0:0:0:
256,192,180091,1,8,0:0:0:0:
256,192,180291,1,0,0:0:0:0:
256,192,180391,1,8,0:0:0:0:
256,192,180491,1,8,0:0:0:0:
256,192,180691,1,8,0:0:0:0:
256,192,180891,1,8,0:0:0:0:
256,192,180991,1,0,0:0:0:0:
256,192,181091,1,0,0:0:0:0:
256,192,181191,1,0,0:0:0:0:
256,192,181291,1,8,0:0:0:0:
256,192,181491,1,0,0:0:0:0:
256,192,181591,1,8,0:0:0:0:
256,192,181691,1,8,0:0:0:0:
256,192,181791,1,0,0:0:0:0:
256,192,181891,1,8,0:0:0:0:
256,192,181991,1,0,0:0:0:0:
256,192,182091,1,8,0:0:0:0:
256,192,182191,1,8,0:0:0:0:
256,192,182291,1,0,0:0:0:0:
256,192,182391,1,8,0:0:0:0:
256,192,182491,5,0,0:0:0:0:
256,192,182691,1,8,0:0:0:0:
256,192,182791,1,0,0:0:0:0:
256,192,182891,1,8,0:0:0:0:
256,192,183091,1,0,0:0:0:0:
256,192,183191,1,0,0:0:0:0:
256,192,183391,1,8,0:0:0:0:
256,192,183491,1,0,0:0:0:0:
256,192,183691,1,8,0:0:0:0:
256,192,183891,1,0,0:0:0:0:
256,192,183991,1,0,0:0:0:0:
256,192,184091,1,8,0:0:0:0:
256,192,184291,1,0,0:0:0:0:
256,192,184491,1,8,0:0:0:0:
256,192,184691,1,0,0:0:0:0:
256,192,184791,1,8,0:0:0:0:
256,192,184991,1,8,0:0:0:0:
256,192,185091,1,0,0:0:0:0:
256,192,185291,1,8,0:0:0:0:
256,192,185491,1,0,0:0:0:0:
256,192,185691,1,8,0:0:0:0:
256,192,185791,1,8,0:0:0:0:
256,192,185891,1,0,0:0:0:0:
256,192,186091,1,8,0:0:0:0:
256,192,186291,1,0,0:0:0:0:
256,192,186391,1,8,0:0:0:0:
256,192,186491,1,8,0:0:0:0:
256,192,186591,1,0,0:0:0:0:
256,192,186791,1,8,0:0:0:0:
256,192,186991,1,8,0:0:0:0:
256,192,187091,1,0,0:0:0:0:
256,192,187291,1,8,0:0:0:0:
256,192,187391,1,0,0:0:0:0:
256,192,187491,1,8,0:0:0:0:
256,192,187591,1,8,0:0:0:0:
256,192,187691,1,0,0:0:0:0:
256,192,187891,1,8,0:0:0:0:
256,192,187991,1,0,0:0:0:0:
256,192,188091,1,8,0:0:0:0:
256,192,188191,1,8,0:0:0:0:
256,192,188291,1,0,0:0:0:0:
256,192,188391,1,0,0:0:0:0:
256,192,188491,1,8,0:0:0:0:
256,192,188691,1,8,0:0:0:0:
256,192,188891,5,0,0:0:0:0:
256,192,188991,1,0,0:0:0:0:
256,192,189091,1,8,0:0:0:0:
256,192,189191,1,0,0:0:0:0:
256,192,189291,1,0,0:0:0:0:
256,192,189391,1,8,0:0:0:0:
256,192,189491,1,0,0:0:0:0:
256,192,189591,1,0,0:0:0:0:
256,192,189691,1,8,0:0:0:0:
256,192,189791,1,8,0:0:0:0:
256,192,189891,1,0,0:0:0:0:
256,192,190091,1,8,0:0:0:0:
256,192,190291,1,0,0:0:0:0:
256,192,190491,1,8,0:0:0:0:
256,192,190691,1,0,0:0:0:0:
256,192,190791,1,0,0:0:0:0:
256,192,190891,1,8,0:0:0:0:
256,192,191091,1,0,0:0:0:0:
256,192,191191,1,8,0:0:0:0:
256,192,191291,1,8,0:0:0:0:
256,192,191491,1,8,0:0:0:0:
256,192,191691,1,8,0:0:0:0:
256,192,191791,1,0,0:0:0:0:
256,192,191891,1,8,0:0:0:0:
256,192,191991,1,8,0:0:0:0:
256,192,192091,1,0,0:0:0:0:
256,192,192291,1,0,0:0:0:0:
256,192,192491,1,8,0:0:0:0:
256,192,192691,1,0,0:0:0:0:
256,192,192791,1,8,0:0:0:0:
256,192,192891,1,0,0:0:0:0:
256,192,192991,1,8,0:0:0:0:
256,192,193091,1,0,0:0:0:0:
256,192,193191,1,0,0:0:0:0:
256,192,193291,1,8,0:0:0:0:
256,192,193491,1,0,0:0:0:0:
256,192,193591,1,0,0:0:0:0:
256,192,193691,1,8,0:0:0:0:
256,192,193891,1,8,0:0:0:0:
256,192,193991,1,0,0:0:0:0:
256,192,194091,1,8,0:0:0:0:
256,192,194291,1,0,0:0:0:0:
256,192,194491,1,8,0:0:0:0:
256,192,194591,1,0,0:0:0:0:
256,192,194691,1,8,0:0:0:0:
256,192,194791,1,8,0:0:0:0:
256,192,194891,1,0,0:0:0:0:
256,192,195091,1,8,0:0:0:0:
256,192,195291,5,12,0:0:0:0:
256,192,195591,1,8,0:0:0:0:
256,192,195691,1,0,0:0:0:0:
256,192,195891,1,8,0:0:0:0:
256,192,196091,1,0,0:0:0:0:
256,192,196291,1,8,0:0:0:0:
256,192,196391,1,0,0:0:0:0:
256,192,196491,1,8,0:0:0:0:
256,192,196691,1,0,0:0:0:0:
256,192,196891,1,0,0:0:0:0:
256,192,197091,1,8,0:0:0:0:
256,192,197191,1,8,0:0:0:0:
256,192,197291,1,0,0:0:0:0:
256,192,197491,1,8,0:0:0:0:
256,192,197691,1,0,0:0:0:0:
256,192,197791,1,8,0:0:0:0:
256,192,197891,1,8,0:0:0:0:
256,192,197991,1,0,0:0:0:0:
256,192,198091,1,8,0:0:0:0:
256,192,198291,1,8,0:0:0:0:
256,192,198491,1,0,0:0:0:0:
256,192,198691,1,0,0:0:0:0:
256,192,198791,1,0,0:0:0:0:
256,192,198891,1,8,0:0:0:0:
256,192,198991,1,8,0:0:0:0:
256,192,199091,1,0,0:0:0:0:
256,192,199191,1,0,0:0:0:0:
256,192,199291,1,8,0:0:0:0:
256,192,199391,1,0,0:0:0:0:
256,192,199491,1,8,0:0:0:0:
256,192,199591,1,8,0:0:0:0:
256,192,199691,1,0,0:0:0:0:
256,192,199791,1,8,0:0:0:0:
256,192,199891,1,0,0:0:0:0:
256,192,199991,1,0,0:0:0:0:
256,192,200091,1,8,0:0:0:0:
256,192,200491,1,8,0:0:0:0:
256,192,200891,1,8,0:0:0:0:
256,192,201091,1,0,0:0:0:0:
256,192,201157,1,0,0:0:0:0:
256,192,201224,1,0,0:0:0:0:
256,192,201291,1,8,0:0:0:0:
239,221,201691,5,4,0:0:0:0:
246,232,201891,1,0,0:0:0:0:
246,232,201991,1,0,0:0:0:0:
250,239,202091,1,8,0:0:0:0:
246,232,202291,1,0,0:0:0:0:
246,232,202391,1,0,0:0:0:0:
225,212,202591,1,0,0:0:0:0:
248,238,202691,1,0,0:0:0:0:
241,238,202891,1,8,0:0:0:0:
265,252,203091,1,0,0:0:0:0:
256,253,203291,1,0,0:0:0:0:
256,253,203491,1,0,0:0:0:0:
256,253,203591,1,0,0:0:0:0:
241,238,203691,1,8,0:0:0:0:
225,212,203791,1,0,0:0:0:0:
253,251,203891,1,0,0:0:0:0:
253,251,203991,1,0,0:0:0:0:
225,212,204191,1,0,0:0:0:0:
256,253,204291,1,0,0:0:0:0:
241,238,204491,1,8,0:0:0:0:
253,247,204691,1,0,0:0:0:0:
231,239,204891,1,0,0:0:0:0:
244,247,205091,1,0,0:0:0:0:
242,266,205191,1,0,0:0:0:0:
241,238,205291,1,8,0:0:0:0:
220,219,205391,1,8,0:0:0:0:
241,253,205491,1,0,0:0:0:0:
241,253,205591,1,0,0:0:0:0:
236,205,205791,1,0,0:0:0:0:
236,205,205891,1,0,0:0:0:0:
241,238,206091,1,8,0:0:0:0:
241,238,206291,1,8,0:0:0:0:
308,233,206391,1,8,0:0:0:0:
241,233,206491,1,0,0:0:0:0:
255,242,206591,1,8,0:0:0:0:
241,233,206691,1,0,0:0:0:0:
241,238,206891,1,8,0:0:0:0:
260,229,207091,1,0,0:0:0:0:
236,203,207191,1,0,0:0:0:0:
211,233,207291,1,8,0:0:0:0:
211,233,207391,1,0,0:0:0:0:
264,227,207491,1,8,0:0:0:0:
265,230,207591,1,8,0:0:0:0:
241,238,207691,1,8,0:0:0:0:
255,242,207891,1,0,0:0:0:0:
261,201,208091,5,8,0:0:0:0:
237,206,208291,1,0,0:0:0:0:
259,206,208491,1,8,0:0:0:0:
253,203,208691,1,0,0:0:0:0:
258,207,208791,1,8,0:0:0:0:
246,211,208891,1,8,0:0:0:0:
249,218,209091,1,0,0:0:0:0:
244,209,209291,1,8,0:0:0:0:
259,206,209491,1,0,0:0:0:0:
258,203,209591,1,0,0:0:0:0:
258,203,209691,1,8,0:0:0:0:
261,193,209891,1,8,0:0:0:0:
250,189,210091,1,0,0:0:0:0:
257,190,210291,1,8,0:0:0:0:
237,183,210391,1,0,0:0:0:0:
251,199,210491,1,8,0:0:0:0:
250,183,210691,1,8,0:0:0:0:
263,180,210891,1,0,0:0:0:0:
250,189,211091,1,0,0:0:0:0:
265,176,211291,1,8,0:0:0:0:
257,185,211391,1,8,0:0:0:0:
257,185,211491,1,8,0:0:0:0:
271,187,211691,1,8,0:0:0:0:
259,183,211891,1,0,0:0:0:0:
270,209,211991,1,0,0:0:0:0:
259,183,212091,1,8,0:0:0:0:
265,183,212291,1,0,0:0:0:0:
262,196,212491,1,8,0:0:0:0:
259,194,212591,1,8,0:0:0:0:
251,201,212691,1,0,0:0:0:0:
250,201,212791,1,0,0:0:0:0:
250,200,212891,1,8,0:0:0:0:
250,200,213091,1,0,0:0:0:0:
253,203,213291,1,8,0:0:0:0:
258,211,213491,1,8,0:0:0:0:
263,208,213691,1,0,0:0:0:0:
258,214,213891,1,8,0:0:0:0:
263,208,214091,1,0,0:0:0:0:
263,208,214191,1,0,0:0:0:0:
263,208,214291,1,0,0:0:0:0:
263,208,214391,1,0,0:0:0:0:
266,206,214491,5,12,0:0:0:0:
257,193,214891,1,0,0:0:0:0:
257,193,215091,1,8,0:0:0:0:
257,193,215191,1,8,0:0:0:0:
257,193,215291,1,0,0:0:0:0:
257,193,215491,1,8,0:0:0:0:
257,193,215691,1,0,0:0:0:0:
257,193,215891,1,0,0:0:0:0:
257,193,215991,1,0,0:0:0:0:
257,193,216091,1,8,0:0:0:0:
257,193,216291,1,0,0:0:0:0:
257,193,216491,1,8,0:0:0:0:
257,193,216691,1,8,0:0:0:0:
257,193,216791,1,8,0:0:0:0:
257,193,216891,1,0,0:0:0:0:
257,193,216991,1,0,0:0:0:0:
257,193,217091,1,8,0:0:0:0:
262,196,217291,1,0,0:0:0:0:
262,196,217491,1,8,0:0:0:0:
256,186,217591,1,8,0:0:0:0:
257,185,217691,1,8,0:0:0:0:
257,185,217791,1,8,0:0:0:0:
257,185,217891,1,0,0:0:0:0:
259,178,218091,1,8,0:0:0:0:
259,183,218291,1,0,0:0:0:0:
259,183,218391,1,8,0:0:0:0:
266,185,218591,1,8,0:0:0:0:
266,185,218691,1,0,0:0:0:0:
266,185,218791,1,0,0:0:0:0:
266,185,218891,1,8,0:0:0:0:
266,185,219091,1,8,0:0:0:0:
266,185,219291,1,0,0:0:0:0:
266,185,219491,1,0,0:0:0:0:
266,185,219591,1,0,0:0:0:0:
266,185,219691,1,8,0:0:0:0:
273,188,219891,1,0,0:0:0:0:
273,188,220091,1,8,0:0:0:0:
273,188,220191,1,8,0:0:0:0:
273,188,220291,1,0,0:0:0:0:
266,185,220491,1,8,0:0:0:0:
256,192,220691,1,8,0:0:0:0:
111,151,220891,5,4,0:0:0:0:
111,151,221091,1,0,0:0:0:0:
111,151,221191,1,0,0:0:0:0:
111,151,221291,1,8,0:0:0:0:
111,151,221491,1,8,0:0:0:0:
111,151,221691,1,0,0:0:0:0:
111,151,221891,1,8,0:0:0:0:
111,151,221991,1,8,0:0:0:0:
111,151,222091,1,0,0:0:0:0:
111,151,222291,1,8,0:0:0:0:
111,151,222491,1,0,0:0:0:0:
111,151,222691,1,0,0:0:0:0:
111,151,222791,1,8,0:0:0:0:
111,151,222891,1,0,0:0:0:0:
111,151,223091,1,8,0:0:0:0:
111,151,223291,1,0,0:0:0:0:
111,151,223491,1,8,0:0:0:0:
111,151,223591,1,8,0:0:0:0:
111,151,223691,1,0,0:0:0:0:
111,151,223791,1,0,0:0:0:0:
111,151,223891,1,8,0:0:0:0:
111,151,224091,1,0,0:0:0:0:
111,151,224291,1,0,0:0:0:0:
111,151,224391,1,8,0:0:0:0:
111,151,224491,1,0,0:0:0:0:
111,151,224691,1,8,0:0:0:0:
111,151,224891,1,0,0:0:0:0:
111,151,224991,1,0,0:0:0:0:
111,151,225091,1,8,0:0:0:0:
111,151,225191,1,8,0:0:0:0:
111,151,225291,1,0,0:0:0:0:
111,151,225491,1,8,0:0:0:0:
256,192,225691,12,0,226491,0:0:0:0:
391,152,226691,5,0,0:0:0:0:
391,152,226891,1,8,0:0:0:0:
391,152,227091,1,8,0:0:0:0:
256,192,227291,1,4,0:0:0:0:
256,192,227491,1,8,0:0:0:0:
256,192,227591,1,8,0:0:0:0:
256,192,227691,1,0,0:0:0:0:
256,192,227891,1,8,0:0:0:0:
256,192,227991,1,0,0:0:0:0:
256,192,228191,1,0,0:0:0:0:
256,192,228291,1,8,0:0:0:0:
256,192,228391,1,8,0:0:0:0:
256,192,228491,1,0,0:0:0:0:
256,192,228691,1,8,0:0:0:0:
256,192,228791,1,0,0:0:0:0:
256,192,228891,1,8,0:0:0:0:
256,192,229091,1,0,0:0:0:0:
256,192,229291,1,8,0:0:0:0:
256,192,229391,1,8,0:0:0:0:
256,192,229491,1,0,0:0:0:0:
256,192,229591,1,8,0:0:0:0:
256,192,229791,1,0,0:0:0:0:
256,192,229891,1,8,0:0:0:0:
256,192,229991,1,8,0:0:0:0:
256,192,230091,1,0,0:0:0:0:
256,192,230291,1,8,0:0:0:0:
256,192,230491,1,0,0:0:0:0:
256,192,230691,1,8,0:0:0:0:
256,192,230791,1,8,0:0:0:0:
256,192,230891,1,0,0:0:0:0:
256,192,231091,1,8,0:0:0:0:
256,192,231191,1,0,0:0:0:0:
256,192,231391,1,0,0:0:0:0:
256,192,231491,1,8,0:0:0:0:
256,192,231591,1,8,0:0:0:0:
256,192,231691,1,0,0:0:0:0:
256,192,231891,1,8,0:0:0:0:
256,192,232091,1,0,0:0:0:0:
256,192,232291,1,8,0:0:0:0:
256,192,232391,1,8,0:0:0:0:
256,192,232491,1,0,0:0:0:0:
256,192,232691,1,8,0:0:0:0:
256,192,232891,1,0,0:0:0:0:
256,192,232991,1,8,0:0:0:0:
256,192,233091,1,0,0:0:0:0:
256,192,233191,1,0,0:0:0:0:
256,192,233291,1,8,0:0:0:0:
256,192,233491,1,8,0:0:0:0:
256,192,233591,1,8,0:0:0:0:
256,192,233691,1,0,0:0:0:0:
256,192,233891,1,8,0:0:0:0:
256,192,234091,1,0,0:0:0:0:
256,192,234291,1,8,0:0:0:0:
256,192,234391,1,0,0:0:0:0:
256,192,234591,1,0,0:0:0:0:
256,192,234691,1,8,0:0:0:0:
256,192,234791,1,8,0:0:0:0:
256,192,234891,1,0,0:0:0:0:
256,192,235091,1,8,0:0:0:0:
256,192,235291,1,0,0:0:0:0:
256,192,235491,1,8,0:0:0:0:
256,192,235591,1,8,0:0:0:0:
256,192,235691,1,0,0:0:0:0:
256,192,235791,1,0,0:0:0:0:
256,192,235891,1,8,0:0:0:0:
256,192,235991,1,0,0:0:0:0:
256,192,236191,1,0,0:0:0:0:
256,192,236291,1,8,0:0:0:0:
256,192,236391,1,8,0:0:0:0:
256,192,236491,1,0,0:0:0:0:
256,192,236691,1,8,0:0:0:0:
256,192,236891,1,0,0:0:0:0:
256,192,237091,1,8,0:0:0:0:
256,192,237191,1,0,0:0:0:0:
256,192,237291,1,0,0:0:0:0:
256,192,237391,1,0,0:0:0:0:
256,192,237491,1,8,0:0:0:0:
256,192,237591,1,0,0:0:0:0:
256,192,237791,1,8,0:0:0:0:
256,192,237891,1,8,0:0:0:0:
256,192,237991,1,0,0:0:0:0:
256,192,238091,1,8,0:0:0:0:
256,192,238291,1,8,0:0:0:0:
256,192,238491,1,0,0:0:0:0:
256,192,238691,1,8,0:0:0:0:
256,192,238791,1,8,0:0:0:0:
256,192,238891,1,0,0:0:0:0:
256,192,239091,1,8,0:0:0:0:
256,192,239291,1,0,0:0:0:0:
256,192,239391,1,8,0:0:0:0:
256,192,239491,1,0,0:0:0:0:
256,192,239557,1,0,0:0:0:0:
256,192,239624,1,0,0:0:0:0:
256,192,239691,1,8,0:0:0:0:
256,192,239791,1,0,0:0:0:0:
256,192,239891,1,8,0:0:0:0:
256,192,239991,1,8,0:0:0:0:
256,192,240091,1,4,0:0:0:0:
256,192,240291,1,8,0:0:0:0:
256,192,240391,1,0,0:0:0:0:
256,192,240491,1,8,0:0:0:0:
256,192,240691,1,0,0:0:0:0:
256,192,240791,1,0,0:0:0:0:
256,192,240891,1,8,0:0:0:0:
256,192,241091,1,8,0:0:0:0:
256,192,241291,1,0,0:0:0:0:
256,192,241391,1,8,0:0:0:0:
256,192,241491,1,0,0:0:0:0:
256,192,241691,1,8,0:0:0:0:
256,192,241891,1,0,0:0:0:0:
256,192,241991,1,0,0:0:0:0:
256,192,242091,1,8,0:0:0:0:
256,192,242291,1,8,0:0:0:0:
256,192,242491,1,8,0:0:0:0:
256,192,242591,1,8,0:0:0:0:
256,192,242691,1,0,0:0:0:0:
256,192,242791,1,0,0:0:0:0:
256,192,242891,1,8,0:0:0:0:
256,192,243091,1,8,0:0:0:0:
256,192,243291,1,0,0:0:0:0:
256,192,243391,1,8,0:0:0:0:
256,192,243491,1,0,0:0:0:0:
256,192,243691,1,8,0:0:0:0:
256,192,243891,1,0,0:0:0:0:
256,192,243991,1,8,0:0:0:0:
256,192,244191,1,8,0:0:0:0:
256,192,244291,1,0,0:0:0:0:
256,192,244391,1,0,0:0:0:0:
256,192,244491,1,8,0:0:0:0:
256,192,244691,1,0,0:0:0:0:
256,192,244891,1,8,0:0:0:0:
256,192,245091,1,0,0:0:0:0:
256,192,245191,1,0,0:0:0:0:
256,192,245291,1,8,0:0:0:0:
256,192,245491,1,8,0:0:0:0:
256,192,245691,1,0,0:0:0:0:
256,192,245791,1,8,0:0:0:0:
256,192,245891,1,0,0:0:0:0:
256,192,245991,1,0,0:0:0:0:
256,192,246091,1,8,0:0:0:0:
256,192,246291,1,8,0:0:0:0:
256,192,246391,1,8,0:0:0:0:
256,192,246491,1,0,0:0:0:0:
256,192,246691,1,0,0:0:0:0:
256,192,246891,1,8,0:0:0:0:
256,192,247091,1,0,0:0:0:0:
256,192,247191,1,8,0:0:0:0:
256,192,247391,1,8,0:0:0:0:
256,192,247491,1,0,0:0:0:0:
256,192,247591,1,0,0:0:0:0:
256,192,247691,1,8,0:0:0:0:
256,192,247891,1,0,0:0:0:0:
256,192,248091,1,8,0:0:0:0:
256,192,248291,1,0,0:0:0:0:
256,192,248391,1,0,0:0:0:0:
256,192,248491,1,8,0:0:0:0:
256,192,248691,1,8,0:0:0:0:
256,192,248891,1,0,0:0:0:0:
256,192,248991,1,8,0:0:0:0:
256,192,249091,1,0,0:0:0:0:
256,192,249191,1,0,0:0:0:0:
256,192,249291,1,8,0:0:0:0:
256,192,249491,1,0,0:0:0:0:
256,192,249691,1,8,0:0:0:0:
256,192,249791,1,8,0:0:0:0:
256,192,249891,1,0,0:0:0:0:
256,192,250091,1,8,0:0:0:0:
256,192,250291,1,0,0:0:0:0:
256,192,250391,1,8,0:0:0:0:
256,192,250491,1,0,0:0:0:0:
256,192,250591,1,8,0:0:0:0:
256,192,250691,1,0,0:0:0:0:
256,192,250791,1,0,0:0:0:0:
256,192,250891,1,8,0:0:0:0:
256,192,251091,1,8,0:0:0:0:
256,192,251291,1,0,0:0:0:0:
256,192,251491,1,0,0:0:0:0:
256,192,251691,1,8,0:0:0:0:
256,192,251891,1,8,0:0:0:0:
256,192,252291,1,8,0:0:0:0:
256,192,252491,1,0,0:0:0:0:
256,192,252891,1,12,0:0:0:0:
256,192,253091,1,0,0:0:0:0:
256,192,253191,1,0,0:0:0:0:
256,192,253291,1,8,0:0:0:0:
256,192,253491,1,0,0:0:0:0:
256,192,253591,1,8,0:0:0:0:
256,192,253791,1,8,0:0:0:0:
256,192,253891,1,0,0:0:0:0:
256,192,253991,1,0,0:0:0:0:
256,192,254091,1,8,0:0:0:0:
256,192,254291,1,8,0:0:0:0:
256,192,254491,1,8,0:0:0:0:
256,192,254691,1,0,0:0:0:0:
256,192,254791,1,8,0:0:0:0:
256,192,254891,1,8,0:0:0:0:
256,192,254991,1,0,0:0:0:0:
256,192,255191,1,0,0:0:0:0:
256,192,255491,1,12,0:0:0:0:
256,192,255691,1,12,0:0:0:0:
