osu file format v14

[General]
AudioFilename: ochamekinou.mp3
AudioLeadIn: 0
PreviewTime: 226691
Countdown: 0
SampleSet: Normal
StackLeniency: 0.7
Mode: 1
LetterboxInBreaks: 0
WidescreenStoryboard: 1

[Editor]
DistanceSpacing: 0.4
BeatDivisor: 4
GridSize: 32
TimelineZoom: 2.6

[Metadata]
Title:Ochame Kinou
TitleUnicode:おちゃめ機能
Artist:Various Artists
ArtistUnicode:Various Artists
Creator:Jerry
Version:Oni
Source:
Tags:Japanese Pop j-pop jpop ホロライブ collab collaboration hololive idol project virtual vtuber バーチャルyoutuber cover カバー corp kijibato キジバト gojimajip ゴジマジP UTAU Kasane Teto 重音テト ラマーズP lamazep Mischievous Function 吹っ切れた Fukkireta chorus Charlotte Bathym- kitafuma Metzo Backfire Hivie radar 3san Peaceful ianpep Aloda tzechi Consified taiko_ryuki [zeth] neonat cdhsausageboy yassu- Vulkin Senritsu frz HiroK komasy Khoo Hao Yit ときのそら Tokino Sora ロボ子さん Roboco-san さくらみこ Sakura Miko 星街すいせい Hoshimachi Suisei Hoshimati 夜空メル Yozora Mel 夏色まつり Natsuiro Matsuri アキ・ローゼンタール Aki Rosenthal 大空スバル Oozora Subaru 癒月ちょこ Yuzuki Choco 紫咲シオン Murasaki Shion 百鬼あやめ Nakiri Ayame 湊あくあ Minato Aqua 大神ミオ Ookami Mio 猫又おかゆ Nekomata Okayu AZKi 兎田ぺこら Usada Pekora 潤羽るしあ Uruha Rushia 不知火フレア Shiranui Flare 白銀ノエル Shirogane Noel 宝鐘マリン Houshou Marine 角巻わため Tsunomaki Watame 常闇トワ Tokoyami Towa 天音かなた Amane Kanata 姫森ルーナ Himemori Luna 赤井はあと Akai Haato 谷郷元昭 Tanigo Motoaki YAGOO 戌神ころね Inugami Korone 桐生ココ Kiryu Coco 白上フブキ Shirakami Fubuki
BeatmapID:2399226
BeatmapSetID:1147932

[Difficulty]
HPDrainRate:5
CircleSize:5
OverallDifficulty:5.5
ApproachRate:5
SliderMultiplier:1.4
SliderTickRate:1

[Events]
//Background and Video events
0,0,"BG.jpg",0,0
//Break Periods
//Storyboard Layer 0 (Background)
//Storyboard Layer 1 (Fail)
//Storyboard Layer 2 (Pass)
//Storyboard Layer 3 (Foreground)
Sprite,Foreground,Centre,"SB\title.png",320,360 S,0,19297,,0.3 MX,1,19297,19997,1320,320 M,0,19997,25697,320,360 MX,2,25697,26697,320,-680
Sprite,Foreground,Centre,"SB\storyboardby.png",320,360 S,0,25697,,0.3 MX,1,25697,26697,1320,320 M,0,26697,29897,320,360 MX,2,28897,29897,320,-680
Sprite,Foreground,Centre,"SB\specialthanks.png",320,360 S,0,28897,,0.3 MX,1,28897,29897,1320,320 M,0,29897,32097,320,360 MX,1,31097,32097,320,-680
Sprite,Foreground,Centre,"SB\Birthdays\birthdaybox.png",320,410 S,0,31097,,0.2 MX,1,31097,32097,1420,420 MX,0,37497,38497,420,-580
Sprite,Foreground,Centre,"SB\Birthdays\birthdaybox.png",320,410 S,0,37497,,0.2 MX,1,37497,38497,1420,420 MX,0,43897,44897,420,-580
Sprite,Foreground,Centre,"SB\Birthdays\birthdaybox.png",320,410 S,0,43897,,0.2 MX,1,43897,44897,1420,420 MX,0,50297,51297,420,-580
Sprite,Foreground,Centre,"SB\Birthdays\birthdaybox.png",320,410 S,0,50297,,0.2 MX,1,50297,51297,1420,420 MX,0,56697,57697,420,-580
Sprite,Foreground,Centre,"SB\Birthdays\birthdaybox.png",320,410 S,0,56697,,0.2 MX,1,56697,57697,1420,420 MX,0,63097,64097,420,-580
Sprite,Foreground,Centre,"SB\Birthdays\birthdaybox.png",320,410 S,0,63097,,0.2 MX,1,63097,64097,1420,420 MX,0,69497,70497,420,-580
Sprite,Foreground,Centre,"SB\Birthdays\birthdaybox.png",320,410 S,0,69497,,0.2 MX,1,69497,70497,1420,420 MX,0,75897,76897,420,-580
Sprite,Foreground,Centre,"SB\Birthdays\birthdaybox.png",320,410 S,0,75897,,0.2 MX,1,75897,76897,1420,420 MX,0,82297,83297,420,-580
Sprite,Foreground,Centre,"SB\Birthdays\birthdaybox.png",320,410 S,0,82297,,0.2 MX,1,82297,83297,1420,420 MX,0,88697,89697,420,-580
Sprite,Foreground,Centre,"SB\Birthdays\birthdaybox.png",320,410 S,0,88697,,0.2 MX,1,88697,89697,1420,420 MX,0,98297,99297,420,-580
Sprite,Foreground,Centre,"SB\Birthdays\birthdaybox.png",320,410 S,0,98297,,0.2 MX,1,98297,99297,1420,420 MX,0,104697,105697,420,-580
Sprite,Foreground,Centre,"SB\Birthdays\birthdaybox.png",320,410 S,0,104697,,0.2 MX,1,104697,105697,1420,420 MX,0,111097,112097,420,-580
Sprite,Foreground,Centre,"SB\Birthdays\birthdaybox.png",320,410 S,0,111097,,0.2 MX,1,111097,112097,1420,420 MX,0,117497,118497,420,-580
Sprite,Foreground,Centre,"SB\Birthdays\birthdaybox.png",320,410 S,0,117497,,0.2 MX,1,117497,118497,1420,420 MX,0,123897,124897,420,-580
Sprite,Foreground,Centre,"SB\Birthdays\birthdaybox.png",320,410 S,0,123897,,0.2 MX,1,123897,124897,1420,420 MX,0,130297,131297,420,-580
Sprite,Foreground,Centre,"SB\Birthdays\birthdaybox.png",320,410 S,0,130297,,0.2 MX,1,130297,131297,1420,420 MX,0,136697,137697,420,-580
Sprite,Foreground,Centre,"SB\Birthdays\birthdaybox.png",320,410 S,0,136697,,0.2 MX,1,136697,137697,1420,420 MX,0,143097,144097,420,-580
Sprite,Foreground,Centre,"SB\Birthdays\birthdaybox.png",320,410 S,0,143097,,0.2 MX,1,143097,144097,1420,420 MX,0,149497,150497,420,-580
Sprite,Foreground,Centre,"SB\Birthdays\birthdaybox.png",320,410 S,0,149497,,0.2 MX,1,149497,150497,1420,420 MX,0,155897,156897,420,-580
Sprite,Foreground,Centre,"SB\Birthdays\birthdaybox.png",320,410 S,0,155897,,0.2 MX,1,155897,156897,1420,420 MX,0,162297,163297,420,-580
Sprite,Foreground,Centre,"SB\Birthdays\birthdaybox.png",320,410 S,0,162297,,0.2 MX,1,162297,163297,1420,420 MX,0,165497,166497,420,-580
Sprite,Foreground,Centre,"SB\Birthdays\birthdaybox.png",320,410 S,0,162297,,0.2 MX,1,165497,166497,1420,420 MX,0,168697,169697,420,-580
Sprite,Foreground,Centre,"SB\Birthdays\birthdaybox.png",320,410 S,0,162297,,0.2 MX,1,168697,169697,1420,420 MX,0,171897,172897,420,-580
Sprite,Foreground,Centre,"SB\Birthdays\birthdaybox.png",320,410 S,0,162297,,0.2 MX,1,171897,172897,1420,420 MX,0,175097,176097,420,-580
Sprite,Foreground,Centre,"SB\Birthdays\birthdaybox.png",320,410 S,0,162297,,0.2 MX,1,175097,176097,1420,420 MX,0,200697,201697,420,-580
Sprite,Foreground,Centre,"SB\Birthdays\birthdaybox.png",320,410 S,0,200697,,0.2 MX,1,200697,201697,1420,420 MX,0,207097,208097,420,-580
Sprite,Foreground,Centre,"SB\Birthdays\birthdaybox.png",320,410 S,0,207097,,0.2 MX,1,207097,208097,1420,420 MX,0,213497,214497,420,-580
Sprite,Foreground,Centre,"SB\Birthdays\birthdaybox.png",320,410 S,0,213497,,0.2 MX,1,213497,214497,1420,420 MX,0,219897,220897,420,-580
Sprite,Foreground,Centre,"SB\Birthdays\birthdaybox.png",320,410 S,0,219897,,0.2 MX,1,219897,220897,1420,420 MX,0,226297,227297,420,-580
Sprite,Foreground,Centre,"SB\Birthdays\roboco.png",320,410 S,0,31097,,0.2 MX,1,31097,32097,1420,420 MX,0,37497,38497,420,-580
Sprite,Foreground,Centre,"SB\Birthdays\shion.png",320,410 S,0,37497,,0.2 MX,1,37497,38497,1420,420 MX,0,43897,44897,420,-580
Sprite,Foreground,Centre,"SB\Birthdays\watame.png",320,410 S,0,43897,,0.2 MX,1,43897,44897,1420,420 MX,0,50297,51297,420,-580
Sprite,Foreground,Centre,"SB\Birthdays\mio.png",320,410 S,0,50297,,0.2 MX,1,50297,51297,1420,420 MX,0,56697,57697,420,-580
Sprite,Foreground,Centre,"SB\Birthdays\aki.png",320,410 S,0,56697,,0.2 MX,1,56697,57697,1420,420 MX,0,63097,64097,420,-580
Sprite,Foreground,Centre,"SB\Birthdays\okayu.png",320,410 S,0,63097,,0.2 MX,1,63097,64097,1420,420 MX,0,69497,70497,420,-580
Sprite,Foreground,Centre,"SB\Birthdays\aqua.png",320,410 S,0,69497,,0.2 MX,1,69497,70497,1420,420 MX,0,75897,76897,420,-580
Sprite,Foreground,Centre,"SB\Birthdays\matsuri.png",320,410 S,0,75897,,0.2 MX,1,75897,76897,1420,420 MX,0,82297,83297,420,-580
Sprite,Foreground,Centre,"SB\Birthdays\choco.png",320,410 S,0,82297,,0.2 MX,1,82297,83297,1420,420 MX,0,88697,89697,420,-580
Sprite,Foreground,Centre,"SB\Birthdays\mel.png",320,410 S,0,88697,,0.2 MX,1,88697,89697,1420,420 MX,0,98297,99297,420,-580
Sprite,Foreground,Centre,"SB\Birthdays\pekora.png",320,410 S,0,98297,,0.2 MX,1,98297,99297,1420,420 MX,0,104697,105697,420,-580
Sprite,Foreground,Centre,"SB\Birthdays\miko.png",320,410 S,0,104697,,0.2 MX,1,104697,105697,1420,420 MX,0,111097,112097,420,-580
Sprite,Foreground,Centre,"SB\Birthdays\towa.png",320,410 S,0,111097,,0.2 MX,1,111097,112097,1420,420 MX,0,117497,118497,420,-580
Sprite,Foreground,Centre,"SB\Birthdays\luna.png",320,410 S,0,117497,,0.2 MX,1,117497,118497,1420,420 MX,0,123897,124897,420,-580
Sprite,Foreground,Centre,"SB\Birthdays\rushia.png",320,410 S,0,123897,,0.2 MX,1,123897,124897,1420,420 MX,0,130297,131297,420,-580
Sprite,Foreground,Centre,"SB\Birthdays\marine.png",320,410 S,0,130297,,0.2 MX,1,130297,131297,1420,420 MX,0,136697,137697,420,-580
Sprite,Foreground,Centre,"SB\Birthdays\suisei.png",320,410 S,0,136697,,0.2 MX,1,136697,137697,1420,420 MX,0,143097,144097,420,-580
Sprite,Foreground,Centre,"SB\Birthdays\kanata.png",320,410 S,0,143097,,0.2 MX,1,143097,144097,1420,420 MX,0,149497,150497,420,-580
Sprite,Foreground,Centre,"SB\Birthdays\sora.png",320,410 S,0,149497,,0.2 MX,1,149497,150497,1420,420 MX,0,155897,156897,420,-580
Sprite,Foreground,Centre,"SB\Birthdays\azki.png",320,410 S,0,155897,,0.2 MX,1,155897,156897,1420,420 MX,0,162297,163297,420,-580
Sprite,Foreground,Centre,"SB\Birthdays\korone.png",320,410 S,0,162297,,0.2 MX,1,162297,163297,1420,420 MX,0,165497,166497,420,-580
Sprite,Foreground,Centre,"SB\Birthdays\haato.png",320,410 S,0,162297,,0.2 MX,1,165497,166497,1420,420 MX,0,168697,169697,420,-580
Sprite,Foreground,Centre,"SB\Birthdays\fubuki.png",320,410 S,0,162297,,0.2 MX,1,168697,169697,1420,420 MX,0,171897,172897,420,-580
Sprite,Foreground,Centre,"SB\Birthdays\coco.png",320,410 S,0,162297,,0.2 MX,1,171897,172897,1420,420 MX,0,175097,176097,420,-580
Sprite,Foreground,Centre,"SB\Birthdays\yagoo.png",320,410 S,0,162297,,0.2 MX,1,175097,176097,1420,420 MX,0,200697,201697,420,-580
Sprite,Foreground,Centre,"SB\Birthdays\subaru.png",320,410 S,0,200697,,0.2 MX,1,200697,201697,1420,420 MX,0,207097,208097,420,-580
Sprite,Foreground,Centre,"SB\Birthdays\ayame.png",320,410 S,0,207097,,0.2 MX,1,207097,208097,1420,420 MX,0,213497,214497,420,-580
Sprite,Foreground,Centre,"SB\Birthdays\flare.png",320,410 S,0,213497,,0.2 MX,1,213497,214497,1420,420 MX,0,219897,220897,420,-580
Sprite,Foreground,Centre,"SB\Birthdays\noel.png",320,410 S,0,219897,,0.2 MX,1,219897,220897,1420,420 MX,0,226297,227297,420,-580
//Storyboard Layer 4 (Overlay)
//Storyboard Sound Samples

[TimingPoints]
91,400,4,1,0,60,1,0
4791,-80,4,1,0,60,0,0
5091,-66.6666666666667,4,1,0,60,0,0
5391,-57.1428571428571,4,1,0,60,0,0
5591,-100,4,1,0,60,0,0
6491,-100,4,1,0,70,0,1
19291,-100,4,1,0,60,0,0
68791,-80,4,1,0,60,0,0
69091,-66.6666666666667,4,1,0,60,0,0
69391,-57.1428571428571,4,1,0,60,0,0
69591,-100,4,1,0,60,0,0
70491,-100,4,1,0,70,0,1
94091,-100,4,1,0,60,0,0
97791,-104.316512991057,4,1,0,60,0,0
97991,-109.022601475512,4,1,0,60,0,0
98191,-114.173237336475,4,1,0,60,0,0
98341,-116.935540452681,4,1,0,60,0,0
98591,-126.08702778832,4,1,0,60,0,0
98791,-133.027547344504,4,1,0,60,0,0
100791,-133.333333333333,4,1,0,60,0,0
100991,-128.026547584907,4,1,0,60,0,0
101141,-125.528474879242,4,1,0,60,0,0
101241,-123.126021945982,4,1,0,60,0,0
101391,-118.586824529447,4,1,0,60,0,0
101591,-114.370413746409,4,1,0,60,0,0
101791,-110.443541261707,4,1,0,60,0,0
101991,-106.777373447457,4,1,0,60,0,0
102141,-105.033962731849,4,1,0,60,0,0
102241,-103.346675389126,4,1,0,60,0,0
102341,-101.712740843056,4,1,0,60,0,0
102441,-100.129667919956,4,1,0,60,0,0
135991,-80,4,1,0,60,0,0
136291,-66.6666666666667,4,1,0,60,0,0
136591,-57.1428571428571,4,1,0,60,0,0
136791,-100,4,1,0,60,0,0
137691,-100,4,1,0,70,0,1
161491,-100,4,1,0,60,0,0
161691,-100,4,1,0,30,0,0
162491,-100,4,1,0,60,0,0
198591,-101.818167008267,4,1,0,60,0,0
198791,-103.703672976689,4,1,0,60,0,0
198991,-105.660329512304,4,1,0,60,0,0
199191,-107.692357396473,4,1,0,60,0,0
199341,-108.695652173913,4,1,0,60,0,0
199441,-109.803956016927,4,1,0,60,0,0
199541,-111.111111111111,4,1,0,60,0,0
199641,-112.000017920003,4,1,0,60,0,0
199791,-114.285714285714,4,1,0,60,0,0
199991,-116.666647222225,4,1,0,60,0,0
200391,-121.739066918748,4,1,0,60,0,0
200791,-127.272773553736,4,1,0,60,0,0
200991,-130.232582368853,4,1,0,60,0,0
201141,-131.76463147409,4,1,0,60,0,0
201241,-133.333333333333,4,1,0,60,0,0
201491,-100,4,1,0,60,0,0
201691,-100,4,1,0,70,0,1
223991,-98.159509202454,4,1,0,70,0,1
224191,-96.3855421686747,4,1,0,70,0,1
224241,-94.6745562130178,4,1,0,70,0,1
224341,-93.0232558139535,4,1,0,70,0,1
224441,-91.4285714285714,4,1,0,70,0,1
224591,-89.8876404494382,4,1,0,70,0,1
224641,-88.3977900552486,4,1,0,70,0,1
224791,-86.9565217391304,4,1,0,70,0,1
224841,-85.5614973262032,4,1,0,70,0,1
224941,-84.2105263157895,4,1,0,70,0,1
225041,-82.9015544041451,4,1,0,70,0,1
225141,-81.6326530612245,4,1,0,70,0,1
225241,-80.4020100502513,4,1,0,70,0,1
225391,-79.2079207920792,4,1,0,70,0,1
225441,-78.125,4,1,0,70,0,1
225491,-78.0487804878049,4,1,0,70,0,0
225591,-76.9230769230769,4,1,0,30,0,0
226691,-100,4,1,0,70,0,0
227291,-100,4,1,0,70,0,1
251291,-100,4,1,0,60,0,0
252191,-133.333333333333,4,1,0,60,0,0

[HitObjects]
256,192,91,5,12,0:0:0:0:
256,192,291,1,0,0:0:0:0:
256,192,491,1,8,0:0:0:0:
256,192,691,1,0,0:0:0:0:
256,192,791,1,8,0:0:0:0:
256,192,991,1,8,0:0:0:0:
256,192,1091,1,0,0:0:0:0:
256,192,1291,1,8,0:0:0:0:
256,192,1491,1,0,0:0:0:0:
256,192,1691,1,8,0:0:0:0:
256,192,1891,1,0,0:0:0:0:
256,192,2091,1,8,0:0:0:0:
256,192,2291,1,0,0:0:0:0:
256,192,2391,1,8,0:0:0:0:
256,192,2591,1,8,0:0:0:0:
256,192,2691,1,0,0:0:0:0:
256,192,2891,1,8,0:0:0:0:
256,192,3091,1,0,0:0:0:0:
256,192,3291,1,8,0:0:0:0:
256,192,3491,1,0,0:0:0:0:
256,192,3691,1,8,0:0:0:0:
256,192,3891,1,0,0:0:0:0:
256,192,3991,1,8,0:0:0:0:
256,192,4191,1,8,0:0:0:0:
256,192,4291,1,0,0:0:0:0:
256,192,4491,1,8,0:0:0:0:
256,192,4691,1,0,0:0:0:0:
256,192,4891,1,4,0:0:0:0:
256,192,5191,1,4,0:0:0:0:
256,192,5491,1,4,0:0:0:0:
256,192,6491,5,4,0:0:0:0:
256,192,6691,1,8,0:0:0:0:
256,192,6891,1,0,0:0:0:0:
256,192,7091,1,8,0:0:0:0:
256,192,7191,1,0,0:0:0:0:
256,192,7491,1,0,0:0:0:0:
256,192,7591,1,0,0:0:0:0:
256,192,7691,1,8,0:0:0:0:
256,192,7891,1,8,0:0:0:0:
256,192,8091,1,8,0:0:0:0:
256,192,8291,1,0,0:0:0:0:
256,192,8491,1,8,0:0:0:0:
256,192,8691,1,0,0:0:0:0:
256,192,8791,1,8,0:0:0:0:
256,192,9091,1,8,0:0:0:0:
256,192,9191,1,8,0:0:0:0:
256,192,9291,1,0,0:0:0:0:
256,192,9491,1,8,0:0:0:0:
256,192,9691,1,0,0:0:0:0:
256,192,9891,1,8,0:0:0:0:
256,192,10091,1,0,0:0:0:0:
256,192,10291,1,8,0:0:0:0:
256,192,10391,1,8,0:0:0:0:
256,192,10691,1,0,0:0:0:0:
256,192,10791,1,0,0:0:0:0:
256,192,10891,1,8,0:0:0:0:
256,192,11091,1,0,0:0:0:0:
256,192,11291,1,8,0:0:0:0:
256,192,11491,1,8,0:0:0:0:
256,192,11591,1,0,0:0:0:0:
256,192,11691,1,8,0:0:0:0:
256,192,11891,1,8,0:0:0:0:
256,192,12091,1,0,0:0:0:0:
256,192,12191,1,8,0:0:0:0:
256,192,12291,1,0,0:0:0:0:
256,192,12391,1,0,0:0:0:0:
256,192,12491,1,8,0:0:0:0:
256,192,12891,1,0,0:0:0:0:
256,192,13091,1,8,0:0:0:0:
256,192,13291,1,0,0:0:0:0:
256,192,13491,1,0,0:0:0:0:
256,192,13591,1,8,0:0:0:0:
256,192,13891,1,0,0:0:0:0:
256,192,13991,1,0,0:0:0:0:
256,192,14091,1,8,0:0:0:0:
256,192,14291,1,0,0:0:0:0:
256,192,14491,1,8,0:0:0:0:
256,192,14691,1,8,0:0:0:0:
256,192,14891,1,0,0:0:0:0:
256,192,15091,1,8,0:0:0:0:
256,192,15191,1,0,0:0:0:0:
256,192,15491,1,8,0:0:0:0:
256,192,15591,1,8,0:0:0:0:
256,192,15691,1,0,0:0:0:0:
256,192,15891,1,8,0:0:0:0:
256,192,16091,1,0,0:0:0:0:
256,192,16291,1,8,0:0:0:0:
256,192,16491,1,8,0:0:0:0:
256,192,16691,1,0,0:0:0:0:
256,192,16791,1,8,0:0:0:0:
256,192,17091,1,0,0:0:0:0:
256,192,17191,1,0,0:0:0:0:
256,192,17291,1,8,0:0:0:0:
256,192,17491,1,8,0:0:0:0:
256,192,17691,1,0,0:0:0:0:
256,192,17891,1,8,0:0:0:0:
256,192,17991,1,0,0:0:0:0:
256,192,18091,1,8,0:0:0:0:
256,192,18291,1,8,0:0:0:0:
256,192,18491,1,0,0:0:0:0:
256,192,18591,1,8,0:0:0:0:
256,192,18691,1,0,0:0:0:0:
256,192,18791,1,0,0:0:0:0:
256,192,18891,1,8,0:0:0:0:
256,192,19291,1,4,0:0:0:0:
256,192,19491,1,8,0:0:0:0:
256,192,19591,1,8,0:0:0:0:
256,192,19691,1,0,0:0:0:0:
256,192,19891,1,8,0:0:0:0:
256,192,20091,1,0,0:0:0:0:
256,192,20191,1,8,0:0:0:0:
256,192,20391,1,8,0:0:0:0:
256,192,20491,1,0,0:0:0:0:
256,192,20691,1,8,0:0:0:0:
256,192,20891,1,0,0:0:0:0:
256,192,21091,1,8,0:0:0:0:
256,192,21191,1,8,0:0:0:0:
256,192,21291,1,0,0:0:0:0:
256,192,21491,1,8,0:0:0:0:
256,192,21691,1,0,0:0:0:0:
256,192,21791,1,8,0:0:0:0:
256,192,21991,1,8,0:0:0:0:
256,192,22091,1,8,0:0:0:0:
256,192,22291,1,8,0:0:0:0:
256,192,22491,1,0,0:0:0:0:
256,192,22691,1,8,0:0:0:0:
256,192,22791,1,8,0:0:0:0:
256,192,22891,1,0,0:0:0:0:
256,192,23091,1,8,0:0:0:0:
256,192,23291,1,0,0:0:0:0:
256,192,23391,1,8,0:0:0:0:
256,192,23591,1,8,0:0:0:0:
256,192,23691,1,0,0:0:0:0:
256,192,23891,1,8,0:0:0:0:
256,192,24091,1,0,0:0:0:0:
256,192,24191,1,8,0:0:0:0:
256,192,24291,1,8,0:0:0:0:
256,192,24391,1,0,0:0:0:0:
256,192,24491,1,8,0:0:0:0:
256,192,24691,1,8,0:0:0:0:
256,192,24891,1,8,0:0:0:0:
256,192,24991,1,8,0:0:0:0:
256,192,25091,1,8,0:0:0:0:
256,192,25191,1,0,0:0:0:0:
256,192,25291,1,8,0:0:0:0:
256,192,25691,1,0,0:0:0:0:
256,192,25891,1,8,0:0:0:0:
256,192,25991,1,8,0:0:0:0:
256,192,26091,1,0,0:0:0:0:
256,192,26291,1,8,0:0:0:0:
256,192,26491,1,0,0:0:0:0:
256,192,26591,1,8,0:0:0:0:
256,192,26791,1,8,0:0:0:0:
256,192,26891,1,0,0:0:0:0:
256,192,27091,1,8,0:0:0:0:
256,192,27291,1,0,0:0:0:0:
256,192,27491,1,8,0:0:0:0:
256,192,27591,1,8,0:0:0:0:
256,192,27691,1,0,0:0:0:0:
256,192,27891,1,8,0:0:0:0:
256,192,28091,1,0,0:0:0:0:
256,192,28191,1,8,0:0:0:0:
256,192,28391,1,8,0:0:0:0:
256,192,28491,1,8,0:0:0:0:
256,192,28691,1,8,0:0:0:0:
256,192,28891,1,0,0:0:0:0:
256,192,29091,1,8,0:0:0:0:
256,192,29191,1,8,0:0:0:0:
256,192,29291,1,0,0:0:0:0:
256,192,29491,1,8,0:0:0:0:
256,192,29691,1,0,0:0:0:0:
256,192,29791,1,8,0:0:0:0:
256,192,29991,1,8,0:0:0:0:
256,192,30091,1,0,0:0:0:0:
256,192,30291,1,8,0:0:0:0:
256,192,30491,1,0,0:0:0:0:
256,192,30591,1,8,0:0:0:0:
256,192,30691,1,8,0:0:0:0:
256,192,30791,1,0,0:0:0:0:
256,192,30891,1,8,0:0:0:0:
256,192,31091,1,0,0:0:0:0:
256,192,31291,1,8,0:0:0:0:
256,192,31391,1,8,0:0:0:0:
256,192,31491,1,0,0:0:0:0:
256,192,31591,1,8,0:0:0:0:
256,192,31691,1,8,0:0:0:0:
256,192,32091,1,8,0:0:0:0:
256,192,32391,1,0,0:0:0:0:
256,192,32491,1,8,0:0:0:0:
256,192,32691,1,8,0:0:0:0:
256,192,32891,1,0,0:0:0:0:
256,192,32991,1,8,0:0:0:0:
256,192,33091,1,0,0:0:0:0:
256,192,33291,1,8,0:0:0:0:
256,192,33491,1,0,0:0:0:0:
256,192,33691,1,8,0:0:0:0:
256,192,33891,1,0,0:0:0:0:
256,192,33991,1,0,0:0:0:0:
256,192,34091,1,8,0:0:0:0:
256,192,34291,1,8,0:0:0:0:
256,192,34491,1,0,0:0:0:0:
256,192,34591,1,8,0:0:0:0:
256,192,34691,1,0,0:0:0:0:
256,192,34791,1,0,0:0:0:0:
256,192,34891,1,8,0:0:0:0:
256,192,35291,1,8,0:0:0:0:
256,192,35491,1,8,0:0:0:0:
256,192,35691,1,0,0:0:0:0:
256,192,35891,1,8,0:0:0:0:
256,192,35991,1,8,0:0:0:0:
256,192,36091,1,0,0:0:0:0:
256,192,36291,1,8,0:0:0:0:
256,192,36491,1,8,0:0:0:0:
256,192,36691,1,0,0:0:0:0:
256,192,36791,1,0,0:0:0:0:
256,192,36891,1,8,0:0:0:0:
256,192,37091,1,0,0:0:0:0:
256,192,37291,1,8,0:0:0:0:
256,192,37491,1,8,0:0:0:0:
256,192,37691,1,0,0:0:0:0:
256,192,37791,1,8,0:0:0:0:
256,192,37891,1,8,0:0:0:0:
256,192,37991,1,0,0:0:0:0:
256,192,38091,1,8,0:0:0:0:
256,192,38291,1,8,0:0:0:0:
256,192,38491,1,0,0:0:0:0:
256,192,38791,1,8,0:0:0:0:
256,192,38891,1,8,0:0:0:0:
256,192,39091,1,8,0:0:0:0:
256,192,39291,1,0,0:0:0:0:
256,192,39391,1,8,0:0:0:0:
256,192,39491,1,0,0:0:0:0:
256,192,39691,1,8,0:0:0:0:
256,192,39891,1,0,0:0:0:0:
256,192,40091,1,8,0:0:0:0:
256,192,40291,1,0,0:0:0:0:
256,192,40391,1,0,0:0:0:0:
256,192,40491,1,8,0:0:0:0:
256,192,40691,1,8,0:0:0:0:
256,192,40891,1,0,0:0:0:0:
256,192,40991,1,8,0:0:0:0:
256,192,41091,1,0,0:0:0:0:
256,192,41191,1,0,0:0:0:0:
256,192,41291,1,8,0:0:0:0:
256,192,41691,1,0,0:0:0:0:
256,192,41891,1,8,0:0:0:0:
256,192,42091,1,8,0:0:0:0:
256,192,42291,1,8,0:0:0:0:
256,192,42391,1,8,0:0:0:0:
256,192,42491,1,0,0:0:0:0:
256,192,42691,1,0,0:0:0:0:
256,192,42891,1,8,0:0:0:0:
256,192,43091,1,0,0:0:0:0:
256,192,43291,1,8,0:0:0:0:
256,192,43491,1,0,0:0:0:0:
256,192,43591,1,0,0:0:0:0:
256,192,43691,1,8,0:0:0:0:
256,192,43891,1,8,0:0:0:0:
256,192,44091,1,8,0:0:0:0:
256,192,44191,1,0,0:0:0:0:
256,192,44291,1,0,0:0:0:0:
256,192,44391,1,0,0:0:0:0:
256,192,44491,1,8,0:0:0:0:
256,192,44691,1,0,0:0:0:0:
256,192,44891,1,12,0:0:0:0:
256,192,45191,1,8,0:0:0:0:
256,192,45291,1,0,0:0:0:0:
256,192,45491,1,8,0:0:0:0:
256,192,45591,1,8,0:0:0:0:
256,192,45691,1,0,0:0:0:0:
256,192,45891,1,8,0:0:0:0:
256,192,46091,1,8,0:0:0:0:
256,192,46291,1,8,0:0:0:0:
256,192,46391,1,0,0:0:0:0:
256,192,46491,1,8,0:0:0:0:
256,192,46691,1,8,0:0:0:0:
256,192,46891,1,0,0:0:0:0:
256,192,47091,1,8,0:0:0:0:
256,192,47291,1,0,0:0:0:0:
256,192,47391,1,8,0:0:0:0:
256,192,47491,1,0,0:0:0:0:
256,192,47591,1,0,0:0:0:0:
256,192,47691,1,8,0:0:0:0:
256,192,48091,1,0,0:0:0:0:
256,192,48291,1,8,0:0:0:0:
256,192,48391,1,8,0:0:0:0:
256,192,48491,1,0,0:0:0:0:
256,192,48691,1,8,0:0:0:0:
256,192,48891,1,0,0:0:0:0:
256,192,48991,1,8,0:0:0:0:
256,192,49091,1,0,0:0:0:0:
256,192,49291,1,8,0:0:0:0:
256,192,49491,1,0,0:0:0:0:
256,192,49691,1,8,0:0:0:0:
256,192,49891,1,0,0:0:0:0:
256,192,49991,1,0,0:0:0:0:
256,192,50091,1,8,0:0:0:0:
256,192,50291,1,8,0:0:0:0:
256,192,50491,1,0,0:0:0:0:
256,192,50591,1,8,0:0:0:0:
256,192,50691,1,8,0:0:0:0:
256,192,50791,1,0,0:0:0:0:
256,192,50891,1,8,0:0:0:0:
256,192,51291,1,0,0:0:0:0:
256,192,51591,1,8,0:0:0:0:
256,192,51691,1,8,0:0:0:0:
256,192,51891,1,8,0:0:0:0:
256,192,52091,1,0,0:0:0:0:
256,192,52191,1,8,0:0:0:0:
256,192,52291,1,0,0:0:0:0:
256,192,52491,1,8,0:0:0:0:
256,192,52691,1,0,0:0:0:0:
256,192,52891,1,8,0:0:0:0:
256,192,53091,1,0,0:0:0:0:
256,192,53191,1,0,0:0:0:0:
256,192,53291,1,8,0:0:0:0:
256,192,53491,1,8,0:0:0:0:
256,192,53691,1,0,0:0:0:0:
256,192,53791,1,8,0:0:0:0:
256,192,53891,1,0,0:0:0:0:
256,192,53991,1,0,0:0:0:0:
256,192,54091,1,8,0:0:0:0:
256,192,54491,1,0,0:0:0:0:
256,192,54691,1,8,0:0:0:0:
256,192,54791,1,0,0:0:0:0:
256,192,54891,1,8,0:0:0:0:
256,192,55091,1,8,0:0:0:0:
256,192,55291,1,0,0:0:0:0:
256,192,55391,1,8,0:0:0:0:
256,192,55491,1,0,0:0:0:0:
256,192,55691,1,8,0:0:0:0:
256,192,55891,1,0,0:0:0:0:
256,192,56091,1,8,0:0:0:0:
256,192,56291,1,0,0:0:0:0:
256,192,56391,1,0,0:0:0:0:
256,192,56491,1,8,0:0:0:0:
256,192,56691,1,8,0:0:0:0:
256,192,56891,1,0,0:0:0:0:
256,192,56991,1,8,0:0:0:0:
256,192,57091,1,0,0:0:0:0:
256,192,57191,1,0,0:0:0:0:
256,192,57291,1,8,0:0:0:0:
256,192,57691,1,4,0:0:0:0:
256,192,57891,1,8,0:0:0:0:
256,192,58091,1,8,0:0:0:0:
256,192,58291,1,0,0:0:0:0:
256,192,58491,1,8,0:0:0:0:
256,192,58691,1,8,0:0:0:0:
256,192,58891,1,0,0:0:0:0:
256,192,59091,1,0,0:0:0:0:
256,192,59191,1,8,0:0:0:0:
256,192,59391,1,8,0:0:0:0:
256,192,59491,1,0,0:0:0:0:
256,192,59691,1,8,0:0:0:0:
256,192,59891,1,8,0:0:0:0:
256,192,60091,1,0,0:0:0:0:
256,192,60191,1,8,0:0:0:0:
256,192,60291,1,0,0:0:0:0:
256,192,60491,1,8,0:0:0:0:
256,192,60691,1,0,0:0:0:0:
256,192,60791,1,0,0:0:0:0:
256,192,60891,1,8,0:0:0:0:
256,192,61091,1,8,0:0:0:0:
256,192,61191,1,0,0:0:0:0:
256,192,61291,1,8,0:0:0:0:
256,192,61491,1,0,0:0:0:0:
256,192,61691,1,8,0:0:0:0:
256,192,61891,1,8,0:0:0:0:
256,192,62091,1,8,0:0:0:0:
256,192,62191,1,0,0:0:0:0:
256,192,62291,1,8,0:0:0:0:
256,192,62391,1,8,0:0:0:0:
256,192,62491,1,0,0:0:0:0:
256,192,62691,1,8,0:0:0:0:
256,192,62791,1,8,0:0:0:0:
256,192,62891,1,0,0:0:0:0:
256,192,62991,1,8,0:0:0:0:
256,192,63091,1,8,0:0:0:0:
256,192,63291,1,0,0:0:0:0:
256,192,63491,1,8,0:0:0:0:
256,192,63691,1,8,0:0:0:0:
256,192,64091,1,8,0:0:0:0:
256,192,64291,1,8,0:0:0:0:
256,192,64491,1,0,0:0:0:0:
256,192,64691,1,0,0:0:0:0:
256,192,64791,1,0,0:0:0:0:
256,192,64891,1,8,0:0:0:0:
256,192,65091,1,8,0:0:0:0:
256,192,65291,1,0,0:0:0:0:
256,192,65491,1,8,0:0:0:0:
256,192,65591,1,0,0:0:0:0:
256,192,65691,1,8,0:0:0:0:
256,192,65891,1,0,0:0:0:0:
256,192,66091,1,8,0:0:0:0:
256,192,66291,1,0,0:0:0:0:
256,192,66391,1,0,0:0:0:0:
256,192,66491,1,8,0:0:0:0:
256,192,66591,1,8,0:0:0:0:
256,192,66691,1,0,0:0:0:0:
256,192,66891,1,8,0:0:0:0:
256,192,67091,1,0,0:0:0:0:
256,192,67291,1,8,0:0:0:0:
256,192,67491,1,0,0:0:0:0:
256,192,67591,1,0,0:0:0:0:
256,192,67691,1,8,0:0:0:0:
256,192,67891,1,0,0:0:0:0:
256,192,67991,1,0,0:0:0:0:
256,192,68091,1,8,0:0:0:0:
256,192,68191,1,8,0:0:0:0:
256,192,68291,1,0,0:0:0:0:
256,192,68391,1,0,0:0:0:0:
256,192,68491,1,8,0:0:0:0:
256,192,68591,1,8,0:0:0:0:
256,192,68891,1,4,0:0:0:0:
256,192,69191,1,4,0:0:0:0:
256,192,69491,1,4,0:0:0:0:
256,192,70491,1,4,0:0:0:0:
256,192,70691,1,8,0:0:0:0:
256,192,70891,1,0,0:0:0:0:
256,192,71091,1,8,0:0:0:0:
256,192,71191,1,0,0:0:0:0:
256,192,71391,1,0,0:0:0:0:
256,192,71491,1,0,0:0:0:0:
256,192,71591,1,8,0:0:0:0:
256,192,71691,1,0,0:0:0:0:
256,192,71891,1,0,0:0:0:0:
256,192,72091,1,8,0:0:0:0:
256,192,72291,1,0,0:0:0:0:
256,192,72491,1,8,0:0:0:0:
256,192,72691,1,0,0:0:0:0:
256,192,72791,1,8,0:0:0:0:
256,192,72991,1,8,0:0:0:0:
256,192,73091,1,8,0:0:0:0:
256,192,73191,1,0,0:0:0:0:
256,192,73291,1,8,0:0:0:0:
256,192,73491,1,0,0:0:0:0:
256,192,73691,1,8,0:0:0:0:
256,192,73891,1,8,0:0:0:0:
256,192,74091,1,0,0:0:0:0:
256,192,74291,1,8,0:0:0:0:
256,192,74391,1,0,0:0:0:0:
256,192,74591,1,0,0:0:0:0:
256,192,74691,1,0,0:0:0:0:
256,192,74791,1,8,0:0:0:0:
256,192,74891,1,0,0:0:0:0:
256,192,75091,1,0,0:0:0:0:
256,192,75291,1,8,0:0:0:0:
256,192,75491,1,0,0:0:0:0:
256,192,75591,1,0,0:0:0:0:
256,192,75691,1,8,0:0:0:0:
256,192,75891,1,8,0:0:0:0:
256,192,76091,1,0,0:0:0:0:
256,192,76191,1,8,0:0:0:0:
256,192,76291,1,0,0:0:0:0:
256,192,76391,1,0,0:0:0:0:
256,192,76491,1,8,0:0:0:0:
256,192,76891,1,0,0:0:0:0:
256,192,77091,1,8,0:0:0:0:
256,192,77291,1,8,0:0:0:0:
256,192,77491,1,0,0:0:0:0:
256,192,77591,1,8,0:0:0:0:
256,192,77791,1,8,0:0:0:0:
256,192,77891,1,8,0:0:0:0:
256,192,77991,1,0,0:0:0:0:
256,192,78091,1,8,0:0:0:0:
256,192,78291,1,0,0:0:0:0:
256,192,78491,1,8,0:0:0:0:
256,192,78691,1,8,0:0:0:0:
256,192,78891,1,0,0:0:0:0:
256,192,79091,1,8,0:0:0:0:
256,192,79191,1,0,0:0:0:0:
256,192,79391,1,0,0:0:0:0:
256,192,79491,1,0,0:0:0:0:
256,192,79591,1,8,0:0:0:0:
256,192,79691,1,0,0:0:0:0:
256,192,79891,1,8,0:0:0:0:
256,192,80091,1,0,0:0:0:0:
256,192,80291,1,0,0:0:0:0:
256,192,80491,1,8,0:0:0:0:
256,192,80691,1,0,0:0:0:0:
256,192,80791,1,8,0:0:0:0:
256,192,80991,1,8,0:0:0:0:
256,192,81091,1,8,0:0:0:0:
256,192,81191,1,0,0:0:0:0:
256,192,81291,1,8,0:0:0:0:
256,192,81491,1,8,0:0:0:0:
256,192,81691,1,0,0:0:0:0:
256,192,81891,1,8,0:0:0:0:
256,192,81991,1,0,0:0:0:0:
256,192,82091,1,8,0:0:0:0:
256,192,82291,1,8,0:0:0:0:
256,192,82491,1,0,0:0:0:0:
256,192,82591,1,8,0:0:0:0:
256,192,82691,1,0,0:0:0:0:
256,192,82791,1,0,0:0:0:0:
256,192,82891,1,8,0:0:0:0:
256,192,83091,1,8,0:0:0:0:
256,192,83291,1,4,0:0:0:0:
256,192,83691,1,8,0:0:0:0:
256,192,83891,1,8,0:0:0:0:
256,192,83991,1,8,0:0:0:0:
256,192,84091,1,0,0:0:0:0:
256,192,84291,1,8,0:0:0:0:
256,192,84491,1,0,0:0:0:0:
256,192,84591,1,0,0:0:0:0:
256,192,84691,1,0,0:0:0:0:
256,192,84891,1,8,0:0:0:0:
256,192,85091,1,0,0:0:0:0:
256,192,85291,1,8,0:0:0:0:
256,192,85491,1,0,0:0:0:0:
256,192,85591,1,0,0:0:0:0:
256,192,85691,1,8,0:0:0:0:
256,192,85891,1,8,0:0:0:0:
256,192,86091,1,0,0:0:0:0:
256,192,86291,1,8,0:0:0:0:
256,192,86491,1,0,0:0:0:0:
256,192,86591,1,0,0:0:0:0:
256,192,86691,1,0,0:0:0:0:
256,192,86891,1,8,0:0:0:0:
256,192,87091,1,0,0:0:0:0:
256,192,87191,1,0,0:0:0:0:
256,192,87291,1,8,0:0:0:0:
256,192,87491,1,8,0:0:0:0:
256,192,87691,1,0,0:0:0:0:
256,192,87891,1,8,0:0:0:0:
256,192,87991,1,8,0:0:0:0:
256,192,88091,1,0,0:0:0:0:
256,192,88291,1,0,0:0:0:0:
256,192,88491,1,8,0:0:0:0:
256,192,88691,1,8,0:0:0:0:
256,192,88891,1,0,0:0:0:0:
256,192,88991,1,8,0:0:0:0:
256,192,89091,1,0,0:0:0:0:
256,192,89291,1,8,0:0:0:0:
256,192,89491,1,0,0:0:0:0:
256,192,89691,1,4,0:0:0:0:
256,192,90091,1,8,0:0:0:0:
256,192,90291,1,0,0:0:0:0:
256,192,90391,1,0,0:0:0:0:
256,192,90491,1,8,0:0:0:0:
256,192,90691,1,0,0:0:0:0:
256,192,90891,1,0,0:0:0:0:
256,192,91091,1,8,0:0:0:0:
256,192,91291,1,8,0:0:0:0:
256,192,91491,1,0,0:0:0:0:
256,192,91591,1,0,0:0:0:0:
256,192,91691,1,8,0:0:0:0:
256,192,91891,1,8,0:0:0:0:
256,192,92091,1,0,0:0:0:0:
256,192,92191,1,8,0:0:0:0:
256,192,92291,1,0,0:0:0:0:
256,192,92491,1,8,0:0:0:0:
256,192,92691,1,0,0:0:0:0:
256,192,92891,1,8,0:0:0:0:
256,192,93091,1,0,0:0:0:0:
256,192,93191,1,0,0:0:0:0:
256,192,93291,1,8,0:0:0:0:
256,192,93491,1,8,0:0:0:0:
256,192,93691,1,0,0:0:0:0:
256,192,93791,1,8,0:0:0:0:
256,192,93891,1,0,0:0:0:0:
256,192,93991,1,0,0:0:0:0:
256,192,94091,1,8,0:0:0:0:
256,192,94291,1,8,0:0:0:0:
256,192,94491,1,0,0:0:0:0:
256,192,94691,1,0,0:0:0:0:
256,192,94891,1,8,0:0:0:0:
256,192,95091,1,8,0:0:0:0:
256,192,95491,1,8,0:0:0:0:
256,192,95691,1,8,0:0:0:0:
256,192,96091,5,0,0:0:0:0:
256,192,96291,1,8,0:0:0:0:
256,192,96391,1,8,0:0:0:0:
256,192,96491,1,0,0:0:0:0:
256,192,96591,1,8,0:0:0:0:
256,192,96791,1,0,0:0:0:0:
256,192,96991,1,8,0:0:0:0:
256,192,97091,1,8,0:0:0:0:
256,192,97291,1,8,0:0:0:0:
256,192,97491,1,0,0:0:0:0:
256,192,97691,1,8,0:0:0:0:
256,192,97891,1,8,0:0:0:0:
256,192,98091,1,0,0:0:0:0:
256,192,98291,1,8,0:0:0:0:
256,192,98391,1,0,0:0:0:0:
256,192,98691,1,8,0:0:0:0:
256,192,98891,1,4,0:0:0:0:
256,192,99291,1,0,0:0:0:0:
256,192,99591,1,8,0:0:0:0:
256,192,99691,1,0,0:0:0:0:
256,192,99891,1,8,0:0:0:0:
256,192,100091,1,0,0:0:0:0:
256,192,100391,1,8,0:0:0:0:
256,192,100491,1,0,0:0:0:0:
256,192,100691,1,8,0:0:0:0:
256,192,100891,1,0,0:0:0:0:
256,192,101091,1,8,0:0:0:0:
256,192,101191,1,8,0:0:0:0:
256,192,101291,1,0,0:0:0:0:
256,192,101491,1,8,0:0:0:0:
256,192,101691,1,0,0:0:0:0:
256,192,101891,1,8,0:0:0:0:
256,192,102091,1,8,0:0:0:0:
256,192,102191,1,8,0:0:0:0:
256,192,102291,1,8,0:0:0:0:
256,192,102391,1,8,0:0:0:0:
256,192,102491,1,4,0:0:0:0:
256,192,102791,1,8,0:0:0:0:
256,192,102891,1,0,0:0:0:0:
256,192,103091,1,8,0:0:0:0:
256,192,103291,1,0,0:0:0:0:
256,192,103391,1,8,0:0:0:0:
256,192,103491,1,0,0:0:0:0:
256,192,103691,1,8,0:0:0:0:
256,192,103891,1,0,0:0:0:0:
256,192,104091,1,8,0:0:0:0:
256,192,104291,1,0,0:0:0:0:
256,192,104391,1,0,0:0:0:0:
256,192,104491,1,8,0:0:0:0:
256,192,104691,1,8,0:0:0:0:
256,192,104891,1,0,0:0:0:0:
256,192,105091,1,8,0:0:0:0:
256,192,105291,1,8,0:0:0:0:
256,192,105691,1,0,0:0:0:0:
256,192,105891,1,8,0:0:0:0:
256,192,105991,1,8,0:0:0:0:
256,192,106091,1,0,0:0:0:0:
256,192,106291,1,8,0:0:0:0:
256,192,106491,1,0,0:0:0:0:
256,192,106591,1,0,0:0:0:0:
256,192,106691,1,8,0:0:0:0:
256,192,106791,1,8,0:0:0:0:
256,192,106891,1,0,0:0:0:0:
256,192,107091,1,8,0:0:0:0:
256,192,107291,1,0,0:0:0:0:
256,192,107491,1,8,0:0:0:0:
256,192,107591,1,0,0:0:0:0:
256,192,107691,1,8,0:0:0:0:
256,192,107891,1,8,0:0:0:0:
256,192,108091,1,0,0:0:0:0:
256,192,108191,1,8,0:0:0:0:
256,192,108291,1,0,0:0:0:0:
256,192,108391,1,0,0:0:0:0:
256,192,108491,1,8,0:0:0:0:
256,192,108691,1,8,0:0:0:0:
256,192,108891,1,0,0:0:0:0:
256,192,109191,1,8,0:0:0:0:
256,192,109291,1,8,0:0:0:0:
256,192,109491,1,8,0:0:0:0:
256,192,109691,1,0,0:0:0:0:
256,192,109791,1,8,0:0:0:0:
256,192,109891,1,0,0:0:0:0:
256,192,110091,1,8,0:0:0:0:
256,192,110291,1,0,0:0:0:0:
256,192,110491,1,8,0:0:0:0:
256,192,110691,1,0,0:0:0:0:
256,192,110791,1,0,0:0:0:0:
256,192,110891,1,8,0:0:0:0:
256,192,111091,1,8,0:0:0:0:
256,192,111291,1,8,0:0:0:0:
256,192,111391,1,0,0:0:0:0:
256,192,111491,1,0,0:0:0:0:
256,192,111591,1,0,0:0:0:0:
256,192,111691,1,8,0:0:0:0:
256,192,112091,1,0,0:0:0:0:
256,192,112391,1,8,0:0:0:0:
256,192,112491,1,0,0:0:0:0:
256,192,112691,1,8,0:0:0:0:
256,192,112891,1,0,0:0:0:0:
256,192,113191,1,8,0:0:0:0:
256,192,113291,1,0,0:0:0:0:
256,192,113491,1,8,0:0:0:0:
256,192,113691,1,0,0:0:0:0:
256,192,113891,1,8,0:0:0:0:
256,192,113991,1,8,0:0:0:0:
256,192,114091,1,0,0:0:0:0:
256,192,114291,1,8,0:0:0:0:
256,192,114491,1,0,0:0:0:0:
256,192,114591,1,8,0:0:0:0:
256,192,114691,1,0,0:0:0:0:
256,192,114791,1,0,0:0:0:0:
256,192,114891,1,8,0:0:0:0:
256,192,115091,1,8,0:0:0:0:
256,192,115291,1,0,0:0:0:0:
256,192,115591,1,8,0:0:0:0:
256,192,115691,1,8,0:0:0:0:
256,192,115891,1,8,0:0:0:0:
256,192,116091,1,0,0:0:0:0:
256,192,116391,1,8,0:0:0:0:
256,192,116491,1,8,0:0:0:0:
256,192,116691,1,8,0:0:0:0:
256,192,116891,1,0,0:0:0:0:
256,192,117091,1,8,0:0:0:0:
256,192,117191,1,8,0:0:0:0:
256,192,117291,1,0,0:0:0:0:
256,192,117491,1,8,0:0:0:0:
256,192,117691,1,0,0:0:0:0:
256,192,117791,1,8,0:0:0:0:
256,192,117891,1,0,0:0:0:0:
256,192,117991,1,0,0:0:0:0:
256,192,118091,1,8,0:0:0:0:
256,192,118291,1,8,0:0:0:0:
256,192,118491,1,0,0:0:0:0:
256,192,118791,1,8,0:0:0:0:
256,192,118891,1,8,0:0:0:0:
256,192,119091,1,8,0:0:0:0:
256,192,119291,1,0,0:0:0:0:
256,192,119591,1,8,0:0:0:0:
256,192,119691,1,8,0:0:0:0:
256,192,119891,1,8,0:0:0:0:
256,192,120091,1,0,0:0:0:0:
256,192,120291,1,8,0:0:0:0:
256,192,120391,1,8,0:0:0:0:
256,192,120491,1,0,0:0:0:0:
256,192,120691,1,8,0:0:0:0:
256,192,120891,1,0,0:0:0:0:
256,192,120991,1,0,0:0:0:0:
256,192,121091,1,8,0:0:0:0:
256,192,121191,1,0,0:0:0:0:
256,192,121291,1,8,0:0:0:0:
256,192,121691,1,0,0:0:0:0:
256,192,121991,1,8,0:0:0:0:
256,192,122091,1,8,0:0:0:0:
256,192,122291,1,8,0:0:0:0:
256,192,122491,1,0,0:0:0:0:
256,192,122791,1,8,0:0:0:0:
256,192,122891,1,8,0:0:0:0:
256,192,123091,1,8,0:0:0:0:
256,192,123291,1,0,0:0:0:0:
256,192,123391,1,8,0:0:0:0:
256,192,123491,1,0,0:0:0:0:
256,192,123591,1,0,0:0:0:0:
256,192,123691,1,8,0:0:0:0:
256,192,123891,1,8,0:0:0:0:
256,192,124091,1,0,0:0:0:0:
256,192,124291,1,0,0:0:0:0:
256,192,124391,1,0,0:0:0:0:
256,192,124491,1,8,0:0:0:0:
256,192,124691,1,8,0:0:0:0:
256,192,124891,1,4,0:0:0:0:
256,192,125091,1,8,0:0:0:0:
256,192,125191,1,0,0:0:0:0:
256,192,125291,1,8,0:0:0:0:
256,192,125491,1,8,0:0:0:0:
256,192,125691,1,0,0:0:0:0:
256,192,125791,1,0,0:0:0:0:
256,192,125891,1,8,0:0:0:0:
256,192,125991,1,8,0:0:0:0:
256,192,126091,1,0,0:0:0:0:
256,192,126291,1,8,0:0:0:0:
256,192,126491,1,0,0:0:0:0:
256,192,126691,1,8,0:0:0:0:
256,192,126791,1,8,0:0:0:0:
256,192,126891,1,0,0:0:0:0:
256,192,127091,1,8,0:0:0:0:
256,192,127291,1,0,0:0:0:0:
256,192,127391,1,8,0:0:0:0:
256,192,127491,1,8,0:0:0:0:
256,192,127591,1,0,0:0:0:0:
256,192,127691,1,8,0:0:0:0:
256,192,127891,1,8,0:0:0:0:
256,192,128091,1,0,0:0:0:0:
256,192,128291,1,8,0:0:0:0:
256,192,128391,1,8,0:0:0:0:
256,192,128491,1,8,0:0:0:0:
256,192,128691,1,8,0:0:0:0:
256,192,128891,1,0,0:0:0:0:
256,192,129091,1,8,0:0:0:0:
256,192,129291,1,8,0:0:0:0:
256,192,129491,1,0,0:0:0:0:
256,192,129691,1,8,0:0:0:0:
256,192,129891,1,0,0:0:0:0:
256,192,130091,1,8,0:0:0:0:
256,192,130191,1,8,0:0:0:0:
256,192,130291,1,0,0:0:0:0:
256,192,130391,1,0,0:0:0:0:
256,192,130491,1,8,0:0:0:0:
256,192,130691,1,8,0:0:0:0:
256,192,130791,1,0,0:0:0:0:
256,192,130891,1,8,0:0:0:0:
256,192,131091,1,8,0:0:0:0:
256,192,131291,1,0,0:0:0:0:
256,192,131691,1,8,0:0:0:0:
256,192,131891,1,0,0:0:0:0:
256,192,131991,1,8,0:0:0:0:
256,192,132091,1,0,0:0:0:0:
256,192,132291,1,8,0:0:0:0:
256,192,132391,1,0,0:0:0:0:
256,192,132491,1,8,0:0:0:0:
256,192,132691,1,0,0:0:0:0:
256,192,132791,1,8,0:0:0:0:
256,192,132991,1,8,0:0:0:0:
256,192,133091,1,0,0:0:0:0:
256,192,133191,1,0,0:0:0:0:
256,192,133291,1,8,0:0:0:0:
256,192,133491,1,8,0:0:0:0:
256,192,133691,1,0,0:0:0:0:
256,192,133791,1,8,0:0:0:0:
256,192,133891,1,8,0:0:0:0:
256,192,133991,1,0,0:0:0:0:
256,192,134091,1,8,0:0:0:0:
256,192,134291,1,8,0:0:0:0:
256,192,134491,1,0,0:0:0:0:
256,192,134591,1,0,0:0:0:0:
256,192,134691,1,8,0:0:0:0:
256,192,134891,1,8,0:0:0:0:
256,192,135091,1,0,0:0:0:0:
256,192,135191,1,8,0:0:0:0:
256,192,135391,1,8,0:0:0:0:
256,192,135491,1,0,0:0:0:0:
256,192,135591,1,0,0:0:0:0:
256,192,135691,1,8,0:0:0:0:
256,192,135791,1,0,0:0:0:0:
256,192,136091,1,4,0:0:0:0:
256,192,136391,1,12,0:0:0:0:
256,192,136691,1,12,0:0:0:0:
256,192,137691,1,4,0:0:0:0:
256,192,137891,1,8,0:0:0:0:
256,192,138091,1,0,0:0:0:0:
256,192,138291,1,8,0:0:0:0:
256,192,138391,1,0,0:0:0:0:
256,192,138691,1,0,0:0:0:0:
256,192,138891,1,0,0:0:0:0:
256,192,139091,1,8,0:0:0:0:
256,192,139291,1,8,0:0:0:0:
256,192,139491,1,0,0:0:0:0:
256,192,139691,1,8,0:0:0:0:
256,192,139891,1,0,0:0:0:0:
256,192,139991,1,8,0:0:0:0:
256,192,140291,1,0,0:0:0:0:
256,192,140491,1,0,0:0:0:0:
256,192,140691,1,8,0:0:0:0:
256,192,140891,1,8,0:0:0:0:
256,192,141091,1,0,0:0:0:0:
256,192,141191,1,0,0:0:0:0:
256,192,141291,1,8,0:0:0:0:
256,192,141491,1,8,0:0:0:0:
256,192,141591,1,0,0:0:0:0:
256,192,141891,1,8,0:0:0:0:
256,192,141991,1,0,0:0:0:0:
256,192,142091,1,8,0:0:0:0:
256,192,142291,1,8,0:0:0:0:
256,192,142491,1,0,0:0:0:0:
256,192,142691,1,8,0:0:0:0:
256,192,142791,1,8,0:0:0:0:
256,192,142891,1,0,0:0:0:0:
256,192,143091,1,8,0:0:0:0:
256,192,143291,1,0,0:0:0:0:
256,192,143391,1,8,0:0:0:0:
256,192,143491,1,0,0:0:0:0:
256,192,143591,1,0,0:0:0:0:
256,192,143691,1,8,0:0:0:0:
256,192,144091,1,0,0:0:0:0:
256,192,144291,1,8,0:0:0:0:
256,192,144391,1,0,0:0:0:0:
256,192,144491,1,8,0:0:0:0:
256,192,144691,1,8,0:0:0:0:
256,192,144791,1,0,0:0:0:0:
256,192,145091,1,0,0:0:0:0:
256,192,145191,1,0,0:0:0:0:
256,192,145291,1,8,0:0:0:0:
256,192,145491,1,8,0:0:0:0:
256,192,145691,1,0,0:0:0:0:
256,192,145891,1,8,0:0:0:0:
256,192,145991,1,8,0:0:0:0:
256,192,146091,1,0,0:0:0:0:
256,192,146291,1,0,0:0:0:0:
256,192,146391,1,8,0:0:0:0:
256,192,146691,1,8,0:0:0:0:
256,192,146791,1,8,0:0:0:0:
256,192,146891,1,0,0:0:0:0:
256,192,147091,1,8,0:0:0:0:
256,192,147291,1,0,0:0:0:0:
256,192,147491,1,0,0:0:0:0:
256,192,147591,1,0,0:0:0:0:
256,192,147691,1,8,0:0:0:0:
256,192,147891,1,8,0:0:0:0:
256,192,147991,1,0,0:0:0:0:
256,192,148291,1,8,0:0:0:0:
256,192,148391,1,0,0:0:0:0:
256,192,148491,1,8,0:0:0:0:
256,192,148691,1,8,0:0:0:0:
256,192,148891,1,0,0:0:0:0:
256,192,149091,1,0,0:0:0:0:
256,192,149191,1,0,0:0:0:0:
256,192,149291,1,8,0:0:0:0:
256,192,149491,1,8,0:0:0:0:
256,192,149691,1,0,0:0:0:0:
256,192,149791,1,8,0:0:0:0:
256,192,149891,1,8,0:0:0:0:
256,192,149991,1,0,0:0:0:0:
256,192,150091,1,8,0:0:0:0:
256,192,150291,1,8,0:0:0:0:
256,192,150491,1,4,0:0:0:0:
256,192,150891,1,8,0:0:0:0:
256,192,151091,1,8,0:0:0:0:
256,192,151191,1,8,0:0:0:0:
256,192,151291,1,0,0:0:0:0:
256,192,151491,1,8,0:0:0:0:
256,192,151691,1,0,0:0:0:0:
256,192,151791,1,8,0:0:0:0:
256,192,151891,1,0,0:0:0:0:
256,192,152091,1,8,0:0:0:0:
256,192,152291,1,0,0:0:0:0:
256,192,152391,1,0,0:0:0:0:
256,192,152491,1,8,0:0:0:0:
256,192,152691,1,8,0:0:0:0:
256,192,152891,1,0,0:0:0:0:
256,192,153091,1,0,0:0:0:0:
256,192,153291,1,8,0:0:0:0:
256,192,153491,1,8,0:0:0:0:
256,192,153691,1,0,0:0:0:0:
256,192,153891,1,8,0:0:0:0:
256,192,153991,1,8,0:0:0:0:
256,192,154091,1,0,0:0:0:0:
256,192,154291,1,8,0:0:0:0:
256,192,154491,1,0,0:0:0:0:
256,192,154691,1,8,0:0:0:0:
256,192,154891,1,8,0:0:0:0:
256,192,155091,1,0,0:0:0:0:
256,192,155291,1,8,0:0:0:0:
256,192,155491,1,0,0:0:0:0:
256,192,155591,1,0,0:0:0:0:
256,192,155691,1,8,0:0:0:0:
256,192,155891,1,8,0:0:0:0:
256,192,156091,1,0,0:0:0:0:
256,192,156191,1,0,0:0:0:0:
256,192,156291,1,8,0:0:0:0:
256,192,156491,1,8,0:0:0:0:
256,192,156691,1,0,0:0:0:0:
256,192,156891,1,4,0:0:0:0:
256,192,157291,1,8,0:0:0:0:
256,192,157491,1,8,0:0:0:0:
256,192,157591,1,8,0:0:0:0:
256,192,157691,1,0,0:0:0:0:
256,192,157891,1,8,0:0:0:0:
256,192,158091,1,8,0:0:0:0:
256,192,158291,1,0,0:0:0:0:
256,192,158491,1,8,0:0:0:0:
256,192,158691,1,0,0:0:0:0:
256,192,158791,1,0,0:0:0:0:
256,192,158891,1,8,0:0:0:0:
256,192,159091,1,8,0:0:0:0:
256,192,159291,1,0,0:0:0:0:
256,192,159391,1,8,0:0:0:0:
256,192,159491,1,0,0:0:0:0:
256,192,159691,1,8,0:0:0:0:
256,192,159891,1,0,0:0:0:0:
256,192,160091,1,8,0:0:0:0:
256,192,160291,1,0,0:0:0:0:
256,192,160391,1,0,0:0:0:0:
256,192,160491,1,8,0:0:0:0:
256,192,160691,1,8,0:0:0:0:
256,192,160891,1,8,0:0:0:0:
256,192,161091,1,0,0:0:0:0:
256,192,161291,1,8,0:0:0:0:
256,192,161491,1,8,0:0:0:0:
256,192,161691,12,0,162491,0:0:0:0:
256,192,163291,5,0,0:0:0:0:
256,192,163491,1,0,0:0:0:0:
256,192,163591,1,0,0:0:0:0:
256,192,163691,1,8,0:0:0:0:
256,192,163891,1,8,0:0:0:0:
256,192,163991,1,0,0:0:0:0:
256,192,164191,1,0,0:0:0:0:
256,192,164291,1,8,0:0:0:0:
256,192,164491,1,0,0:0:0:0:
256,192,164691,1,8,0:0:0:0:
256,192,164891,1,0,0:0:0:0:
256,192,165091,1,0,0:0:0:0:
256,192,165191,1,0,0:0:0:0:
256,192,165291,1,8,0:0:0:0:
256,192,165491,1,8,0:0:0:0:
256,192,165591,1,0,0:0:0:0:
256,192,165791,1,8,0:0:0:0:
256,192,165891,1,0,0:0:0:0:
256,192,165991,1,0,0:0:0:0:
256,192,166091,1,8,0:0:0:0:
256,192,166491,5,0,0:0:0:0:
256,192,166691,1,0,0:0:0:0:
256,192,166791,1,0,0:0:0:0:
256,192,166891,1,8,0:0:0:0:
256,192,167091,1,8,0:0:0:0:
256,192,167191,1,0,0:0:0:0:
256,192,167391,1,8,0:0:0:0:
256,192,167491,1,8,0:0:0:0:
256,192,167691,1,8,0:0:0:0:
256,192,167891,1,0,0:0:0:0:
256,192,168091,1,0,0:0:0:0:
256,192,168291,1,0,0:0:0:0:
256,192,168391,1,0,0:0:0:0:
256,192,168491,1,8,0:0:0:0:
256,192,168691,1,8,0:0:0:0:
256,192,168791,1,0,0:0:0:0:
256,192,168991,1,8,0:0:0:0:
256,192,169091,1,8,0:0:0:0:
256,192,169191,1,0,0:0:0:0:
256,192,169291,1,8,0:0:0:0:
256,192,169691,5,0,0:0:0:0:
256,192,169891,1,8,0:0:0:0:
256,192,169991,1,0,0:0:0:0:
256,192,170091,1,8,0:0:0:0:
256,192,170291,1,8,0:0:0:0:
256,192,170391,1,0,0:0:0:0:
256,192,170591,1,0,0:0:0:0:
256,192,170691,1,8,0:0:0:0:
256,192,170891,1,8,0:0:0:0:
256,192,171091,1,0,0:0:0:0:
256,192,171291,1,0,0:0:0:0:
256,192,171491,1,8,0:0:0:0:
256,192,171591,1,0,0:0:0:0:
256,192,171691,1,8,0:0:0:0:
256,192,171891,1,8,0:0:0:0:
256,192,171991,1,0,0:0:0:0:
256,192,172191,1,8,0:0:0:0:
256,192,172291,1,8,0:0:0:0:
256,192,172391,1,0,0:0:0:0:
256,192,172491,1,8,0:0:0:0:
256,192,172891,1,0,0:0:0:0:
256,192,173091,1,8,0:0:0:0:
256,192,173191,1,0,0:0:0:0:
256,192,173291,1,8,0:0:0:0:
256,192,173491,1,8,0:0:0:0:
256,192,173591,1,0,0:0:0:0:
256,192,173791,1,8,0:0:0:0:
256,192,173891,1,0,0:0:0:0:
256,192,173991,1,0,0:0:0:0:
256,192,174091,1,8,0:0:0:0:
256,192,174291,1,8,0:0:0:0:
256,192,174491,1,4,0:0:0:0:
256,192,174791,1,4,0:0:0:0:
256,192,175091,1,4,0:0:0:0:
256,192,176091,1,4,0:0:0:0:
256,192,176291,1,0,0:0:0:0:
256,192,176491,1,8,0:0:0:0:
256,192,176691,1,0,0:0:0:0:
256,192,176791,1,0,0:0:0:0:
256,192,176991,1,8,0:0:0:0:
256,192,177091,1,0,0:0:0:0:
256,192,177291,1,8,0:0:0:0:
256,192,177491,1,0,0:0:0:0:
256,192,177591,1,0,0:0:0:0:
256,192,177691,1,8,0:0:0:0:
256,192,177891,1,0,0:0:0:0:
256,192,178091,1,8,0:0:0:0:
256,192,178291,1,0,0:0:0:0:
256,192,178391,1,8,0:0:0:0:
256,192,178591,1,8,0:0:0:0:
256,192,178691,1,0,0:0:0:0:
256,192,178891,1,8,0:0:0:0:
256,192,179091,1,0,0:0:0:0:
256,192,179291,1,8,0:0:0:0:
256,192,179491,1,0,0:0:0:0:
256,192,179591,1,0,0:0:0:0:
256,192,179691,1,8,0:0:0:0:
256,192,179891,1,0,0:0:0:0:
256,192,180091,1,8,0:0:0:0:
256,192,180291,1,0,0:0:0:0:
256,192,180391,1,0,0:0:0:0:
256,192,180491,1,8,0:0:0:0:
256,192,180691,1,0,0:0:0:0:
256,192,180891,1,8,0:0:0:0:
256,192,181091,1,8,0:0:0:0:
256,192,181191,1,8,0:0:0:0:
256,192,181291,1,0,0:0:0:0:
256,192,181491,1,8,0:0:0:0:
256,192,181591,1,8,0:0:0:0:
256,192,181791,1,8,0:0:0:0:
256,192,181891,1,0,0:0:0:0:
256,192,182091,1,8,0:0:0:0:
256,192,182291,1,0,0:0:0:0:
256,192,182491,1,0,0:0:0:0:
256,192,182891,1,8,0:0:0:0:
256,192,183091,1,0,0:0:0:0:
256,192,183191,1,8,0:0:0:0:
256,192,183391,1,8,0:0:0:0:
256,192,183491,1,0,0:0:0:0:
256,192,183691,1,8,0:0:0:0:
256,192,183891,1,0,0:0:0:0:
256,192,184091,1,8,0:0:0:0:
256,192,184291,1,0,0:0:0:0:
256,192,184491,1,8,0:0:0:0:
256,192,184691,1,0,0:0:0:0:
256,192,184791,1,8,0:0:0:0:
256,192,184991,1,8,0:0:0:0:
256,192,185091,1,0,0:0:0:0:
256,192,185191,1,0,0:0:0:0:
256,192,185291,1,8,0:0:0:0:
256,192,185491,1,0,0:0:0:0:
256,192,185691,1,0,0:0:0:0:
256,192,185791,1,8,0:0:0:0:
256,192,185891,1,0,0:0:0:0:
256,192,186091,1,8,0:0:0:0:
256,192,186291,1,0,0:0:0:0:
256,192,186491,1,8,0:0:0:0:
256,192,186591,1,0,0:0:0:0:
256,192,186791,1,8,0:0:0:0:
256,192,186991,1,8,0:0:0:0:
256,192,187091,1,0,0:0:0:0:
256,192,187291,1,8,0:0:0:0:
256,192,187491,1,0,0:0:0:0:
256,192,187591,1,0,0:0:0:0:
256,192,187691,1,8,0:0:0:0:
256,192,187891,1,8,0:0:0:0:
256,192,187991,1,8,0:0:0:0:
256,192,188091,1,0,0:0:0:0:
256,192,188191,1,0,0:0:0:0:
256,192,188291,1,8,0:0:0:0:
256,192,188491,1,8,0:0:0:0:
256,192,188691,1,0,0:0:0:0:
256,192,188891,1,4,0:0:0:0:
256,192,189091,1,8,0:0:0:0:
256,192,189191,1,0,0:0:0:0:
256,192,189391,1,8,0:0:0:0:
256,192,189491,1,0,0:0:0:0:
256,192,189691,1,8,0:0:0:0:
256,192,189791,1,8,0:0:0:0:
256,192,189891,1,0,0:0:0:0:
256,192,190091,1,8,0:0:0:0:
256,192,190291,1,0,0:0:0:0:
256,192,190491,1,8,0:0:0:0:
256,192,190691,1,0,0:0:0:0:
256,192,190791,1,0,0:0:0:0:
256,192,190891,1,8,0:0:0:0:
256,192,191091,1,8,0:0:0:0:
256,192,191291,1,8,0:0:0:0:
256,192,191391,1,8,0:0:0:0:
256,192,191491,1,0,0:0:0:0:
256,192,191691,1,8,0:0:0:0:
256,192,191891,1,8,0:0:0:0:
256,192,191991,1,8,0:0:0:0:
256,192,192091,1,0,0:0:0:0:
256,192,192491,1,8,0:0:0:0:
256,192,192691,1,0,0:0:0:0:
256,192,192791,1,8,0:0:0:0:
256,192,192891,1,0,0:0:0:0:
256,192,193091,1,0,0:0:0:0:
256,192,193291,1,8,0:0:0:0:
256,192,193391,1,8,0:0:0:0:
256,192,193491,1,0,0:0:0:0:
256,192,193691,1,8,0:0:0:0:
256,192,193891,1,0,0:0:0:0:
256,192,194091,1,8,0:0:0:0:
256,192,194291,1,0,0:0:0:0:
256,192,194391,1,0,0:0:0:0:
256,192,194491,1,8,0:0:0:0:
256,192,194591,1,8,0:0:0:0:
256,192,194691,1,0,0:0:0:0:
256,192,194891,1,8,0:0:0:0:
256,192,195291,1,12,0:0:0:0:
256,192,195591,1,8,0:0:0:0:
256,192,195691,1,8,0:0:0:0:
256,192,195891,1,8,0:0:0:0:
256,192,196091,1,0,0:0:0:0:
256,192,196191,1,8,0:0:0:0:
256,192,196291,1,0,0:0:0:0:
256,192,196491,1,8,0:0:0:0:
256,192,196691,1,0,0:0:0:0:
256,192,196891,1,8,0:0:0:0:
256,192,197091,1,0,0:0:0:0:
256,192,197191,1,0,0:0:0:0:
256,192,197291,1,8,0:0:0:0:
256,192,197491,1,8,0:0:0:0:
256,192,197691,1,0,0:0:0:0:
256,192,197791,1,8,0:0:0:0:
256,192,197891,1,0,0:0:0:0:
256,192,197991,1,0,0:0:0:0:
256,192,198091,1,8,0:0:0:0:
256,192,198291,1,8,0:0:0:0:
256,192,198391,1,0,0:0:0:0:
256,192,198491,1,0,0:0:0:0:
256,192,198691,1,0,0:0:0:0:
256,192,198891,1,8,0:0:0:0:
256,192,199091,1,0,0:0:0:0:
256,192,199291,1,8,0:0:0:0:
256,192,199391,1,8,0:0:0:0:
256,192,199491,1,8,0:0:0:0:
256,192,199591,1,8,0:0:0:0:
256,192,199691,1,8,0:0:0:0:
256,192,199891,1,0,0:0:0:0:
256,192,200091,1,8,0:0:0:0:
256,192,200491,1,8,0:0:0:0:
256,192,200891,1,8,0:0:0:0:
256,192,201091,1,0,0:0:0:0:
256,192,201191,1,0,0:0:0:0:
256,192,201291,1,8,0:0:0:0:
256,192,201691,1,4,0:0:0:0:
256,192,201891,1,8,0:0:0:0:
256,192,201991,1,8,0:0:0:0:
256,192,202091,1,0,0:0:0:0:
256,192,202291,1,0,0:0:0:0:
256,192,202391,1,8,0:0:0:0:
256,192,202691,1,0,0:0:0:0:
256,192,202791,1,0,0:0:0:0:
256,192,202891,1,8,0:0:0:0:
256,192,203091,1,0,0:0:0:0:
256,192,203291,1,8,0:0:0:0:
256,192,203491,1,0,0:0:0:0:
256,192,203591,1,0,0:0:0:0:
256,192,203691,1,8,0:0:0:0:
256,192,203891,1,8,0:0:0:0:
256,192,203991,1,0,0:0:0:0:
256,192,204291,1,8,0:0:0:0:
256,192,204391,1,0,0:0:0:0:
256,192,204491,1,8,0:0:0:0:
256,192,204691,1,0,0:0:0:0:
256,192,204891,1,8,0:0:0:0:
256,192,205091,1,8,0:0:0:0:
256,192,205191,1,8,0:0:0:0:
256,192,205291,1,0,0:0:0:0:
256,192,205491,1,0,0:0:0:0:
256,192,205591,1,8,0:0:0:0:
256,192,205891,1,0,0:0:0:0:
256,192,205991,1,8,0:0:0:0:
256,192,206091,1,0,0:0:0:0:
256,192,206291,1,8,0:0:0:0:
256,192,206491,1,0,0:0:0:0:
256,192,206691,1,8,0:0:0:0:
256,192,206791,1,8,0:0:0:0:
256,192,206891,1,0,0:0:0:0:
256,192,207091,1,8,0:0:0:0:
256,192,207291,1,0,0:0:0:0:
256,192,207391,1,8,0:0:0:0:
256,192,207491,1,0,0:0:0:0:
256,192,207591,1,0,0:0:0:0:
256,192,207691,1,8,0:0:0:0:
256,192,208091,1,8,0:0:0:0:
256,192,208291,1,0,0:0:0:0:
256,192,208391,1,0,0:0:0:0:
256,192,208491,1,8,0:0:0:0:
256,192,208691,1,8,0:0:0:0:
256,192,208791,1,0,0:0:0:0:
256,192,209091,1,8,0:0:0:0:
256,192,209191,1,0,0:0:0:0:
256,192,209291,1,8,0:0:0:0:
256,192,209491,1,0,0:0:0:0:
256,192,209691,1,8,0:0:0:0:
256,192,209891,1,8,0:0:0:0:
256,192,209991,1,8,0:0:0:0:
256,192,210091,1,0,0:0:0:0:
256,192,210291,1,0,0:0:0:0:
256,192,210391,1,8,0:0:0:0:
256,192,210691,1,8,0:0:0:0:
256,192,210791,1,0,0:0:0:0:
256,192,210891,1,8,0:0:0:0:
256,192,211091,1,8,0:0:0:0:
256,192,211291,1,0,0:0:0:0:
256,192,211491,1,0,0:0:0:0:
256,192,211591,1,0,0:0:0:0:
256,192,211691,1,8,0:0:0:0:
256,192,211891,1,8,0:0:0:0:
256,192,211991,1,0,0:0:0:0:
256,192,212291,1,0,0:0:0:0:
256,192,212391,1,8,0:0:0:0:
256,192,212491,1,0,0:0:0:0:
256,192,212691,1,8,0:0:0:0:
256,192,212891,1,0,0:0:0:0:
256,192,213091,1,8,0:0:0:0:
256,192,213191,1,8,0:0:0:0:
256,192,213291,1,0,0:0:0:0:
256,192,213491,1,8,0:0:0:0:
256,192,213691,1,8,0:0:0:0:
256,192,213791,1,8,0:0:0:0:
256,192,213891,1,0,0:0:0:0:
256,192,213991,1,8,0:0:0:0:
256,192,214091,1,0,0:0:0:0:
256,192,214291,1,8,0:0:0:0:
256,192,214491,1,4,0:0:0:0:
256,192,214891,1,0,0:0:0:0:
256,192,215091,1,8,0:0:0:0:
256,192,215191,1,0,0:0:0:0:
256,192,215291,1,8,0:0:0:0:
256,192,215491,1,8,0:0:0:0:
256,192,215691,1,0,0:0:0:0:
256,192,215791,1,0,0:0:0:0:
256,192,215891,1,8,0:0:0:0:
256,192,216091,1,8,0:0:0:0:
256,192,216291,1,0,0:0:0:0:
256,192,216491,1,8,0:0:0:0:
256,192,216691,1,8,0:0:0:0:
256,192,216891,1,0,0:0:0:0:
256,192,217091,1,8,0:0:0:0:
256,192,217191,1,8,0:0:0:0:
256,192,217291,1,0,0:0:0:0:
256,192,217491,1,8,0:0:0:0:
256,192,217691,1,0,0:0:0:0:
256,192,217791,1,0,0:0:0:0:
256,192,217891,1,0,0:0:0:0:
256,192,218091,1,8,0:0:0:0:
256,192,218291,1,0,0:0:0:0:
256,192,218391,1,0,0:0:0:0:
256,192,218491,1,8,0:0:0:0:
256,192,218691,1,8,0:0:0:0:
256,192,218891,1,0,0:0:0:0:
256,192,219091,1,8,0:0:0:0:
256,192,219291,1,0,0:0:0:0:
256,192,219491,1,8,0:0:0:0:
256,192,219591,1,0,0:0:0:0:
256,192,219691,1,8,0:0:0:0:
256,192,219891,1,8,0:0:0:0:
256,192,220091,1,0,0:0:0:0:
256,192,220191,1,8,0:0:0:0:
256,192,220291,1,0,0:0:0:0:
256,192,220491,1,8,0:0:0:0:
256,192,220691,1,0,0:0:0:0:
256,192,220891,1,4,0:0:0:0:
256,192,221291,1,8,0:0:0:0:
256,192,221491,1,8,0:0:0:0:
256,192,221691,1,0,0:0:0:0:
256,192,221791,1,0,0:0:0:0:
256,192,221891,1,8,0:0:0:0:
256,192,222091,1,8,0:0:0:0:
256,192,222291,1,0,0:0:0:0:
256,192,222491,1,8,0:0:0:0:
256,192,222691,1,0,0:0:0:0:
256,192,222791,1,0,0:0:0:0:
256,192,222891,1,8,0:0:0:0:
256,192,223091,1,8,0:0:0:0:
256,192,223291,1,0,0:0:0:0:
256,192,223391,1,8,0:0:0:0:
256,192,223491,1,0,0:0:0:0:
256,192,223591,1,0,0:0:0:0:
256,192,223691,1,8,0:0:0:0:
256,192,223891,1,8,0:0:0:0:
256,192,224091,1,0,0:0:0:0:
256,192,224291,1,8,0:0:0:0:
256,192,224391,1,8,0:0:0:0:
256,192,224491,1,8,0:0:0:0:
256,192,224691,1,8,0:0:0:0:
256,192,224891,1,0,0:0:0:0:
256,192,224991,1,8,0:0:0:0:
256,192,225091,1,0,0:0:0:0:
256,192,225191,1,0,0:0:0:0:
256,192,225291,1,8,0:0:0:0:
256,192,225491,1,8,0:0:0:0:
256,192,225691,12,0,226491,0:0:0:0:
256,192,227291,5,4,0:0:0:0:
256,192,227491,1,8,0:0:0:0:
256,192,227691,1,0,0:0:0:0:
256,192,227891,1,8,0:0:0:0:
256,192,227991,1,0,0:0:0:0:
256,192,228291,1,0,0:0:0:0:
256,192,228391,1,0,0:0:0:0:
256,192,228491,1,8,0:0:0:0:
256,192,228691,1,8,0:0:0:0:
256,192,228891,1,8,0:0:0:0:
256,192,229091,1,0,0:0:0:0:
256,192,229291,1,8,0:0:0:0:
256,192,229491,1,0,0:0:0:0:
256,192,229591,1,8,0:0:0:0:
256,192,229891,1,8,0:0:0:0:
256,192,229991,1,8,0:0:0:0:
256,192,230091,1,0,0:0:0:0:
256,192,230291,1,8,0:0:0:0:
256,192,230491,1,0,0:0:0:0:
256,192,230691,1,8,0:0:0:0:
256,192,230891,1,0,0:0:0:0:
256,192,231091,1,8,0:0:0:0:
256,192,231191,1,8,0:0:0:0:
256,192,231491,1,0,0:0:0:0:
256,192,231591,1,0,0:0:0:0:
256,192,231691,1,8,0:0:0:0:
256,192,231891,1,0,0:0:0:0:
256,192,232091,1,8,0:0:0:0:
256,192,232291,1,8,0:0:0:0:
256,192,232391,1,0,0:0:0:0:
256,192,232491,1,8,0:0:0:0:
256,192,232691,1,8,0:0:0:0:
256,192,232891,1,0,0:0:0:0:
256,192,232991,1,8,0:0:0:0:
256,192,233091,1,0,0:0:0:0:
256,192,233191,1,0,0:0:0:0:
256,192,233291,1,8,0:0:0:0:
256,192,233691,1,0,0:0:0:0:
256,192,233891,1,8,0:0:0:0:
256,192,234091,1,0,0:0:0:0:
256,192,234291,1,0,0:0:0:0:
256,192,234391,1,8,0:0:0:0:
256,192,234691,1,0,0:0:0:0:
256,192,234791,1,0,0:0:0:0:
256,192,234891,1,8,0:0:0:0:
256,192,235091,1,0,0:0:0:0:
256,192,235291,1,8,0:0:0:0:
256,192,235491,1,8,0:0:0:0:
256,192,235691,1,0,0:0:0:0:
256,192,235891,1,8,0:0:0:0:
256,192,235991,1,0,0:0:0:0:
256,192,236291,1,8,0:0:0:0:
256,192,236391,1,8,0:0:0:0:
256,192,236491,1,0,0:0:0:0:
256,192,236691,1,8,0:0:0:0:
256,192,236891,1,0,0:0:0:0:
256,192,237091,1,8,0:0:0:0:
256,192,237291,1,8,0:0:0:0:
256,192,237491,1,0,0:0:0:0:
256,192,237591,1,8,0:0:0:0:
256,192,237891,1,0,0:0:0:0:
256,192,237991,1,0,0:0:0:0:
256,192,238091,1,8,0:0:0:0:
256,192,238291,1,8,0:0:0:0:
256,192,238491,1,0,0:0:0:0:
256,192,238691,1,8,0:0:0:0:
256,192,238791,1,0,0:0:0:0:
256,192,238891,1,8,0:0:0:0:
256,192,239091,1,8,0:0:0:0:
256,192,239291,1,0,0:0:0:0:
256,192,239391,5,8,0:0:0:0:
256,192,239491,1,0,0:0:0:0:
256,192,239591,1,0,0:0:0:0:
256,192,239691,1,8,0:0:0:0:
256,192,240091,1,4,0:0:0:0:
256,192,240491,1,8,0:0:0:0:
256,192,240691,1,8,0:0:0:0:
256,192,240791,1,0,0:0:0:0:
256,192,240891,1,8,0:0:0:0:
256,192,241091,1,8,0:0:0:0:
256,192,241291,1,0,0:0:0:0:
256,192,241391,1,0,0:0:0:0:
256,192,241491,1,0,0:0:0:0:
256,192,241691,1,8,0:0:0:0:
256,192,241891,1,0,0:0:0:0:
256,192,241991,1,0,0:0:0:0:
256,192,242091,1,8,0:0:0:0:
256,192,242291,1,8,0:0:0:0:
256,192,242491,1,8,0:0:0:0:
256,192,242691,1,0,0:0:0:0:
256,192,242791,1,0,0:0:0:0:
256,192,242891,1,8,0:0:0:0:
256,192,243091,1,8,0:0:0:0:
256,192,243291,1,0,0:0:0:0:
256,192,243391,1,8,0:0:0:0:
256,192,243491,1,0,0:0:0:0:
256,192,243691,1,8,0:0:0:0:
256,192,243891,1,0,0:0:0:0:
256,192,243991,1,0,0:0:0:0:
256,192,244091,1,0,0:0:0:0:
256,192,244291,1,0,0:0:0:0:
256,192,244491,1,8,0:0:0:0:
256,192,244691,1,0,0:0:0:0:
256,192,244891,1,8,0:0:0:0:
256,192,245091,1,0,0:0:0:0:
256,192,245191,1,0,0:0:0:0:
256,192,245291,1,8,0:0:0:0:
256,192,245491,1,8,0:0:0:0:
256,192,245691,1,0,0:0:0:0:
256,192,245791,1,8,0:0:0:0:
256,192,245891,1,0,0:0:0:0:
256,192,245991,1,0,0:0:0:0:
256,192,246091,1,8,0:0:0:0:
256,192,246491,1,0,0:0:0:0:
256,192,246691,1,8,0:0:0:0:
256,192,246791,1,0,0:0:0:0:
256,192,246891,1,8,0:0:0:0:
256,192,247091,1,8,0:0:0:0:
256,192,247291,1,0,0:0:0:0:
256,192,247491,1,0,0:0:0:0:
256,192,247591,1,0,0:0:0:0:
256,192,247691,1,8,0:0:0:0:
256,192,247891,1,0,0:0:0:0:
256,192,248091,1,8,0:0:0:0:
256,192,248291,1,0,0:0:0:0:
256,192,248391,1,0,0:0:0:0:
256,192,248491,1,8,0:0:0:0:
256,192,248691,1,8,0:0:0:0:
256,192,248891,1,0,0:0:0:0:
256,192,248991,1,8,0:0:0:0:
256,192,249091,1,0,0:0:0:0:
256,192,249291,1,8,0:0:0:0:
256,192,249491,1,0,0:0:0:0:
256,192,249691,1,8,0:0:0:0:
256,192,249891,1,0,0:0:0:0:
256,192,249991,1,0,0:0:0:0:
256,192,250091,1,8,0:0:0:0:
256,192,250291,1,0,0:0:0:0:
256,192,250391,1,0,0:0:0:0:
256,192,250491,1,8,0:0:0:0:
256,192,250591,1,8,0:0:0:0:
256,192,250691,1,0,0:0:0:0:
256,192,250891,1,8,0:0:0:0:
256,192,251091,1,0,0:0:0:0:
256,192,251291,1,0,0:0:0:0:
256,192,252291,1,8,0:0:0:0:
256,192,252491,1,0,0:0:0:0:
256,192,252891,1,12,0:0:0:0:
256,192,253091,1,0,0:0:0:0:
256,192,253191,1,0,0:0:0:0:
256,192,253291,1,8,0:0:0:0:
256,192,253491,1,0,0:0:0:0:
256,192,253591,1,0,0:0:0:0:
256,192,253791,1,8,0:0:0:0:
256,192,253891,1,0,0:0:0:0:
256,192,254091,1,8,0:0:0:0:
256,192,254291,1,0,0:0:0:0:
256,192,254491,1,8,0:0:0:0:
256,192,254691,1,0,0:0:0:0:
256,192,254891,1,8,0:0:0:0:
256,192,254991,1,8,0:0:0:0:
256,192,255191,1,0,0:0:0:0:
256,192,255491,1,12,0:0:0:0:
256,192,255691,1,12,0:0:0:0:
