osu file format v14

[General]
AudioFilename: ochamekinou.mp3
AudioLeadIn: 0
PreviewTime: 226691
Countdown: 0
SampleSet: Normal
StackLeniency: 0.7
Mode: 1
LetterboxInBreaks: 0
WidescreenStoryboard: 1

[Editor]
DistanceSpacing: 0.4
BeatDivisor: 4
GridSize: 32
TimelineZoom: 1.8

[Metadata]
Title:Ochame Kinou
TitleUnicode:おちゃめ機能
Artist:Various Artists
ArtistUnicode:Various Artists
Creator:Jerry
Version:Kantan
Source:
Tags:Japanese Pop j-pop jpop ホロライブ collab collaboration hololive idol project virtual vtuber バーチャルyoutuber cover カバー corp kijibato キジバト gojimajip ゴジマジP UTAU Kasane Teto 重音テト ラマーズP lamazep Mischievous Function 吹っ切れた Fukkireta chorus Charlotte Bathym- kitafuma Metzo Backfire Hivie radar 3san Peaceful ianpep Aloda tzechi Consified taiko_ryuki [zeth] neonat cdhsausageboy yassu- Vulkin Senritsu frz HiroK komasy Khoo Hao Yit ときのそら Tokino Sora ロボ子さん Roboco-san さくらみこ Sakura Miko 星街すいせい Hoshimachi Suisei Hoshimati 夜空メル Yozora Mel 夏色まつり Natsuiro Matsuri アキ・ローゼンタール Aki Rosenthal 大空スバル Oozora Subaru 癒月ちょこ Yuzuki Choco 紫咲シオン Murasaki Shion 百鬼あやめ Nakiri Ayame 湊あくあ Minato Aqua 大神ミオ Ookami Mio 猫又おかゆ Nekomata Okayu AZKi 兎田ぺこら Usada Pekora 潤羽るしあ Uruha Rushia 不知火フレア Shiranui Flare 白銀ノエル Shirogane Noel 宝鐘マリン Houshou Marine 角巻わため Tsunomaki Watame 常闇トワ Tokoyami Towa 天音かなた Amane Kanata 姫森ルーナ Himemori Luna 赤井はあと Akai Haato 谷郷元昭 Tanigo Motoaki YAGOO 戌神ころね Inugami Korone 桐生ココ Kiryu Coco 白上フブキ Shirakami Fubuki
BeatmapID:2400235
BeatmapSetID:1147932

[Difficulty]
HPDrainRate:7
CircleSize:5
OverallDifficulty:3
ApproachRate:5
SliderMultiplier:1.4
SliderTickRate:1

[Events]
//Background and Video events
0,0,"BG.jpg",0,0
//Break Periods
//Storyboard Layer 0 (Background)
//Storyboard Layer 1 (Fail)
//Storyboard Layer 2 (Pass)
//Storyboard Layer 3 (Foreground)
Sprite,Foreground,Centre,"SB\title.png",320,360 S,0,19297,,0.3 MX,1,19297,19997,1320,320 M,0,19997,25697,320,360 MX,2,25697,26697,320,-680
Sprite,Foreground,Centre,"SB\storyboardby.png",320,360 S,0,25697,,0.3 MX,1,25697,26697,1320,320 M,0,26697,29897,320,360 MX,2,28897,29897,320,-680
Sprite,Foreground,Centre,"SB\specialthanks.png",320,360 S,0,28897,,0.3 MX,1,28897,29897,1320,320 M,0,29897,32097,320,360 MX,1,31097,32097,320,-680
Sprite,Foreground,Centre,"SB\Birthdays\birthdaybox.png",320,410 S,0,31097,,0.2 MX,1,31097,32097,1420,420 MX,0,37497,38497,420,-580
Sprite,Foreground,Centre,"SB\Birthdays\birthdaybox.png",320,410 S,0,37497,,0.2 MX,1,37497,38497,1420,420 MX,0,43897,44897,420,-580
Sprite,Foreground,Centre,"SB\Birthdays\birthdaybox.png",320,410 S,0,43897,,0.2 MX,1,43897,44897,1420,420 MX,0,50297,51297,420,-580
Sprite,Foreground,Centre,"SB\Birthdays\birthdaybox.png",320,410 S,0,50297,,0.2 MX,1,50297,51297,1420,420 MX,0,56697,57697,420,-580
Sprite,Foreground,Centre,"SB\Birthdays\birthdaybox.png",320,410 S,0,56697,,0.2 MX,1,56697,57697,1420,420 MX,0,63097,64097,420,-580
Sprite,Foreground,Centre,"SB\Birthdays\birthdaybox.png",320,410 S,0,63097,,0.2 MX,1,63097,64097,1420,420 MX,0,69497,70497,420,-580
Sprite,Foreground,Centre,"SB\Birthdays\birthdaybox.png",320,410 S,0,69497,,0.2 MX,1,69497,70497,1420,420 MX,0,75897,76897,420,-580
Sprite,Foreground,Centre,"SB\Birthdays\birthdaybox.png",320,410 S,0,75897,,0.2 MX,1,75897,76897,1420,420 MX,0,82297,83297,420,-580
Sprite,Foreground,Centre,"SB\Birthdays\birthdaybox.png",320,410 S,0,82297,,0.2 MX,1,82297,83297,1420,420 MX,0,88697,89697,420,-580
Sprite,Foreground,Centre,"SB\Birthdays\birthdaybox.png",320,410 S,0,88697,,0.2 MX,1,88697,89697,1420,420 MX,0,98297,99297,420,-580
Sprite,Foreground,Centre,"SB\Birthdays\birthdaybox.png",320,410 S,0,98297,,0.2 MX,1,98297,99297,1420,420 MX,0,104697,105697,420,-580
Sprite,Foreground,Centre,"SB\Birthdays\birthdaybox.png",320,410 S,0,104697,,0.2 MX,1,104697,105697,1420,420 MX,0,111097,112097,420,-580
Sprite,Foreground,Centre,"SB\Birthdays\birthdaybox.png",320,410 S,0,111097,,0.2 MX,1,111097,112097,1420,420 MX,0,117497,118497,420,-580
Sprite,Foreground,Centre,"SB\Birthdays\birthdaybox.png",320,410 S,0,117497,,0.2 MX,1,117497,118497,1420,420 MX,0,123897,124897,420,-580
Sprite,Foreground,Centre,"SB\Birthdays\birthdaybox.png",320,410 S,0,123897,,0.2 MX,1,123897,124897,1420,420 MX,0,130297,131297,420,-580
Sprite,Foreground,Centre,"SB\Birthdays\birthdaybox.png",320,410 S,0,130297,,0.2 MX,1,130297,131297,1420,420 MX,0,136697,137697,420,-580
Sprite,Foreground,Centre,"SB\Birthdays\birthdaybox.png",320,410 S,0,136697,,0.2 MX,1,136697,137697,1420,420 MX,0,143097,144097,420,-580
Sprite,Foreground,Centre,"SB\Birthdays\birthdaybox.png",320,410 S,0,143097,,0.2 MX,1,143097,144097,1420,420 MX,0,149497,150497,420,-580
Sprite,Foreground,Centre,"SB\Birthdays\birthdaybox.png",320,410 S,0,149497,,0.2 MX,1,149497,150497,1420,420 MX,0,155897,156897,420,-580
Sprite,Foreground,Centre,"SB\Birthdays\birthdaybox.png",320,410 S,0,155897,,0.2 MX,1,155897,156897,1420,420 MX,0,162297,163297,420,-580
Sprite,Foreground,Centre,"SB\Birthdays\birthdaybox.png",320,410 S,0,162297,,0.2 MX,1,162297,163297,1420,420 MX,0,165497,166497,420,-580
Sprite,Foreground,Centre,"SB\Birthdays\birthdaybox.png",320,410 S,0,162297,,0.2 MX,1,165497,166497,1420,420 MX,0,168697,169697,420,-580
Sprite,Foreground,Centre,"SB\Birthdays\birthdaybox.png",320,410 S,0,162297,,0.2 MX,1,168697,169697,1420,420 MX,0,171897,172897,420,-580
Sprite,Foreground,Centre,"SB\Birthdays\birthdaybox.png",320,410 S,0,162297,,0.2 MX,1,171897,172897,1420,420 MX,0,175097,176097,420,-580
Sprite,Foreground,Centre,"SB\Birthdays\birthdaybox.png",320,410 S,0,162297,,0.2 MX,1,175097,176097,1420,420 MX,0,200697,201697,420,-580
Sprite,Foreground,Centre,"SB\Birthdays\birthdaybox.png",320,410 S,0,200697,,0.2 MX,1,200697,201697,1420,420 MX,0,207097,208097,420,-580
Sprite,Foreground,Centre,"SB\Birthdays\birthdaybox.png",320,410 S,0,207097,,0.2 MX,1,207097,208097,1420,420 MX,0,213497,214497,420,-580
Sprite,Foreground,Centre,"SB\Birthdays\birthdaybox.png",320,410 S,0,213497,,0.2 MX,1,213497,214497,1420,420 MX,0,219897,220897,420,-580
Sprite,Foreground,Centre,"SB\Birthdays\birthdaybox.png",320,410 S,0,219897,,0.2 MX,1,219897,220897,1420,420 MX,0,226297,227297,420,-580
Sprite,Foreground,Centre,"SB\Birthdays\roboco.png",320,410 S,0,31097,,0.2 MX,1,31097,32097,1420,420 MX,0,37497,38497,420,-580
Sprite,Foreground,Centre,"SB\Birthdays\shion.png",320,410 S,0,37497,,0.2 MX,1,37497,38497,1420,420 MX,0,43897,44897,420,-580
Sprite,Foreground,Centre,"SB\Birthdays\watame.png",320,410 S,0,43897,,0.2 MX,1,43897,44897,1420,420 MX,0,50297,51297,420,-580
Sprite,Foreground,Centre,"SB\Birthdays\mio.png",320,410 S,0,50297,,0.2 MX,1,50297,51297,1420,420 MX,0,56697,57697,420,-580
Sprite,Foreground,Centre,"SB\Birthdays\aki.png",320,410 S,0,56697,,0.2 MX,1,56697,57697,1420,420 MX,0,63097,64097,420,-580
Sprite,Foreground,Centre,"SB\Birthdays\okayu.png",320,410 S,0,63097,,0.2 MX,1,63097,64097,1420,420 MX,0,69497,70497,420,-580
Sprite,Foreground,Centre,"SB\Birthdays\aqua.png",320,410 S,0,69497,,0.2 MX,1,69497,70497,1420,420 MX,0,75897,76897,420,-580
Sprite,Foreground,Centre,"SB\Birthdays\matsuri.png",320,410 S,0,75897,,0.2 MX,1,75897,76897,1420,420 MX,0,82297,83297,420,-580
Sprite,Foreground,Centre,"SB\Birthdays\choco.png",320,410 S,0,82297,,0.2 MX,1,82297,83297,1420,420 MX,0,88697,89697,420,-580
Sprite,Foreground,Centre,"SB\Birthdays\mel.png",320,410 S,0,88697,,0.2 MX,1,88697,89697,1420,420 MX,0,98297,99297,420,-580
Sprite,Foreground,Centre,"SB\Birthdays\pekora.png",320,410 S,0,98297,,0.2 MX,1,98297,99297,1420,420 MX,0,104697,105697,420,-580
Sprite,Foreground,Centre,"SB\Birthdays\miko.png",320,410 S,0,104697,,0.2 MX,1,104697,105697,1420,420 MX,0,111097,112097,420,-580
Sprite,Foreground,Centre,"SB\Birthdays\towa.png",320,410 S,0,111097,,0.2 MX,1,111097,112097,1420,420 MX,0,117497,118497,420,-580
Sprite,Foreground,Centre,"SB\Birthdays\luna.png",320,410 S,0,117497,,0.2 MX,1,117497,118497,1420,420 MX,0,123897,124897,420,-580
Sprite,Foreground,Centre,"SB\Birthdays\rushia.png",320,410 S,0,123897,,0.2 MX,1,123897,124897,1420,420 MX,0,130297,131297,420,-580
Sprite,Foreground,Centre,"SB\Birthdays\marine.png",320,410 S,0,130297,,0.2 MX,1,130297,131297,1420,420 MX,0,136697,137697,420,-580
Sprite,Foreground,Centre,"SB\Birthdays\suisei.png",320,410 S,0,136697,,0.2 MX,1,136697,137697,1420,420 MX,0,143097,144097,420,-580
Sprite,Foreground,Centre,"SB\Birthdays\kanata.png",320,410 S,0,143097,,0.2 MX,1,143097,144097,1420,420 MX,0,149497,150497,420,-580
Sprite,Foreground,Centre,"SB\Birthdays\sora.png",320,410 S,0,149497,,0.2 MX,1,149497,150497,1420,420 MX,0,155897,156897,420,-580
Sprite,Foreground,Centre,"SB\Birthdays\azki.png",320,410 S,0,155897,,0.2 MX,1,155897,156897,1420,420 MX,0,162297,163297,420,-580
Sprite,Foreground,Centre,"SB\Birthdays\korone.png",320,410 S,0,162297,,0.2 MX,1,162297,163297,1420,420 MX,0,165497,166497,420,-580
Sprite,Foreground,Centre,"SB\Birthdays\haato.png",320,410 S,0,162297,,0.2 MX,1,165497,166497,1420,420 MX,0,168697,169697,420,-580
Sprite,Foreground,Centre,"SB\Birthdays\fubuki.png",320,410 S,0,162297,,0.2 MX,1,168697,169697,1420,420 MX,0,171897,172897,420,-580
Sprite,Foreground,Centre,"SB\Birthdays\coco.png",320,410 S,0,162297,,0.2 MX,1,171897,172897,1420,420 MX,0,175097,176097,420,-580
Sprite,Foreground,Centre,"SB\Birthdays\yagoo.png",320,410 S,0,162297,,0.2 MX,1,175097,176097,1420,420 MX,0,200697,201697,420,-580
Sprite,Foreground,Centre,"SB\Birthdays\subaru.png",320,410 S,0,200697,,0.2 MX,1,200697,201697,1420,420 MX,0,207097,208097,420,-580
Sprite,Foreground,Centre,"SB\Birthdays\ayame.png",320,410 S,0,207097,,0.2 MX,1,207097,208097,1420,420 MX,0,213497,214497,420,-580
Sprite,Foreground,Centre,"SB\Birthdays\flare.png",320,410 S,0,213497,,0.2 MX,1,213497,214497,1420,420 MX,0,219897,220897,420,-580
Sprite,Foreground,Centre,"SB\Birthdays\noel.png",320,410 S,0,219897,,0.2 MX,1,219897,220897,1420,420 MX,0,226297,227297,420,-580
//Storyboard Layer 4 (Overlay)
//Storyboard Sound Samples

[TimingPoints]
91,400,4,1,0,60,1,0
6491,-100,4,1,0,70,0,1
19291,-100,4,1,0,60,0,0
70491,-100,4,1,0,70,0,1
94091,-100,4,1,0,60,0,0
137691,-100,4,1,0,70,0,1
161491,-100,4,1,0,60,0,0
201691,-100,4,1,0,70,0,1
225491,-100,4,1,0,70,0,0
227291,-100,4,1,0,70,0,1
251291,-100,4,1,0,60,0,0

[HitObjects]
256,192,91,5,12,0:0:0:0:
256,192,891,1,8,0:0:0:0:
256,192,1691,1,8,0:0:0:0:
256,192,2491,1,8,0:0:0:0:
256,192,3291,1,8,0:0:0:0:
256,192,4091,1,8,0:0:0:0:
256,192,4491,1,8,0:0:0:0:
256,192,4891,1,4,0:0:0:0:
256,192,6491,5,4,0:0:0:0:
256,192,7291,1,8,0:0:0:0:
256,192,8091,1,0,0:0:0:0:
256,192,8491,1,0,0:0:0:0:
256,192,8891,1,8,0:0:0:0:
256,192,9691,1,0,0:0:0:0:
256,192,11291,1,0,0:0:0:0:
256,192,11891,1,0,0:0:0:0:
256,192,12491,1,8,0:0:0:0:
256,192,12891,5,0,0:0:0:0:
256,192,13691,1,8,0:0:0:0:
256,192,14491,1,0,0:0:0:0:
256,192,14891,1,0,0:0:0:0:
256,192,15291,1,8,0:0:0:0:
256,192,16091,1,0,0:0:0:0:
256,192,17691,1,0,0:0:0:0:
256,192,18291,1,8,0:0:0:0:
256,192,18891,1,8,0:0:0:0:
256,192,19291,5,4,0:0:0:0:
256,192,20091,1,8,0:0:0:0:
256,192,20491,1,8,0:0:0:0:
256,192,20891,1,0,0:0:0:0:
256,192,21691,1,8,0:0:0:0:
256,192,22091,1,0,0:0:0:0:
256,192,22491,1,0,0:0:0:0:
256,192,23291,1,8,0:0:0:0:
256,192,23691,1,8,0:0:0:0:
256,192,24091,1,0,0:0:0:0:
256,192,25291,1,0,0:0:0:0:
256,192,25691,5,8,0:0:0:0:
256,192,26491,1,8,0:0:0:0:
256,192,26891,1,8,0:0:0:0:
256,192,27291,1,0,0:0:0:0:
256,192,28091,1,8,0:0:0:0:
256,192,28491,1,0,0:0:0:0:
256,192,28891,1,0,0:0:0:0:
256,192,29691,1,8,0:0:0:0:
256,192,30091,1,8,0:0:0:0:
256,192,30491,1,0,0:0:0:0:
256,192,31691,1,8,0:0:0:0:
256,192,32091,5,0,0:0:0:0:
256,192,32891,1,8,0:0:0:0:
256,192,33691,1,0,0:0:0:0:
256,192,34091,1,0,0:0:0:0:
256,192,34491,1,8,0:0:0:0:
256,192,35291,1,8,0:0:0:0:
256,192,36091,1,0,0:0:0:0:
256,192,36891,1,8,0:0:0:0:
256,192,37291,1,8,0:0:0:0:
256,192,37691,1,0,0:0:0:0:
256,192,38491,1,0,0:0:0:0:
256,192,39291,1,8,0:0:0:0:
256,192,40091,1,0,0:0:0:0:
256,192,40491,1,0,0:0:0:0:
256,192,40891,1,8,0:0:0:0:
256,192,41691,1,8,0:0:0:0:
256,192,42491,1,0,0:0:0:0:
256,192,43291,1,8,0:0:0:0:
256,192,44491,1,0,0:0:0:0:
256,192,44891,5,12,0:0:0:0:
256,192,45691,1,8,0:0:0:0:
256,192,46491,1,0,0:0:0:0:
256,192,46891,1,0,0:0:0:0:
256,192,47291,1,8,0:0:0:0:
256,192,48091,1,0,0:0:0:0:
256,192,48891,1,0,0:0:0:0:
256,192,49691,1,8,0:0:0:0:
256,192,50091,1,8,0:0:0:0:
256,192,50491,1,0,0:0:0:0:
256,192,51291,1,0,0:0:0:0:
256,192,52091,1,8,0:0:0:0:
256,192,52891,1,0,0:0:0:0:
256,192,53291,1,0,0:0:0:0:
256,192,53691,1,8,0:0:0:0:
256,192,54491,1,8,0:0:0:0:
256,192,55291,1,0,0:0:0:0:
256,192,56091,1,8,0:0:0:0:
256,192,57291,1,8,0:0:0:0:
256,192,57691,5,4,0:0:0:0:
256,192,58491,1,8,0:0:0:0:
256,192,59291,1,0,0:0:0:0:
256,192,59691,1,0,0:0:0:0:
256,192,60091,1,8,0:0:0:0:
256,192,60891,1,0,0:0:0:0:
256,192,61691,1,8,0:0:0:0:
256,192,62491,1,0,0:0:0:0:
256,192,62891,1,0,0:0:0:0:
256,192,63291,1,8,0:0:0:0:
256,192,63691,1,8,0:0:0:0:
256,192,64091,1,0,0:0:0:0:
256,192,64891,1,8,0:0:0:0:
256,192,65691,1,0,0:0:0:0:
256,192,66091,1,0,0:0:0:0:
256,192,66491,1,8,0:0:0:0:
256,192,67291,1,0,0:0:0:0:
256,192,67691,1,0,0:0:0:0:
256,192,68091,1,8,0:0:0:0:
256,192,68491,1,8,0:0:0:0:
256,192,68891,1,4,0:0:0:0:
256,192,70491,5,4,0:0:0:0:
256,192,71291,1,8,0:0:0:0:
256,192,72091,1,0,0:0:0:0:
256,192,72491,1,0,0:0:0:0:
256,192,72891,1,8,0:0:0:0:
256,192,73691,1,0,0:0:0:0:
256,192,75291,1,0,0:0:0:0:
256,192,75891,1,8,0:0:0:0:
256,192,76491,1,8,0:0:0:0:
256,192,76891,5,0,0:0:0:0:
256,192,77691,1,8,0:0:0:0:
256,192,78491,1,0,0:0:0:0:
256,192,78891,1,0,0:0:0:0:
256,192,79291,1,8,0:0:0:0:
256,192,80091,1,0,0:0:0:0:
256,192,81691,1,0,0:0:0:0:
256,192,82291,1,0,0:0:0:0:
256,192,82891,1,8,0:0:0:0:
256,192,83291,5,4,0:0:0:0:
256,192,84091,5,8,0:0:0:0:
256,192,84891,1,0,0:0:0:0:
256,192,85291,1,0,0:0:0:0:
256,192,85691,1,8,0:0:0:0:
256,192,86091,1,8,0:0:0:0:
224,128,86491,2,0,L|384:128,2,140
256,192,88091,1,0,0:0:0:0:
256,192,88691,1,8,0:0:0:0:
256,192,89291,1,0,0:0:0:0:
256,192,89691,1,4,0:0:0:0:
256,192,90491,1,8,0:0:0:0:
256,192,91291,1,0,0:0:0:0:
256,192,91691,1,0,0:0:0:0:
256,192,92091,1,8,0:0:0:0:
256,192,92891,1,0,0:0:0:0:
256,192,93291,1,0,0:0:0:0:
256,192,93691,1,0,0:0:0:0:
256,192,94091,1,0,0:0:0:0:
87,97,94491,1,0,0:0:0:0:
256,192,96091,5,0,0:0:0:0:
256,192,96891,1,0,0:0:0:0:
256,192,97691,1,8,0:0:0:0:
256,192,98891,1,4,0:0:0:0:
256,192,99291,5,8,0:0:0:0:
256,192,100091,1,8,0:0:0:0:
256,192,100891,1,8,0:0:0:0:
256,192,102091,5,8,0:0:0:0:
256,192,102491,1,4,0:0:0:0:
256,192,103291,1,8,0:0:0:0:
256,192,104091,1,0,0:0:0:0:
256,192,104491,1,0,0:0:0:0:
256,192,104891,1,8,0:0:0:0:
256,192,105291,1,8,0:0:0:0:
256,192,105691,1,0,0:0:0:0:
256,192,106491,1,8,0:0:0:0:
256,192,107291,1,8,0:0:0:0:
256,192,107691,1,8,0:0:0:0:
256,192,108091,1,0,0:0:0:0:
256,192,108891,1,0,0:0:0:0:
256,192,109691,1,8,0:0:0:0:
256,192,110491,1,0,0:0:0:0:
256,192,111691,1,8,0:0:0:0:
256,192,112091,5,0,0:0:0:0:
256,192,112891,1,8,0:0:0:0:
256,192,113691,1,0,0:0:0:0:
256,192,114091,1,0,0:0:0:0:
256,192,114491,1,8,0:0:0:0:
256,192,115291,1,0,0:0:0:0:
256,192,116091,1,8,0:0:0:0:
256,192,116891,1,8,0:0:0:0:
256,192,117291,1,8,0:0:0:0:
256,192,117691,1,0,0:0:0:0:
256,192,118091,1,8,0:0:0:0:
256,192,118491,1,0,0:0:0:0:
256,192,119291,1,8,0:0:0:0:
256,192,120091,1,0,0:0:0:0:
256,192,120491,1,0,0:0:0:0:
256,192,120891,1,8,0:0:0:0:
256,192,121691,1,8,0:0:0:0:
256,192,122491,1,0,0:0:0:0:
256,192,123291,1,8,0:0:0:0:
256,192,124491,5,0,0:0:0:0:
256,192,124891,1,4,0:0:0:0:
256,192,125691,1,8,0:0:0:0:
256,192,126491,1,0,0:0:0:0:
256,192,126891,1,0,0:0:0:0:
256,192,127291,1,8,0:0:0:0:
256,192,128091,1,0,0:0:0:0:
256,192,129291,5,8,0:0:0:0:
256,192,129691,5,0,0:0:0:0:
256,192,130091,1,0,0:0:0:0:
256,192,130491,1,0,0:0:0:0:
256,192,130891,1,0,0:0:0:0:
256,192,131291,1,0,0:0:0:0:
256,192,132091,1,8,0:0:0:0:
256,192,132891,1,0,0:0:0:0:
256,192,133291,1,0,0:0:0:0:
256,192,133691,1,8,0:0:0:0:
256,192,134091,1,8,0:0:0:0:
256,192,134491,1,0,0:0:0:0:
256,192,135291,1,8,0:0:0:0:
256,192,136091,1,4,0:0:0:0:
256,192,136691,1,12,0:0:0:0:
256,192,137691,5,4,0:0:0:0:
256,192,138491,1,8,0:0:0:0:
256,192,138891,1,8,0:0:0:0:
256,192,139291,1,0,0:0:0:0:
256,192,140091,1,8,0:0:0:0:
256,192,140491,1,0,0:0:0:0:
256,192,140891,1,0,0:0:0:0:
256,192,142491,1,0,0:0:0:0:
256,192,143091,1,0,0:0:0:0:
256,192,143691,5,8,0:0:0:0:
256,192,144091,1,0,0:0:0:0:
256,192,144891,1,8,0:0:0:0:
256,192,145291,1,8,0:0:0:0:
256,192,145691,1,0,0:0:0:0:
256,192,146491,1,8,0:0:0:0:
256,192,146891,1,0,0:0:0:0:
256,192,147291,1,0,0:0:0:0:
256,192,148891,1,0,0:0:0:0:
256,192,149491,1,0,0:0:0:0:
256,192,150091,1,8,0:0:0:0:
256,192,150491,5,4,0:0:0:0:
256,192,151291,5,8,0:0:0:0:
256,192,152091,1,0,0:0:0:0:
256,192,152491,1,0,0:0:0:0:
256,192,152891,1,8,0:0:0:0:
256,192,153291,1,8,0:0:0:0:
192,96,153691,2,0,L|352:96,2,140
256,192,155291,1,0,0:0:0:0:
256,192,155891,1,8,0:0:0:0:
256,192,156491,1,8,0:0:0:0:
256,192,156891,1,4,0:0:0:0:
256,192,157691,1,8,0:0:0:0:
256,192,158491,1,0,0:0:0:0:
256,192,158891,1,0,0:0:0:0:
256,192,159291,1,8,0:0:0:0:
256,192,159691,1,8,0:0:0:0:
256,192,160091,1,0,0:0:0:0:
256,192,160891,1,0,0:0:0:0:
256,192,161291,1,0,0:0:0:0:
207,76,161691,2,0,L|364:80,2,140
256,192,163291,5,0,0:0:0:0:
256,192,164091,1,8,0:0:0:0:
256,192,164891,1,0,0:0:0:0:
256,192,165691,1,8,0:0:0:0:
256,192,166091,1,8,0:0:0:0:
256,192,166491,1,0,0:0:0:0:
256,192,167291,1,8,0:0:0:0:
256,192,168091,1,0,0:0:0:0:
256,192,168891,1,8,0:0:0:0:
256,192,169291,1,8,0:0:0:0:
256,192,169691,1,0,0:0:0:0:
256,192,170491,1,8,0:0:0:0:
256,192,171291,1,0,0:0:0:0:
256,192,172091,1,8,0:0:0:0:
256,192,172491,1,8,0:0:0:0:
256,192,172891,1,0,0:0:0:0:
256,192,173691,1,8,0:0:0:0:
256,192,174491,1,4,0:0:0:0:
256,192,175091,1,4,0:0:0:0:
256,192,176091,5,4,0:0:0:0:
256,192,176891,1,8,0:0:0:0:
256,192,177691,1,0,0:0:0:0:
256,192,178491,1,8,0:0:0:0:
256,192,178891,1,8,0:0:0:0:
256,192,179691,1,0,0:0:0:0:
256,192,180491,1,0,0:0:0:0:
256,192,180891,1,8,0:0:0:0:
256,192,182091,1,8,0:0:0:0:
256,192,182491,1,0,0:0:0:0:
256,192,184091,5,0,0:0:0:0:
256,192,184891,1,0,0:0:0:0:
256,192,185291,1,0,0:0:0:0:
256,192,185691,1,8,0:0:0:0:
256,192,186491,1,8,0:0:0:0:
256,192,187291,1,0,0:0:0:0:
256,192,188091,1,8,0:0:0:0:
256,192,188491,1,8,0:0:0:0:
256,192,188891,1,4,0:0:0:0:
256,192,191291,5,0,0:0:0:0:
256,192,191691,1,0,0:0:0:0:
256,192,192091,1,8,0:0:0:0:
256,192,193291,1,8,0:0:0:0:
256,192,193691,1,8,0:0:0:0:
256,192,194491,1,0,0:0:0:0:
256,192,194891,1,0,0:0:0:0:
256,192,195291,1,12,0:0:0:0:
256,192,196091,1,8,0:0:0:0:
256,192,196891,1,8,0:0:0:0:
256,192,197291,1,8,0:0:0:0:
256,192,197691,1,8,0:0:0:0:
256,192,198091,1,8,0:0:0:0:
224,128,198491,2,0,L|384:128,3,140
256,192,201691,5,4,0:0:0:0:
256,192,202491,1,8,0:0:0:0:
256,192,203291,1,0,0:0:0:0:
256,192,203691,1,0,0:0:0:0:
256,192,204091,1,8,0:0:0:0:
256,192,204891,1,0,0:0:0:0:
256,192,206491,1,8,0:0:0:0:
256,192,207091,1,8,0:0:0:0:
256,192,207691,5,0,0:0:0:0:
256,192,208091,1,8,0:0:0:0:
256,192,208891,1,0,0:0:0:0:
256,192,209691,1,8,0:0:0:0:
256,192,210091,1,8,0:0:0:0:
256,192,210491,1,0,0:0:0:0:
256,192,211291,1,8,0:0:0:0:
256,192,212891,1,0,0:0:0:0:
256,192,213491,1,0,0:0:0:0:
256,192,214091,1,8,0:0:0:0:
256,192,214491,5,4,0:0:0:0:
256,192,215291,1,8,0:0:0:0:
256,192,216091,1,0,0:0:0:0:
256,192,216491,1,0,0:0:0:0:
256,192,216891,1,8,0:0:0:0:
256,192,217291,1,8,0:0:0:0:
192,128,217691,2,0,L|352:128,2,140
256,192,219291,1,8,0:0:0:0:
256,192,219891,1,8,0:0:0:0:
256,192,220491,1,8,0:0:0:0:
256,192,220891,1,4,0:0:0:0:
256,192,221691,1,8,0:0:0:0:
256,192,222491,1,0,0:0:0:0:
256,192,222891,1,0,0:0:0:0:
256,192,223291,1,8,0:0:0:0:
256,192,223691,1,8,0:0:0:0:
256,192,224091,1,0,0:0:0:0:
256,192,224891,1,8,0:0:0:0:
256,192,225291,1,8,0:0:0:0:
202,110,225691,2,0,L|356:107,2,140
256,192,227291,5,4,0:0:0:0:
256,192,228091,1,8,0:0:0:0:
256,192,228491,1,8,0:0:0:0:
256,192,228891,1,0,0:0:0:0:
256,192,229691,1,8,0:0:0:0:
256,192,230091,1,0,0:0:0:0:
256,192,230491,1,0,0:0:0:0:
256,192,232091,1,0,0:0:0:0:
256,192,232691,1,8,0:0:0:0:
256,192,233291,1,8,0:0:0:0:
256,192,233691,5,0,0:0:0:0:
256,192,234491,1,8,0:0:0:0:
256,192,234891,1,8,0:0:0:0:
256,192,235291,1,0,0:0:0:0:
256,192,236091,1,8,0:0:0:0:
256,192,236491,1,0,0:0:0:0:
256,192,236891,1,0,0:0:0:0:
256,192,238491,1,0,0:0:0:0:
256,192,239091,1,0,0:0:0:0:
256,192,239691,1,8,0:0:0:0:
256,192,240091,5,4,0:0:0:0:
256,192,240891,1,8,0:0:0:0:
256,192,241691,1,0,0:0:0:0:
256,192,242091,1,0,0:0:0:0:
256,192,242491,1,8,0:0:0:0:
256,192,242891,1,8,0:0:0:0:
224,128,243291,2,0,L|384:128,2,140
256,192,244891,1,0,0:0:0:0:
256,192,245491,1,8,0:0:0:0:
256,192,246091,1,8,0:0:0:0:
256,192,246491,1,0,0:0:0:0:
256,192,247291,1,8,0:0:0:0:
256,192,248091,1,8,0:0:0:0:
256,192,248491,1,8,0:0:0:0:
256,192,248891,1,0,0:0:0:0:
256,192,249291,1,0,0:0:0:0:
256,192,249691,1,8,0:0:0:0:
256,192,250891,1,8,0:0:0:0:
256,192,251291,1,0,0:0:0:0:
256,192,252891,1,12,0:0:0:0:
256,192,253691,1,8,0:0:0:0:
256,192,254491,1,8,0:0:0:0:
256,192,255491,1,8,0:0:0:0:
256,192,255691,1,8,0:0:0:0:
