osu file format v14

[General]
AudioFilename: ochamekinou.mp3
AudioLeadIn: 0
PreviewTime: 226691
Countdown: 0
SampleSet: Normal
StackLeniency: 0.7
Mode: 1
LetterboxInBreaks: 0
WidescreenStoryboard: 1

[Editor]
DistanceSpacing: 0.4
BeatDivisor: 4
GridSize: 32
TimelineZoom: 2.100001

[Metadata]
Title:Ochame Kinou
TitleUnicode:おちゃめ機能
Artist:Various Artists
ArtistUnicode:Various Artists
Creator:Jerry
Version:Futsuu
Source:
Tags:Japanese Pop j-pop jpop ホロライブ collab collaboration hololive idol project virtual vtuber バーチャルyoutuber cover カバー corp kijibato キジバト gojimajip ゴジマジP UTAU Kasane Teto 重音テト ラマーズP lamazep Mischievous Function 吹っ切れた Fukkireta chorus Charlotte Bathym- kitafuma Metzo Backfire Hivie radar 3san Peaceful ianpep Aloda tzechi Consified taiko_ryuki [zeth] neonat cdhsausageboy yassu- Vulkin Senritsu frz HiroK komasy Khoo Hao Yit ときのそら Tokino Sora ロボ子さん Roboco-san さくらみこ Sakura Miko 星街すいせい Hoshimachi Suisei Hoshimati 夜空メル Yozora Mel 夏色まつり Natsuiro Matsuri アキ・ローゼンタール Aki Rosenthal 大空スバル Oozora Subaru 癒月ちょこ Yuzuki Choco 紫咲シオン Murasaki Shion 百鬼あやめ Nakiri Ayame 湊あくあ Minato Aqua 大神ミオ Ookami Mio 猫又おかゆ Nekomata Okayu AZKi 兎田ぺこら Usada Pekora 潤羽るしあ Uruha Rushia 不知火フレア Shiranui Flare 白銀ノエル Shirogane Noel 宝鐘マリン Houshou Marine 角巻わため Tsunomaki Watame 常闇トワ Tokoyami Towa 天音かなた Amane Kanata 姫森ルーナ Himemori Luna 赤井はあと Akai Haato 谷郷元昭 Tanigo Motoaki YAGOO 戌神ころね Inugami Korone 桐生ココ Kiryu Coco 白上フブキ Shirakami Fubuki
BeatmapID:2400234
BeatmapSetID:1147932

[Difficulty]
HPDrainRate:6
CircleSize:5
OverallDifficulty:4
ApproachRate:5
SliderMultiplier:1.4
SliderTickRate:1

[Events]
//Background and Video events
0,0,"BG.jpg",0,0
//Break Periods
//Storyboard Layer 0 (Background)
//Storyboard Layer 1 (Fail)
//Storyboard Layer 2 (Pass)
//Storyboard Layer 3 (Foreground)
Sprite,Foreground,Centre,"SB\title.png",320,360 S,0,19297,,0.3 MX,1,19297,19997,1320,320 M,0,19997,25697,320,360 MX,2,25697,26697,320,-680
Sprite,Foreground,Centre,"SB\storyboardby.png",320,360 S,0,25697,,0.3 MX,1,25697,26697,1320,320 M,0,26697,29897,320,360 MX,2,28897,29897,320,-680
Sprite,Foreground,Centre,"SB\specialthanks.png",320,360 S,0,28897,,0.3 MX,1,28897,29897,1320,320 M,0,29897,32097,320,360 MX,1,31097,32097,320,-680
Sprite,Foreground,Centre,"SB\Birthdays\birthdaybox.png",320,410 S,0,31097,,0.2 MX,1,31097,32097,1420,420 MX,0,37497,38497,420,-580
Sprite,Foreground,Centre,"SB\Birthdays\birthdaybox.png",320,410 S,0,37497,,0.2 MX,1,37497,38497,1420,420 MX,0,43897,44897,420,-580
Sprite,Foreground,Centre,"SB\Birthdays\birthdaybox.png",320,410 S,0,43897,,0.2 MX,1,43897,44897,1420,420 MX,0,50297,51297,420,-580
Sprite,Foreground,Centre,"SB\Birthdays\birthdaybox.png",320,410 S,0,50297,,0.2 MX,1,50297,51297,1420,420 MX,0,56697,57697,420,-580
Sprite,Foreground,Centre,"SB\Birthdays\birthdaybox.png",320,410 S,0,56697,,0.2 MX,1,56697,57697,1420,420 MX,0,63097,64097,420,-580
Sprite,Foreground,Centre,"SB\Birthdays\birthdaybox.png",320,410 S,0,63097,,0.2 MX,1,63097,64097,1420,420 MX,0,69497,70497,420,-580
Sprite,Foreground,Centre,"SB\Birthdays\birthdaybox.png",320,410 S,0,69497,,0.2 MX,1,69497,70497,1420,420 MX,0,75897,76897,420,-580
Sprite,Foreground,Centre,"SB\Birthdays\birthdaybox.png",320,410 S,0,75897,,0.2 MX,1,75897,76897,1420,420 MX,0,82297,83297,420,-580
Sprite,Foreground,Centre,"SB\Birthdays\birthdaybox.png",320,410 S,0,82297,,0.2 MX,1,82297,83297,1420,420 MX,0,88697,89697,420,-580
Sprite,Foreground,Centre,"SB\Birthdays\birthdaybox.png",320,410 S,0,88697,,0.2 MX,1,88697,89697,1420,420 MX,0,98297,99297,420,-580
Sprite,Foreground,Centre,"SB\Birthdays\birthdaybox.png",320,410 S,0,98297,,0.2 MX,1,98297,99297,1420,420 MX,0,104697,105697,420,-580
Sprite,Foreground,Centre,"SB\Birthdays\birthdaybox.png",320,410 S,0,104697,,0.2 MX,1,104697,105697,1420,420 MX,0,111097,112097,420,-580
Sprite,Foreground,Centre,"SB\Birthdays\birthdaybox.png",320,410 S,0,111097,,0.2 MX,1,111097,112097,1420,420 MX,0,117497,118497,420,-580
Sprite,Foreground,Centre,"SB\Birthdays\birthdaybox.png",320,410 S,0,117497,,0.2 MX,1,117497,118497,1420,420 MX,0,123897,124897,420,-580
Sprite,Foreground,Centre,"SB\Birthdays\birthdaybox.png",320,410 S,0,123897,,0.2 MX,1,123897,124897,1420,420 MX,0,130297,131297,420,-580
Sprite,Foreground,Centre,"SB\Birthdays\birthdaybox.png",320,410 S,0,130297,,0.2 MX,1,130297,131297,1420,420 MX,0,136697,137697,420,-580
Sprite,Foreground,Centre,"SB\Birthdays\birthdaybox.png",320,410 S,0,136697,,0.2 MX,1,136697,137697,1420,420 MX,0,143097,144097,420,-580
Sprite,Foreground,Centre,"SB\Birthdays\birthdaybox.png",320,410 S,0,143097,,0.2 MX,1,143097,144097,1420,420 MX,0,149497,150497,420,-580
Sprite,Foreground,Centre,"SB\Birthdays\birthdaybox.png",320,410 S,0,149497,,0.2 MX,1,149497,150497,1420,420 MX,0,155897,156897,420,-580
Sprite,Foreground,Centre,"SB\Birthdays\birthdaybox.png",320,410 S,0,155897,,0.2 MX,1,155897,156897,1420,420 MX,0,162297,163297,420,-580
Sprite,Foreground,Centre,"SB\Birthdays\birthdaybox.png",320,410 S,0,162297,,0.2 MX,1,162297,163297,1420,420 MX,0,165497,166497,420,-580
Sprite,Foreground,Centre,"SB\Birthdays\birthdaybox.png",320,410 S,0,162297,,0.2 MX,1,165497,166497,1420,420 MX,0,168697,169697,420,-580
Sprite,Foreground,Centre,"SB\Birthdays\birthdaybox.png",320,410 S,0,162297,,0.2 MX,1,168697,169697,1420,420 MX,0,171897,172897,420,-580
Sprite,Foreground,Centre,"SB\Birthdays\birthdaybox.png",320,410 S,0,162297,,0.2 MX,1,171897,172897,1420,420 MX,0,175097,176097,420,-580
Sprite,Foreground,Centre,"SB\Birthdays\birthdaybox.png",320,410 S,0,162297,,0.2 MX,1,175097,176097,1420,420 MX,0,200697,201697,420,-580
Sprite,Foreground,Centre,"SB\Birthdays\birthdaybox.png",320,410 S,0,200697,,0.2 MX,1,200697,201697,1420,420 MX,0,207097,208097,420,-580
Sprite,Foreground,Centre,"SB\Birthdays\birthdaybox.png",320,410 S,0,207097,,0.2 MX,1,207097,208097,1420,420 MX,0,213497,214497,420,-580
Sprite,Foreground,Centre,"SB\Birthdays\birthdaybox.png",320,410 S,0,213497,,0.2 MX,1,213497,214497,1420,420 MX,0,219897,220897,420,-580
Sprite,Foreground,Centre,"SB\Birthdays\birthdaybox.png",320,410 S,0,219897,,0.2 MX,1,219897,220897,1420,420 MX,0,226297,227297,420,-580
Sprite,Foreground,Centre,"SB\Birthdays\roboco.png",320,410 S,0,31097,,0.2 MX,1,31097,32097,1420,420 MX,0,37497,38497,420,-580
Sprite,Foreground,Centre,"SB\Birthdays\shion.png",320,410 S,0,37497,,0.2 MX,1,37497,38497,1420,420 MX,0,43897,44897,420,-580
Sprite,Foreground,Centre,"SB\Birthdays\watame.png",320,410 S,0,43897,,0.2 MX,1,43897,44897,1420,420 MX,0,50297,51297,420,-580
Sprite,Foreground,Centre,"SB\Birthdays\mio.png",320,410 S,0,50297,,0.2 MX,1,50297,51297,1420,420 MX,0,56697,57697,420,-580
Sprite,Foreground,Centre,"SB\Birthdays\aki.png",320,410 S,0,56697,,0.2 MX,1,56697,57697,1420,420 MX,0,63097,64097,420,-580
Sprite,Foreground,Centre,"SB\Birthdays\okayu.png",320,410 S,0,63097,,0.2 MX,1,63097,64097,1420,420 MX,0,69497,70497,420,-580
Sprite,Foreground,Centre,"SB\Birthdays\aqua.png",320,410 S,0,69497,,0.2 MX,1,69497,70497,1420,420 MX,0,75897,76897,420,-580
Sprite,Foreground,Centre,"SB\Birthdays\matsuri.png",320,410 S,0,75897,,0.2 MX,1,75897,76897,1420,420 MX,0,82297,83297,420,-580
Sprite,Foreground,Centre,"SB\Birthdays\choco.png",320,410 S,0,82297,,0.2 MX,1,82297,83297,1420,420 MX,0,88697,89697,420,-580
Sprite,Foreground,Centre,"SB\Birthdays\mel.png",320,410 S,0,88697,,0.2 MX,1,88697,89697,1420,420 MX,0,98297,99297,420,-580
Sprite,Foreground,Centre,"SB\Birthdays\pekora.png",320,410 S,0,98297,,0.2 MX,1,98297,99297,1420,420 MX,0,104697,105697,420,-580
Sprite,Foreground,Centre,"SB\Birthdays\miko.png",320,410 S,0,104697,,0.2 MX,1,104697,105697,1420,420 MX,0,111097,112097,420,-580
Sprite,Foreground,Centre,"SB\Birthdays\towa.png",320,410 S,0,111097,,0.2 MX,1,111097,112097,1420,420 MX,0,117497,118497,420,-580
Sprite,Foreground,Centre,"SB\Birthdays\luna.png",320,410 S,0,117497,,0.2 MX,1,117497,118497,1420,420 MX,0,123897,124897,420,-580
Sprite,Foreground,Centre,"SB\Birthdays\rushia.png",320,410 S,0,123897,,0.2 MX,1,123897,124897,1420,420 MX,0,130297,131297,420,-580
Sprite,Foreground,Centre,"SB\Birthdays\marine.png",320,410 S,0,130297,,0.2 MX,1,130297,131297,1420,420 MX,0,136697,137697,420,-580
Sprite,Foreground,Centre,"SB\Birthdays\suisei.png",320,410 S,0,136697,,0.2 MX,1,136697,137697,1420,420 MX,0,143097,144097,420,-580
Sprite,Foreground,Centre,"SB\Birthdays\kanata.png",320,410 S,0,143097,,0.2 MX,1,143097,144097,1420,420 MX,0,149497,150497,420,-580
Sprite,Foreground,Centre,"SB\Birthdays\sora.png",320,410 S,0,149497,,0.2 MX,1,149497,150497,1420,420 MX,0,155897,156897,420,-580
Sprite,Foreground,Centre,"SB\Birthdays\azki.png",320,410 S,0,155897,,0.2 MX,1,155897,156897,1420,420 MX,0,162297,163297,420,-580
Sprite,Foreground,Centre,"SB\Birthdays\korone.png",320,410 S,0,162297,,0.2 MX,1,162297,163297,1420,420 MX,0,165497,166497,420,-580
Sprite,Foreground,Centre,"SB\Birthdays\haato.png",320,410 S,0,162297,,0.2 MX,1,165497,166497,1420,420 MX,0,168697,169697,420,-580
Sprite,Foreground,Centre,"SB\Birthdays\fubuki.png",320,410 S,0,162297,,0.2 MX,1,168697,169697,1420,420 MX,0,171897,172897,420,-580
Sprite,Foreground,Centre,"SB\Birthdays\coco.png",320,410 S,0,162297,,0.2 MX,1,171897,172897,1420,420 MX,0,175097,176097,420,-580
Sprite,Foreground,Centre,"SB\Birthdays\yagoo.png",320,410 S,0,162297,,0.2 MX,1,175097,176097,1420,420 MX,0,200697,201697,420,-580
Sprite,Foreground,Centre,"SB\Birthdays\subaru.png",320,410 S,0,200697,,0.2 MX,1,200697,201697,1420,420 MX,0,207097,208097,420,-580
Sprite,Foreground,Centre,"SB\Birthdays\ayame.png",320,410 S,0,207097,,0.2 MX,1,207097,208097,1420,420 MX,0,213497,214497,420,-580
Sprite,Foreground,Centre,"SB\Birthdays\flare.png",320,410 S,0,213497,,0.2 MX,1,213497,214497,1420,420 MX,0,219897,220897,420,-580
Sprite,Foreground,Centre,"SB\Birthdays\noel.png",320,410 S,0,219897,,0.2 MX,1,219897,220897,1420,420 MX,0,226297,227297,420,-580
//Storyboard Layer 4 (Overlay)
//Storyboard Sound Samples

[TimingPoints]
91,400,4,1,0,60,1,0
6491,-100,4,1,0,70,0,1
19291,-100,4,1,0,60,0,0
70491,-100,4,1,0,70,0,1
94091,-100,4,1,0,60,0,0
137691,-100,4,1,0,70,0,1
161491,-100,4,1,0,60,0,0
201691,-100,4,1,0,70,0,1
225491,-100,4,1,0,70,0,0
227291,-100,4,1,0,70,0,1
251291,-100,4,1,0,60,0,0

[HitObjects]
256,192,91,5,12,0:0:0:0:
256,192,491,1,0,0:0:0:0:
256,192,891,1,0,0:0:0:0:
256,192,1691,1,8,0:0:0:0:
256,192,2091,1,0,0:0:0:0:
256,192,2491,1,0,0:0:0:0:
256,192,3291,1,8,0:0:0:0:
256,192,3691,1,0,0:0:0:0:
256,192,4091,1,0,0:0:0:0:
256,192,4491,1,8,0:0:0:0:
256,192,4891,1,4,0:0:0:0:
256,192,5491,1,4,0:0:0:0:
256,192,6491,5,4,0:0:0:0:
256,192,6891,1,8,0:0:0:0:
256,192,7191,1,8,0:0:0:0:
256,192,7491,1,0,0:0:0:0:
256,192,7691,1,8,0:0:0:0:
256,192,8091,1,0,0:0:0:0:
256,192,8491,1,8,0:0:0:0:
256,192,8791,1,8,0:0:0:0:
256,192,9091,1,0,0:0:0:0:
256,192,9291,1,0,0:0:0:0:
256,192,9691,1,0,0:0:0:0:
256,192,10091,1,8,0:0:0:0:
256,192,10391,1,8,0:0:0:0:
256,192,10691,1,0,0:0:0:0:
256,192,10891,1,8,0:0:0:0:
256,192,11291,1,0,0:0:0:0:
256,192,12091,5,0,0:0:0:0:
256,192,12291,1,0,0:0:0:0:
256,192,12491,1,8,0:0:0:0:
256,192,12891,1,0,0:0:0:0:
256,192,13291,1,8,0:0:0:0:
256,192,13591,1,8,0:0:0:0:
256,192,13891,1,0,0:0:0:0:
256,192,14091,1,8,0:0:0:0:
256,192,14491,1,0,0:0:0:0:
256,192,14891,1,8,0:0:0:0:
256,192,15191,1,8,0:0:0:0:
256,192,15491,1,8,0:0:0:0:
256,192,15691,1,0,0:0:0:0:
256,192,16091,1,0,0:0:0:0:
256,192,16491,1,8,0:0:0:0:
256,192,16791,1,8,0:0:0:0:
256,192,17091,1,0,0:0:0:0:
256,192,17291,1,8,0:0:0:0:
256,192,17691,1,0,0:0:0:0:
256,192,18491,5,0,0:0:0:0:
256,192,18691,1,8,0:0:0:0:
256,192,18891,1,8,0:0:0:0:
256,192,19291,5,4,0:0:0:0:
256,192,19691,1,0,0:0:0:0:
256,192,20091,1,8,0:0:0:0:
256,192,20391,1,8,0:0:0:0:
256,192,20691,1,8,0:0:0:0:
256,192,20891,1,0,0:0:0:0:
256,192,21291,1,0,0:0:0:0:
256,192,21691,1,8,0:0:0:0:
256,192,21991,1,8,0:0:0:0:
256,192,22291,1,8,0:0:0:0:
256,192,22491,1,0,0:0:0:0:
256,192,22891,1,0,0:0:0:0:
256,192,23291,1,8,0:0:0:0:
256,192,23591,1,8,0:0:0:0:
256,192,23891,1,8,0:0:0:0:
256,192,24491,1,8,0:0:0:0:
256,192,25291,1,8,0:0:0:0:
256,192,25691,5,0,0:0:0:0:
256,192,26091,1,0,0:0:0:0:
256,192,26491,1,8,0:0:0:0:
256,192,26791,1,8,0:0:0:0:
256,192,27091,1,8,0:0:0:0:
256,192,27291,1,0,0:0:0:0:
256,192,27691,1,0,0:0:0:0:
256,192,28091,1,8,0:0:0:0:
256,192,28391,1,8,0:0:0:0:
256,192,28691,1,8,0:0:0:0:
256,192,28891,5,0,0:0:0:0:
256,192,29291,1,0,0:0:0:0:
256,192,29691,1,8,0:0:0:0:
256,192,29991,1,8,0:0:0:0:
256,192,30291,1,8,0:0:0:0:
256,192,30891,1,8,0:0:0:0:
256,192,31691,1,0,0:0:0:0:
256,192,32091,1,0,0:0:0:0:
256,192,32691,1,0,0:0:0:0:
256,192,32891,1,8,0:0:0:0:
256,192,33491,1,8,0:0:0:0:
256,192,33691,1,0,0:0:0:0:
256,192,33891,1,0,0:0:0:0:
256,192,34091,1,8,0:0:0:0:
256,192,34491,1,0,0:0:0:0:
256,192,35291,5,8,0:0:0:0:
256,192,35891,1,0,0:0:0:0:
256,192,36091,1,8,0:0:0:0:
256,192,36691,1,8,0:0:0:0:
256,192,36891,1,8,0:0:0:0:
256,192,37091,1,0,0:0:0:0:
256,192,37291,1,8,0:0:0:0:
256,192,37691,1,0,0:0:0:0:
256,192,38491,5,8,0:0:0:0:
256,192,39091,1,0,0:0:0:0:
256,192,39291,1,8,0:0:0:0:
256,192,39891,1,8,0:0:0:0:
256,192,40091,1,0,0:0:0:0:
256,192,40291,1,8,0:0:0:0:
256,192,40491,1,0,0:0:0:0:
256,192,40891,1,8,0:0:0:0:
256,192,41691,5,8,0:0:0:0:
256,192,42291,1,8,0:0:0:0:
256,192,42491,1,0,0:0:0:0:
256,192,43091,1,0,0:0:0:0:
256,192,43291,1,8,0:0:0:0:
256,192,43491,1,8,0:0:0:0:
256,192,43691,1,0,0:0:0:0:
256,192,44091,1,8,0:0:0:0:
256,192,44291,1,8,0:0:0:0:
256,192,44491,1,0,0:0:0:0:
256,192,44891,1,12,0:0:0:0:
256,192,45491,1,0,0:0:0:0:
256,192,45691,1,8,0:0:0:0:
256,192,46291,1,8,0:0:0:0:
256,192,46491,1,0,0:0:0:0:
256,192,46891,1,8,0:0:0:0:
256,192,47291,1,0,0:0:0:0:
256,192,48091,5,8,0:0:0:0:
256,192,48691,1,0,0:0:0:0:
256,192,48891,1,8,0:0:0:0:
256,192,49491,1,8,0:0:0:0:
256,192,49691,1,8,0:0:0:0:
256,192,50091,1,8,0:0:0:0:
256,192,50491,1,0,0:0:0:0:
256,192,50691,1,8,0:0:0:0:
256,192,50891,1,8,0:0:0:0:
256,192,51291,1,0,0:0:0:0:
256,192,51891,1,8,0:0:0:0:
256,192,52091,1,8,0:0:0:0:
256,192,52691,1,8,0:0:0:0:
256,192,52891,1,0,0:0:0:0:
256,192,53291,1,8,0:0:0:0:
256,192,53691,1,0,0:0:0:0:
256,192,54491,5,8,0:0:0:0:
256,192,55091,1,8,0:0:0:0:
256,192,55291,1,0,0:0:0:0:
256,192,55891,1,0,0:0:0:0:
256,192,56091,1,8,0:0:0:0:
256,192,56491,1,8,0:0:0:0:
256,192,56891,1,0,0:0:0:0:
256,192,57091,1,8,0:0:0:0:
256,192,57291,1,8,0:0:0:0:
256,192,57491,1,0,0:0:0:0:
256,192,57691,1,4,0:0:0:0:
256,192,58091,1,0,0:0:0:0:
256,192,58491,1,8,0:0:0:0:
256,192,58691,1,8,0:0:0:0:
256,192,58891,1,8,0:0:0:0:
256,192,59291,1,0,0:0:0:0:
256,192,59691,1,0,0:0:0:0:
256,192,60091,1,8,0:0:0:0:
256,192,60891,5,0,0:0:0:0:
256,192,61291,1,0,0:0:0:0:
256,192,61691,1,8,0:0:0:0:
256,192,61891,1,8,0:0:0:0:
256,192,62091,1,0,0:0:0:0:
256,192,62491,1,0,0:0:0:0:
256,192,62891,1,0,0:0:0:0:
256,192,63291,1,8,0:0:0:0:
256,192,63491,1,8,0:0:0:0:
256,192,64091,1,8,0:0:0:0:
256,192,64491,1,8,0:0:0:0:
256,192,64891,1,0,0:0:0:0:
256,192,65091,1,0,0:0:0:0:
256,192,65291,1,0,0:0:0:0:
256,192,65691,1,8,0:0:0:0:
256,192,66091,1,8,0:0:0:0:
256,192,66491,1,0,0:0:0:0:
256,192,67291,5,8,0:0:0:0:
256,192,67691,1,8,0:0:0:0:
256,192,68091,1,0,0:0:0:0:
256,192,68291,1,0,0:0:0:0:
256,192,68491,1,8,0:0:0:0:
256,192,68691,1,8,0:0:0:0:
256,192,68891,1,4,0:0:0:0:
256,192,69491,1,4,0:0:0:0:
256,192,70491,5,4,0:0:0:0:
256,192,70891,1,8,0:0:0:0:
256,192,71191,1,8,0:0:0:0:
256,192,71491,1,8,0:0:0:0:
256,192,71691,1,8,0:0:0:0:
256,192,72091,1,0,0:0:0:0:
256,192,72491,1,8,0:0:0:0:
256,192,72791,1,8,0:0:0:0:
256,192,73091,1,0,0:0:0:0:
256,192,73291,1,8,0:0:0:0:
256,192,73691,1,0,0:0:0:0:
256,192,74091,1,8,0:0:0:0:
256,192,74391,1,8,0:0:0:0:
256,192,74691,1,8,0:0:0:0:
256,192,74891,1,0,0:0:0:0:
256,192,75291,1,0,0:0:0:0:
256,192,76091,5,0,0:0:0:0:
256,192,76291,1,8,0:0:0:0:
256,192,76491,1,8,0:0:0:0:
256,192,76891,1,0,0:0:0:0:
256,192,77291,1,8,0:0:0:0:
256,192,77591,1,0,0:0:0:0:
256,192,77891,1,8,0:0:0:0:
256,192,78091,1,8,0:0:0:0:
256,192,78491,1,0,0:0:0:0:
256,192,78891,1,8,0:0:0:0:
256,192,79191,1,8,0:0:0:0:
256,192,79491,1,0,0:0:0:0:
256,192,79691,1,8,0:0:0:0:
256,192,80091,1,0,0:0:0:0:
256,192,80491,1,8,0:0:0:0:
256,192,80791,1,0,0:0:0:0:
256,192,81091,1,8,0:0:0:0:
256,192,81291,1,8,0:0:0:0:
256,192,81691,1,0,0:0:0:0:
256,192,82491,5,0,0:0:0:0:
256,192,82691,1,8,0:0:0:0:
256,192,82891,1,8,0:0:0:0:
256,192,83291,1,4,0:0:0:0:
256,192,84091,5,8,0:0:0:0:
256,192,84491,1,0,0:0:0:0:
256,192,84691,1,0,0:0:0:0:
256,192,84891,1,8,0:0:0:0:
256,192,85291,1,8,0:0:0:0:
256,192,85691,1,0,0:0:0:0:
256,192,85891,1,0,0:0:0:0:
256,192,86091,1,8,0:0:0:0:
256,192,86291,1,8,0:0:0:0:
128,96,86491,2,0,L|224:96,4,70
256,192,87691,1,0,0:0:0:0:
256,192,88091,1,8,0:0:0:0:
256,192,88491,1,8,0:0:0:0:
256,192,88691,1,0,0:0:0:0:
256,192,89091,1,8,0:0:0:0:
256,192,89491,1,0,0:0:0:0:
256,192,89691,1,4,0:0:0:0:
256,192,90491,5,8,0:0:0:0:
256,192,90691,1,8,0:0:0:0:
256,192,90891,1,0,0:0:0:0:
256,192,91291,1,0,0:0:0:0:
256,192,91691,1,8,0:0:0:0:
256,192,91891,1,0,0:0:0:0:
256,192,92291,1,8,0:0:0:0:
256,192,92491,1,8,0:0:0:0:
256,192,92691,1,0,0:0:0:0:
256,192,93091,1,8,0:0:0:0:
256,192,93291,1,0,0:0:0:0:
256,192,94491,12,0,95691,0:0:0:0:
256,192,96091,5,0,0:0:0:0:
256,192,96891,1,0,0:0:0:0:
256,192,97691,1,8,0:0:0:0:
256,192,98091,1,8,0:0:0:0:
256,192,98491,1,8,0:0:0:0:
256,192,98891,1,4,0:0:0:0:
256,192,99291,5,0,0:0:0:0:
256,192,100091,1,0,0:0:0:0:
256,192,100891,5,8,0:0:0:0:
256,192,101291,1,8,0:0:0:0:
256,192,101691,1,0,0:0:0:0:
256,192,102091,1,8,0:0:0:0:
256,192,102491,1,4,0:0:0:0:
256,192,103091,1,8,0:0:0:0:
256,192,103291,1,8,0:0:0:0:
256,192,103891,1,8,0:0:0:0:
256,192,104091,1,0,0:0:0:0:
256,192,104491,1,8,0:0:0:0:
256,192,104891,1,0,0:0:0:0:
256,192,105091,1,8,0:0:0:0:
256,192,105291,1,8,0:0:0:0:
256,192,105691,1,8,0:0:0:0:
256,192,106291,1,0,0:0:0:0:
256,192,106491,1,8,0:0:0:0:
256,192,107091,1,8,0:0:0:0:
256,192,107291,1,0,0:0:0:0:
256,192,107691,1,8,0:0:0:0:
256,192,108091,1,0,0:0:0:0:
256,192,108891,5,8,0:0:0:0:
256,192,109491,1,0,0:0:0:0:
256,192,109691,1,8,0:0:0:0:
256,192,110291,1,8,0:0:0:0:
256,192,110491,1,0,0:0:0:0:
256,192,110891,1,8,0:0:0:0:
256,192,111291,1,0,0:0:0:0:
256,192,111491,1,8,0:0:0:0:
256,192,111691,1,8,0:0:0:0:
256,192,111891,1,0,0:0:0:0:
256,192,112091,1,0,0:0:0:0:
256,192,112691,1,8,0:0:0:0:
256,192,112891,5,8,0:0:0:0:
256,192,113491,1,0,0:0:0:0:
256,192,113691,1,8,0:0:0:0:
256,192,114091,1,8,0:0:0:0:
256,192,114491,1,0,0:0:0:0:
256,192,115291,5,0,0:0:0:0:
256,192,115891,1,0,0:0:0:0:
256,192,116091,1,8,0:0:0:0:
256,192,116691,1,8,0:0:0:0:
256,192,116891,1,0,0:0:0:0:
256,192,117291,1,8,0:0:0:0:
256,192,117691,1,0,0:0:0:0:
256,192,117891,1,8,0:0:0:0:
256,192,118091,1,8,0:0:0:0:
256,192,118491,1,0,0:0:0:0:
256,192,119091,1,8,0:0:0:0:
256,192,119291,1,0,0:0:0:0:
256,192,119891,1,0,0:0:0:0:
256,192,120091,1,8,0:0:0:0:
256,192,120491,1,8,0:0:0:0:
256,192,120891,1,0,0:0:0:0:
256,192,121691,5,8,0:0:0:0:
256,192,122291,1,8,0:0:0:0:
256,192,122491,1,0,0:0:0:0:
256,192,123091,1,8,0:0:0:0:
256,192,123291,1,8,0:0:0:0:
256,192,123691,1,0,0:0:0:0:
256,192,124091,1,8,0:0:0:0:
256,192,124291,1,8,0:0:0:0:
256,192,124491,1,0,0:0:0:0:
256,192,124691,1,0,0:0:0:0:
256,192,124891,1,4,0:0:0:0:
256,192,125291,1,8,0:0:0:0:
256,192,125691,1,8,0:0:0:0:
256,192,125891,1,8,0:0:0:0:
256,192,126091,1,8,0:0:0:0:
256,192,126491,1,0,0:0:0:0:
256,192,126891,1,8,0:0:0:0:
256,192,127291,1,8,0:0:0:0:
256,192,127491,1,8,0:0:0:0:
256,192,127691,1,0,0:0:0:0:
256,192,128091,1,0,0:0:0:0:
256,192,128891,5,8,0:0:0:0:
256,192,129291,1,8,0:0:0:0:
256,192,129691,1,0,0:0:0:0:
256,192,130091,1,0,0:0:0:0:
256,192,130491,1,0,0:0:0:0:
256,192,130691,1,0,0:0:0:0:
256,192,130891,1,8,0:0:0:0:
256,192,131091,1,8,0:0:0:0:
256,192,131291,1,0,0:0:0:0:
256,192,132091,5,0,0:0:0:0:
256,192,132491,1,8,0:0:0:0:
256,192,132891,1,8,0:0:0:0:
256,192,133091,1,8,0:0:0:0:
256,192,133291,1,0,0:0:0:0:
256,192,133691,1,0,0:0:0:0:
256,192,134091,1,0,0:0:0:0:
256,192,134491,1,8,0:0:0:0:
256,192,134891,1,8,0:0:0:0:
256,192,135291,1,0,0:0:0:0:
256,192,135491,1,0,0:0:0:0:
256,192,135691,1,8,0:0:0:0:
256,192,135891,1,8,0:0:0:0:
256,192,136091,1,4,0:0:0:0:
256,192,136691,1,12,0:0:0:0:
256,192,137691,5,4,0:0:0:0:
256,192,138091,1,8,0:0:0:0:
256,192,138391,1,8,0:0:0:0:
256,192,138691,1,8,0:0:0:0:
256,192,138891,1,0,0:0:0:0:
256,192,139291,1,0,0:0:0:0:
256,192,139691,1,8,0:0:0:0:
256,192,139991,1,0,0:0:0:0:
256,192,140291,1,0,0:0:0:0:
256,192,140491,1,8,0:0:0:0:
256,192,140891,1,0,0:0:0:0:
256,192,141291,1,8,0:0:0:0:
256,192,141591,1,8,0:0:0:0:
256,192,141891,1,8,0:0:0:0:
256,192,142091,1,0,0:0:0:0:
256,192,142491,1,0,0:0:0:0:
256,192,143291,5,0,0:0:0:0:
256,192,143491,1,8,0:0:0:0:
256,192,143691,1,8,0:0:0:0:
256,192,144091,5,0,0:0:0:0:
256,192,144491,1,8,0:0:0:0:
256,192,144791,1,8,0:0:0:0:
256,192,145091,1,0,0:0:0:0:
256,192,145291,1,8,0:0:0:0:
256,192,145691,1,0,0:0:0:0:
256,192,146091,1,8,0:0:0:0:
256,192,146391,1,0,0:0:0:0:
256,192,146691,1,0,0:0:0:0:
256,192,146891,1,8,0:0:0:0:
256,192,147291,1,0,0:0:0:0:
256,192,147691,1,8,0:0:0:0:
256,192,147991,1,8,0:0:0:0:
256,192,148291,1,0,0:0:0:0:
256,192,148491,1,8,0:0:0:0:
256,192,148891,1,0,0:0:0:0:
256,192,149691,5,8,0:0:0:0:
256,192,149891,1,8,0:0:0:0:
256,192,150091,1,0,0:0:0:0:
256,192,150491,1,4,0:0:0:0:
256,192,151291,1,8,0:0:0:0:
256,192,151691,1,8,0:0:0:0:
256,192,152091,1,0,0:0:0:0:
256,192,152491,1,8,0:0:0:0:
256,192,152691,1,8,0:0:0:0:
256,192,152891,1,0,0:0:0:0:
256,192,153291,1,8,0:0:0:0:
256,192,153491,1,0,0:0:0:0:
192,128,153691,2,0,L|288:128,4,70
256,192,154891,5,8,0:0:0:0:
256,192,155291,1,0,0:0:0:0:
256,192,155691,1,8,0:0:0:0:
256,192,156091,1,0,0:0:0:0:
256,192,156291,1,8,0:0:0:0:
256,192,156491,1,8,0:0:0:0:
256,192,156891,1,4,0:0:0:0:
256,192,157691,1,0,0:0:0:0:
256,192,157891,1,8,0:0:0:0:
256,192,158091,1,8,0:0:0:0:
256,192,158491,1,0,0:0:0:0:
256,192,158891,1,8,0:0:0:0:
256,192,159091,1,0,0:0:0:0:
256,192,159491,1,8,0:0:0:0:
256,192,159691,1,8,0:0:0:0:
256,192,160091,1,0,0:0:0:0:
256,192,160491,1,8,0:0:0:0:
256,192,160691,1,8,0:0:0:0:
256,192,161091,1,8,0:0:0:0:
256,192,161291,1,0,0:0:0:0:
256,192,161691,12,0,162491,0:0:0:0:
256,192,163291,5,0,0:0:0:0:
256,192,163691,1,8,0:0:0:0:
256,192,163991,1,0,0:0:0:0:
256,192,164291,1,0,0:0:0:0:
256,192,164491,1,8,0:0:0:0:
256,192,164891,1,0,0:0:0:0:
256,192,165291,1,8,0:0:0:0:
256,192,165591,1,8,0:0:0:0:
256,192,165891,1,0,0:0:0:0:
256,192,166091,1,8,0:0:0:0:
256,192,166491,1,0,0:0:0:0:
256,192,166891,1,8,0:0:0:0:
256,192,167191,1,0,0:0:0:0:
256,192,167491,1,0,0:0:0:0:
256,192,167691,1,8,0:0:0:0:
256,192,168091,1,0,0:0:0:0:
256,192,168891,5,8,0:0:0:0:
256,192,169091,1,0,0:0:0:0:
256,192,169291,1,8,0:0:0:0:
256,192,169691,1,0,0:0:0:0:
256,192,170091,1,8,0:0:0:0:
256,192,170391,1,0,0:0:0:0:
256,192,170691,1,0,0:0:0:0:
256,192,170891,1,8,0:0:0:0:
256,192,171291,1,0,0:0:0:0:
256,192,171691,1,8,0:0:0:0:
256,192,171991,1,8,0:0:0:0:
256,192,172291,1,0,0:0:0:0:
256,192,172491,1,8,0:0:0:0:
256,192,172891,1,0,0:0:0:0:
256,192,173291,1,8,0:0:0:0:
256,192,173591,1,0,0:0:0:0:
256,192,173891,1,0,0:0:0:0:
256,192,174091,1,8,0:0:0:0:
256,192,174291,1,8,0:0:0:0:
256,192,174491,1,4,0:0:0:0:
256,192,175091,1,4,0:0:0:0:
256,192,176091,5,4,0:0:0:0:
256,192,176491,1,8,0:0:0:0:
256,192,176891,1,8,0:0:0:0:
256,192,177091,1,0,0:0:0:0:
256,192,177291,1,8,0:0:0:0:
256,192,177691,1,0,0:0:0:0:
256,192,178091,1,8,0:0:0:0:
256,192,178491,1,0,0:0:0:0:
256,192,178691,1,0,0:0:0:0:
256,192,178891,1,8,0:0:0:0:
256,192,179291,1,0,0:0:0:0:
256,192,179691,1,8,0:0:0:0:
256,192,180091,1,0,0:0:0:0:
256,192,180491,1,8,0:0:0:0:
256,192,180891,1,8,0:0:0:0:
256,192,181491,1,8,0:0:0:0:
256,192,182091,1,8,0:0:0:0:
256,192,182491,1,0,0:0:0:0:
256,192,184091,5,0,0:0:0:0:
256,192,184491,1,8,0:0:0:0:
256,192,184891,1,0,0:0:0:0:
256,192,185091,1,0,0:0:0:0:
256,192,185291,1,8,0:0:0:0:
256,192,185691,1,0,0:0:0:0:
256,192,186091,1,8,0:0:0:0:
256,192,186491,1,8,0:0:0:0:
256,192,186891,1,8,0:0:0:0:
256,192,187291,1,0,0:0:0:0:
256,192,187691,1,8,0:0:0:0:
256,192,188091,1,0,0:0:0:0:
256,192,188291,1,8,0:0:0:0:
256,192,188491,1,8,0:0:0:0:
256,192,188891,1,4,0:0:0:0:
256,192,189691,5,8,0:0:0:0:
256,192,190091,1,8,0:0:0:0:
256,192,190491,1,0,0:0:0:0:
256,192,190891,1,0,0:0:0:0:
256,192,191291,1,8,0:0:0:0:
256,192,191691,1,8,0:0:0:0:
256,192,191891,1,8,0:0:0:0:
256,192,192091,1,8,0:0:0:0:
256,192,193291,5,0,0:0:0:0:
256,192,193691,1,0,0:0:0:0:
256,192,194091,1,8,0:0:0:0:
256,192,194291,1,8,0:0:0:0:
256,192,194491,1,0,0:0:0:0:
256,192,194891,1,8,0:0:0:0:
256,192,195291,1,12,0:0:0:0:
256,192,196091,5,8,0:0:0:0:
256,192,196491,1,8,0:0:0:0:
256,192,196691,1,8,0:0:0:0:
256,192,197091,1,0,0:0:0:0:
256,192,197291,1,0,0:0:0:0:
256,192,197491,1,8,0:0:0:0:
256,192,197891,1,8,0:0:0:0:
256,192,198291,1,8,0:0:0:0:
192,96,198491,2,0,L|288:96,6,70
256,192,200091,12,0,200891,0:0:0:0:
256,192,201691,5,4,0:0:0:0:
256,192,202091,1,8,0:0:0:0:
256,192,202391,1,8,0:0:0:0:
256,192,202691,1,8,0:0:0:0:
256,192,202891,1,0,0:0:0:0:
256,192,203291,1,0,0:0:0:0:
256,192,203691,1,8,0:0:0:0:
256,192,203991,1,8,0:0:0:0:
256,192,204291,1,0,0:0:0:0:
256,192,204491,1,8,0:0:0:0:
256,192,204891,1,0,0:0:0:0:
256,192,205291,1,8,0:0:0:0:
256,192,205591,1,8,0:0:0:0:
256,192,205891,1,8,0:0:0:0:
256,192,206091,1,0,0:0:0:0:
256,192,206491,1,0,0:0:0:0:
256,192,207291,1,8,0:0:0:0:
256,192,207491,1,8,0:0:0:0:
256,192,207691,1,0,0:0:0:0:
256,192,208091,5,0,0:0:0:0:
256,192,208491,1,8,0:0:0:0:
256,192,208791,1,0,0:0:0:0:
256,192,209091,1,8,0:0:0:0:
256,192,209291,1,8,0:0:0:0:
256,192,209691,1,0,0:0:0:0:
256,192,210091,1,8,0:0:0:0:
256,192,210391,1,8,0:0:0:0:
256,192,210691,1,0,0:0:0:0:
256,192,210891,1,8,0:0:0:0:
256,192,211291,1,0,0:0:0:0:
256,192,211691,1,8,0:0:0:0:
256,192,211991,1,0,0:0:0:0:
256,192,212291,1,8,0:0:0:0:
256,192,212491,1,8,0:0:0:0:
256,192,212891,1,0,0:0:0:0:
256,192,213691,1,0,0:0:0:0:
256,192,213891,1,8,0:0:0:0:
256,192,214091,1,0,0:0:0:0:
256,192,214491,1,4,0:0:0:0:
256,192,215291,5,0,0:0:0:0:
256,192,215691,1,8,0:0:0:0:
256,192,215891,1,8,0:0:0:0:
256,192,216091,1,0,0:0:0:0:
256,192,216491,1,8,0:0:0:0:
256,192,216891,1,0,0:0:0:0:
256,192,217091,1,0,0:0:0:0:
256,192,217291,1,8,0:0:0:0:
256,192,217491,1,8,0:0:0:0:
192,128,217691,2,0,L|352:128,2,140
256,192,218891,1,8,0:0:0:0:
256,192,219291,1,0,0:0:0:0:
256,192,219691,1,8,0:0:0:0:
256,192,219891,1,0,0:0:0:0:
256,192,220091,1,0,0:0:0:0:
256,192,220291,1,8,0:0:0:0:
256,192,220491,1,8,0:0:0:0:
256,192,220891,1,4,0:0:0:0:
256,192,221691,1,8,0:0:0:0:
256,192,221891,1,0,0:0:0:0:
256,192,222091,1,8,0:0:0:0:
256,192,222491,1,0,0:0:0:0:
256,192,222891,1,8,0:0:0:0:
256,192,223091,1,0,0:0:0:0:
256,192,223491,1,8,0:0:0:0:
256,192,223691,1,8,0:0:0:0:
256,192,223891,1,0,0:0:0:0:
256,192,224291,1,8,0:0:0:0:
256,192,224491,1,0,0:0:0:0:
256,192,225091,1,0,0:0:0:0:
256,192,225291,1,8,0:0:0:0:
256,192,225691,12,0,226491,0:0:0:0:
256,192,227291,5,4,0:0:0:0:
256,192,227691,1,8,0:0:0:0:
256,192,227991,1,8,0:0:0:0:
256,192,228291,1,0,0:0:0:0:
256,192,228491,1,8,0:0:0:0:
256,192,228891,1,0,0:0:0:0:
256,192,229291,1,8,0:0:0:0:
256,192,229591,1,0,0:0:0:0:
256,192,229891,1,8,0:0:0:0:
256,192,230091,1,0,0:0:0:0:
256,192,230491,1,8,0:0:0:0:
256,192,230891,1,8,0:0:0:0:
256,192,231191,1,8,0:0:0:0:
256,192,231491,1,0,0:0:0:0:
256,192,231691,1,8,0:0:0:0:
256,192,232091,1,0,0:0:0:0:
256,192,232891,5,8,0:0:0:0:
256,192,233091,1,0,0:0:0:0:
256,192,233291,1,8,0:0:0:0:
256,192,233691,5,0,0:0:0:0:
256,192,234091,1,8,0:0:0:0:
256,192,234391,1,8,0:0:0:0:
256,192,234691,1,0,0:0:0:0:
256,192,234891,1,8,0:0:0:0:
256,192,235291,1,0,0:0:0:0:
256,192,235691,1,8,0:0:0:0:
256,192,235991,1,0,0:0:0:0:
256,192,236291,1,8,0:0:0:0:
256,192,236491,1,0,0:0:0:0:
256,192,236891,1,0,0:0:0:0:
256,192,237291,1,8,0:0:0:0:
256,192,237591,1,8,0:0:0:0:
256,192,237891,1,0,0:0:0:0:
256,192,238091,1,8,0:0:0:0:
256,192,238491,1,0,0:0:0:0:
256,192,239291,5,8,0:0:0:0:
256,192,239491,1,8,0:0:0:0:
256,192,239691,1,0,0:0:0:0:
256,192,240091,1,4,0:0:0:0:
256,192,240891,5,8,0:0:0:0:
256,192,241291,1,8,0:0:0:0:
256,192,241491,1,8,0:0:0:0:
256,192,241691,1,0,0:0:0:0:
256,192,242091,1,8,0:0:0:0:
256,192,242491,1,0,0:0:0:0:
256,192,242691,1,0,0:0:0:0:
256,192,242891,1,8,0:0:0:0:
256,192,243091,1,8,0:0:0:0:
192,128,243291,2,0,L|352:128,2,140
256,192,244491,1,8,0:0:0:0:
256,192,244691,1,8,0:0:0:0:
256,192,244891,1,0,0:0:0:0:
256,192,245291,1,0,0:0:0:0:
256,192,245491,1,8,0:0:0:0:
256,192,245891,1,8,0:0:0:0:
256,192,246291,1,8,0:0:0:0:
256,192,246491,1,8,0:0:0:0:
256,192,246691,1,0,0:0:0:0:
256,192,246891,1,8,0:0:0:0:
256,192,247491,1,0,0:0:0:0:
256,192,247691,1,8,0:0:0:0:
256,192,247891,1,0,0:0:0:0:
256,192,248091,1,0,0:0:0:0:
256,192,248491,1,8,0:0:0:0:
256,192,248691,1,0,0:0:0:0:
256,192,249091,1,8,0:0:0:0:
256,192,249291,1,8,0:0:0:0:
256,192,249491,1,0,0:0:0:0:
256,192,249891,1,0,0:0:0:0:
256,192,250091,1,8,0:0:0:0:
256,192,250491,1,8,0:0:0:0:
256,192,250691,1,0,0:0:0:0:
256,192,250891,1,8,0:0:0:0:
256,192,251291,1,0,0:0:0:0:
256,192,252891,5,12,0:0:0:0:
256,192,253291,1,8,0:0:0:0:
256,192,253691,1,8,0:0:0:0:
256,192,253891,1,8,0:0:0:0:
256,192,254091,1,8,0:0:0:0:
256,192,254491,1,8,0:0:0:0:
256,192,254891,1,8,0:0:0:0:
256,192,255291,1,8,0:0:0:0:
256,192,255491,5,12,0:0:0:0:
256,192,255691,1,12,0:0:0:0:
