osu file format v14

[General]
AudioFilename: norris.mp3
AudioLeadIn: 0
PreviewTime: 35061
Countdown: 0
SampleSet: Normal
StackLeniency: 0.3
Mode: 0
LetterboxInBreaks: 0
WidescreenStoryboard: 1

[Editor]
DistanceSpacing: 2
BeatDivisor: 4
GridSize: 32
TimelineZoom: 1

[Metadata]
Title:Not Meme Compilation
TitleUnicode:Not Meme Compilation
Artist:Various Artists
ArtistUnicode:Various Artists
Creator:seselis1
Version:Ch-ch-ch-chop!
Source:
Tags:
BeatmapID:1586826
BeatmapSetID:602466

[Difficulty]
HPDrainRate:7
CircleSize:4
OverallDifficulty:7
ApproachRate:9.3
SliderMultiplier:2.5
SliderTickRate:1

[Events]
//Background and Video events
0,0,"chuck.jpg",0,0
//Break Periods
//Storyboard Layer 0 (Background)
//Storyboard Layer 1 (Fail)
//Storyboard Layer 2 (Pass)
//Storyboard Layer 3 (Foreground)
//Storyboard Sound Samples

[TimingPoints]
327,300,4,1,0,5,1,0
327,-125,4,1,0,5,0,0
3927,-100,4,1,0,20,0,0
15777,-166.666666666667,4,1,0,20,0,0
17727,-100,4,1,0,20,0,0
22227,-166.666666666667,4,1,0,20,0,0
23727,-100,4,1,0,20,0,0
27927,-166.666666666667,4,1,0,20,0,0
30327,-100,4,1,0,20,0,0
32727,-166.666666666667,4,1,0,20,0,0
35427,-76.9230769230769,4,1,0,70,0,1
47427,-125,4,1,0,70,0,0

[Colours]
Combo1 : 255,255,255
Combo2 : 33,201,250
Combo3 : 255,0,0

[HitObjects]
102,189,327,5,0,0:0:0:0:
126,151,402,1,0,0:0:0:0:
167,136,477,1,0,0:0:0:0:
211,144,552,1,0,0:0:0:0:
240,177,627,5,0,0:0:0:0:
264,214,702,1,0,0:0:0:0:
306,228,777,1,0,0:0:0:0:
349,218,852,1,0,0:0:0:0:
378,185,927,5,0,0:0:0:0:
256,192,1002,12,0,2052,0:0:0:0:
444,219,2127,6,0,L|425:327,1,100
468,86,2427,1,0,0:0:0:0:
258,168,2577,6,0,L|292:274,1,100
212,41,2877,1,0,0:0:0:0:
106,239,3027,6,0,L|186:312,1,100
4,152,3327,1,0,0:0:0:0:
4,152,3927,6,0,L|132:138,1,125
333,283,4227,2,0,L|204:272,1,125
40,55,4527,1,0,0:0:0:0:
280,121,4677,1,0,0:0:0:0:
95,300,4827,2,0,L|58:164,1,125
333,283,5127,5,0,0:0:0:0:
171,92,5277,1,0,0:0:0:0:
153,364,5427,2,0,P|220:372|283:347,1,125
307,83,5727,2,0,P|266:137|256:204,1,125
490,355,6027,2,0,P|463:292|410:250,1,125
120,287,6327,6,0,L|215:378,1,125
31,195,6627,1,0,0:0:0:0:
279,220,6777,2,0,L|184:311,1,125
368,128,7077,1,0,0:0:0:0:
119,153,7227,2,0,L|214:244,1,125
30,62,7527,5,0,0:0:0:0:
276,23,7677,1,0,0:0:0:0:
264,290,7827,2,0,L|171:204,1,125
119,153,8052,1,0,0:0:0:0:
154,131,8127,1,0,0:0:0:0:
200,131,8202,1,0,0:0:0:0:
239,153,8277,1,0,0:0:0:0:
446,335,8427,2,0,P|390:355|322:331,1,125
447,86,8727,6,0,L|391:234,1,125
119,153,9027,2,0,L|175:301,1,125
351,103,9327,1,0,0:0:0:0:
91,75,9477,1,0,0:0:0:0:
200,343,9627,1,0,0:0:0:0:
227,94,9777,1,0,0:0:0:0:
47,342,9927,5,0,0:0:0:0:
296,340,10077,1,0,0:0:0:0:
51,232,10227,1,0,0:0:0:0:
300,223,10377,1,0,0:0:0:0:
54,114,10527,2,0,B|37:134|37:134|54:253,1,125
296,340,10827,2,0,B|313:320|313:320|296:201,1,125
52,35,11127,5,0,0:0:0:0:
301,48,11277,1,0,0:0:0:0:
11,34,11427,1,0,0:0:0:0:
366,4,11577,2,0,L|324:127,1,125
76,143,11877,1,0,0:0:0:0:
431,113,12027,2,0,L|389:236,1,125
93,241,12327,6,0,P|152:225|234:263,1,125
447,329,12627,2,0,P|388:345|306:307,1,125
35,179,12927,2,0,P|79:142|150:127,1,125
328,326,13227,2,0,L|327:197,1,125
164,11,13527,5,0,0:0:0:0:
182,244,13677,1,0,0:0:0:0:
393,112,13827,1,0,0:0:0:0:
143,126,13977,2,0,L|185:251,1,125
411,346,14277,1,0,0:0:0:0:
411,346,14427,2,0,L|453:221,1,125
182,244,14727,6,0,P|117:253|63:228,1,125
293,360,15027,2,0,P|358:369|412:344,1,125
444,272,15252,1,0,0:0:0:0:
450,227,15327,1,0,0:0:0:0:
259,64,15477,1,0,0:0:0:0:
340,271,15627,1,0,0:0:0:0:
104,190,15777,6,0,B|71:199|71:199|148:252|219:204,1,187.499994277954
214,207,16227,6,0,B|247:198|247:198|170:145|99:193,1,187.499994277954
103,189,16677,6,0,P|170:304|206:193,1,299.999990844727
215,208,17352,6,0,P|224:148|290:182,1,149.999995422363
300,250,17727,5,0,0:0:0:0:
439,42,17877,1,0,0:0:0:0:
455,291,18027,1,0,0:0:0:0:
316,83,18177,1,0,0:0:0:0:
271,338,18327,5,0,0:0:0:0:
410,130,18477,1,0,0:0:0:0:
426,379,18627,1,0,0:0:0:0:
287,171,18777,1,0,0:0:0:0:
126,362,18927,1,0,0:0:0:0:
43,125,19077,1,0,0:0:0:0:
287,171,19227,1,0,0:0:0:0:
0,306,19377,6,0,B|9:284|9:284|111:237,1,125
387,235,19677,2,0,B|378:213|378:213|276:166,1,125
43,125,19977,1,0,0:0:0:0:
228,292,20127,5,0,0:0:0:0:
281,47,20277,1,0,0:0:0:0:
43,125,20427,1,0,0:0:0:0:
286,182,20577,1,0,0:0:0:0:
103,11,20727,5,0,0:0:0:0:
48,254,20877,1,0,0:0:0:0:
286,182,21027,1,0,0:0:0:0:
43,125,21177,2,0,L|190:159,1,125
408,92,21477,1,0,0:0:0:0:
234,271,21627,1,0,0:0:0:0:
252,21,21777,1,0,0:0:0:0:
447,228,21927,6,0,L|300:262,1,125
124,239,22227,6,0,L|145:361,1,112.499996566773
191,248,22527,6,0,L|135:364,1,112.499996566773
60,271,22827,6,0,L|142:349,1,112.499996566773
243,300,23127,6,0,L|136:351,1,112.499996566773
33,338,23427,6,0,B|71:345|71:345|74:339|74:339|161:351,1,112.499996566773
121,224,23727,6,0,L|141:360,1,125
332,143,24027,2,0,L|311:279,1,125
107,121,24327,5,0,0:0:0:0:
342,38,24477,1,0,0:0:0:0:
70,135,24627,1,0,0:0:0:0:
332,143,24777,1,0,0:0:0:0:
63,31,24927,1,0,0:0:0:0:
209,233,25077,2,0,B|209:271|209:271|229:323|229:323|229:375,1,125
458,252,25377,2,0,B|458:214|458:214|478:162|478:162|478:110,1,125
360,351,25677,1,0,0:0:0:0:
253,104,25827,6,0,B|225:91|225:91|121:91,1,125
229,354,26127,2,0,P|242:283|216:232,1,125
12,98,26427,1,0,0:0:0:0:
319,55,26577,2,0,P|332:126|306:177,1,125
93,299,26877,1,0,0:0:0:0:
342,304,27027,6,0,L|474:290,1,125
319,55,27327,1,0,0:0:0:0:
249,308,27477,1,0,0:0:0:0:
238,46,27627,2,0,L|106:32,1,125
247,205,27927,6,0,P|268:262|243:313,1,112.499996566773
193,357,28227,6,0,P|214:300|189:249,1,112.499996566773
140,202,28527,6,0,P|161:259|136:310,1,112.499996566773
86,354,28827,6,0,P|107:297|82:246,1,112.499996566773
256,192,29127,12,0,30252,0:0:0:0:
463,57,30327,6,0,B|405:42|405:42|302:54,1,125
285,295,30627,1,0,0:0:0:0:
397,148,30777,1,0,0:0:0:0:
147,150,30927,1,0,0:0:0:0:
339,228,31077,1,0,0:0:0:0:
105,64,31227,2,0,B|66:117|66:117|53:193,1,125
241,366,31527,6,0,P|203:288|218:233,1,125
457,288,31827,1,0,0:0:0:0:
288,290,31977,1,0,0:0:0:0:
434,87,32127,1,0,0:0:0:0:
373,287,32277,1,0,0:0:0:0:
400,9,32427,2,0,P|461:7|512:41,1,125
219,32,32727,5,0,0:0:0:0:
87,104,32877,2,0,L|164:123,1,74.9999977111817
298,64,33177,1,0,0:0:0:0:
248,205,33327,2,0,L|171:224,1,74.9999977111817
87,104,33627,1,0,0:0:0:0:
89,298,33777,2,0,L|166:317,1,74.9999977111817
256,192,34002,12,0,35352,0:0:0:0:
417,63,35427,5,0,0:0:0:0:
110,169,35577,1,0,0:0:0:0:
483,123,35727,6,0,L|441:292,1,162.499992561341
225,36,36027,1,0,0:0:0:0:
310,349,36177,2,0,L|141:307,1,162.499992561341
2,21,36477,1,0,0:0:0:0:
316,103,36627,1,0,0:0:0:0:
43,280,36777,1,0,0:0:0:0:
391,163,36927,6,0,P|410:88|347:13,1,162.499992561341
368,346,37227,1,0,0:0:0:0:
194,71,37377,2,0,P|119:52|44:115,1,162.499992561341
364,21,37677,1,0,0:0:0:0:
103,215,37827,2,0,L|103:390,1,162.499992561341
466,261,38127,6,0,L|301:246,1,162.499992561341
24,81,38427,1,0,0:0:0:0:
348,76,38577,1,0,0:0:0:0:
179,353,38727,1,0,0:0:0:0:
174,28,38877,1,0,0:0:0:0:
355,297,39027,1,0,0:0:0:0:
174,28,39177,1,0,0:0:0:0:
12,309,39327,5,0,0:0:0:0:
355,297,39477,1,0,0:0:0:0:
61,156,39627,1,0,0:0:0:0:
431,333,39777,2,0,L|470:160,1,162.499992561341
174,28,40077,1,0,0:0:0:0:
113,359,40227,2,0,L|286:320,1,162.499992561341
41,93,40527,5,0,0:0:0:0:
365,91,40677,1,0,0:0:0:0:
41,93,40827,1,0,0:0:0:0:
445,30,40977,2,0,L|388:218,1,162.499992561341
41,278,41277,1,0,0:0:0:0:
445,341,41427,2,0,L|388:153,1,162.499992561341
41,93,41727,1,0,0:0:0:0:
445,30,41877,2,0,L|388:218,1,162.499992561341
72,186,42177,1,0,0:0:0:0:
342,365,42327,6,0,P|336:298|268:235,1,162.499992561341
0,56,42627,2,0,P|6:123|74:186,1,162.499992561341
412,234,42927,5,0,0:0:0:0:
89,271,43077,1,0,0:0:0:0:
412,234,43227,1,0,0:0:0:0:
31,342,43377,2,0,L|74:177,1,162.499992561341
412,135,43677,1,0,0:0:0:0:
31,27,43827,2,0,L|74:192,1,162.499992561341
372,60,44127,2,0,P|300:28|215:63,1,162.499992561341
31,342,44427,2,0,P|103:374|188:339,1,162.499992561341
412,135,44727,6,0,L|412:314,1,162.499992561341
9,259,45027,2,0,L|9:80,1,162.499992561341
270,289,45327,5,0,0:0:0:0:
74,29,45477,1,0,0:0:0:0:
270,289,45627,1,0,0:0:0:0:
466,30,45777,2,0,L|355:177,1,162.499992561341
120,370,46077,1,0,0:0:0:0:
74,29,46227,2,0,L|221:140,1,162.499992561341
442,347,46527,6,0,B|464:326|464:326|477:191,1,162.499992561341
154,217,46827,2,0,B|132:238|132:238|119:373,1,162.499992561341
365,113,47127,6,0,L|197:127,1,162.499992561341
298,379,47427,6,0,P|322:309|279:225,1,150
104,227,47727,2,0,P|234:296|302:216,1,250
307,48,48177,2,0,P|238:178|318:246,1,250
454,224,48627,2,0,P|393:182|289:259,1,200
256,192,49002,12,0,50952,0:0:0:0:
