osu file format v14

[General]
AudioFilename: triggerhappy.mp3
AudioLeadIn: 0
PreviewTime: -1
Countdown: 1
SampleSet: None
StackLeniency: 0.7
Mode: 3
LetterboxInBreaks: 0
SpecialStyle: 0
WidescreenStoryboard: 0

[Editor]
DistanceSpacing: 1.1
BeatDivisor: 4
GridSize: 8
TimelineZoom: 1.5

[Metadata]
Title:Music for busy people
TitleUnicode:Music for busy people
Artist:Various Artists
ArtistUnicode:Various Artists
Creator:Hydria
Version:P*Light - TRIGGER*HAPPY
Source:
Tags:
BeatmapID:1290018
BeatmapSetID:611054

[Difficulty]
HPDrainRate:8
CircleSize:4
OverallDifficulty:9
ApproachRate:5
SliderMultiplier:1.4
SliderTickRate:1

[Events]
//Background and Video events
0,0,"BG2.jpg",0,0
//Break Periods
//Storyboard Layer 0 (Background)
//Storyboard Layer 1 (Fail)
//Storyboard Layer 2 (Pass)
//Storyboard Layer 3 (Foreground)
//Storyboard Sound Samples

[TimingPoints]
885,324.324324324324,4,1,0,20,1,0

[HitObjects]
64,192,885,5,0,0:0:0:0:
320,192,885,1,0,0:0:0:0:
448,192,885,1,0,0:0:0:0:
192,192,1047,1,0,0:0:0:0:
64,192,1047,1,0,0:0:0:0:
192,192,1371,1,0,0:0:0:0:
320,192,1371,1,0,0:0:0:0:
448,192,1371,1,0,0:0:0:0:
64,192,1533,1,0,0:0:0:0:
320,192,1533,128,0,1857:0:0:0:0:
64,192,1857,1,0,0:0:0:0:
192,192,1857,1,0,0:0:0:0:
448,192,2020,1,0,0:0:0:0:
320,192,2020,1,0,0:0:0:0:
192,192,2101,1,0,0:0:0:0:
320,192,2182,1,0,0:0:0:0:
64,192,2182,1,0,0:0:0:0:
448,192,2182,1,0,0:0:0:0:
192,192,2344,1,0,0:0:0:0:
64,192,2344,1,0,0:0:0:0:
192,192,2668,1,0,0:0:0:0:
320,192,2668,1,0,0:0:0:0:
448,192,2668,1,0,0:0:0:0:
64,192,2830,1,0,0:0:0:0:
320,192,2830,1,0,0:0:0:0:
448,192,2993,1,0,0:0:0:0:
192,192,2993,1,0,0:0:0:0:
64,192,3155,1,0,0:0:0:0:
320,192,3155,1,0,0:0:0:0:
192,192,3236,1,0,0:0:0:0:
448,192,3317,1,0,0:0:0:0:
320,192,3317,1,0,0:0:0:0:
192,192,3398,1,0,0:0:0:0:
64,192,3479,1,0,0:0:0:0:
448,192,3479,1,0,0:0:0:0:
320,192,3479,1,0,0:0:0:0:
192,192,3641,1,0,0:0:0:0:
64,192,3641,1,0,0:0:0:0:
192,192,3966,1,0,0:0:0:0:
320,192,3966,1,0,0:0:0:0:
448,192,3966,1,0,0:0:0:0:
320,192,4128,1,0,0:0:0:0:
64,192,4128,1,0,0:0:0:0:
64,192,4290,1,0,0:0:0:0:
448,192,4452,1,0,0:0:0:0:
320,192,4452,1,0,0:0:0:0:
64,192,4614,1,0,0:0:0:0:
192,192,4614,1,0,0:0:0:0:
320,192,4695,1,0,0:0:0:0:
64,192,4776,1,0,0:0:0:0:
192,192,4776,1,0,0:0:0:0:
448,192,4776,1,0,0:0:0:0:
320,192,4939,1,0,0:0:0:0:
192,192,4939,1,0,0:0:0:0:
64,192,5101,1,0,0:0:0:0:
320,192,5101,1,0,0:0:0:0:
448,192,5101,1,0,0:0:0:0:
192,192,5263,1,0,0:0:0:0:
320,192,5425,128,0,5749:0:0:0:0:
192,192,5749,1,0,0:0:0:0:
64,192,5749,1,0,0:0:0:0:
448,192,6074,1,0,0:0:0:0:
320,192,6074,1,0,0:0:0:0:
64,192,6074,128,0,8668:0:0:0:0:
448,192,7695,1,0,0:0:0:0:
320,192,7857,1,0,0:0:0:0:
448,192,8668,128,0,8830:0:0:0:0:
448,192,8993,128,0,9155:0:0:0:0:
448,192,9317,128,0,9479:0:0:0:0:
448,192,9641,128,0,9803:0:0:0:0:
448,192,9966,1,0,0:0:0:0:
