osu file format v14

[General]
AudioFilename: Busy MusicBrain Power.mp3
AudioLeadIn: 0
PreviewTime: -1
Countdown: 0
SampleSet: None
StackLeniency: 0.7
Mode: 3
LetterboxInBreaks: 0
SpecialStyle: 0
WidescreenStoryboard: 0

[Editor]
DistanceSpacing: 1
BeatDivisor: 4
GridSize: 32
TimelineZoom: 2.1

[Metadata]
Title:Music for busy people
TitleUnicode:Music for busy people
Artist:Various Artists
ArtistUnicode:Various Artists
Creator:Hydria
Version:NOMA - Brain Power
Source:
Tags:
BeatmapID:1290015
BeatmapSetID:611054

[Difficulty]
HPDrainRate:8
CircleSize:4
OverallDifficulty:9
ApproachRate:8
SliderMultiplier:1.39999990463257
SliderTickRate:1

[Events]
//Background and Video events
0,0,"bg5.jpg",0,0
//Break Periods
//Storyboard Layer 0 (Background)
//Storyboard Layer 1 (Fail)
//Storyboard Layer 2 (Pass)
//Storyboard Layer 3 (Foreground)
//Storyboard Sound Samples

[TimingPoints]
2161,352.941176470588,4,1,0,30,1,8
2513,346.820809248555,4,1,0,30,1,0
2859,-100,4,1,0,30,0,1
8062,-100,4,1,0,30,0,0

[HitObjects]
64,192,2161,5,0,0:0:0:0:
192,192,2161,1,0,0:0:0:0:
192,192,2337,1,0,0:0:0:0:
64,192,2513,1,0,0:0:0:0:
320,192,2513,1,0,0:0:0:0:
448,192,2513,1,0,0:0:0:0:
64,192,2686,1,0,0:0:0:0:
192,192,2686,1,0,0:0:0:0:
320,192,2859,1,0,0:0:0:0:
448,192,2859,1,0,0:0:0:0:
320,192,2946,1,0,0:0:0:0:
448,192,2946,1,0,0:0:0:0:
192,192,3033,1,0,0:0:0:0:
64,192,3033,1,0,0:0:0:0:
64,192,3119,1,0,0:0:0:0:
192,192,3119,1,0,0:0:0:0:
320,192,3206,1,0,0:0:0:0:
448,192,3206,1,0,0:0:0:0:
192,192,3380,1,0,0:0:0:0:
320,192,3380,1,0,0:0:0:0:
192,192,3466,1,0,0:0:0:0:
64,192,3466,1,0,0:0:0:0:
448,192,3640,1,0,0:0:0:0:
320,192,3640,1,0,0:0:0:0:
64,192,3726,1,0,0:0:0:0:
448,192,3726,1,0,0:0:0:0:
192,192,3813,1,0,0:0:0:0:
64,192,3813,1,0,0:0:0:0:
320,192,3900,1,0,0:0:0:0:
448,192,3900,1,0,0:0:0:0:
448,192,3986,1,0,0:0:0:0:
320,192,3986,1,0,0:0:0:0:
192,192,4073,1,0,0:0:0:0:
64,192,4073,1,0,0:0:0:0:
64,192,4160,1,0,0:0:0:0:
192,192,4160,1,0,0:0:0:0:
448,192,4247,1,0,0:0:0:0:
192,192,4247,1,0,0:0:0:0:
320,192,4247,1,0,0:0:0:0:
64,192,4420,1,0,0:0:0:0:
320,192,4420,1,0,0:0:0:0:
448,192,4420,1,0,0:0:0:0:
192,192,4593,1,0,0:0:0:0:
320,192,4593,1,0,0:0:0:0:
64,192,4593,1,0,0:0:0:0:
448,192,4767,1,0,0:0:0:0:
192,192,4767,1,0,0:0:0:0:
320,192,4767,1,0,0:0:0:0:
64,192,4940,1,0,0:0:0:0:
192,192,4940,1,0,0:0:0:0:
448,192,4940,1,0,0:0:0:0:
320,192,5114,1,0,0:0:0:0:
448,192,5114,1,0,0:0:0:0:
64,192,5114,1,0,0:0:0:0:
64,192,5287,1,0,0:0:0:0:
192,192,5287,1,0,0:0:0:0:
320,192,5374,1,0,0:0:0:0:
448,192,5374,1,0,0:0:0:0:
192,192,5460,1,0,0:0:0:0:
64,192,5460,1,0,0:0:0:0:
320,192,5547,1,0,0:0:0:0:
448,192,5634,1,0,0:0:0:0:
64,192,5634,1,0,0:0:0:0:
192,192,5721,1,0,0:0:0:0:
320,192,5721,1,0,0:0:0:0:
448,192,5807,1,0,0:0:0:0:
64,192,5807,1,0,0:0:0:0:
192,192,5894,1,0,0:0:0:0:
320,192,5981,1,0,0:0:0:0:
448,192,5981,1,0,0:0:0:0:
192,192,6067,1,0,0:0:0:0:
64,192,6067,1,0,0:0:0:0:
320,192,6154,1,0,0:0:0:0:
448,192,6154,1,0,0:0:0:0:
64,192,6241,1,0,0:0:0:0:
192,192,6328,1,0,0:0:0:0:
320,192,6328,1,0,0:0:0:0:
448,192,6414,1,0,0:0:0:0:
64,192,6414,1,0,0:0:0:0:
192,192,6501,1,0,0:0:0:0:
320,192,6501,1,0,0:0:0:0:
448,192,6588,1,0,0:0:0:0:
64,192,6674,1,0,0:0:0:0:
192,192,6674,1,0,0:0:0:0:
320,192,6761,1,0,0:0:0:0:
448,192,6761,1,0,0:0:0:0:
192,192,6848,1,0,0:0:0:0:
64,192,6848,1,0,0:0:0:0:
320,192,6934,1,0,0:0:0:0:
448,192,6934,1,0,0:0:0:0:
64,192,7021,1,0,0:0:0:0:
192,192,7021,1,0,0:0:0:0:
320,192,7108,1,0,0:0:0:0:
448,192,7108,1,0,0:0:0:0:
192,192,7195,1,0,0:0:0:0:
64,192,7195,1,0,0:0:0:0:
320,192,7281,1,0,0:0:0:0:
448,192,7281,1,0,0:0:0:0:
64,192,7368,1,0,0:0:0:0:
192,192,7411,1,0,0:0:0:0:
320,192,7455,1,0,0:0:0:0:
448,192,7498,1,0,0:0:0:0:
192,192,7541,1,0,0:0:0:0:
64,192,7585,1,0,0:0:0:0:
448,192,7628,1,0,0:0:0:0:
320,192,7671,1,0,0:0:0:0:
192,192,7715,1,0,0:0:0:0:
64,192,7715,1,0,0:0:0:0:
320,192,7802,1,0,0:0:0:0:
448,192,7802,1,0,0:0:0:0:
192,192,7888,1,0,0:0:0:0:
64,192,7888,1,0,0:0:0:0:
320,192,7975,1,0,0:0:0:0:
448,192,7975,1,0,0:0:0:0:
64,192,8062,1,0,0:0:0:0:
192,192,8062,128,0,10836:0:0:0:0:
