osu file format v14

[General]
AudioFilename: miraizu.mp3
AudioLeadIn: 0
PreviewTime: -1
Countdown: 1
SampleSet: None
StackLeniency: 0.7
Mode: 3
LetterboxInBreaks: 0
SpecialStyle: 0
WidescreenStoryboard: 0

[Editor]
DistanceSpacing: 1.1
BeatDivisor: 4
GridSize: 8
TimelineZoom: 1.7

[Metadata]
Title:Music for busy people
TitleUnicode:Music for busy people
Artist:Various Artists
ArtistUnicode:Various Artists
Creator:Hydria
Version:HoneyWorks - Miraizu
Source:
Tags:
BeatmapID:1290012
BeatmapSetID:611054

[Difficulty]
HPDrainRate:8
CircleSize:4
OverallDifficulty:9
ApproachRate:5
SliderMultiplier:1.4
SliderTickRate:1

[Events]
//Background and Video events
0,0,"48897080_p0.png",0,0
//Break Periods
//Storyboard Layer 0 (Background)
//Storyboard Layer 1 (Fail)
//Storyboard Layer 2 (Pass)
//Storyboard Layer 3 (Foreground)
//Storyboard Sound Samples

[TimingPoints]
420,337.078651685393,4,1,0,20,1,0

[HitObjects]
64,192,307,5,0,0:0:0:0:
192,192,363,1,0,0:0:0:0:
320,192,420,1,0,0:0:0:0:
448,192,420,1,0,0:0:0:0:
192,192,588,1,0,0:0:0:0:
64,192,757,1,0,0:0:0:0:
448,192,925,1,0,0:0:0:0:
64,192,1094,1,0,0:0:0:0:
320,192,1262,1,0,0:0:0:0:
64,192,1431,1,0,0:0:0:0:
192,192,1599,1,0,0:0:0:0:
64,192,1768,1,0,0:0:0:0:
320,192,1936,1,0,0:0:0:0:
192,192,2105,1,0,0:0:0:0:
64,192,2273,1,0,0:0:0:0:
320,192,2442,1,0,0:0:0:0:
448,192,2611,1,0,0:0:0:0:
192,192,2779,1,0,0:0:0:0:
320,192,2948,1,0,0:0:0:0:
64,192,3116,1,0,0:0:0:0:
448,192,3116,1,0,0:0:0:0:
320,192,3285,1,0,0:0:0:0:
64,192,3453,1,0,0:0:0:0:
192,192,3622,1,0,0:0:0:0:
64,192,3790,1,0,0:0:0:0:
320,192,3959,1,0,0:0:0:0:
64,192,4127,1,0,0:0:0:0:
320,192,4296,1,0,0:0:0:0:
192,192,4464,1,0,0:0:0:0:
448,192,4633,1,0,0:0:0:0:
64,192,4802,1,0,0:0:0:0:
320,192,4970,1,0,0:0:0:0:
64,192,5139,1,0,0:0:0:0:
192,192,5139,128,0,5813:0:0:0:0:
320,192,5307,1,0,0:0:0:0:
448,192,5476,1,0,0:0:0:0:
448,192,5644,1,0,0:0:0:0:
64,192,5813,1,0,0:0:0:0:
320,192,5813,128,0,6487:0:0:0:0:
448,192,5981,1,0,0:0:0:0:
64,192,6150,1,0,0:0:0:0:
192,192,6318,1,0,0:0:0:0:
448,192,6487,128,0,7161:0:0:0:0:
64,192,6487,1,0,0:0:0:0:
192,192,6655,1,0,0:0:0:0:
320,192,6824,1,0,0:0:0:0:
64,192,6993,1,0,0:0:0:0:
192,192,7161,128,0,7498:0:0:0:0:
320,192,7161,1,0,0:0:0:0:
64,192,7330,1,0,0:0:0:0:
320,192,7498,1,0,0:0:0:0:
448,192,7667,1,0,0:0:0:0:
320,192,7835,128,0,8509:0:0:0:0:
64,192,7835,1,0,0:0:0:0:
192,192,8004,1,0,0:0:0:0:
448,192,8172,1,0,0:0:0:0:
64,192,8341,1,0,0:0:0:0:
448,192,8509,128,0,9605:0:0:0:0:
192,192,8509,1,0,0:0:0:0:
64,192,8678,1,0,0:0:0:0:
320,192,8846,1,0,0:0:0:0:
192,192,9015,1,0,0:0:0:0:
64,192,9184,1,0,0:0:0:0:
320,192,9352,1,0,0:0:0:0:
192,192,9521,1,0,0:0:0:0:
64,192,9605,128,0,9858:0:0:0:0:
320,192,9689,1,0,0:0:0:0:
320,192,9858,128,0,10195:0:0:0:0:
448,192,9858,1,0,0:0:0:0:
64,192,10532,1,0,0:0:0:0:
192,192,10532,128,0,11206:0:0:0:0:
64,192,11206,1,0,0:0:0:0:
448,192,11206,1,0,0:0:0:0:
320,192,11206,128,0,11543:0:0:0:0:
64,192,11543,128,0,11880:0:0:0:0:
192,192,11880,128,0,12217:0:0:0:0:
320,192,12217,128,0,12386:0:0:0:0:
448,192,12386,128,0,12891:0:0:0:0:
192,192,12554,1,0,0:0:0:0:
320,192,12891,128,0,13228:0:0:0:0:
192,192,13060,1,0,0:0:0:0:
64,192,13228,128,0,13566:0:0:0:0:
448,192,13397,1,0,0:0:0:0:
320,192,13566,128,0,13903:0:0:0:0:
192,192,13903,128,0,14240:0:0:0:0:
448,192,13903,1,0,0:0:0:0:
64,192,13903,1,0,0:0:0:0:
64,192,14240,128,0,14577:0:0:0:0:
192,192,14408,1,0,0:0:0:0:
448,192,14577,128,0,14914:0:0:0:0:
320,192,14577,1,0,0:0:0:0:
192,192,14745,1,0,0:0:0:0:
64,192,14745,1,0,0:0:0:0:
320,192,15082,128,0,15588:0:0:0:0:
64,192,15082,1,0,0:0:0:0:
192,192,15082,1,0,0:0:0:0:
192,192,15419,1,0,0:0:0:0:
64,192,15588,1,0,0:0:0:0:
448,192,15588,1,0,0:0:0:0:
192,192,15644,1,0,0:0:0:0:
320,192,15700,1,0,0:0:0:0:
64,192,15757,1,0,0:0:0:0:
448,192,15813,1,0,0:0:0:0:
192,192,15869,1,0,0:0:0:0:
320,192,15925,1,0,0:0:0:0:
64,192,15925,1,0,0:0:0:0:
448,192,16009,1,0,0:0:0:0:
192,192,16094,1,0,0:0:0:0:
64,192,16094,1,0,0:0:0:0:
320,192,16178,1,0,0:0:0:0:
64,192,16262,1,0,0:0:0:0:
192,192,16262,1,0,0:0:0:0:
320,192,16346,1,0,0:0:0:0:
448,192,16346,1,0,0:0:0:0:
192,192,16431,1,0,0:0:0:0:
64,192,16431,1,0,0:0:0:0:
320,192,16515,1,0,0:0:0:0:
448,192,16515,1,0,0:0:0:0:
192,192,16599,1,0,0:0:0:0:
64,192,16599,1,0,0:0:0:0:
192,192,16768,1,0,0:0:0:0:
320,192,16768,1,0,0:0:0:0:
320,192,16936,1,0,0:0:0:0:
448,192,16936,1,0,0:0:0:0:
192,192,17105,1,0,0:0:0:0:
448,192,17105,1,0,0:0:0:0:
320,192,17189,1,0,0:0:0:0:
192,192,17273,1,0,0:0:0:0:
64,192,17273,1,0,0:0:0:0:
64,192,17442,1,0,0:0:0:0:
320,192,17442,1,0,0:0:0:0:
320,192,17611,1,0,0:0:0:0:
448,192,17611,1,0,0:0:0:0:
448,192,17779,1,0,0:0:0:0:
192,192,17779,1,0,0:0:0:0:
320,192,17863,1,0,0:0:0:0:
192,192,17948,1,0,0:0:0:0:
64,192,17948,1,0,0:0:0:0:
64,192,18116,1,0,0:0:0:0:
192,192,18116,1,0,0:0:0:0:
192,192,18285,1,0,0:0:0:0:
320,192,18285,1,0,0:0:0:0:
448,192,18453,1,0,0:0:0:0:
320,192,18453,1,0,0:0:0:0:
64,192,18537,1,0,0:0:0:0:
192,192,18622,1,0,0:0:0:0:
448,192,18622,128,0,18959:0:0:0:0:
320,192,18959,1,0,0:0:0:0:
64,192,18959,128,0,19296:0:0:0:0:
320,192,19127,1,0,0:0:0:0:
192,192,19296,1,0,0:0:0:0:
448,192,19296,1,0,0:0:0:0:
320,192,19464,1,0,0:0:0:0:
192,192,19464,1,0,0:0:0:0:
64,192,19633,1,0,0:0:0:0:
320,192,19633,1,0,0:0:0:0:
64,192,19802,1,0,0:0:0:0:
192,192,19802,1,0,0:0:0:0:
320,192,19886,1,0,0:0:0:0:
448,192,19970,1,0,0:0:0:0:
192,192,19970,1,0,0:0:0:0:
320,192,20139,1,0,0:0:0:0:
448,192,20139,1,0,0:0:0:0:
320,192,20307,1,0,0:0:0:0:
64,192,20307,1,0,0:0:0:0:
64,192,20476,1,0,0:0:0:0:
192,192,20476,1,0,0:0:0:0:
192,192,20644,1,0,0:0:0:0:
320,192,20644,1,0,0:0:0:0:
448,192,20644,1,0,0:0:0:0:
320,192,20813,1,0,0:0:0:0:
448,192,20813,1,0,0:0:0:0:
64,192,20897,1,0,0:0:0:0:
192,192,20981,1,0,0:0:0:0:
448,192,20981,1,0,0:0:0:0:
320,192,21150,1,0,0:0:0:0:
64,192,21150,1,0,0:0:0:0:
192,192,21234,1,0,0:0:0:0:
64,192,21318,1,0,0:0:0:0:
448,192,21318,1,0,0:0:0:0:
320,192,21431,1,0,0:0:0:0:
192,192,21543,1,0,0:0:0:0:
64,192,21655,1,0,0:0:0:0:
448,192,21655,1,0,0:0:0:0:
320,192,21768,1,0,0:0:0:0:
192,192,21880,1,0,0:0:0:0:
320,192,21993,1,0,0:0:0:0:
448,192,21993,128,0,22330:0:0:0:0:
64,192,22330,128,0,22667:0:0:0:0:
320,192,22667,128,0,23004:0:0:0:0:
448,192,22667,1,0,0:0:0:0:
64,192,23004,128,0,23172:0:0:0:0:
448,192,23172,128,0,23509:0:0:0:0:
192,192,23341,1,0,0:0:0:0:
64,192,23509,128,0,23678:0:0:0:0:
320,192,23678,128,0,23846:0:0:0:0:
192,192,23846,128,0,24015:0:0:0:0:
64,192,23846,1,0,0:0:0:0:
64,192,24015,128,0,24184:0:0:0:0:
448,192,24015,1,0,0:0:0:0:
320,192,24127,1,0,0:0:0:0:
448,192,24240,1,0,0:0:0:0:
192,192,24352,1,0,0:0:0:0:
64,192,24352,1,0,0:0:0:0:
192,192,24689,1,0,0:0:0:0:
448,192,24689,1,0,0:0:0:0:
320,192,24689,1,0,0:0:0:0:
64,192,24858,1,0,0:0:0:0:
320,192,24858,1,0,0:0:0:0:
192,192,24942,1,0,0:0:0:0:
64,192,25026,1,0,0:0:0:0:
448,192,25026,1,0,0:0:0:0:
320,192,25195,1,0,0:0:0:0:
192,192,25195,1,0,0:0:0:0:
448,192,25195,1,0,0:0:0:0:
320,192,25363,1,0,0:0:0:0:
64,192,25363,1,0,0:0:0:0:
64,192,25532,1,0,0:0:0:0:
192,192,25532,1,0,0:0:0:0:
448,192,25532,1,0,0:0:0:0:
192,192,25869,1,0,0:0:0:0:
320,192,25869,1,0,0:0:0:0:
64,192,25869,1,0,0:0:0:0:
448,192,26206,1,0,0:0:0:0:
320,192,26206,1,0,0:0:0:0:
448,192,26375,1,0,0:0:0:0:
64,192,26375,1,0,0:0:0:0:
192,192,26375,1,0,0:0:0:0:
192,192,26543,1,0,0:0:0:0:
320,192,26543,1,0,0:0:0:0:
64,192,26712,1,0,0:0:0:0:
320,192,26712,1,0,0:0:0:0:
448,192,26712,1,0,0:0:0:0:
320,192,26880,1,0,0:0:0:0:
448,192,26880,1,0,0:0:0:0:
192,192,27049,1,0,0:0:0:0:
64,192,27049,1,0,0:0:0:0:
448,192,27049,1,0,0:0:0:0:
320,192,27386,1,0,0:0:0:0:
192,192,27386,1,0,0:0:0:0:
64,192,27386,1,0,0:0:0:0:
320,192,27554,1,0,0:0:0:0:
448,192,27554,1,0,0:0:0:0:
448,192,27723,1,0,0:0:0:0:
192,192,27723,1,0,0:0:0:0:
64,192,27723,1,0,0:0:0:0:
64,192,27891,1,0,0:0:0:0:
320,192,27891,1,0,0:0:0:0:
192,192,27976,1,0,0:0:0:0:
320,192,28060,1,0,0:0:0:0:
448,192,28060,1,0,0:0:0:0:
448,192,28285,1,0,0:0:0:0:
192,192,28285,1,0,0:0:0:0:
320,192,28509,1,0,0:0:0:0:
64,192,28509,1,0,0:0:0:0:
64,192,28734,1,0,0:0:0:0:
192,192,28734,128,0,29408:0:0:0:0:
192,192,29493,128,0,30082:0:0:0:0:
448,192,30082,128,0,30588:0:0:0:0:
192,192,30925,128,0,31599:0:0:0:0:
320,192,31599,128,0,31936:0:0:0:0:
448,192,31936,128,0,32273:0:0:0:0:
192,192,32273,128,0,32611:0:0:0:0:
64,192,32611,128,0,32948:0:0:0:0:
320,192,32948,128,0,35476:0:0:0:0:
