osu file format v14

[General]
AudioFilename: thankyou.mp3
AudioLeadIn: 0
PreviewTime: -1
Countdown: 1
SampleSet: None
StackLeniency: 0.7
Mode: 3
LetterboxInBreaks: 0
SpecialStyle: 0
WidescreenStoryboard: 0

[Editor]
DistanceSpacing: 1.1
BeatDivisor: 4
GridSize: 8
TimelineZoom: 1.4

[Metadata]
Title:Music for busy people
TitleUnicode:Music for busy people
Artist:Various Artists
ArtistUnicode:Various Artists
Creator:Hydria
Version:HTT - NO, Thank You!
Source:
Tags:
BeatmapID:1290013
BeatmapSetID:611054

[Difficulty]
HPDrainRate:8
CircleSize:4
OverallDifficulty:9
ApproachRate:5
SliderMultiplier:1.4
SliderTickRate:1

[Events]
//Background and Video events
0,0,"BG4.jpg",0,0
//Break Periods
//Storyboard Layer 0 (Background)
//Storyboard Layer 1 (Fail)
//Storyboard Layer 2 (Pass)
//Storyboard Layer 3 (Foreground)
//Storyboard Sound Samples

[TimingPoints]
420,331.491712707182,4,1,0,20,1,0
10861,331.491712707182,4,1,0,20,1,0

[HitObjects]
320,192,420,5,0,0:0:0:0:
320,192,751,1,0,0:0:0:0:
320,192,1082,1,0,0:0:0:0:
448,192,1414,1,0,0:0:0:0:
64,192,1414,1,0,0:0:0:0:
192,192,1745,1,0,0:0:0:0:
448,192,1911,1,0,0:0:0:0:
448,192,2077,1,0,0:0:0:0:
64,192,2077,1,0,0:0:0:0:
192,192,2574,1,0,0:0:0:0:
64,192,2740,1,0,0:0:0:0:
320,192,2740,1,0,0:0:0:0:
192,192,3071,1,0,0:0:0:0:
320,192,3237,1,0,0:0:0:0:
64,192,3569,1,0,0:0:0:0:
448,192,3900,1,0,0:0:0:0:
192,192,4066,1,0,0:0:0:0:
64,192,5392,1,0,0:0:0:0:
320,192,5723,1,0,0:0:0:0:
320,192,6055,1,0,0:0:0:0:
320,192,6386,1,0,0:0:0:0:
64,192,6718,1,0,0:0:0:0:
448,192,6718,1,0,0:0:0:0:
192,192,7049,1,0,0:0:0:0:
448,192,7215,1,0,0:0:0:0:
64,192,7381,1,0,0:0:0:0:
448,192,7381,1,0,0:0:0:0:
192,192,7878,1,0,0:0:0:0:
320,192,8044,1,0,0:0:0:0:
64,192,8044,1,0,0:0:0:0:
192,192,8375,1,0,0:0:0:0:
320,192,8541,1,0,0:0:0:0:
192,192,9038,1,0,0:0:0:0:
448,192,9453,1,0,0:0:0:0:
448,192,10861,1,0,0:0:0:0:
64,192,10861,1,0,0:0:0:0:
192,192,11026,1,0,0:0:0:0:
64,192,11026,1,0,0:0:0:0:
192,192,11192,1,0,0:0:0:0:
320,192,11192,1,0,0:0:0:0:
320,192,11358,1,0,0:0:0:0:
448,192,11358,1,0,0:0:0:0:
192,192,11441,1,0,0:0:0:0:
320,192,11523,1,0,0:0:0:0:
448,192,11523,1,0,0:0:0:0:
64,192,11523,1,0,0:0:0:0:
64,192,11689,1,0,0:0:0:0:
192,192,11689,1,0,0:0:0:0:
192,192,11855,1,0,0:0:0:0:
320,192,11855,1,0,0:0:0:0:
448,192,11855,1,0,0:0:0:0:
64,192,12021,1,0,0:0:0:0:
320,192,12021,1,0,0:0:0:0:
448,192,12186,1,0,0:0:0:0:
192,192,12186,1,0,0:0:0:0:
64,192,12186,1,0,0:0:0:0:
192,192,12353,1,0,0:0:0:0:
64,192,12353,1,0,0:0:0:0:
448,192,12353,1,0,0:0:0:0:
192,192,12518,1,0,0:0:0:0:
320,192,12518,1,0,0:0:0:0:
448,192,12684,1,0,0:0:0:0:
64,192,12684,1,0,0:0:0:0:
64,192,12849,1,0,0:0:0:0:
448,192,12849,1,0,0:0:0:0:
320,192,12849,1,0,0:0:0:0:
64,192,13015,1,0,0:0:0:0:
320,192,13015,1,0,0:0:0:0:
448,192,13015,1,0,0:0:0:0:
192,192,13181,1,0,0:0:0:0:
320,192,13181,1,0,0:0:0:0:
448,192,13347,1,0,0:0:0:0:
64,192,13347,1,0,0:0:0:0:
192,192,13512,1,0,0:0:0:0:
320,192,13512,1,0,0:0:0:0:
448,192,13512,1,0,0:0:0:0:
448,192,13678,1,0,0:0:0:0:
320,192,13678,1,0,0:0:0:0:
192,192,13678,1,0,0:0:0:0:
320,192,13844,1,0,0:0:0:0:
64,192,13844,1,0,0:0:0:0:
192,192,14010,1,0,0:0:0:0:
448,192,14010,1,0,0:0:0:0:
320,192,14175,1,0,0:0:0:0:
448,192,14175,1,0,0:0:0:0:
64,192,14175,1,0,0:0:0:0:
64,192,14341,1,0,0:0:0:0:
320,192,14341,1,0,0:0:0:0:
448,192,14341,1,0,0:0:0:0:
320,192,14507,1,0,0:0:0:0:
192,192,14507,1,0,0:0:0:0:
448,192,14673,1,0,0:0:0:0:
64,192,14673,1,0,0:0:0:0:
64,192,14838,1,0,0:0:0:0:
192,192,14838,1,0,0:0:0:0:
448,192,14838,1,0,0:0:0:0:
192,192,15004,1,0,0:0:0:0:
448,192,15004,1,0,0:0:0:0:
64,192,15004,1,0,0:0:0:0:
192,192,15170,1,0,0:0:0:0:
320,192,15170,1,0,0:0:0:0:
320,192,15336,1,0,0:0:0:0:
64,192,15336,1,0,0:0:0:0:
448,192,15501,1,0,0:0:0:0:
192,192,15501,1,0,0:0:0:0:
64,192,15501,1,0,0:0:0:0:
64,192,15667,1,0,0:0:0:0:
448,192,15667,1,0,0:0:0:0:
320,192,15667,1,0,0:0:0:0:
320,192,15833,1,0,0:0:0:0:
192,192,15833,1,0,0:0:0:0:
192,192,15999,1,0,0:0:0:0:
64,192,15999,1,0,0:0:0:0:
448,192,16164,1,0,0:0:0:0:
320,192,16164,1,0,0:0:0:0:
64,192,16164,1,0,0:0:0:0:
320,192,16330,1,0,0:0:0:0:
448,192,16330,1,0,0:0:0:0:
64,192,16330,1,0,0:0:0:0:
192,192,16496,1,0,0:0:0:0:
320,192,16496,1,0,0:0:0:0:
448,192,16662,1,0,0:0:0:0:
64,192,16662,1,0,0:0:0:0:
320,192,16827,1,0,0:0:0:0:
192,192,16827,128,0,16993:0:0:0:0:
64,192,16827,128,0,16993:0:0:0:0:
192,192,17159,1,0,0:0:0:0:
320,192,17159,128,0,17325:0:0:0:0:
448,192,17159,128,0,17325:0:0:0:0:
