osu file format v14

[General]
AudioFilename: audio.mp3
AudioLeadIn: 0
PreviewTime: 134181
Countdown: 0
SampleSet: Soft
StackLeniency: 0.7
Mode: 0
LetterboxInBreaks: 0
EpilepsyWarning: 1
WidescreenStoryboard: 1

[Editor]
DistanceSpacing: 1.3
BeatDivisor: 16
GridSize: 4
TimelineZoom: 1

[Metadata]
Title:Mo Tian Lun De Yan Lei
TitleUnicode:摩天轮的眼泪
Artist:Various Artists
ArtistUnicode:Various Artists
Creator:bossandy
Version:Ferris Wheel Tears
Source:创造101
Tags:創造101 Produce 101 China Chinese 摩天輪的眼淚 楊芸晴 Yang Yun Ching 胡一天 Hu Yi Tian 金志文 Jin Zhi wen 紫宁 Sunnee 蒋申 陈意涵 魏瑾 强东玥 Zi Ning Jiang Shen Chen Yi Han Wei Jin Qiang Dong Yue
BeatmapID:1711649
BeatmapSetID:816189

[Difficulty]
HPDrainRate:5.5
CircleSize:3.5
OverallDifficulty:7
ApproachRate:7.5
SliderMultiplier:1.8
SliderTickRate:1

[Events]
//Background and Video events
0,0,"BG.jpg",0,0
//Break Periods
2,183472,195265
//Storyboard Layer 0 (Background)
//Storyboard Layer 1 (Fail)
//Storyboard Layer 2 (Pass)
//Storyboard Layer 3 (Foreground)
//Storyboard Sound Samples

[TimingPoints]
0,545.454545454546,4,2,1,40,1,0
0,-166.666666666667,4,2,1,40,0,0
34909,-166.666666666667,4,2,2,40,0,0
52363,-125,4,1,1,60,0,1
52636,-125,4,1,1,60,0,0
82909,545.454545454546,4,2,1,60,1,1
82909,-100,4,2,1,60,0,1
83181,-100,4,2,1,60,0,0
100363,-250.000000000001,4,2,1,60,0,0
101181,-166.666666666667,4,2,1,60,0,0
104727,-250.000000000001,4,2,1,60,0,0
105545,-166.666666666667,4,2,1,60,0,0
109090,-250.000000000001,4,2,1,60,0,0
109909,-166.666666666667,4,2,1,60,0,0
113454,-250.000000000001,4,2,1,60,0,0
114272,-166.666666666667,4,2,1,60,0,0
117818,-125,4,2,1,60,0,0
135272,-100,4,2,1,60,0,1
135545,-100,4,2,1,60,0,0
165818,545.454545454546,4,2,1,60,1,1
165818,-100,4,2,1,60,0,1
166090,-100,4,2,1,60,0,0
196090,-100,4,2,1,40,0,0
196908,-100,4,2,1,60,0,0
200181,-100,4,2,1,40,0,0
200727,-100,4,2,1,70,0,1
212727,-100,4,2,1,60,0,0
213818,545.454545454546,4,2,1,60,1,1
213818,-100,4,2,1,60,0,1
214363,-76.9230769230769,4,2,1,60,0,1
215454,-100,4,2,1,60,0,1
216545,-76.9230769230769,4,2,1,60,0,1
217636,-100,4,2,1,60,0,1
218181,-100,4,2,1,60,0,1
218727,-76.9230769230769,4,2,1,60,0,1
219818,-100,4,2,1,60,0,1
220909,-76.9230769230769,4,2,1,60,0,1
222000,-100,4,2,1,60,0,1
223090,-76.9230769230769,4,2,1,60,0,1
224181,-100,4,2,1,60,0,1
225272,-76.9230769230769,4,2,1,60,0,1
226363,-100,4,2,1,60,0,1
227454,-76.9230769230769,4,2,1,60,0,1
228545,-100,4,2,1,60,0,1
229636,-76.9230769230769,4,2,1,60,0,1
230181,-100,4,2,1,60,0,1
230454,-100,4,2,1,40,0,1
231272,-144.927536231884,4,2,1,45,0,0
232363,-144.927536231884,4,2,1,35,0,0
233454,-144.927536231884,4,2,1,25,0,0
234545,-144.927536231884,4,2,1,15,0,0
235636,-144.927536231884,4,2,1,5,0,0

[Colours]
Combo1 : 189,123,255
Combo2 : 128,128,255
Combo3 : 128,0,255
Combo4 : 43,149,255
SliderBorder : 225,0,246
SliderTrackOverride : 75,70,76

[HitObjects]
176,164,0,6,0,P|88:164|40:100,2,161.999995056153,2|0|0,0:0|0:0|0:0,0:0:0:0:
336,164,2181,2,0,P|424:164|472:100,2,161.999995056153,2|0|0,0:0|0:0|0:0,0:0:0:0:
320,324,4363,6,0,B|300:364|256:368|256:368|212:364|192:324,2,161.999995056153,2|0|0,0:0|0:0|0:0,0:0:0:0:
256,176,6545,2,0,B|239:138|256:97|256:97|272:56|256:19,2,161.999995056153,2|0|0,0:0|0:0|0:0,0:0:0:0:
176,316,8727,6,0,P|116:276|76:180,2,161.999995056153,2|0|0,0:0|0:0|0:0,0:0:0:0:
340,316,10909,2,0,P|400:276|440:180,2,161.999995056153,2|0|0,0:0|0:0|0:0,0:0:0:0:
256,192,13090,12,2,16909,0:0:0:0:
336,56,17454,6,0,L|280:48,1,53.9999983520508
228,116,18000,2,0,L|174:108,1,53.9999983520508,2|0,0:0|0:0,0:0:0:0:
132,32,18545,2,0,P|88:80|92:136,1,107.999996704102,0|2,0:0|0:0,0:0:0:0:
140,188,19363,6,0,P|133:240|94:276,1,107.999996704102
56,200,20181,1,2,0:0:0:0:
56,200,20454,1,0,0:0:0:0:
8,272,20727,2,0,L|24:344,1,53.9999983520508
56,200,21272,2,0,L|40:128,1,53.9999983520508,2|0,0:0|0:0,0:0:0:0:
7,271,21818,6,0,P|30:283|58:285,1,53.9999983520508
132,244,22363,2,0,P|155:231|183:229,1,53.9999983520508,2|0,0:0|0:0,0:0:0:0:
180,316,22909,2,0,B|236:324|236:324|279:297,1,107.999996704102,0|2,0:0|0:0,0:0:0:0:
272,212,23727,6,0,B|315:185|315:185|371:193,1,107.999996704102
396,276,24545,1,2,0:0:0:0:
396,276,24818,1,0,0:0:0:0:
456,216,25090,2,0,P|459:186|453:162,1,53.9999983520508
396,276,25636,2,0,P|393:306|399:330,1,53.9999983520508,2|0,0:0|0:0,0:0:0:0:
456,216,26181,6,0,P|458:178|420:116,1,107.999996704102,0|2,0:0|0:0,0:0:0:0:
376,192,27000,2,0,B|349:200|323:192|323:192|296:183|270:192,1,107.999996704102
224,268,27818,2,0,L|168:268,1,53.9999983520508,2|0,0:0|0:0,0:0:0:0:
112,332,28363,6,0,P|85:292|90:232,1,107.999996704102,0|2,0:0|0:0,0:0:0:0:
162,188,29181,2,0,L|270:192,1,107.999996704102
343,148,30000,2,0,P|352:122|348:95,1,53.9999983520508,2|0,0:0|0:0,0:0:0:0:
432,80,30545,6,0,P|438:133|421:183,1,107.999996704102,0|2,0:0|0:0,0:0:0:0:
352,236,31363,2,0,P|334:286|341:339,1,107.999996704102
424,320,32181,2,0,P|420:293|429:268,1,53.9999983520508,2|0,0:0|0:0,0:0:0:0:
504,220,32727,6,0,L|492:108,1,107.999996704102,0|2,0:0|0:0,0:0:0:0:
428,56,33545,2,0,B|401:48|375:56|375:56|348:65|322:56,1,107.999996704102
248,12,34363,2,0,P|218:15|197:27,1,53.9999983520508,2|0,0:0|0:0,0:0:0:0:
248,100,34909,6,0,L|258:171,1,53.9999983520508
168,160,35454,2,0,L|158:89,1,53.9999983520508,8|0,0:0|0:0,0:0:0:0:
72,112,36000,2,0,L|89:227,1,107.999996704102,0|8,0:0|0:0,0:0:0:0:
108,304,36818,6,0,B|140:296|160:272|160:272|208:280,1,107.999996704102
292,292,37636,2,0,P|320:278|340:251,1,53.9999983520508,8|0,0:0|0:0,0:0:0:0:
395,198,38181,2,0,P|369:179|335:176,1,53.9999983520508
261,155,38727,2,0,P|258:186|272:217,1,53.9999983520508,8|0,0:0|0:0,0:0:0:0:
334,261,39272,6,0,P|341:291|331:324,1,53.9999983520508
251,292,39818,2,0,P|234:318|204:334,1,53.9999983520508,8|0,0:0|0:0,0:0:0:0:
168,256,40363,2,0,P|116:270|63:261,1,107.999996704102,0|8,0:0|0:0,0:0:0:0:
88,180,41181,6,0,B|93:152|83:127|83:127|72:101|78:74,1,107.999996704102
148,20,42000,2,0,L|208:24,1,53.9999983520508,8|0,0:0|0:0,0:0:0:0:
260,88,42545,2,0,L|320:84,1,53.9999983520508
372,148,43090,2,0,L|432:152,1,53.9999983520508,8|0,0:0|0:0,0:0:0:0:
448,236,43636,6,0,L|340:228,1,107.999996704102,0|8,0:0|0:0,0:0:0:0:
272,280,44454,2,0,P|252:230|268:180,1,107.999996704102
324,112,45272,2,0,P|288:96|252:96,1,53.9999983520508,8|0,0:0|0:0,0:0:0:0:
188,92,45818,6,0,B|153:92|153:92|119:109|119:109|84:109,1,107.999996704102,0|8,0:0|0:0,0:0:0:0:
36,180,46636,2,0,P|28:228|52:280,1,107.999996704102
132,316,47454,2,0,L|192:312,1,53.9999983520508,8|0,0:0|0:0,0:0:0:0:
252,256,48000,6,0,P|271:206|259:154,1,107.999996704102,0|8,0:0|0:0,0:0:0:0:
192,100,48818,1,0,0:0:0:0:
104,104,49090,1,0,0:0:0:0:
56,176,49363,2,0,L|0:180,2,53.9999983520508,0|8|0,0:0|0:0|0:0,0:0:0:0:
92,256,50181,6,0,L|145:253,1,53.9999983520508
199,179,50727,2,0,L|275:175,1,53.9999983520508,8|0,0:0|0:0,0:0:0:0:
260,264,51272,1,0,0:0:0:0:
344,288,51545,1,0,0:0:0:0:
388,212,51818,1,8,0:0:0:0:
336,144,52090,1,0,0:0:0:0:
253,177,52363,6,0,B|188:196|188:196|116:164,1,144,0|0,0:0|1:0,0:0:0:0:
280,72,53454,2,0,B|345:53|345:53|417:85,1,144,0|0,0:0|1:0,0:0:0:0:
492,136,54272,1,0,2:0:0:0:
408,176,54545,5,0,0:0:0:0:
484,228,54818,1,0,2:0:0:0:
396,264,55090,2,0,L|320:256,1,72,0|0,0:0|2:0,0:0:0:0:
252,320,55636,2,0,L|180:327,1,72,0|0,0:0|2:0,0:0:0:0:
100,284,56181,2,0,P|92:244|104:200,1,72,0|0,0:0|2:0,0:0:0:0:
180,171,56727,6,0,P|196:102|168:36,1,144
97,213,57818,2,0,P|80:282|109:348,1,144
192,384,58636,1,0,2:0:0:0:
284,368,58909,5,0,0:0:0:0:
332,288,59181,1,0,2:0:0:0:
352,196,59454,2,0,P|334:164|307:140,1,72,0|0,0:0|2:0,0:0:0:0:
332,288,60000,2,0,P|368:289|402:277,1,72,0|0,0:0|2:0,0:0:0:0:
258,223,60545,2,0,P|238:253|231:288,1,72,0|0,0:0|2:0,0:0:0:0:
332,288,61090,6,0,B|368:296|416:284|440:248|448:200,1,144
336,68,62181,2,0,B|300:60|252:72|228:108|220:156,1,144
258,223,63000,1,0,2:0:0:0:
168,224,63272,6,0,B|104:232|104:232|92:224|92:224|28:232,1,144
196,304,64363,2,0,B|260:296|260:296|272:304|272:304|336:296,1,144
428,284,65181,1,0,2:0:0:0:
372,212,65454,6,0,P|367:176|372:141,1,72,0|0,0:0|2:0,0:0:0:0:
340,52,66000,2,0,B|304:44|304:44|264:52,1,72,0|0,0:0|2:0,0:0:0:0:
240,140,66545,2,0,B|205:146|205:146|169:138,1,72,0|0,0:0|2:0,0:0:0:0:
101,74,67090,2,0,P|105:38|101:2,1,72,0|0,0:0|2:0,0:0:0:0:
16,40,67636,6,0,P|20:116|72:160,2,144
101,74,69000,1,0,2:0:0:0:
188,36,69272,1,0,0:0:0:0:
273,70,69545,1,0,2:0:0:0:
360,36,69818,6,0,B|393:19|393:19|426:36|459:19|459:19|492:36,1,144
364,172,70909,2,0,B|330:188|330:188|297:172|264:188|264:188|231:172,1,144
148,124,71727,1,0,2:0:0:0:
148,216,72000,5,0,0:0:0:0:
68,172,72272,1,0,2:0:0:0:
68,264,72545,1,0,0:0:0:0:
68,172,72818,1,0,2:0:0:0:
148,216,73090,2,0,L|208:256,1,72,0|0,0:0|2:0,0:0:0:0:
300,264,73636,2,0,L|360:304,1,72,0|0,0:0|2:0,0:0:0:0:
440,352,74181,6,0,L|476:196,1,144
420,32,75272,2,0,L|387:172,1,144
364,264,76090,1,0,2:0:0:0:
288,208,76363,6,0,L|216:224,1,72,0|0,0:0|2:0,0:0:0:0:
228,316,76909,2,0,L|157:300,1,72,0|0,0:0|2:0,0:0:0:0:
68,324,77454,2,0,P|68:284|80:252,1,72,0|0,0:0|2:0,0:0:0:0:
132,176,78000,2,0,P|131:136|119:104,1,72,0|0,0:0|2:0,0:0:0:0:
52,40,78545,6,0,P|116:64|204:44,1,144
459,40,79636,2,0,P|393:64|322:52,1,144
256,116,80454,1,0,2:0:0:0:
189,52,80727,5,4,0:3:0:0:
256,116,81000,1,8,2:3:0:0:
324,184,81272,1,0,0:0:0:0:
324,184,81409,1,4,2:3:0:0:
188,312,81818,1,8,1:3:0:0:
256,248,82090,1,0,2:0:0:0:
324,312,82363,1,4,0:3:0:0:
188,184,82636,2,0,L|148:184,1,36,2|2,2:1|2:1,0:0:0:0:
68,228,82909,6,0,P|56:184|68:140,1,90,4|0,1:0|2:0,0:0:0:0:
164,80,83454,1,8,1:2:0:0:
280,76,83727,2,0,L|328:76,2,45,0|0|0,0:0|0:0|1:0,0:0:0:0:
228,180,84272,1,0,0:0:0:0:
344,180,84545,2,0,L|452:180,1,90,8|0,1:2|0:0,0:0:0:0:
432,296,85090,6,0,P|400:324|352:340,1,90,0|0,1:0|0:0,0:0:0:0:
256,280,85636,1,8,1:2:0:0:
256,164,85909,2,0,L|256:116,2,45,0|0|0,0:0|0:0|1:0,0:0:0:0:
152,220,86454,2,0,B|108:228|108:228|64:220,2,90,0|8|0,0:0|1:2|0:0,0:0:0:0:
336,176,87272,6,0,B|396:161|396:161|398:170|398:170|459:156,2,135,2|2|2,1:2|0:0|0:0,0:0:0:0:
424,252,88363,2,0,L|524:224,1,90,0|0,1:0|0:0,0:0:0:0:
380,76,88909,2,0,L|280:104,1,90,8|0,1:2|0:0,0:0:0:0:
220,276,89454,6,0,P|157:254|119:199,2,135,2|2|2,1:2|0:0|0:0,0:0:0:0:
231,160,90545,2,0,P|254:121|292:101,1,90,0|0,1:0|2:0,2:0:0:0:
320,316,91090,2,0,P|292:356|256:376,1,90,8|0,1:2|0:0,0:0:0:0:
348,212,91636,6,0,B|392:216|416:256|416:256|468:252,2,135,2|2|2,1:2|0:0|0:0,0:0:0:0:
320,324,92727,2,0,B|292:328|292:328|228:308,1,90,0|0,1:0|0:0,0:0:0:0:
416,256,93272,2,0,B|444:252|444:252|508:272,1,90,8|0,1:2|0:0,0:0:0:0:
316,208,93818,6,0,B|308:128|308:128|348:80,2,135,2|2|2,1:2|0:0|0:0,0:0:0:0:
320,324,94909,2,0,P|272:320|240:296,1,90,0|0,1:0|0:0,0:0:0:0:
148,220,95454,2,0,P|100:224|68:248,1,90,8|0,1:2|0:0,0:0:0:0:
120,104,96000,6,0,P|186:107|240:146,2,135,2|2|2,1:2|0:0|0:0,0:0:0:0:
12,152,97090,2,0,B|0:108|0:108|11:65,1,90,0|0,1:0|0:0,0:0:0:0:
148,220,97636,2,0,B|160:264|160:264|148:306,1,90,8|0,1:2|0:0,0:0:0:0:
252,364,98181,6,0,P|316:360|384:288,2,135,2|2|2,1:2|0:0|0:0,0:0:0:0:
176,236,99272,1,0,1:0:0:0:
176,213,99409,1,0,0:0:0:0:
176,191,99545,1,2,0:0:0:0:
176,168,99681,1,2,0:0:0:0:
176,146,99818,1,8,1:2:0:0:
252,20,100090,1,2,0:0:0:0:
336,148,100363,6,0,B|368:168|408:168|440:148,1,108,4|0,1:1|1:0,0:0:0:0:
388,60,101454,1,8,0:0:0:0:
284,244,102272,6,0,B|252:264|212:264|180:244,1,108,0|0,1:0|1:0,0:0:0:0:
236,156,103090,2,0,L|216:96,1,53.9999983520508,0|0,1:0|0:0,0:0:0:0:
181,244,103636,2,0,L|201:304,1,53.9999983520508,8|0,0:0|0:0,0:0:0:0:
202,304,104045,1,0,0:0:0:0:
206,312,104181,2,0,L|218:344,2,26.9999991760254,2|2|0,0:0|0:0|0:0,0:0:0:0:
148,156,104727,6,0,B|115:156|115:156|75:169|75:169|43:169,1,108,0|0,1:0|1:0,0:0:0:0:
236,156,105818,1,8,0:0:0:0:
44,248,106636,6,0,B|77:248|77:248|117:261|117:261|149:261,1,108,0|0,1:0|1:0,0:0:0:0:
252,260,107454,2,0,L|308:260,1,53.9999983520508,0|0,1:0|0:0,0:0:0:0:
452,260,108000,2,0,L|398:260,1,53.9999983520508,8|0,0:0|0:0,0:0:0:0:
360,348,108545,2,0,L|332:348,2,26.9999991760254,2|2|0,0:0|0:0|0:0,0:0:0:0:
432,196,109090,6,0,B|448:144|448:144|432:92,1,108,0|0,1:0|1:0,0:0:0:0:
400,272,110181,1,8,0:0:0:0:
248,124,111000,6,0,B|300:140|300:140|352:124,1,108,0|0,1:0|1:0,0:0:0:0:
296,36,111818,2,0,L|244:20,1,53.9999983520508,0|0,1:0|0:0,0:0:0:0:
164,84,112363,2,0,B|156:88|156:88|148:84|148:84|140:88|140:88|132:84|132:84|124:88|124:88|116:84,2,53.9999983520508,8|0|0,0:0|0:0|0:0,0:0:0:0:
244,20,113181,1,0,0:0:0:0:
351,124,113454,6,0,B|379:132|379:132|403:124|403:124|427:132|427:132|455:124,1,108,0|0,1:0|1:0,0:0:0:0:
272,96,114545,1,8,0:0:0:0:
140,260,115363,6,0,B|112:268|112:268|88:260|88:260|64:268|64:268|36:260,1,108,0|2,0:0|0:0,0:0:0:0:
32,252,116045,1,2,0:0:0:0:
28,244,116181,2,0,L|14:217,2,26.9999991760254,2|2|0,0:0|0:0|0:0,0:0:0:0:
128,344,116727,2,0,L|188:328,1,53.9999983520508,0|2,0:0|0:0,0:0:0:0:
72,180,117272,2,0,L|19:166,1,53.9999983520508,0|2,0:0|0:0,0:0:0:0:
128,248,117818,6,0,P|152:220|160:176,1,72,4|0,1:0|0:0,0:0:0:0:
120,104,118363,1,8,1:1:0:0:
120,104,118636,1,0,0:0:0:0:
256,192,118909,2,0,P|336:184|368:132,1,144,0|8,1:0|1:0,0:0:0:0:
320,52,119727,6,0,P|240:60|208:112,1,144
47,104,120545,2,0,L|118:89,1,72,8|0,1:0|0:0,0:0:0:0:
278,93,121090,2,0,L|206:109,1,72,0|0,1:0|0:0,0:0:0:0:
75,192,121636,2,0,L|145:176,1,72,8|0,1:0|0:0,0:0:0:0:
286,253,122181,6,0,L|237:199,1,72,0|0,1:0|0:0,0:0:0:0:
229,40,122727,2,0,L|206:109,1,72,8|0,1:1|0:0,0:0:0:0:
298,133,123272,2,0,L|438:101,1,144,0|8,1:0|1:1,0:0:0:0:
374,209,124090,6,0,B|318:221|318:221|270:225|230:197,1,144
170,133,124909,2,0,L|78:120,1,72,8|0,1:1|0:0,0:0:0:0:
36,53,125454,2,0,P|14:81|5:115,1,72,0|0,1:0|0:0,0:0:0:0:
44,201,126000,2,0,P|77:214|112:214,1,72,8|0,1:1|0:3,0:3:0:0:
116,308,126545,6,0,P|180:284|252:300,1,144,0|8,1:0|1:1,0:0:0:0:
328,356,127363,2,0,P|394:380|463:364,1,144,2|0,0:0|0:0,0:0:0:0:
512,284,128181,2,0,L|504:208,1,72,8|0,1:1|0:0,0:0:0:0:
496,120,128727,6,0,B|443:126|443:126|408:114|408:114|355:120,1,144,0|8,1:0|1:1,2:0:0:0:
340,28,129545,2,0,B|287:34|287:34|256:54|256:54|203:61,1,144,2|0,0:0|0:0,2:0:0:0:
124,8,130363,2,0,P|108:36|108:80,1,72,8|0,1:1|0:0,0:0:0:0:
68,160,130909,6,0,B|102:171|138:160|138:160|172:149|208:160,1,144,0|8,1:0|1:1,0:0:0:0:
168,244,131727,2,0,B|202:255|238:244|238:244|272:233|308:244,1,144
362,322,132545,2,0,P|394:330|450:322,1,72,8|0,1:0|0:0,0:0:0:0:
492,252,133090,5,4,1:3:0:0:
468,160,133363,1,8,0:3:0:0:
444,68,133636,1,0,1:0:0:0:
444,68,133772,1,4,0:3:0:0:
312,120,134181,1,8,1:3:0:0:
226,158,134454,1,0,0:3:0:0:
237,66,134727,1,4,1:3:0:0:
304,216,135000,2,0,L|328:272,1,36,2|2,0:1|0:1,0:0:0:0:
392,312,135272,6,0,P|356:338|312:346,1,90,4|0,1:0|0:0,0:0:0:0:
408,220,135818,2,0,P|448:237|477:271,1,90,8|0,1:2|0:0,0:0:0:0:
318,249,136363,2,0,P|312:204|328:162,1,90,0|0,1:0|0:0,0:0:0:0:
444,26,136909,2,0,P|449:70|433:112,1,90,8|0,1:2|0:0,0:0:0:0:
328,162,137454,5,0,1:0:0:0:
236,92,137727,1,0,0:0:0:0:
220,208,138000,1,8,1:2:0:0:
128,138,138272,1,0,0:0:0:0:
220,208,138545,5,0,1:0:0:0:
236,92,138818,1,0,0:0:0:0:
328,162,139090,1,8,1:2:0:0:
128,138,139363,1,0,0:0:0:0:
312,280,139636,6,0,P|362:277|401:255,1,90,0|0,1:0|0:0,0:0:0:0:
220,208,140181,2,0,L|200:300,1,90,8|0,1:2|0:0,0:0:0:0:
328,162,140727,2,0,L|348:70,1,90,0|0,1:0|0:0,0:0:0:0:
236,92,141272,2,0,P|186:95|147:117,1,90,8|0,1:2|0:0,0:0:0:0:
328,162,141818,5,0,1:0:0:0:
436,114,142090,1,0,0:0:0:0:
344,44,142363,1,8,1:2:0:0:
236,92,142636,1,0,0:0:0:0:
344,44,142909,5,0,1:0:0:0:
328,162,143181,1,0,0:0:0:0:
236,92,143454,1,8,1:2:0:0:
436,114,143727,1,0,0:0:0:0:
220,210,144000,6,0,P|148:172|120:76,1,180,0|8,1:0|1:2,0:0:0:0:
236,92,144818,1,0,0:0:0:0:
328,162,145090,2,0,P|335:243|270:318,1,180,0|8,1:0|1:2,0:0:0:0:
220,210,145909,1,0,0:0:0:0:
235,92,146181,6,0,P|311:47|396:68,2,180,0|8|0,1:0|1:2|1:0,0:0:0:0:
216,208,147545,1,0,0:0:0:0:
236,92,147818,1,8,1:2:0:0:
128,132,148090,1,0,0:0:0:0:
236,92,148363,6,0,P|280:110|316:152,1,90,0|0,1:0|0:0,0:0:0:0:
216,208,148909,2,0,P|178:237|124:247,1,90,8|0,1:2|0:0,0:0:0:0:
128,132,149454,2,0,P|121:84|139:32,1,90,0|0,1:0|0:0,0:0:0:0:
35,168,150000,2,0,P|46:211|40:256,1,90,8|0,1:2|0:0,0:0:0:0:
124,324,150545,6,0,B|167:338|212:324|212:324|255:310|300:324,1,180,0|8,1:0|1:2,0:0:0:0:
416,352,151363,1,0,0:0:0:0:
448,240,151636,1,0,1:0:0:0:
368,152,151909,1,0,0:0:0:0:
404,40,152181,1,8,1:2:0:0:
484,128,152454,1,0,0:0:0:0:
332,264,152727,6,0,L|232:252,1,90,0|0,1:0|0:0,0:0:0:0:
54,326,153272,2,0,L|143:315,1,90,8|0,1:2|0:0,0:0:0:0:
136,204,153818,2,0,L|46:213,1,90,0|0,1:0|0:0,0:0:0:0:
234,141,154363,2,0,L|323:151,1,90,8|0,1:2|0:0,0:0:0:0:
242,253,154909,5,0,1:0:0:0:
136,204,155181,1,0,0:0:0:0:
234,141,155454,1,8,1:2:0:0:
128,92,155727,1,0,0:0:0:0:
234,141,156000,5,0,1:0:0:0:
136,204,156272,1,0,0:0:0:0:
242,253,156545,1,8,1:2:0:0:
128,92,156818,1,0,0:0:0:0:
143,315,157090,6,0,P|174:348|215:366,1,90,0|0,1:0|0:0,0:0:0:0:
136,204,157636,2,0,B|104:196|104:196|48:216,1,90,8|0,1:2|0:0,0:0:0:0:
242,253,158181,2,0,B|274:261|274:261|330:241,1,90,0|0,1:0|0:0,0:0:0:0:
235,142,158727,2,0,P|204:109|163:91,1,90,8|0,1:2|0:0,0:0:0:0:
242,253,159272,5,0,1:0:0:0:
348,302,159545,1,0,0:0:0:0:
447,240,159818,1,8,1:2:0:0:
341,191,160090,1,0,0:0:0:0:
348,302,160363,5,0,1:0:0:0:
341,191,160636,1,0,0:0:0:0:
447,240,160909,1,8,1:2:0:0:
242,253,161181,1,0,0:0:0:0:
440,129,161454,6,0,P|365:76|282:90,1,180,0|8,1:0|1:2,0:0:0:0:
196,172,162272,1,0,0:0:0:0:
160,60,162545,1,0,1:0:0:0:
44,36,162818,1,0,0:0:0:0:
80,148,163090,1,8,1:2:0:0:
160,60,163363,1,0,0:0:0:0:
196,176,163636,6,0,L|198:220,3,45,0|0|0|0,1:0|0:0|0:0|0:0,0:0:0:0:
268,304,164181,2,0,L|273:259,3,45,8|0|0|0,1:2|0:0|0:0|0:0,0:0:0:0:
288,132,164727,6,0,L|290:176,3,45,0|0|0|0,1:0|0:0|0:0|0:0,0:0:0:0:
360,260,165272,2,0,L|365:215,3,45,8|0|0|0,1:2|0:0|0:0|0:0,0:0:0:0:
452,184,165818,6,0,B|440:284|440:284|432:320|404:336|376:344,1,180,4|8,1:0|1:2,0:0:0:0:
284,288,166636,1,0,0:0:0:0:
184,232,166909,2,0,L|196:140,1,90,0|0,1:0|0:0,0:0:0:0:
92,88,167454,2,0,L|80:177,1,90,8|0,1:2|0:0,0:0:0:0:
64,292,168000,6,0,P|168:252|196:172,1,180,0|8,1:0|1:2,0:0:0:0:
317,194,168818,2,0,P|363:269|448:291,1,180
432,176,169636,1,8,0:0:0:0:
460,64,169909,6,0,B|416:104|304:104|256:41|256:41|208:104|96:104|52:64,1,450,2|0,0:0|1:0,0:0:0:0:
88,176,171545,1,0,0:0:0:0:
44,284,171818,1,8,1:2:0:0:
124,368,172090,1,0,0:0:0:0:
168,260,172363,6,0,B|224:264|224:264|256:252|256:252|288:264|288:264|344:260,2,180,0|8|0,1:0|1:2|1:0,0:0:0:0:
124,368,173727,1,0,0:0:0:0:
44,284,174000,1,8,1:2:0:0:
88,176,174272,6,0,B|112:152|144:132|176:124|208:124|208:124|200:156|204:172|256:224|308:172|312:156|304:124|304:124|336:124|368:132|400:152|424:176,1,450,2|0,0:0|1:0,0:0:0:0:
343,260,175909,1,0,0:0:0:0:
256,348,176181,1,8,1:2:0:0:
169,260,176454,1,0,0:0:0:0:
208,124,176727,6,0,B|188:168|256:224|324:168|304:124,2,180,0|8|0,1:0|1:2|1:0,0:0:0:0:
256,16,178090,1,0,0:0:0:0:
208,124,178363,1,8,1:2:0:0:
256,16,178636,1,0,0:0:0:0:
304,124,178909,6,0,L|377:288,1,180,0|8,1:0|1:2,0:0:0:0:
208,124,179727,2,0,L|134:288,1,180,2|0,0:0|0:0,0:0:0:0:
256,232,180545,1,8,1:2:0:0:
340,364,180818,6,0,B|295:381|271:360|255:352|255:352|238:360|214:381|169:364,1,180,2|0,0:0|0:0,0:0:0:0:
256,232,181636,1,8,1:2:0:0:
172,100,181909,2,0,B|200:76|240:76|240:76|256:72|256:72|272:76|272:76|312:76|340:100,1,180,2|0,0:0|0:0,0:0:0:0:
256,232,182727,1,8,1:2:0:0:
148,192,183000,1,0,0:0:0:0:
40,232,183272,5,4,1:0:0:0:
392,372,196090,6,0,L|122:372,1,270,0|8,0:0|0:3,0:0:0:0:
256,48,197727,1,4,0:3:0:0:
344,288,198272,2,0,L|392:288,1,45,2|2,0:1|0:1,0:0:0:0:
428,288,198545,6,0,P|439:245|429:201,1,90,8|0,1:3|1:0,0:0:0:0:
392,200,198954,2,0,P|374:135|390:70,1,135,4|4,1:3|1:3,0:0:0:0:
390,70,199909,1,0,1:0:0:0:
272,144,200181,2,0,L|224:136,3,45,0|0|0|0,1:0|1:0|1:0|1:0,0:0:0:0:
144,168,200727,6,0,L|44:152,1,90,4|2,1:0|0:0,0:0:0:0:
32,268,201272,2,0,L|132:284,1,90,8|2,1:2|0:0,0:0:0:0:
236,304,201818,2,0,B|268:314|302:304|302:304|334:293|368:304,1,135,0|0,1:0|0:0,0:0:0:0:
400,324,202363,2,0,P|440:308|468:272,1,90,8|2,1:2|0:0,0:0:0:0:
368,208,202909,5,0,1:0:0:0:
400,96,203181,1,2,0:0:0:0:
256,176,203454,1,8,1:2:0:0:
288,288,203727,1,2,0:0:0:0:
144,144,204000,2,0,L|180:40,1,90,0|2,1:0|0:0,0:0:0:0:
176,252,204545,2,0,L|67:272,1,90,8|2,1:2|0:0,0:0:0:0:
256,176,205090,6,0,P|281:240|264:312,1,135,0|0,1:0|0:0,0:0:0:0:
244,332,205636,2,0,L|340:336,1,90,8|2,1:2|0:0,0:0:0:0:
477,235,206181,2,0,L|388:231,1,90,0|2,1:0|0:0,0:0:0:0:
242,124,206727,2,0,L|332:128,1,90,8|2,1:2|0:0,0:0:0:0:
144,188,207272,6,0,P|126:143|128:101,1,90,0|2,1:0|0:0,0:0:0:0:
252,236,207818,2,0,P|269:280|267:323,1,90,8|2,1:2|0:0,0:0:0:0:
144,188,208363,1,0,1:0:0:0:
252,236,208636,1,2,0:0:0:0:
242,124,208908,1,8,1:2:0:0:
168,296,209181,1,2,0:0:0:0:
241,124,209454,6,0,P|306:139|347:191,1,135,0|0,1:0|0:0,0:0:0:0:
368,220,210000,2,0,P|408:244|456:244,1,90,8|2,1:2|0:0,0:0:0:0:
248,244,210545,1,0,1:0:0:0:
324,336,210818,1,2,0:0:0:0:
368,220,211090,1,8,1:2:0:0:
204,360,211363,1,2,0:0:0:0:
128,272,211636,6,0,L|84:270,3,45,0|0|8|0,1:0|0:0|0:3|0:0,0:0:0:0:
0,200,212181,2,0,L|45:195,3,45,8|4|0|0,1:2|0:3|0:0|0:0,0:0:0:0:
172,180,212727,6,0,L|128:178,3,45,4|0|0|4,1:3|0:0|0:0|0:3,0:0:0:0:
44,108,213272,2,0,L|89:103,1,45,8|0,1:2|0:0,0:0:0:0:
196,52,213545,2,0,L|151:47,1,45,4|4,0:3|0:3,0:0:0:0:
248,135,213818,6,0,P|280:105|293:62,1,90,4|0,1:0|0:0,0:0:0:0:
432,224,214363,2,0,P|392:181|373:127,1,116.999994644165,8|0,1:2|0:0,0:0:0:0:
365,329,214909,2,0,P|285:244|247:135,1,233.999989288331,0|8,1:0|1:2,0:0:0:0:
304,32,215727,6,0,B|272:20|228:16|192:36|192:36|132:72,1,180
40,272,216545,2,0,L|92:168,1,116.999994644165,8|0,1:2|0:0,0:0:0:0:
96,372,217090,2,0,L|200:162,1,233.999989288331,0|8,1:0|1:2,0:0:0:0:
256,60,217909,1,0,0:0:0:0:
312,164,218181,6,0,L|352:244,1,90,0|0,1:2|0:0,0:0:0:0:
371,66,218727,2,0,L|256:60,1,116.999994644165,8|0,1:2|0:0,0:0:0:0:
312,164,219272,2,0,L|78:149,1,233.999989288331,0|8,1:0|1:2,0:0:0:0:
256,264,220090,6,0,B|320:268|320:268|388:272|428:196,1,180,2|0,0:0|0:0,0:0:0:0:
408,96,220909,2,0,B|346:111|346:111|313:152,1,116.999994644165,8|0,1:2|0:0,0:0:0:0:
424,0,221454,2,0,B|296:31|296:31|233:111,1,233.999989288331,0|8,1:0|1:2,0:0:0:0:
160,204,222272,1,0,0:0:0:0:
276,220,222545,6,0,P|259:263|212:300,1,90,0|0,1:0|0:0,0:0:0:0:
232,111,223090,2,0,P|289:102|343:121,1,116.999994644165,8|0,1:2|0:0,0:0:0:0:
160,204,223636,2,0,P|87:113|66:0,1,233.999989288331,0|8,1:0|1:2,0:0:0:0:
180,36,224454,6,0,B|224:68|264:44|264:44|304:68|348:36,1,180,2|0,0:0|0:0,0:0:0:0:
408,136,225272,2,0,L|352:256,1,116.999994644165,8|0,1:2|0:0,0:0:0:0:
512,128,225818,2,0,L|413:340,1,233.999989288331,0|8,1:0|1:2,0:0:0:0:
296,348,226636,1,0,0:0:0:0:
228,252,226909,6,0,B|228:208|228:208|252:168,1,90,0|0,1:0|0:0,0:0:0:0:
400,52,227454,2,0,B|350:80|350:80|289:79,1,116.999994644165,8|0,1:2|0:0,0:0:0:0:
468,112,228000,2,0,B|369:169|369:169|249:167,1,233.999989288331,0|8,1:0|1:2,0:0:0:0:
336,87,228818,6,0,P|378:165|358:251,1,180,2|0,0:0|0:0,0:0:0:0:
416,351,229636,2,0,P|457:311|475:256,1,116.999994644165,8|0,1:2|0:0,0:0:0:0:
408,120,230181,1,0,1:0:0:0:
256,160,230454,5,2,0:1:0:0:
256,171,230590,1,2,0:1:0:0:
256,182,230727,1,2,1:1:0:0:
256,193,230863,1,2,0:1:0:0:
256,205,231000,2,0,L|256:273,1,45,2|2,0:1|0:1,0:1:0:0:
196,332,231272,6,0,B|72:332|72:332|256:8|256:8|440:332|440:332|316:332,1,993.600001516113,4|0,1:0|0:0,0:0:0:0:
