osu file format v14

[General]
AudioFilename: audio.mp3
AudioLeadIn: 0
PreviewTime: 120
Countdown: 0
SampleSet: Soft
StackLeniency: 0.6
Mode: 0
LetterboxInBreaks: 0
WidescreenStoryboard: 1

[Editor]
Bookmarks: 35242,55012
DistanceSpacing: 1.1
BeatDivisor: 8
GridSize: 32
TimelineZoom: 1.3

[Metadata]
Title:Meditation
TitleUnicode:Meditation
Artist:Various Artists
ArtistUnicode:Various Artists
Creator:mynt
Version:Advanced
Source:Rayman
Tags:ubisoft entertainment video game vgm instrumental original soundtrack ost sony playstation ps1 moodyrpg moody electronic Nathalie Drouet Rémi Remi Gazel Frederic Frédéric Louvre Prados Olaf Zalcman forever meditating monks
BeatmapID:3570314
BeatmapSetID:1250511

[Difficulty]
HPDrainRate:4
CircleSize:5.5
OverallDifficulty:5.5
ApproachRate:5.3
SliderMultiplier:1.45
SliderTickRate:1

[Events]
//Background and Video events
0,0,"Band Land.jpg",0,0
//Break Periods
//Storyboard Layer 0 (Background)
//Storyboard Layer 1 (Fail)
//Storyboard Layer 2 (Pass)
//Storyboard Layer 3 (Foreground)
//Storyboard Layer 4 (Overlay)
//Storyboard Sound Samples

[TimingPoints]
134,731.707317073171,4,2,1,40,1,0
499,-100,4,2,1,5,0,0
1231,-100,4,2,1,40,0,0
1962,-100,4,2,1,5,0,0
2329,-100,4,2,1,40,0,0
2694,-100,4,2,1,5,0,0
3060,-100,4,2,1,60,0,0
5987,-100,4,2,3,75,0,0
6719,-100,4,2,1,65,0,0
11826,731.707317073171,4,2,1,50,1,0
11826,-100,4,2,1,50,0,0
14036,731.707317073171,4,2,1,50,1,0
14767,731.707317073171,4,2,1,65,1,0
14768,-100,4,2,1,65,0,0
17024,-100,4,2,1,5,0,0
17329,-100,4,2,1,65,0,0
17695,-100,4,2,1,80,0,0
17756,-100,4,2,1,5,0,0
18060,-100,4,2,1,65,0,0
18853,-100,4,2,1,5,0,0
19158,-100,4,2,1,65,0,0
19585,-100,4,2,1,5,0,0
19890,-100,4,2,1,60,0,0
20606,731.707317073171,4,2,1,70,1,0
20606,-100,4,2,1,70,0,0
21337,-100,4,2,1,75,0,0
22069,-102.040816326531,4,2,1,75,0,0
22816,731.707317073171,4,2,1,50,1,0
22816,-100,4,2,1,50,0,0
23547,731.707317073171,4,2,1,70,1,0
23548,-100,4,2,1,70,0,0
26475,-100,4,2,1,80,0,0
26536,-100,4,2,1,5,0,0
26841,-100,4,2,1,60,0,0
27572,-100,4,2,1,75,0,0
27634,-100,4,2,1,5,0,0
27938,-100,4,2,1,60,0,0
28304,-100,4,2,1,75,0,0
28365,-100,4,2,1,5,0,0
28670,-100,4,2,1,75,0,0
28731,-100,4,2,1,5,0,0
29036,-100,4,2,1,50,0,0
29401,-100,4,2,3,80,0,0
29585,-100,4,2,1,70,0,0
32329,-100,4,2,1,80,0,0
32390,-100,4,2,1,5,0,0
32695,-100,4,2,1,60,0,0
33425,-100,4,2,1,80,0,0
33487,-100,4,2,1,5,0,0
33792,-100,4,2,1,60,0,0
34158,-100,4,2,1,80,0,0
34219,-100,4,2,1,5,0,0
34524,-100,4,2,1,60,0,0
34585,-100,4,2,1,5,0,0
34890,-100,4,2,1,60,0,0
35256,-100,4,2,1,40,0,0
38166,731.707317073171,4,2,1,50,1,0
38166,-100,4,2,1,50,0,0
38897,-100,4,2,1,70,0,0
40741,731.707317073171,4,2,1,60,1,0
40741,-100,4,2,1,60,0,0
41106,731.707317073171,4,2,1,65,1,0
41109,-100,4,2,1,65,0,0
44036,-100,4,2,1,65,0,0
44097,-100,4,2,1,5,0,0
44402,-100,4,2,1,60,0,0
45134,-100,4,2,1,80,0,0
45195,-100,4,2,1,5,0,0
45499,-100,4,2,1,60,0,0
45865,-100,4,2,1,80,0,0
45926,-100,4,2,1,5,0,0
46231,-100,4,2,1,80,0,0
46292,-100,4,2,1,5,0,0
46597,-100,4,2,1,60,0,0
46945,731.707317073171,4,2,3,80,1,0
46945,-100,4,2,3,80,0,0
47680,-100,4,2,1,60,0,0
49155,731.707317073171,4,2,1,50,1,0
49155,-100,4,2,1,50,0,0
49886,731.707317073171,4,2,1,80,1,0
49890,-100,4,2,1,80,0,0
50621,-100,4,2,1,60,0,0
52085,-100,4,2,1,50,0,0
52817,-100,4,2,1,60,0,0
53182,-100,4,2,1,70,0,0
53530,731.707317073171,4,2,1,70,1,0
55008,731.707317073171,4,2,1,50,1,0
55008,-100,4,2,1,50,0,0
55739,731.707317073171,4,2,1,80,1,0
55739,-100,4,2,1,80,0,0
56471,-100,4,2,1,60,0,0
58666,-100,4,2,2,60,0,0
59398,-100,4,2,2,50,0,0
60129,-100,4,2,2,40,0,0
60861,-100,4,2,2,30,0,0
61593,-100,4,2,2,20,0,0
62325,-100,4,2,2,10,0,0
63239,-100,4,2,2,5,0,0

[Colours]
Combo1 : 255,157,111
Combo2 : 79,167,255
Combo3 : 255,91,91
Combo4 : 165,74,255

[HitObjects]
177,305,134,6,0,L|163:230,1,72.5,0|0,3:0|0:0,0:0:0:0:
326,237,1231,1,0,3:0:0:0:
326,237,1597,2,0,L|339:310,1,72.5,0|0,3:0|0:0,0:0:0:0:
394,366,2329,2,0,L|466:352,1,72.5,0|0,3:0|0:0,0:0:0:0:
510,286,3060,5,12,3:3:0:0:
466,132,3792,1,2,0:0:0:0:
396,171,4158,1,0,3:2:0:0:
354,239,4524,2,0,P|316:237|281:226,1,72.5,2|2,3:2|3:2,0:0:0:0:
241,164,5255,1,0,0:0:0:0:
241,164,5621,1,0,3:2:0:0:
303,114,5987,6,0,B|349:89|382:115|367:114|408:144|441:131,1,145,4|2,3:2|0:0,0:0:0:0:
509,93,7085,1,0,3:2:0:0:
468,24,7451,2,0,P|436:7|400:7,1,72.5,2|2,3:2|0:0,0:0:0:0:
345,64,8182,2,0,P|317:62|293:50,1,48.3333333333333,2|0,3:2|0:0,0:0:0:0:
276,39,8548,1,2,0:0:0:0:
209,4,8914,5,0,3:2:0:0:
209,4,9280,1,2,0:0:0:0:
132,143,10012,5,0,3:2:0:0:
72,97,10377,1,2,3:2:0:0:
72,97,10743,2,0,P|39:88|-1:96,2,72.5,2|0|0,3:2|0:0|3:2,0:0:0:0:
34,167,11826,5,0,3:2:0:0:
180,230,12557,2,0,L|165:302,1,72.5,2|0,0:0|3:2,0:0:0:0:
109,358,13289,2,0,L|33:344,1,72.5,2|2,3:2|0:0,0:0:0:0:
8,270,14036,2,0,L|17:222,1,48.3333333333333
22,196,14401,1,0,3:2:0:0:
93,231,14767,6,0,P|120:251|184:187,1,145,0|2,3:2|0:0,0:0:0:0:
192,107,15865,1,0,3:2:0:0:
271,111,16231,1,2,3:2:0:0:
333,161,16596,1,2,3:2:0:0:
378,228,16962,2,0,P|415:219|447:193,1,72.5,2|0,0:0|3:2,0:0:0:0:
481,129,17694,6,0,B|461:117|461:117|410:127,1,72.5,6|2,0:0|0:0,0:0:0:0:
265,191,18792,1,2,3:2:0:0:
211,45,19523,1,2,0:0:0:0:
211,45,19889,2,0,L|201:92,1,48.3333333333333,2|0,3:2|0:0,0:0:0:0:
196,118,20255,1,0,0:0:0:0:
247,178,20606,5,4,3:0:0:0:
89,205,21337,2,0,B|75:217|75:217|86:277,1,72.5,2|0,0:0|3:2,0:0:0:0:
156,305,22069,2,0,B|170:317|170:317|159:377,2,71.0499993495178,2|2|0,3:2|3:2|0:0,0:0:0:0:
84,270,23181,1,0,3:2:0:0:
26,325,23547,6,0,B|34:338|34:338|76:351|76:351|89:345,1,72.5,2|2,3:3|2:3,0:0:0:0:
156,305,24279,1,2,2:3:0:0:
161,316,24462,1,2,2:3:0:0:
165,327,24645,1,2,3:3:0:0:
232,369,25011,2,0,B|241:357|241:357|286:348|286:348|298:355,1,72.5,2|2,3:3|2:3,0:0:0:0:
375,349,25742,1,2,3:3:0:0:
370,360,25925,1,2,2:3:0:0:
366,371,26108,1,2,2:3:0:0:
445,373,26474,6,0,P|461:340|464:305,1,72.5,2|0,3:2|0:0,0:0:0:0:
420,237,27206,1,0,0:0:0:0:
349,273,27572,2,0,P|336:247|344:202,1,72.5,0|0,0:0|3:2,0:0:0:0:
371,130,28303,1,0,0:0:0:0:
324,65,28669,1,0,0:0:0:0:
179,135,29401,6,0,P|176:97|156:65,1,72.5,6|2,3:2|0:3,0:0:0:0:
91,26,30133,1,2,0:3:0:0:
86,37,30316,1,2,0:3:0:0:
82,48,30498,1,2,3:3:0:0:
3,37,30864,2,0,P|5:74|25:106,1,72.5,2|2,3:3|0:3,0:0:0:0:
42,181,31596,1,2,3:3:0:0:
31,176,31779,1,2,0:3:0:0:
20,172,31962,1,2,0:3:0:0:
40,249,32328,6,0,B|52:263|52:263|112:252,1,72.5,2|0,3:2|0:0,0:0:0:0:
170,206,33059,1,0,0:0:0:0:
200,279,33425,2,0,P|225:266|270:274,1,72.5,0|0,0:0|3:2,0:0:0:0:
327,326,34156,1,0,0:0:0:0:
379,265,34523,2,0,P|413:273|445:258,1,72.5,2|0,0:0|3:2,0:0:0:0:
432,179,35255,6,0,P|470:181|502:201,1,72.5,8|0,3:0|3:2,0:0:0:0:
512,37,36352,5,4,3:0:0:0:
512,37,36718,2,0,L|431:49,1,72.5,8|0,3:0|3:0,0:0:0:0:
381,102,37450,2,0,L|334:92,1,48.3333333333333
308,87,37816,1,0,3:2:0:0:
266,19,38166,2,0,L|192:31,1,72.5,8|0,3:0|0:0,0:0:0:0:
138,87,38897,6,0,B|126:101|126:101|66:90,1,72.5,2|0,0:0|3:2,0:0:0:0:
3,51,39629,2,0,B|-11:63|-11:63|0:123,1,72.5,2|2,3:2|3:2,0:0:0:0:
10,278,40741,1,0,3:2:0:0:
10,278,41106,6,0,P|50:287|79:305,1,72.5,0|0,3:2|0:0,0:0:0:0:
156,302,41838,1,0,0:0:0:0:
151,313,42021,1,0,0:0:0:0:
147,324,42204,1,0,3:2:0:0:
214,367,42570,2,0,P|245:347|280:339,1,72.5,0|0,3:2|0:0,0:0:0:0:
271,259,43301,2,0,P|306:279|346:287,1,72.5,0|0,3:2|0:0,0:0:0:0:
400,237,44033,6,0,B|414:249|414:249|403:309,1,72.5,2|0,3:2|0:0,0:0:0:0:
418,380,44765,1,0,0:0:0:0:
493,353,45131,2,0,P|505:327|497:282,1,72.5,0|0,0:0|3:2,0:0:0:0:
457,217,45862,1,0,0:0:0:0:
466,137,46228,1,0,0:0:0:0:
311,161,46945,6,0,B|273:146|234:163,1,72.5,4|0,3:2|0:0,0:0:0:0:
180,213,47676,2,0,P|219:236|235:263,1,72.5,2|0,0:0|3:2,0:0:0:0:
160,290,48408,2,0,P|123:312|108:337,1,72.5,2|2,3:2|0:0,0:0:0:0:
59,269,49155,2,0,L|69:222,1,48.3333333333333,0|0,3:2|0:0,0:0:0:0:
76,196,49520,1,0,0:0:0:0:
26,133,49886,6,0,P|35:76|107:83,1,145,4|2,3:2|0:0,0:0:0:0:
136,158,50984,1,0,3:2:0:0:
188,217,51350,2,0,L|259:208,1,72.5,2|2,3:2|3:2,0:0:0:0:
308,145,52081,2,0,L|390:160,1,72.5,2|2,0:0|3:2,0:0:0:0:
432,98,52813,5,2,3:2:0:0:
432,98,53179,1,2,0:0:0:0:
476,164,53530,2,0,B|490:176|490:176|479:236,1,72.5,2|0,0:0|3:2,0:0:0:0:
400,231,54261,2,0,B|386:243|386:243|397:303,1,72.5,2|2,3:2|0:0,0:0:0:0:
393,376,55008,2,0,L|346:366,1,48.3333333333333,0|0,3:2|0:0,0:0:0:0:
320,361,55373,1,0,0:0:0:0:
262,307,55739,6,0,B|225:285|188:314|199:319|164:343|119:329,1,145,4|2,3:2|0:0,0:0:0:0:
62,282,56837,1,0,3:2:0:0:
112,219,57203,2,0,P|114:180|99:149,1,72.5,2|0,3:2|3:2,0:0:0:0:
179,141,57934,2,0,P|175:99|191:67,1,72.5,2|0,0:0|3:2,0:0:0:0:
132,14,58666,1,4,0:0:0:0:
256,192,59032,12,0,63788,0:0:0:0:
