osu file format v14

[General]
AudioFilename: audio.mp3
AudioLeadIn: 0
PreviewTime: 16304
Countdown: 0
SampleSet: Soft
StackLeniency: 0.7
Mode: 0
LetterboxInBreaks: 0
WidescreenStoryboard: 0

[Editor]
Bookmarks: 1868,9086,16304,30740,45176,59612
DistanceSpacing: 1.3
BeatDivisor: 4
GridSize: 32
TimelineZoom: 1.599999

[Metadata]
Title:Mantine Surf
TitleUnicode:マンタインサーフ
Artist:Various Artists
ArtistUnicode:Various Artists
Creator:Wanpachi
Version:Super
Source:ポケットモンスター ウルトラサン・ウルトラムーン
Tags:足立美奈子 一之瀬剛 増田順一 大賀智章 Adachi Minako Ichinose Go Masuda Junichi Oga Tomoaki Zetera Cycopton Pocket Monsters Pokemon Pokémon Ultra Sun & and Moon Alola Video Game Instrumental Generation 7 Gen7 Seven Original Soundtrack OST Game Freak USUM SM VGM Electronic GameFreak Nintendo 3DS
BeatmapID:2705228
BeatmapSetID:1304646

[Difficulty]
HPDrainRate:5
CircleSize:3.5
OverallDifficulty:6
ApproachRate:7.5
SliderMultiplier:1.3
SliderTickRate:1

[Events]
//Background and Video events
0,0,"8.jpg",0,0
//Break Periods
2,30940,37133
//Storyboard Layer 0 (Background)
//Storyboard Layer 1 (Fail)
//Storyboard Layer 2 (Pass)
//Storyboard Layer 3 (Foreground)
//Storyboard Layer 4 (Overlay)
//Storyboard Sound Samples

[TimingPoints]
1868,451.127819548872,4,2,1,75,1,0
1868,-111.111111111111,4,2,1,75,0,0
9086,-100,4,2,1,80,0,0
16304,-90.9090909090909,4,2,1,90,0,1
30740,451.127819548872,6,2,1,75,1,0
30740,-111.111111111111,4,2,1,75,0,0
37958,451.127819548872,6,2,1,75,1,0
37958,-111.111111111111,4,2,1,75,0,0
45176,451.127819548872,4,2,1,90,1,1
45176,-90.9090909090909,4,2,1,90,0,1
57807,-90.9090909090909,4,2,1,75,0,0
57883,-66.6666666666667,4,2,1,70,0,0
57958,-66.6666666666667,4,2,1,66,0,0
58033,-66.6666666666667,4,2,1,61,0,0
58108,-66.6666666666667,4,2,1,57,0,0
58183,-66.6666666666667,4,2,1,52,0,0
58258,-66.6666666666667,4,2,1,48,0,0
58334,-66.6666666666667,4,2,1,43,0,0
58409,-66.6666666666667,4,2,1,39,0,0
58484,-66.6666666666667,4,2,1,34,0,0
58559,-66.6666666666667,4,2,1,30,0,0
58634,-66.6666666666667,4,2,1,25,0,0
58710,-133.333333333333,4,2,1,25,0,0
58786,-133.333333333333,4,2,1,33,0,0
58861,-133.333333333333,4,2,1,42,0,0
58936,-133.333333333333,4,2,1,50,0,0
59011,-133.333333333333,4,2,1,58,0,0
59086,-133.333333333333,4,2,1,67,0,0
59161,-200,4,2,1,75,0,0
59237,-200,4,2,1,75,0,0
59312,-200,4,2,1,75,0,0
59387,-200,4,2,1,75,0,0
59462,-200,4,2,1,75,0,0
59537,-200,4,2,1,75,0,0
59612,-1000,4,2,1,75,0,0

[Colours]
Combo1 : 220,218,124
Combo2 : 137,216,206
Combo3 : 217,170,194
Combo4 : 62,192,255

[HitObjects]
148,132,1868,6,0,L|218:126,1,58.4999982147217,6|2,0:0|0:0,0:0:0:0:
313,234,2544,1,2,0:0:0:0:
196,224,2995,1,2,0:0:0:0:
88,331,3446,1,2,0:0:0:0:
204,321,3897,1,2,0:0:0:0:
426,374,4574,2,0,P|428:344|424:315,1,58.4999982147217,2|2,0:0|0:0,0:0:0:0:
395,245,5025,2,0,P|393:215|397:186,1,58.4999982147217,2|2,0:0|0:0,0:0:0:0:
426,116,5477,6,0,L|361:110,1,58.4999982147217,2|2,0:0|0:0,0:0:0:0:
260,218,6153,1,2,0:0:0:0:
376,207,6604,1,2,0:0:0:0:
484,314,7055,1,2,0:0:0:0:
340,366,7507,2,0,B|284:364|257:328|257:328|217:348|217:348|182:328|152:319|103:321|79:334|79:334|112:364|150:351,1,350.99998928833,2|0,0:0|0:0,0:0:0:0:
197,257,9086,6,0,L|193:191,1,65,14|10,3:2|0:0,0:0:0:0:
163,162,9424,2,0,L|168:64,1,97.5,8|10,0:0|0:0,0:0:0:0:
228,4,9988,2,0,P|286:-1|338:16,2,97.5,8|8|10,0:0|0:0|3:2,0:0:0:0:
168,63,10890,6,0,P|158:100|170:138,1,65,8|10,0:0|3:2,0:0:0:0:
193,155,11228,2,0,P|207:205|191:256,1,97.5,8|8,0:0|0:0,0:0:0:0:
199,332,11792,1,10,3:2:0:0:
290,324,12018,1,2,0:0:0:0:
290,324,12131,1,8,0:0:0:0:
290,324,12243,2,0,L|372:328,1,65,2|10,0:0|0:0,0:0:0:0:
420,273,12695,6,0,B|429:243|429:243|416:211,1,65,10|10,3:2|0:0,0:0:0:0:
396,175,13033,2,0,L|401:74,1,97.5,8|10,0:0|0:0,0:0:0:0:
343,19,13597,2,0,L|236:28,2,97.5,8|8|10,0:0|0:0|3:2,0:0:0:0:
411,86,14499,5,8,0:0:0:0:
411,86,14611,1,8,0:0:0:0:
411,86,14725,1,10,3:2:0:0:
393,174,14950,1,8,0:0:0:0:
393,174,15062,1,8,0:0:0:0:
393,174,15176,1,8,0:0:0:0:
430,249,15401,6,0,P|433:259|433:270,3,21.6666666666667,8|8|8|8,0:0|0:0|0:0|0:0,0:0:0:0:
458,351,15852,2,0,P|441:355|424:351,3,21.6666666666667,8|8|8|8,0:0|0:0|0:0|0:0,0:0:0:0:
350,318,16304,5,14,3:2:0:0:
293,244,16529,2,0,P|250:234|207:246,1,71.5000021820069,2|8,0:0|3:2,0:0:0:0:
141,283,16980,2,0,P|98:293|55:281,1,71.5000021820069,2|0,0:0|3:0,0:0:0:0:
32,204,17431,1,2,0:0:0:0:
69,118,17657,1,10,3:1:0:0:
24,36,17883,6,0,L|166:28,1,143.000004364014,2|2,0:0|0:0,0:0:0:0:
232,94,18559,2,0,L|320:89,1,71.5000021820069,8|0,3:2|0:0,0:0:0:0:
369,23,19010,1,2,3:2:0:0:
394,112,19236,1,2,0:0:0:0:
328,180,19461,1,10,3:2:0:0:
303,89,19687,1,10,0:0:0:0:
394,112,19913,5,2,3:2:0:0:
421,200,20138,2,0,L|407:278,1,71.5000021820069,2|8,0:0|3:2,0:0:0:0:
333,326,20589,2,0,L|319:248,1,71.5000021820069,2|0,0:0|3:0,0:0:0:0:
234,220,21040,1,2,0:0:0:0:
150,272,21265,1,10,3:1:0:0:
234,313,21491,6,0,L|259:172,1,143.000004364014,2|2,0:0|0:0,0:0:0:0:
340,126,22168,2,0,L|327:55,1,71.5000021820069,8|0,3:2|0:0,0:0:0:0:
308,12,22507,2,0,B|273:1|273:1|240:15,1,71.5000021820069,8|0,0:0|0:0,0:0:0:0:
202,40,22845,1,8,0:0:0:0:
117,1,23071,2,0,L|37:7,1,71.5000021820069,0|8,3:0|0:0,0:0:0:0:
0,119,23522,5,6,3:2:0:0:
71,173,23747,2,0,P|78:207|74:242,1,71.5000021820069,2|8,0:0|3:2,0:0:0:0:
35,329,24198,2,0,L|133:341,1,71.5000021820069,2|0,0:0|3:0,0:0:0:0:
160,263,24649,1,2,0:0:0:0:
249,288,24875,1,10,3:1:0:0:
320,228,25101,6,0,B|286:292|286:292|301:368,1,143.000004364014,2|2,0:0|0:0,0:0:0:0:
391,352,25777,2,0,L|470:347,1,71.5000021820069,8|0,3:2|0:0,0:0:0:0:
507,266,26228,1,2,3:2:0:0:
459,186,26454,1,2,0:0:0:0:
413,267,26680,1,10,3:2:0:0:
365,188,26905,1,10,0:0:0:0:
411,106,27131,5,2,3:2:0:0:
313,111,27356,2,0,B|306:73|306:73|315:41,1,71.5000021820069,2|8,0:0|3:2,0:0:0:0:
228,5,27807,2,0,P|191:18|153:21,1,71.5000021820069,2|0,0:0|3:0,0:0:0:0:
65,18,28258,1,2,0:0:0:0:
40,107,28484,1,10,3:1:0:0:
125,146,28710,6,0,P|153:217|130:291,1,143.000004364014,2|2,0:0|0:0,0:0:0:0:
207,340,29386,2,0,L|299:348,1,71.5000021820069,8|0,3:2|0:0,0:0:0:0:
311,312,29725,2,0,L|391:305,1,71.5000021820069,8|8,0:0|0:0,0:0:0:0:
415,272,30063,1,8,0:0:0:0:
443,183,30289,1,8,3:2:0:0:
396,91,30514,1,8,0:0:0:0:
396,91,30627,1,8,0:0:0:0:
396,91,30740,5,6,0:0:0:0:
163,233,37958,6,0,B|225:223|209:276|275:265,1,116.999996429443,0|0,3:2|3:2,0:0:0:0:
373,153,38860,2,0,B|311:143|327:196|261:185,1,116.999996429443,0|0,3:2|3:2,0:0:0:0:
211,131,39537,1,2,0:2:0:0:
211,131,39762,2,0,P|190:78|214:24,1,116.999996429443,0|0,3:2|3:2,0:0:0:0:
364,13,40664,6,0,P|385:66|361:120,1,116.999996429443,0|0,3:2|3:2,0:0:0:0:
425,170,41341,1,0,3:2:0:0:
425,170,41567,2,0,L|415:304,1,116.999996429443,0|0,3:2|3:2,0:0:0:0:
264,282,42469,2,0,L|255:165,1,116.999996429443,0|0,3:2|3:2,0:0:0:0:
201,111,43146,1,2,0:2:0:0:
201,111,43371,6,0,B|145:92|145:92|101:130,1,116.999996429443,0|0,3:2|3:2,0:0:0:0:
33,266,44274,2,0,B|75:251|75:251|108:280,1,87.7499973220826,0|0,3:2|3:2,0:0:0:0:
133,307,44725,1,0,3:2:0:0:
203,278,44950,1,0,3:2:0:0:
298,354,45176,6,0,L|391:355,1,71.5000021820069,4|2,3:2|0:0,0:0:0:0:
414,273,45627,2,0,L|321:274,1,71.5000021820069,10|2,3:2|0:0,0:0:0:0:
298,192,46078,2,0,L|391:193,1,71.5000021820069,0|2,3:2|0:0,0:0:0:0:
414,111,46529,2,0,L|321:112,1,71.5000021820069,10|2,3:1|0:0,0:0:0:0:
298,97,46867,1,8,0:0:0:0:
256,75,46980,6,0,P|235:47|234:7,1,71.5000021820069,0|2,3:2|0:0,0:0:0:0:
158,65,47431,2,0,P|124:68|89:49,1,71.5000021820069,8|2,3:2|0:0,0:0:0:0:
44,132,47883,1,0,3:2:0:0:
44,132,47995,1,10,0:0:0:0:
44,132,48108,1,2,0:0:0:0:
21,222,48334,2,0,L|29:299,1,71.5000021820069,8|8,3:2|0:0,0:0:0:0:
116,323,48785,6,0,B|151:314|151:314|182:333,1,71.5000021820069,0|2,3:2|0:0,0:0:0:0:
261,380,49236,2,0,B|279:348|279:348|314:340,1,71.5000021820069,10|2,3:2|0:0,0:0:0:0:
403,317,49687,2,0,B|394:282|394:282|413:251,1,71.5000021820069,0|2,3:2|0:0,0:0:0:0:
458,172,50138,2,0,B|426:153|426:153|418:118,1,71.5000021820069,10|2,3:1|0:0,0:0:0:0:
452,87,50477,1,8,0:0:0:0:
481,51,50589,6,0,L|373:42,1,107.25000327301,2|0,3:2|0:0,0:0:0:0:
331,60,51040,2,0,L|250:66,1,71.5000021820069,8|2,3:2|0:0,0:0:0:0:
174,61,51492,1,0,3:2:0:0:
174,61,51604,1,2,0:0:0:0:
174,61,51717,1,10,0:0:0:0:
146,150,51943,2,0,P|154:199|140:233,1,71.5000021820069,0|12,3:2|2:2,0:0:0:0:
99,331,52394,6,0,L|172:335,1,71.5000021820069,4|2,3:2|0:0,0:0:0:0:
236,269,52845,2,0,L|309:265,1,71.5000021820069,10|2,3:2|0:0,0:0:0:0:
391,306,53296,2,0,L|395:233,1,71.5000021820069,0|8,3:2|0:0,0:0:0:0:
329,169,53747,2,0,L|325:96,1,71.5000021820069,2|8,3:1|0:0,0:0:0:0:
340,53,54086,1,0,0:0:0:0:
359,10,54198,6,0,P|395:0|450:21,1,71.5000021820069,0|2,3:2|0:0,0:0:0:0:
475,86,54649,2,0,P|485:121|464:176,1,71.5000021820069,8|2,3:2|0:0,0:0:0:0:
512,252,55101,1,0,3:2:0:0:
512,252,55213,1,2,0:0:0:0:
512,252,55326,1,2,0:0:0:0:
421,272,55552,2,0,P|385:282|330:261,1,71.5000021820069,8|2,3:2|0:0,0:0:0:0:
262,250,56003,6,0,B|228:241|228:241|196:256,1,71.5000021820069,0|2,3:2|0:0,0:0:0:0:
129,190,56454,2,0,B|138:156|138:156|123:124,1,71.5000021820069,10|2,3:2|0:0,0:0:0:0:
189,57,56905,2,0,B|223:66|223:66|255:51,1,71.5000021820069,0|2,3:2|0:0,0:0:0:0:
322,117,57356,2,0,B|313:151|313:151|328:183,1,71.5000021820069,10|2,3:1|0:0,0:0:0:0:
361,217,57695,1,8,0:0:0:0:
393,249,57807,5,6,3:2:0:0:
256,192,57920,12,6,59612,0:0:0:0:
